osu file format v14

[General]
AudioFilename: audio.mp3
AudioLeadIn: 0
PreviewTime: 54037
Countdown: 0
SampleSet: Soft
StackLeniency: 0.5
Mode: 0
LetterboxInBreaks: 0
WidescreenStoryboard: 0

[Editor]
DistanceSpacing: 1.5
BeatDivisor: 4
GridSize: 4
TimelineZoom: 2.200005

[Metadata]
Title:Fly Me to the Star #10
TitleUnicode:Fly Me to the Star #10
Artist:Tendou Maya (CV: Tomita Maho), Saijou Claudine (CV: Aiba Aina)
ArtistUnicode:天堂真矢(CV:富田麻帆)、西條クロディーヌ(CV:相羽あいな)
Creator:zuo-kun
Version:Hard
Source:少女☆歌劇 レヴュースタァライト
Tags:Shoujo Kageki Revue Starlight anime ending
BeatmapID:1900405
BeatmapSetID:910728

[Difficulty]
HPDrainRate:6
CircleSize:4
OverallDifficulty:6
ApproachRate:6.3
SliderMultiplier:1.3
SliderTickRate:1

[Events]
//Background and Video events
0,0,"otp.jpg",0,0
//Break Periods
//Storyboard Layer 0 (Background)
//Storyboard Layer 1 (Fail)
//Storyboard Layer 2 (Pass)
//Storyboard Layer 3 (Foreground)
//Storyboard Sound Samples

[TimingPoints]
570,483.870967741935,4,2,1,50,1,0
7586,-117.647058823529,4,2,1,50,0,0
37102,-90.9090909090909,4,2,1,50,0,0
38795,-100,4,2,1,50,0,0
54037,-90.9090909090909,4,2,1,50,0,0
77989,-90.9090909090909,4,2,1,50,0,1
78110,-90.9090909090909,4,2,1,50,0,0
85731,-90.9090909090909,4,2,1,10,0,0

[Colours]
Combo1 : 166,26,96
Combo2 : 174,70,72
Combo3 : 107,61,122
Combo4 : 233,191,129

[HitObjects]
499,254,570,6,0,P|438:251|391:189,1,130,6|8,0:0|0:0,0:0:0:0:
406,111,1295,2,0,L|421:24,1,65,2|4,0:0|0:0,0:0:0:0:
471,175,1779,2,0,L|483:111,1,65,2|8,0:0|0:0,0:0:0:0:
506,22,2263,1,0,0:0:0:0:
417,46,2505,6,0,L|330:61,2,65,6|0|8,0:0|0:0|0:0,0:0:0:0:
401,132,3231,1,0,0:0:0:0:
311,136,3473,2,0,L|246:124,1,65,6|0,0:0|0:0,0:0:0:0:
247,201,3957,2,0,L|175:187,1,65,10|0,0:0|0:0,0:0:0:0:
109,135,4440,6,0,P|96:196|125:257,1,130,6|8,0:0|0:0,0:0:0:0:
207,290,5166,1,0,0:0:0:0:
297,301,5408,2,0,L|312:388,1,65,4|0,0:0|0:0,0:0:0:0:
399,368,5892,1,10,0:0:0:0:
474,318,6134,2,0,L|497:341,2,32.5,0|0|4,0:0|0:0|0:1,0:0:0:0:
474,318,7586,5,0,0:0:0:0:
458,315,7828,1,0,0:0:0:0:
442,312,8069,1,0,0:0:0:0:
377,260,8311,6,0,B|359:244|359:244|327:279|268:273,1,110.50000210762,6|8,0:0|0:0,0:0:0:0:
204,307,9037,1,0,0:0:0:0:
145,365,9279,2,0,P|113:370|77:357,1,55.2500010538101,4|0,0:0|0:0,0:0:0:0:
36,302,9763,2,0,L|22:223,1,55.2500010538101,10|0,0:0|0:0,0:0:0:0:
118,294,10247,6,0,L|107:232,1,55.2500010538101,6|0,0:0|0:0,0:0:0:0:
95,157,10731,1,8,0:0:0:0:
12,152,10973,2,0,P|19:120|45:92,1,55.2500010538101,2|4,0:0|0:0,0:0:0:0:
93,46,11457,1,0,0:0:0:0:
174,32,11699,2,0,P|197:54|235:63,1,55.2500010538101,10|0,0:0|0:0,0:0:0:0:
197,142,12182,6,0,P|258:135|296:88,1,110.50000210762,6|8,0:0|0:0,0:0:0:0:
292,18,12908,1,0,0:0:0:0:
363,57,13150,1,4,0:0:0:0:
432,11,13392,1,2,0:0:0:0:
435,27,13634,1,8,0:0:0:0:
438,41,13875,1,2,0:0:0:0:
499,96,14118,6,0,P|491:122|494:149,1,55.2500010538101,6|8,0:0|0:0,0:0:0:0:
456,223,14602,1,8,0:0:0:0:
487,299,14844,1,0,0:0:0:0:
423,351,15086,2,0,P|368:346|324:377,1,110.50000210762,4|8,0:0|0:0,0:0:0:0:
173,308,16053,6,0,P|180:275|205:246,1,55.2500010538101,6|0,0:0|0:0,0:0:0:0:
255,311,16537,1,8,0:0:0:0:
271,230,16779,2,0,L|284:151,1,55.2500010538101,2|4,0:0|0:0,0:0:0:0:
192,257,17263,2,0,L|201:203,1,55.2500010538101,2|8,0:0|0:0,0:0:0:0:
214,120,17747,1,0,0:0:0:0:
180,51,17989,6,0,B|170:31|170:31|128:54|117:114,1,110.50000210762,6|8,0:0|0:0,0:0:0:0:
104,182,18715,1,2,0:0:0:0:
52,247,18957,2,0,L|-16:264,2,55.2500010538101,4|0|8,0:0|0:0|0:0,0:0:0:0:
135,260,19682,1,0,0:0:0:0:
188,196,19924,6,0,P|240:163|299:177,1,110.50000210762,6|8,0:0|0:0,0:0:0:0:
363,199,20650,1,0,0:0:0:0:
435,239,20892,1,6,0:0:0:0:
502,189,21134,1,2,0:0:0:0:
499,173,21376,1,8,0:0:0:0:
496,157,21617,1,2,0:0:0:0:
480,75,21860,6,0,P|495:45|496:7,2,55.2500010538101,6|8|8,0:0|0:0|0:0,0:0:0:0:
415,22,22586,1,0,0:0:0:0:
334,41,22828,2,0,L|266:58,1,55.2500010538101,4|0,0:0|0:0,0:0:0:0:
285,137,23311,2,0,P|252:132|221:109,1,55.2500010538101,8|0,0:0|0:0,0:0:0:0:
181,186,23795,6,0,P|151:132|168:73,1,110.50000210762,6|8,0:0|0:0,0:0:0:0:
101,23,24521,2,0,L|87:76,1,55.2500010538101,2|4,0:0|0:0,0:0:0:0:
21,25,25005,2,0,L|7:78,1,55.2500010538101,2|8,0:0|0:0,0:0:0:0:
16,161,25489,1,0,0:0:0:0:
26,243,25731,6,0,P|68:287|130:288,1,110.50000210762,6|8,0:0|0:0,0:0:0:0:
91,372,26457,2,0,P|58:366|21:351,2,55.2500010538101,2|4|0,0:0|0:0|0:0,0:0:0:0:
177,359,27182,1,8,0:0:0:0:
177,359,27666,6,0,B|187:337|187:337|238:362|282:324,1,110.50000210762,6|8,0:0|0:0,0:0:0:0:
351,317,28392,2,0,L|365:370,1,55.2500010538101,2|4,0:0|0:0,0:0:0:0:
431,319,28876,2,0,L|445:372,1,55.2500010538101,2|8,0:0|0:0,0:0:0:0:
511,321,29360,1,0,0:0:0:0:
473,251,29602,6,0,B|484:231|484:231|442:208|386:230,1,110.50000210762,6|8,0:0|0:0,0:0:0:0:
418,145,30328,2,0,P|461:145|496:155,2,55.2500010538101,2|4|0,0:0|0:0|0:0,0:0:0:0:
343,172,31053,1,8,0:0:0:0:
343,172,31537,6,0,B|336:196|336:196|298:150|248:133,1,110.50000210762,6|8,0:0|0:0,0:0:0:0:
211,201,32263,2,0,L|158:187,1,55.2500010538101,2|4,0:0|0:0,0:0:0:0:
225,282,32747,2,0,L|172:268,1,55.2500010538101,2|8,0:0|0:0,0:0:0:0:
107,321,33231,1,0,0:0:0:0:
93,238,33473,6,0,P|77:208|78:169,1,55.2500010538101,6|8,0:0|0:0,0:0:0:0:
102,108,33957,2,0,L|155:94,1,55.2500010538101,10|0,0:0|0:0,0:0:0:0:
100,31,34440,2,0,L|153:17,1,55.2500010538101,6|0,0:0|0:0,0:0:0:0:
236,6,34924,1,8,0:0:0:0:
315,29,35166,1,0,0:0:0:0:
377,83,35408,6,0,B|393:135|361:135|377:195,1,110.50000210762,6|8,0:0|0:0,0:0:0:0:
421,261,36134,1,0,0:0:0:0:
404,342,36376,2,0,P|371:350|334:341,1,55.2500010538101,4|0,0:0|0:0,0:0:0:0:
274,312,36860,1,10,0:0:0:0:
190,256,37102,6,0,L|235:242|235:242|190:225|190:225|192:178|192:178|163:216|163:216|116:202|116:202|143:242|143:242|116:281|116:281|160:267|160:267|189:306|189:306,1,428.999986907959,4|0,0:1|0:0,0:0:0:0:
253,368,38795,1,8,0:0:0:0:
253,368,39279,6,0,P|314:365|361:303,1,130,6|8,0:0|0:0,0:0:0:0:
415,245,40005,1,0,0:0:0:0:
415,245,40126,1,0,0:0:0:0:
415,245,40247,1,6,0:0:0:0:
417,153,40489,2,0,L|381:146,2,32.5,0|0|10,0:0|0:0|0:0,0:0:0:0:
506,172,40973,1,0,0:0:0:0:
478,86,41215,6,0,P|485:43|479:12,2,65,6|8|8,0:0|0:0|0:0,0:0:0:0:
395,47,41940,1,2,0:0:0:0:
395,47,42061,1,0,0:0:0:0:
395,47,42182,2,0,B|372:20|372:20|350:70|288:68,1,130,4|8,0:0|0:0,0:0:0:0:
208,45,42908,1,0,0:0:0:0:
208,45,43029,1,0,0:0:0:0:
208,45,43150,5,6,0:0:0:0:
119,64,43392,2,0,L|88:70,2,32.5,0|0|8,0:0|0:0|0:0,0:0:0:0:
109,154,43876,1,0,0:0:0:0:
79,239,44118,2,0,P|43:213|25:187,1,65,6|0,0:0|0:0,0:0:0:0:
29,167,44481,2,0,L|35:136,1,32.5,0|8,0:0|0:0,0:0:0:0:
87,70,44844,1,0,0:0:0:0:
87,70,44965,1,0,0:0:0:0:
87,70,45086,6,0,L|164:55,1,65,6|8,0:0|0:0,0:0:0:0:
179,52,45449,1,0,0:0:0:0:
207,46,45569,2,0,P|268:48|320:-9,2,130,8|4|8,0:0|0:0|0:0,0:0:0:0:
208,137,46779,1,0,0:0:0:0:
208,137,46900,1,0,0:0:0:0:
208,137,47021,5,4,0:0:0:0:
286,182,47263,1,0,0:0:0:0:
286,182,47384,1,0,0:0:0:0:
286,182,47505,2,0,P|273:224|275:256,1,65,10|0,0:0|0:0,0:0:0:0:
292,334,47989,2,0,L|369:319,1,65,6|0,0:0|0:0,0:0:0:0:
384,328,48352,2,0,L|390:359,1,32.5,0|8,0:0|0:0,0:0:0:0:
481,366,48715,1,0,0:0:0:0:
498,276,48957,5,6,0:0:0:0:
493,247,49078,2,0,L|487:216,1,32.5,0|8,0:0|0:0,0:0:0:0:
397,197,49440,1,8,0:0:0:0:
311,228,49682,2,0,L|234:213,1,65,2|4,0:0|0:0,0:0:0:0:
173,269,50166,2,0,P|157:310|136:334,1,65,2|8,0:0|0:0,0:0:0:0:
65,372,50650,1,0,0:0:0:0:
45,283,50892,6,0,B|19:302|19:302|12:254|38:203,1,130,6|8,0:0|0:0,0:0:0:0:
98,140,51618,1,0,0:0:0:0:
98,140,51739,1,0,0:0:0:0:
98,140,51860,1,6,0:0:0:0:
180,101,52102,2,0,L|195:24,1,65,0|8,0:0|0:0,0:0:0:0:
283,29,52586,5,2,0:0:0:0:
458,77,53069,1,0,0:0:0:0:
291,149,53553,1,4,0:0:0:0:
291,149,54037,5,4,0:0:0:0:
288,165,54279,1,8,0:0:0:0:
285,181,54520,1,0,0:0:0:0:
303,275,54763,6,2,B|294:319|294:319|251:296|197:308,1,143.000004364014,6|10,0:0|0:0,0:0:0:0:
131,370,55489,1,0,0:0:0:0:
38,368,55731,2,0,P|27:345|29:280,1,71.5000021820069,4|0,0:0|0:0,0:0:0:0:
53,211,56215,2,0,L|65:140,1,71.5000021820069,10|0,0:0|0:0,0:0:0:0:
99,242,56699,2,0,L|111:171,1,71.5000021820069,6|0,0:0|0:0,0:0:0:0:
127,80,57182,1,8,0:0:0:0:
198,140,57424,2,0,P|221:131|285:136,1,71.5000021820069,2|4,0:0|0:0,0:0:0:0:
190,206,57908,2,0,P|208:189|271:172,1,71.5000021820069,2|8,0:0|0:0,0:0:0:0:
337,210,58392,1,0,0:0:0:0:
402,275,58634,6,0,P|426:191|385:131,1,143.000004364014,6|8,0:0|0:0,0:0:0:0:
370,57,59360,2,0,L|441:69,2,71.5000021820069,2|4|8,0:0|0:0|0:0,0:0:0:0:
294,2,60085,1,10,0:0:0:0:
201,0,60327,1,0,0:0:0:0:
182,90,60569,5,4,0:0:0:0:
185,182,60811,2,0,P|160:179|105:144,1,71.5000021820069,10|8,0:0|0:0,0:0:0:0:
91,70,61295,1,0,0:0:0:0:
28,139,61537,2,0,L|16:68,2,71.5000021820069,4|0|8,0:0|0:0|0:0,0:0:0:0:
5,229,62263,1,0,0:0:0:0:
60,303,62505,6,0,P|146:290|184:228,1,143.000004364014,6|8,0:0|0:0,0:0:0:0:
271,259,63231,2,0,P|290:274|352:289,1,71.5000021820069,2|4,0:0|0:0,0:0:0:0:
284,193,63715,2,0,P|295:214|350:250,1,71.5000021820069,2|8,0:0|0:0,0:0:0:0:
369,158,64199,1,0,0:0:0:0:
424,234,64440,6,0,L|436:305,1,71.5000021820069,6|0,0:0|0:0,0:0:0:0:
369,370,64924,1,8,0:0:0:0:
276,360,65166,2,0,L|205:372,1,71.5000021820069,2|4,0:0|0:0,0:0:0:0:
245,314,65650,2,0,L|174:326,1,71.5000021820069,2|8,0:0|0:0,0:0:0:0:
84,302,66134,1,0,0:0:0:0:
148,235,66376,6,0,P|226:196|243:126,1,143.000004364014,6|8,0:0|0:0,0:0:0:0:
203,63,67102,1,2,0:0:0:0:
150,140,67344,1,4,0:0:0:0:
59,118,67586,1,2,0:0:0:0:
56,134,67828,1,8,0:0:0:0:
53,150,68069,1,2,0:0:0:0:
48,242,68311,6,0,P|54:264|100:311,2,71.5000021820069,4|8|8,0:0|0:0|0:0,0:0:0:0:
53,150,69037,1,0,0:0:0:0:
92,65,69279,2,0,L|163:52,1,71.5000021820069,4|0,0:0|0:0,0:0:0:0:
245,9,69763,1,10,0:0:0:0:
245,9,70247,6,0,B|266:58|263:109|263:109|226:86,1,143.000004364014,6|8,0:0|0:0,0:0:0:0:
143,126,70973,2,0,P|128:143|114:207,1,71.5000021820069,0|4,0:0|0:0,0:0:0:0:
208,199,71457,1,2,0:0:0:0:
224,196,71699,1,8,0:0:0:0:
240,193,71940,1,2,0:0:0:0:
314,136,72182,6,0,B|364:124|364:124|314:79|299:30,1,143.000004364014,6|8,0:0|0:0,0:0:0:0:
407,93,72908,2,0,P|380:70|354:31,2,71.5000021820069,2|4|0,0:0|0:0|0:0,0:0:0:0:
463,166,73634,2,0,L|395:191,1,71.5000021820069,8|0,0:0|0:0,0:0:0:0:
494,209,74118,6,0,B|431:233|431:233|435:284|489:309,1,143.000004364014,6|8,0:0|0:0,0:0:0:0:
384,338,74844,2,0,P|360:334|307:295,1,71.5000021820069,2|4,0:0|0:0,0:0:0:0:
327,373,75328,2,0,P|306:360|271:307,1,71.5000021820069,2|8,0:0|0:0,0:0:0:0:
256,232,75811,1,0,0:0:0:0:
315,160,76053,6,0,L|327:89,1,71.5000021820069,6|8,0:0|0:0,0:0:0:0:
287,4,76537,1,8,0:0:0:0:
232,80,76779,2,0,P|210:90|144:85,2,71.5000021820069,2|4|0,0:0|0:0|0:0,0:0:0:0:
245,172,77505,2,0,L|251:207,3,35.7500010910034,8|0|0|0,0:0|0:0|0:0|0:0,0:0:0:0:
256,232,77989,6,0,B|242:266|205:275|205:275|215:312|194:348,1,143.000004364014,6|8,0:0|0:0,0:0:0:0:
115,297,78715,2,0,L|103:226,1,71.5000021820069,2|4,0:0|0:0,0:0:0:0:
69,328,79199,2,0,L|57:257,1,71.5000021820069,2|8,0:0|0:0,0:0:0:0:
45,165,79682,1,0,0:0:0:0:
124,116,79924,6,0,P|183:132|188:60,1,143.000004364014,6|8,0:0|0:0,0:0:0:0:
123,6,80650,1,0,0:0:0:0:
30,4,80892,2,0,P|21:26|27:92,1,71.5000021820069,6|0,0:0|0:0,0:0:0:0:
45,165,81376,1,8,0:0:0:0:
125,211,81618,1,0,0:0:0:0:
147,301,81860,6,0,B|216:316|216:280|288:300,1,143.000004364014,6|8,0:0|0:0,0:0:0:0:
372,340,82586,1,0,0:0:0:0:
364,247,82828,2,0,L|376:176,1,71.5000021820069,4|0,0:0|0:0,0:0:0:0:
305,117,83311,1,10,0:0:0:0:
216,89,83553,6,0,L|230:133|230:133|190:106|190:106|153:135|153:135|167:89|167:89|129:59|129:59|177:58|177:58|194:14|194:14|207:58|207:58|263:59|263:59,1,429.000013092041,4|0,0:1|0:0,0:0:0:0:
256,192,85731,12,0,89602,0:0:0:0:
