osu file format v14

[General]
AudioFilename: audio.mp3
AudioLeadIn: 0
PreviewTime: 54037
Countdown: 0
SampleSet: Soft
StackLeniency: 0.3
Mode: 0
LetterboxInBreaks: 0
WidescreenStoryboard: 0

[Editor]
Bookmarks: 16053,38795,40005,85489,89602
DistanceSpacing: 2.1
BeatDivisor: 4
GridSize: 16
TimelineZoom: 1

[Metadata]
Title:Fly Me to the Star #10
TitleUnicode:Fly Me to the Star #10
Artist:Tendou Maya (CV: Tomita Maho), Saijou Claudine (CV: Aiba Aina)
ArtistUnicode:天堂真矢(CV:富田麻帆)、西條クロディーヌ(CV:相羽あいな)
Creator:[ TNTlealu ]
Version:star
Source:少女☆歌劇 レヴュースタァライト
Tags:shoujo kageki revue starlight anime ending 相羽あいな 富田麻帆
BeatmapID:1922956
BeatmapSetID:920828

[Difficulty]
HPDrainRate:5
CircleSize:4.5
OverallDifficulty:5
ApproachRate:7
SliderMultiplier:1.4
SliderTickRate:1

[Events]
//Background and Video events
0,0,"49344786_802070603493014_5103670218626957312_o.jpg",0,0
//Break Periods
//Storyboard Layer 0 (Background)
//Storyboard Layer 1 (Fail)
//Storyboard Layer 2 (Pass)
//Storyboard Layer 3 (Foreground)
//Storyboard Sound Samples

[TimingPoints]
570,483.870967741935,4,2,0,40,1,0
7586,-100,4,2,0,60,0,0
39279,-100,4,2,0,40,0,0
54037,-100,4,2,0,60,0,0
89602,-100,4,2,0,5,0,0

[HitObjects]
64,64,570,6,0,P|128:96|224:64,1,140
224,64,1295,2,0,P|272:48|320:48,1,70
320,80,1779,2,0,P|368:96|416:96,1,70
464,48,2263,5,0,0:0:0:0:
480,128,2505,2,0,L|464:208,2,70
464,48,3231,1,0,0:0:0:0:
387,97,3473,2,0,P|352:92|320:80,1,70
291,46,3957,2,0,P|256:51|224:64,1,70
144,16,4440,6,0,P|128:96|176:144,1,140
256,176,5166,1,0,0:0:0:0:
336,112,5408,2,0,P|368:144|368:192,1,70
320,288,5892,5,0,0:0:0:0:
432,320,6134,2,0,L|448:352,2,35
448,288,7586,6,0,P|464:256|464:192,2,70
256,96,8311,2,0,P|320:144|384:144,1,140
384,144,9037,1,0,0:0:0:0:
482,78,9279,2,0,P|466:110|466:158,1,70
384,144,9763,2,0,P|388:179|414:219,1,70
320,240,10247,2,0,P|342:267|386:287,1,70
256,192,10731,5,0,0:0:0:0:
192,240,10973,2,0,P|169:267|125:287,1,70
64,272,11457,1,0,0:0:0:0:
80,112,11699,2,0,L|64:224,1,70
64,272,12182,6,0,P|144:336|224:304,1,140
224,352,12908,2,0,P|256:288|256:256,1,70
368,304,13392,2,0,P|336:240|336:208,1,70
352,144,13876,1,0,0:0:0:0:
416,64,14118,6,0,P|448:48|496:48,2,70
352,144,14844,1,0,0:0:0:0:
272,80,15086,2,0,P|192:96|128:64,1,140
112,48,16053,6,0,P|48:112|64:192,1,140
192,144,16779,2,0,P|144:144|112:128,1,70
288,112,17263,2,0,P|240:112|208:128,1,70
368,160,17747,1,0,0:0:0:0:
432,96,17989,2,0,P|480:160|448:224,2,140
304,144,19199,6,0,P|336:160|384:160,1,70
448,128,19682,1,0,0:0:0:0:
480,208,19924,2,0,P|448:288|368:304,1,140
384,208,20650,5,0,0:0:0:0:
384,208,20892,1,0,0:0:0:0:
288,240,21134,2,0,P|256:240|208:208,2,70
384,208,21860,2,0,P|400:240|400:304,1,70
384,208,22586,1,0,0:0:0:0:
464,128,22827,6,0,L|368:144,1,70
384,208,23311,2,0,L|304:224,1,70
304,288,23795,2,0,B|240:336|224:272|144:320,1,140
96,352,24521,6,0,L|80:272,1,70
160,288,25005,2,0,L|144:208,1,70
140,135,25489,5,0,0:0:0:0:
57,101,25731,2,0,P|121:53|201:85,1,140
245,109,26457,2,0,P|277:125|325:125,2,70
176,64,27182,5,0,0:0:0:0:
16,192,27666,2,0,P|96:176|144:112,1,140
176,64,28392,2,0,P|224:48|272:64,1,70
272,80,28876,2,0,P|320:96|368:80,1,70
432,48,29360,1,0,0:0:0:0:
480,128,29602,2,0,L|448:288,1,140
304,304,30328,6,0,P|336:320|384:320,2,70
448,336,31053,1,0,0:0:0:0:
368,256,31537,6,0,P|304:272|224:256,1,140
208,224,32263,2,0,P|176:208|112:224,1,70
112,240,32747,2,0,P|80:256|16:240,1,70
0,208,33231,1,0,0:0:0:0:
48,80,33957,6,0,P|80:96|128:160,1,70
176,80,34440,2,0,P|194:110|199:190,1,70
208,224,34924,1,0,0:0:0:0:
272,272,35166,1,0,0:0:0:0:
352,288,35408,2,0,P|416:240|416:160,1,140
400,80,36134,5,0,0:0:0:0:
304,48,36376,2,0,L|224:64,1,70
144,112,36860,1,0,0:0:0:0:
93,205,37102,2,0,B|224:288|272:208|258:114|203:107|104:100|71:159|160:256|197:301|139:371,1,490
96,201,39279,6,0,P|205:221|240:176,1,140
320,160,40005,1,0,0:0:0:0:
320,160,40126,1,0,0:0:0:0:
320,160,40247,1,0,0:0:0:0:
416,176,40489,2,0,L|432:208,2,35
384,80,40973,5,0,0:0:0:0:
288,64,41215,2,0,L|192:48,2,70
384,80,41940,1,0,0:0:0:0:
218,54,42182,2,0,L|288:64,1,70
384,80,42666,6,0,L|416:64,2,35
320,144,43150,2,0,L|304:192,2,35
240,96,43634,1,0,0:0:0:0:
80,112,43876,2,0,P|128:128|176:112,1,70
240,96,44602,1,0,0:0:0:0:
288,176,44844,6,0,P|304:224|288:256,1,70
256,320,45328,1,0,0:0:0:0:
256,320,45449,1,0,0:0:0:0:
256,320,45569,1,0,0:0:0:0:
160,256,45811,5,0,0:0:0:0:
64,192,46053,2,0,P|144:160|224:176,2,140
80,112,47263,5,0,0:0:0:0:
80,112,47384,1,0,0:0:0:0:
80,112,47505,1,0,0:0:0:0:
192,64,47747,5,0,0:0:0:0:
192,64,47868,1,0,0:0:0:0:
192,64,47989,2,0,P|240:96|304:96,2,105
96,0,48957,1,0,0:0:0:0:
80,128,49440,5,0,0:0:0:0:
176,144,49682,2,0,L|272:160,1,70
320,304,50166,2,0,P|309:270|311:236,1,70
336,160,50650,1,0,0:0:0:0:
415,109,50892,2,0,P|354:70|274:87,1,140
189,143,51618,5,0,0:0:0:0:
189,143,51739,1,0,0:0:0:0:
189,143,51860,1,0,0:0:0:0:
81,269,52102,6,0,L|138:200,1,70
189,143,52586,5,0,0:0:0:0:
189,143,53069,5,0,0:0:0:0:
189,143,53553,5,0,0:0:0:0:
262,51,54037,6,0,P|296:80|309:115,2,70
112,51,54763,6,0,P|72:124|83:188,1,140
160,130,55489,1,0,0:0:0:0:
174,224,55731,6,0,P|241:170|243:131,1,70
294,121,56215,2,0,P|346:182|347:215,1,70
416,144,56699,2,0,P|409:223|368:272,1,140
280,286,57424,2,0,L|144:256,2,140
304,208,58634,2,0,L|160:176,1,140
86,154,59360,1,0,0:0:0:0:
116,76,59602,6,0,P|137:46|166:33,2,70
86,154,60328,2,0,L|58:233,1,70
163,216,60811,2,0,L|132:297,1,70
106,358,61295,1,0,0:0:0:0:
80,276,61537,6,0,P|164:290|199:372,1,140
106,358,62263,1,0,0:0:0:0:
194,330,62505,2,0,P|266:368|350:332,1,140
388,303,63231,2,0,L|351:227,1,70
449,237,63715,2,0,L|413:162,1,70
389,94,64199,5,0,0:0:0:0:
228,71,64440,2,0,L|313:83,1,70
389,94,64924,5,0,0:0:0:0:
418,173,65166,2,0,L|449:237,1,70
311,154,65650,2,0,L|341:217,1,70
385,299,66134,1,0,0:0:0:0:
270,283,66376,2,0,P|309:202|308:136,1,140
290,59,67102,5,0,0:0:0:0:
220,118,67344,1,0,0:0:0:0:
154,49,67586,1,0,0:0:0:0:
83,115,67828,1,0,0:0:0:0:
150,190,68069,5,0,0:0:0:0:
220,118,68311,2,0,P|265:132|310:117,2,70
153,56,69037,1,0,0:0:0:0:
82,114,69279,2,0,P|60:152|63:182,1,70
106,281,69763,1,0,0:0:0:0:
106,281,70247,6,0,P|187:297|262:270,1,140
311,321,70973,2,0,P|336:284|341:247,1,70
338,161,71457,1,0,0:0:0:0:
310,88,71699,1,0,0:0:0:0:
239,57,71940,1,0,0:0:0:0:
170,133,72182,6,0,P|136:83|148:0,1,140
239,57,72908,2,0,P|267:132|250:200,1,140
230,213,73634,6,0,P|231:251|252:289,1,70
335,299,74118,2,0,B|357:323|357:323|234:354,1,140
171,324,74844,2,0,P|155:250|160:241,1,70
65,245,75328,2,0,P|90:188|83:146,1,70
66,89,75811,1,0,0:0:0:0:
172,118,76053,2,0,P|212:129|263:119,1,70
345,87,76537,5,0,0:0:0:0:
400,166,76779,2,0,P|416:209|416:264,2,70
345,87,77505,2,0,P|308:97|267:94,1,70
212,26,77989,6,0,P|183:98|213:157,1,140
276,96,78715,2,0,P|311:96|345:87,1,70
416,115,79199,2,0,P|441:90|458:60,1,70
364,17,79682,1,0,0:0:0:0:
276,96,79924,2,0,P|283:178|258:239,1,140
179,296,80650,1,0,0:0:0:0:
112,226,80892,2,0,L|85:149,1,70
61,66,81376,5,0,0:0:0:0:
161,95,81618,1,0,0:0:0:0:
241,168,81860,2,0,P|311:153|363:112,1,140
405,15,82586,1,0,0:0:0:0:
476,80,82828,6,0,P|500:106|513:140,1,70
502,235,83311,1,0,0:0:0:0:
416,320,83553,2,0,B|460:271|290:326|235:273|220:241|225:178|276:153|322:172|329:194|329:194|319:173|342:140|385:127|421:144|442:199|421:254|368:301,1,560
256,192,85731,12,0,89602,0:0:0:0:
