osu file format v14

[General]
AudioFilename: audio.ogg
AudioLeadIn: 0
PreviewTime: 100342
Countdown: 0
SampleSet: Normal
StackLeniency: 0.7
Mode: 1
LetterboxInBreaks: 0
WidescreenStoryboard: 1

[Editor]
Bookmarks: 171157
DistanceSpacing: 0.6
BeatDivisor: 2
GridSize: 32
TimelineZoom: 2.999999

[Metadata]
Title:skeleton (Lettuce ver.)
TitleUnicode:skeleton (Lettuce ver.)
Artist:Tenchio
ArtistUnicode:Tenchio
Creator:skolodojko
Version:Oni
Source:
Tags:post rock punk instrumental math post-hardcore hardcore post-rock progressive experimental Bloc Party English
BeatmapID:3497239
BeatmapSetID:1709635

[Difficulty]
HPDrainRate:6
CircleSize:2
OverallDifficulty:6
ApproachRate:10
SliderMultiplier:1.4
SliderTickRate:1

[Events]
//Background and Video events
0,0,"3641414_2.jpg",0,0
//Break Periods
//Storyboard Layer 0 (Background)
//Storyboard Layer 1 (Fail)
//Storyboard Layer 2 (Pass)
//Storyboard Layer 3 (Foreground)
//Storyboard Layer 4 (Overlay)
//Storyboard Sound Samples

[TimingPoints]
611,315.789473684211,4,1,0,70,1,0
611,-111.111111111111,4,1,0,70,0,0
10716,-111.111111111111,4,1,0,80,0,0
18295,-109.89010989011,4,1,0,80,0,0
18374,-108.695652173913,4,1,0,80,0,0
18453,-107.52688172043,4,1,0,80,0,0
18532,-106.382978723404,4,1,0,80,0,0
18611,-105.263157894737,4,1,0,80,0,0
18689,-104.166666666667,4,1,0,80,0,0
18768,-103.092783505155,4,1,0,80,0,0
18847,-102.040816326531,4,1,0,80,0,0
18926,-101.010101010101,4,1,0,80,0,0
19005,-100,4,1,0,80,0,0
19084,-99.009900990099,4,1,0,80,0,0
19163,-98.0392156862745,4,1,0,80,0,0
19242,-97.0873786407767,4,1,0,80,0,0
19321,-96.1538461538461,4,1,0,80,0,0
19400,-95.2380952380952,4,1,0,80,0,0
19479,-94.3396226415094,4,1,0,80,0,0
19558,-93.4579439252336,4,1,0,80,0,0
19637,-92.5925925925926,4,1,0,80,0,0
19716,-91.743119266055,4,1,0,80,0,0
19795,-90.9090909090908,4,1,0,80,0,0
19874,-90.0900900900901,4,1,0,80,0,0
19953,-89.2857142857143,4,1,0,80,0,0
20032,-88.4955752212389,4,1,0,80,0,0
20111,-87.719298245614,4,1,0,80,0,0
20189,-86.9565217391304,4,1,0,80,0,0
20268,-86.2068965517241,4,1,0,80,0,0
20347,-85.4700854700855,4,1,0,80,0,0
20426,-84.7457627118644,4,1,0,80,0,0
20505,-84.0336134453781,4,1,0,80,0,0
20584,-100,4,1,0,80,0,0
21453,-100,4,1,0,90,0,0
35979,-92.5925925925926,4,1,0,90,0,0
36058,-94.3396226415094,4,1,0,90,0,0
36137,-96.1538461538461,4,1,0,90,0,0
36216,-98.0392156862745,4,1,0,90,0,0
36295,-100,4,1,0,90,0,0
40558,-101.010101010101,4,1,0,90,0,0
40637,-101.522842639594,4,1,0,90,0,0
40716,-102.040816326531,4,1,0,90,0,0
40795,-102.564102564103,4,1,0,90,0,0
40874,-103.092783505155,4,1,0,90,0,0
40953,-103.626943005181,4,1,0,90,0,0
41032,315.789473684211,7,1,0,90,1,0
41032,-104.166666666667,7,1,0,90,0,0
41347,-104.166666666667,7,1,0,80,0,0
45453,315.789473684211,4,1,0,80,1,0
45453,-104.166666666667,4,1,0,80,0,0
50505,315.789473684211,7,1,0,80,1,0
50505,-104.166666666667,7,1,0,80,0,0
54926,315.789473684211,4,1,0,80,1,0
54926,-104.166666666667,4,1,0,80,0,0
58715,-103.092783505155,4,1,0,80,0,0
58794,-102.040816326531,4,1,0,80,0,0
58873,-101.010101010101,4,1,0,80,0,0
58952,-100,4,1,0,80,0,0
59031,-99.009900990099,4,1,0,80,0,0
59110,-98.0392156862745,4,1,0,80,0,0
59189,-97.0873786407767,4,1,0,80,0,0
59268,-96.1538461538461,4,1,0,80,0,0
59347,-95.2380952380952,4,1,0,80,0,0
59426,-94.3396226415094,4,1,0,80,0,0
59504,-93.4579439252336,4,1,0,80,0,0
59583,-92.5925925925926,4,1,0,80,0,0
59662,-91.743119266055,4,1,0,80,0,0
59741,-90.9090909090909,4,1,0,80,0,0
59820,-90.0900900900901,4,1,0,80,0,0
59899,-89.2857142857143,4,1,0,80,0,0
59978,-88.4955752212389,4,1,0,100,0,1
70083,-88.4955752212389,4,1,0,80,0,0
70241,-100,4,1,0,80,0,0
97873,-99.6076063990341,4,1,0,80,0,0
97952,-99.2182802164763,4,1,0,80,0,0
98031,-98.8319856244385,4,1,0,80,0,0
98110,-98.4486873508353,4,1,0,80,0,0
98189,-98.0683506686478,4,1,0,80,0,0
98268,-97.6909413854352,4,1,0,80,0,0
98347,-97.3164258330876,4,1,0,80,0,0
98426,-96.9447708578143,4,1,0,80,0,0
98504,-96.57594381036,4,1,0,80,0,0
98583,-96.2099125364432,4,1,0,80,0,0
98662,-95.8466453674122,4,1,0,80,0,0
98741,-95.4861111111111,4,1,0,80,0,0
98820,-95.1282790429519,4,1,0,80,0,0
98899,-94.7731188971855,4,1,0,80,0,0
98978,-94.4206008583691,4,1,0,80,0,0
99057,-94.0706955530217,4,1,0,80,0,0
99136,-93.7233740414655,4,1,0,80,0,0
99215,-93.3786078098472,4,1,0,80,0,0
99294,-93.0363687623344,4,1,0,80,0,0
99373,-92.6966292134832,4,1,0,80,0,0
99452,-92.3593618807725,4,1,0,80,0,0
99531,-92.0245398773006,4,1,0,80,0,0
99610,-91.6921367046402,4,1,0,80,0,0
99689,-91.3621262458472,4,1,0,80,0,0
99768,-91.0344827586207,4,1,0,80,0,0
99847,-90.7091808686091,4,1,0,80,0,0
99926,-90.3861955628595,4,1,0,80,0,0
100004,-90.0655021834061,4,1,0,80,0,0
100083,-89.7470764209954,4,1,0,80,0,0
100162,-89.4308943089431,4,1,0,80,0,0
100241,-89.1169322171213,4,1,0,80,0,0
100320,-88.805166846071,4,1,0,80,0,0
100399,-88.495575221239,4,1,0,100,0,1
110504,-88.495575221239,4,1,0,80,0,0
110820,-100,4,1,0,80,0,0
120926,-105.263157894737,4,1,0,80,0,0
121557,-111.111111111111,4,1,0,80,0,0
122189,-117.647058823529,4,1,0,80,0,0
122820,-125,4,1,0,80,0,0
125347,-125,4,1,0,70,0,0
125662,-100,4,1,0,80,0,0
140820,-88.4955752212389,4,1,0,100,0,1
160478,-88.8888888888889,4,1,0,100,0,1
160557,-89.2857142857143,4,1,0,100,0,1
160636,-89.6860986547085,4,1,0,100,0,1
160715,-90.0900900900901,4,1,0,100,0,1
160794,-91.743119266055,4,1,0,100,0,1
160873,-93.4579439252336,4,1,0,100,0,1
160952,-95.2380952380952,4,1,0,100,0,1
161031,-97.0873786407767,4,1,0,90,0,0
161136,-100,4,1,0,90,0,0
161347,-100,4,1,0,80,0,0
171235,-100,4,1,0,40,0,0

[HitObjects]
244,200,611,5,8,1:0:0:0:
236,222,1716,1,0,1:0:0:0:
202,189,3137,1,8,1:0:0:0:
202,189,3453,1,0,1:0:0:0:
188,243,4242,1,0,1:0:0:0:
184,216,5663,1,8,1:0:0:0:
184,218,6768,1,0,1:0:0:0:
259,184,8189,1,8,1:0:0:0:
220,208,8505,1,0,1:0:0:0:
224,215,9295,1,0,1:0:0:0:
225,217,10716,1,8,1:0:0:0:
225,217,11032,1,0,1:0:0:0:
225,217,11347,1,0,1:0:0:0:
225,217,11663,1,0,1:0:0:0:
225,217,11979,1,8,1:0:0:0:
225,217,12295,1,0,1:0:0:0:
225,217,12611,1,8,1:0:0:0:
225,217,12926,1,8,1:0:0:0:
225,217,13084,1,8,1:0:0:0:
225,217,13242,1,8,1:0:0:0:
225,217,13558,1,0,1:0:0:0:
225,217,13874,1,8,1:0:0:0:
225,217,14189,1,0,1:0:0:0:
225,217,14505,1,8,1:0:0:0:
225,217,14821,1,8,1:0:0:0:
169,167,15137,1,0,1:0:0:0:
182,235,15453,1,8,1:0:0:0:
182,235,15611,1,8,1:0:0:0:
182,235,15768,1,0,1:0:0:0:
182,235,16084,1,0,1:0:0:0:
182,235,16400,1,8,1:0:0:0:
182,235,16716,1,0,1:0:0:0:
182,235,17032,1,8,1:0:0:0:
182,235,17347,1,0,1:0:0:0:
182,235,17663,1,0,1:0:0:0:
182,235,17821,1,8,1:0:0:0:
182,235,17979,1,0,1:0:0:0:
182,235,18137,1,8,1:0:0:0:
219,215,18295,1,0,1:0:0:0:
295,209,18453,1,8,1:0:0:0:
295,209,18532,1,8,1:0:0:0:
219,215,18611,1,0,1:0:0:0:
219,215,18768,1,0,1:0:0:0:
219,215,18926,1,8,1:0:0:0:
295,209,19005,1,0,1:0:0:0:
219,215,19084,1,0,1:0:0:0:
295,209,19163,1,0,1:0:0:0:
219,215,19242,1,8,1:0:0:0:
219,215,19400,1,8,1:0:0:0:
219,215,19558,1,0,1:0:0:0:
219,215,19716,1,0,1:0:0:0:
295,209,19795,1,8,1:0:0:0:
219,215,19874,1,0,1:0:0:0:
219,215,20032,1,8,1:0:0:0:
219,215,20189,1,0,1:0:0:0:
295,209,20268,1,0,1:0:0:0:
219,215,20347,1,8,1:0:0:0:
295,209,20426,1,0,1:0:0:0:
219,215,20505,1,8,1:0:0:0:
173,129,20821,2,0,L|405:175,1,210,0|0,1:0|1:0,1:0:0:0:
241,280,21453,1,0,1:0:0:0:
188,252,21768,1,8,1:0:0:0:
188,252,21926,1,0,1:0:0:0:
286,211,22005,1,0,1:0:0:0:
188,252,22084,1,0,1:0:0:0:
188,252,22242,1,0,1:0:0:0:
188,252,22400,1,8,1:0:0:0:
188,252,22558,1,0,1:0:0:0:
188,252,22716,1,8,1:0:0:0:
188,252,22874,1,0,1:0:0:0:
188,252,23032,1,8,1:0:0:0:
188,252,23189,1,8,1:0:0:0:
189,218,23268,1,8,1:0:0:0:
188,252,23347,1,0,1:0:0:0:
231,250,23505,1,0,1:0:0:0:
231,250,23663,1,8,1:0:0:0:
235,180,23821,1,8,1:0:0:0:
231,250,23979,1,0,1:0:0:0:
231,250,24295,1,8,1:0:0:0:
231,250,24453,1,0,1:0:0:0:
231,250,24611,1,0,1:0:0:0:
231,250,24768,1,0,1:0:0:0:
211,148,24847,1,0,1:0:0:0:
231,250,24926,1,8,1:0:0:0:
231,250,25084,1,0,1:0:0:0:
231,250,25242,1,8,1:0:0:0:
231,250,25400,1,0,1:0:0:0:
231,250,25558,1,8,1:0:0:0:
231,250,25716,1,8,1:0:0:0:
210,158,25795,1,8,1:0:0:0:
231,250,25874,1,0,1:0:0:0:
231,250,26032,1,0,1:0:0:0:
231,250,26189,1,8,1:0:0:0:
190,163,26347,1,0,1:0:0:0:
231,250,26505,1,8,1:0:0:0:
231,250,26821,1,0,1:0:0:0:
231,250,26979,1,8,1:0:0:0:
209,161,27058,1,8,1:0:0:0:
215,260,27137,1,8,1:0:0:0:
215,260,27295,1,0,1:0:0:0:
215,260,27453,1,8,1:0:0:0:
215,260,27611,1,0,1:0:0:0:
215,260,27768,1,8,1:0:0:0:
215,262,27926,1,8,1:0:0:0:
215,260,28084,1,0,1:0:0:0:
215,260,28242,1,0,1:0:0:0:
209,164,28321,1,0,1:0:0:0:
215,260,28400,1,8,1:0:0:0:
215,260,28558,1,0,1:0:0:0:
215,260,28716,1,8,1:0:0:0:
215,187,28874,1,8,1:0:0:0:
215,260,29032,1,0,1:0:0:0:
215,260,29347,1,8,1:0:0:0:
215,260,29505,1,8,1:0:0:0:
215,260,29663,1,0,1:0:0:0:
209,165,29821,1,8,1:0:0:0:
211,165,29900,1,0,1:0:0:0:
215,260,29979,1,8,1:0:0:0:
215,260,30137,1,0,1:0:0:0:
215,260,30295,1,0,1:0:0:0:
219,265,30453,1,8,1:0:0:0:
219,266,30611,1,8,1:0:0:0:
220,266,30768,1,0,1:0:0:0:
214,170,30847,1,0,1:0:0:0:
220,266,30926,1,8,1:0:0:0:
220,266,31084,1,0,1:0:0:0:
220,266,31242,1,8,1:0:0:0:
185,210,31400,1,8,1:0:0:0:
219,266,31558,1,0,1:0:0:0:
220,266,31874,1,8,1:0:0:0:
220,266,32032,1,8,1:0:0:0:
189,245,32189,1,0,1:0:0:0:
189,245,32347,1,8,1:0:0:0:
214,171,32426,1,8,1:0:0:0:
189,245,32505,1,0,1:0:0:0:
189,245,32663,1,0,1:0:0:0:
189,245,32821,1,8,1:0:0:0:
189,245,32979,1,0,1:0:0:0:
189,245,33137,1,8,1:0:0:0:
189,245,33295,1,0,1:0:0:0:
214,171,33374,1,0,1:0:0:0:
189,245,33453,1,8,1:0:0:0:
189,245,33611,1,0,1:0:0:0:
189,245,33768,1,8,1:0:0:0:
189,245,33926,1,8,1:0:0:0:
189,245,34084,1,0,1:0:0:0:
189,245,34400,1,8,1:0:0:0:
189,245,34558,1,8,1:0:0:0:
189,245,34716,1,0,1:0:0:0:
189,245,34874,1,8,1:0:0:0:
214,177,34953,1,8,1:0:0:0:
189,245,35032,1,8,1:0:0:0:
189,245,35189,1,0,1:0:0:0:
189,245,35347,1,0,1:0:0:0:
189,245,35505,1,8,1:0:0:0:
189,245,35663,1,0,1:0:0:0:
189,245,35821,1,8,1:0:0:0:
189,245,35979,1,0,1:0:0:0:
212,185,36058,1,0,1:0:0:0:
212,185,36137,1,0,1:0:0:0:
212,185,36216,1,0,1:0:0:0:
189,245,36295,1,8,1:0:0:0:
189,245,36453,1,8,1:0:0:0:
189,245,36611,1,0,1:0:0:0:
189,245,36926,1,8,1:0:0:0:
189,245,37084,1,0,1:0:0:0:
212,185,37163,1,0,1:0:0:0:
189,245,37242,1,0,1:0:0:0:
189,245,37400,1,0,1:0:0:0:
189,245,37558,1,8,1:0:0:0:
189,245,37716,1,0,1:0:0:0:
189,245,37874,1,8,1:0:0:0:
189,245,38032,1,8,1:0:0:0:
189,245,38189,1,0,1:0:0:0:
189,245,38347,1,8,1:0:0:0:
212,184,38426,1,8,1:0:0:0:
189,245,38505,1,8,1:0:0:0:
189,245,38663,1,0,1:0:0:0:
189,245,38821,1,8,1:0:0:0:
189,245,38979,1,0,1:0:0:0:
189,245,39137,1,8,1:0:0:0:
189,245,39453,1,8,1:0:0:0:
189,245,39611,1,8,1:0:0:0:
189,245,39768,1,0,1:0:0:0:
189,245,39926,1,0,1:0:0:0:
212,183,40005,1,0,1:0:0:0:
189,245,40084,1,8,1:0:0:0:
189,245,40242,1,0,1:0:0:0:
189,245,40400,1,8,1:0:0:0:
189,245,40558,1,0,1:0:0:0:
212,183,40637,1,0,1:0:0:0:
212,183,40716,1,8,1:0:0:0:
212,183,40795,1,8,1:0:0:0:
189,245,40874,1,0,1:0:0:0:
189,245,41032,1,8,1:0:0:0:
200,248,41347,1,8,1:0:0:0:
200,251,41505,1,8,1:0:0:0:
200,251,41663,1,0,1:0:0:0:
203,255,41979,1,8,1:0:0:0:
204,256,42137,1,8,1:0:0:0:
205,256,42295,1,0,1:0:0:0:
205,256,42453,1,0,1:0:0:0:
205,256,42610,1,8,1:0:0:0:
205,256,42768,1,0,1:0:0:0:
182,223,42847,1,0,1:0:0:0:
203,255,42926,1,8,1:0:0:0:
204,256,43084,1,0,1:0:0:0:
205,256,43242,1,8,1:0:0:0:
205,256,43400,1,0,1:0:0:0:
205,256,43558,1,8,1:0:0:0:
180,230,43874,1,0,1:0:0:0:
182,230,44032,1,8,1:0:0:0:
182,230,44189,1,0,1:0:0:0:
182,230,44505,1,8,1:0:0:0:
180,230,44663,1,8,1:0:0:0:
239,193,44742,1,8,1:0:0:0:
180,230,44821,1,0,1:0:0:0:
182,230,44979,1,0,1:0:0:0:
182,230,45137,1,8,1:0:0:0:
182,230,45295,1,0,1:0:0:0:
239,193,45374,1,0,1:0:0:0:
182,230,45453,1,8,1:0:0:0:
180,230,45768,1,0,1:0:0:0:
182,230,45926,1,8,1:0:0:0:
182,230,46084,1,0,1:0:0:0:
182,230,46400,1,8,1:0:0:0:
180,230,46558,1,0,1:0:0:0:
236,199,46637,1,0,1:0:0:0:
180,230,46716,1,0,1:0:0:0:
182,230,46874,1,0,1:0:0:0:
182,230,47031,1,8,1:0:0:0:
182,230,47189,1,0,1:0:0:0:
182,230,47347,1,8,1:0:0:0:
182,230,47505,1,8,1:0:0:0:
180,230,47663,1,0,1:0:0:0:
182,230,47821,1,0,1:0:0:0:
236,199,47900,1,0,1:0:0:0:
182,230,47979,1,8,1:0:0:0:
182,230,48295,1,0,1:0:0:0:
182,230,48453,1,8,1:0:0:0:
186,233,48610,1,0,1:0:0:0:
182,230,48926,1,8,1:0:0:0:
182,230,49084,1,8,1:0:0:0:
236,199,49163,1,8,1:0:0:0:
182,230,49242,1,0,1:0:0:0:
182,230,49400,1,0,1:0:0:0:
182,230,49558,1,8,1:0:0:0:
186,233,49716,1,0,1:0:0:0:
182,230,49874,1,8,1:0:0:0:
182,230,50189,1,0,1:0:0:0:
182,230,50347,1,8,1:0:0:0:
182,230,50505,1,0,1:0:0:0:
182,230,50820,1,0,1:0:0:0:
182,230,50978,1,0,1:0:0:0:
186,235,51136,1,8,1:0:0:0:
186,236,51452,1,0,1:0:0:0:
186,236,51610,1,8,1:0:0:0:
234,203,51689,1,8,1:0:0:0:
186,236,51768,1,8,1:0:0:0:
186,236,51926,1,0,1:0:0:0:
186,235,52083,1,8,1:0:0:0:
186,236,52241,1,0,1:0:0:0:
186,236,52399,1,0,1:0:0:0:
186,236,52557,1,8,1:0:0:0:
234,203,52636,1,8,1:0:0:0:
186,236,52715,1,0,1:0:0:0:
187,237,52873,1,0,1:0:0:0:
186,235,53031,1,8,1:0:0:0:
186,236,53347,1,0,1:0:0:0:
186,236,53505,1,8,1:0:0:0:
186,236,53662,1,0,1:0:0:0:
186,235,53978,1,8,1:0:0:0:
186,236,54136,1,8,1:0:0:0:
186,236,54294,1,0,1:0:0:0:
186,236,54452,1,0,1:0:0:0:
186,236,54610,1,8,1:0:0:0:
186,235,54768,1,0,1:0:0:0:
232,207,54847,1,0,1:0:0:0:
186,235,54926,1,8,1:0:0:0:
186,236,55083,1,0,1:0:0:0:
186,236,55241,1,8,1:0:0:0:
186,236,55557,1,0,1:0:0:0:
186,235,55715,1,8,1:0:0:0:
186,235,55873,1,0,1:0:0:0:
186,236,56189,1,8,1:0:0:0:
186,236,56347,1,8,1:0:0:0:
186,236,56504,1,0,1:0:0:0:
186,235,56662,1,8,1:0:0:0:
205,195,56741,1,8,1:0:0:0:
186,235,56820,1,0,1:0:0:0:
186,236,56978,1,0,1:0:0:0:
186,236,57136,1,8,1:0:0:0:
186,236,57294,1,0,1:0:0:0:
186,236,57452,1,0,1:0:0:0:
187,242,57610,1,8,1:0:0:0:
187,242,57768,1,8,1:0:0:0:
187,243,58083,1,0,1:0:0:0:
187,243,58241,1,0,1:0:0:0:
187,243,58399,1,8,1:0:0:0:
187,242,58557,1,0,1:0:0:0:
187,242,58715,1,0,1:0:0:0:
205,195,58794,1,0,1:0:0:0:
187,243,58873,1,0,1:0:0:0:
205,195,58952,1,0,1:0:0:0:
187,243,59031,1,8,1:0:0:0:
205,195,59189,1,0,1:0:0:0:
187,243,59347,1,8,1:0:0:0:
187,242,59504,1,8,1:0:0:0:
187,242,59662,1,0,1:0:0:0:
187,242,59820,1,8,1:0:0:0:
187,243,59978,1,0,1:0:0:0:
187,243,60294,1,8,1:0:0:0:
187,242,60452,1,0,1:0:0:0:
228,179,60531,1,0,1:0:0:0:
187,242,60610,1,8,1:0:0:0:
187,242,60768,1,0,1:0:0:0:
228,179,60926,1,8,1:0:0:0:
228,179,61004,1,8,1:0:0:0:
187,243,61083,1,8,1:0:0:0:
228,179,61162,1,8,1:0:0:0:
187,243,61241,1,0,1:0:0:0:
187,242,61399,1,0,1:0:0:0:
187,242,61557,1,8,1:0:0:0:
228,179,61636,1,8,1:0:0:0:
187,242,61715,1,8,1:0:0:0:
187,243,61873,1,0,1:0:0:0:
187,243,62031,1,8,1:0:0:0:
187,243,62189,1,0,1:0:0:0:
187,229,62347,1,0,1:0:0:0:
194,193,62426,1,0,1:0:0:0:
187,242,62504,1,8,1:0:0:0:
235,189,62662,1,0,1:0:0:0:
187,229,62820,1,0,1:0:0:0:
250,172,62899,1,0,1:0:0:0:
187,229,62978,1,8,1:0:0:0:
196,214,63057,1,8,1:0:0:0:
187,229,63136,1,8,1:0:0:0:
187,229,63294,1,0,1:0:0:0:
187,229,63452,1,0,1:0:0:0:
196,214,63531,1,0,1:0:0:0:
187,229,63610,1,8,1:0:0:0:
196,214,63689,1,8,1:0:0:0:
187,229,63768,1,0,1:0:0:0:
187,229,63926,1,0,1:0:0:0:
187,229,64083,1,8,1:0:0:0:
187,229,64241,1,0,1:0:0:0:
196,214,64320,1,8,1:0:0:0:
187,229,64399,1,0,1:0:0:0:
187,229,64557,1,0,1:0:0:0:
187,229,64715,1,8,1:0:0:0:
195,214,64794,1,8,1:0:0:0:
187,229,64873,1,0,1:0:0:0:
195,214,64952,1,0,1:0:0:0:
187,229,65031,1,0,1:0:0:0:
187,229,65347,1,8,1:0:0:0:
189,229,65504,1,8,1:0:0:0:
187,229,65662,1,0,1:0:0:0:
187,229,65820,1,8,1:0:0:0:
202,192,65899,1,8,1:0:0:0:
187,229,65978,1,8,1:0:0:0:
187,229,66136,1,0,1:0:0:0:
187,229,66294,1,0,1:0:0:0:
202,192,66373,1,0,1:0:0:0:
189,229,66452,1,8,1:0:0:0:
202,192,66531,1,8,1:0:0:0:
187,229,66610,1,0,1:0:0:0:
187,229,66768,1,8,1:0:0:0:
187,229,66926,1,8,1:0:0:0:
187,229,67083,1,0,1:0:0:0:
202,192,67162,1,8,1:0:0:0:
187,229,67241,1,0,1:0:0:0:
189,229,67399,1,0,1:0:0:0:
187,229,67557,1,8,1:0:0:0:
241,192,67715,1,0,1:0:0:0:
222,229,67873,1,0,1:0:0:0:
222,229,68031,1,8,1:0:0:0:
222,229,68189,1,8,1:0:0:0:
203,192,68268,1,0,1:0:0:0:
222,229,68347,1,0,1:0:0:0:
202,198,68426,1,0,1:0:0:0:
203,192,68504,1,8,1:0:0:0:
222,229,68662,1,0,1:0:0:0:
222,229,68820,1,8,1:0:0:0:
203,192,68899,1,8,1:0:0:0:
222,229,68978,1,0,1:0:0:0:
222,229,69136,1,8,1:0:0:0:
222,229,69294,1,0,1:0:0:0:
202,199,69452,1,8,1:0:0:0:
200,201,69531,1,0,1:0:0:0:
222,229,69610,1,8,1:0:0:0:
200,202,69689,1,8,1:0:0:0:
222,229,69768,1,0,1:0:0:0:
222,229,69926,1,8,1:0:0:0:
222,229,70083,1,0,1:0:0:0:
200,222,70399,1,0,1:0:0:0:
200,222,70478,1,0,1:0:0:0:
144,96,70557,1,0,1:0:0:0:
188,221,70636,1,0,1:0:0:0:
251,220,71031,1,8,1:0:0:0:
251,220,71347,1,0,1:0:0:0:
178,240,71978,1,8,1:0:0:0:
178,240,72294,1,0,1:0:0:0:
178,240,72452,1,0,1:0:0:0:
173,249,72610,1,0,1:0:0:0:
172,249,72926,1,0,1:0:0:0:
276,184,73004,1,0,1:0:0:0:
172,249,73083,1,0,1:0:0:0:
276,184,73162,1,0,1:0:0:0:
172,249,73241,1,0,1:0:0:0:
172,249,73557,1,8,1:0:0:0:
276,184,73636,1,8,1:0:0:0:
276,184,73715,1,8,1:0:0:0:
182,246,73794,1,8,1:0:0:0:
172,249,73873,1,0,1:0:0:0:
172,249,74189,1,0,1:0:0:0:
182,247,74268,1,0,1:0:0:0:
172,249,74347,1,0,1:0:0:0:
182,247,74426,1,0,1:0:0:0:
172,249,74504,1,8,1:0:0:0:
172,249,74662,1,0,1:0:0:0:
172,249,74820,1,8,1:0:0:0:
197,234,74899,1,8,1:0:0:0:
159,203,74978,1,0,1:0:0:0:
156,218,75136,1,0,1:0:0:0:
155,218,75452,1,0,1:0:0:0:
197,235,75531,1,0,1:0:0:0:
155,218,75610,1,0,1:0:0:0:
197,235,75689,1,0,1:0:0:0:
155,218,76083,1,8,1:0:0:0:
207,173,76399,1,0,1:0:0:0:
201,263,77031,1,8,1:0:0:0:
201,263,77347,1,0,1:0:0:0:
197,235,77426,1,0,1:0:0:0:
201,263,77504,1,0,1:0:0:0:
197,235,77583,1,0,1:0:0:0:
201,263,77662,1,8,1:0:0:0:
201,263,77978,1,0,1:0:0:0:
197,236,78057,1,0,1:0:0:0:
201,263,78136,1,0,1:0:0:0:
197,236,78215,1,0,1:0:0:0:
201,263,78294,1,8,1:0:0:0:
201,263,78610,1,8,1:0:0:0:
197,236,78689,1,0,1:0:0:0:
201,263,78768,1,8,1:0:0:0:
197,236,78847,1,8,1:0:0:0:
201,263,78926,1,0,1:0:0:0:
201,263,79241,1,8,1:0:0:0:
197,236,79320,1,8,1:0:0:0:
201,263,79399,1,8,1:0:0:0:
197,236,79478,1,8,1:0:0:0:
196,268,79557,1,0,1:0:0:0:
195,268,79715,1,0,1:0:0:0:
197,236,79794,1,8,1:0:0:0:
194,270,79873,1,0,1:0:0:0:
194,270,80031,1,8,1:0:0:0:
194,270,80189,1,0,1:0:0:0:
154,240,80504,1,8,1:0:0:0:
154,240,80662,1,8,1:0:0:0:
154,240,80820,1,0,1:0:0:0:
154,240,80978,1,8,1:0:0:0:
250,220,81057,1,8,1:0:0:0:
169,242,81136,1,0,1:0:0:0:
172,243,81294,1,8,1:0:0:0:
173,244,81452,1,0,1:0:0:0:
173,244,81610,1,0,1:0:0:0:
173,244,81768,1,8,1:0:0:0:
174,245,81926,1,0,1:0:0:0:
174,245,82083,1,0,1:0:0:0:
172,243,82241,1,8,1:0:0:0:
173,244,82399,1,0,1:0:0:0:
173,244,82557,1,8,1:0:0:0:
197,229,82636,1,8,1:0:0:0:
173,244,82715,1,0,1:0:0:0:
174,245,83031,1,0,1:0:0:0:
174,245,83189,1,8,1:0:0:0:
173,244,83347,1,8,1:0:0:0:
173,244,83504,1,0,1:0:0:0:
173,244,83662,1,8,1:0:0:0:
174,245,83820,1,0,1:0:0:0:
231,149,83899,1,0,1:0:0:0:
174,245,83978,1,8,1:0:0:0:
174,245,84136,1,8,1:0:0:0:
173,244,84294,1,0,1:0:0:0:
173,244,84452,1,0,1:0:0:0:
173,244,84610,1,8,1:0:0:0:
174,245,84768,1,0,1:0:0:0:
196,201,84847,1,8,1:0:0:0:
174,245,84926,1,0,1:0:0:0:
174,245,85083,1,8,1:0:0:0:
173,244,85241,1,0,1:0:0:0:
173,244,85557,1,8,1:0:0:0:
174,245,85715,1,8,1:0:0:0:
174,245,85873,1,0,1:0:0:0:
174,245,86031,1,8,1:0:0:0:
214,187,86110,1,8,1:0:0:0:
173,244,86189,1,8,1:0:0:0:
173,244,86347,1,0,1:0:0:0:
173,244,86504,1,8,1:0:0:0:
174,245,86662,1,0,1:0:0:0:
174,245,86820,1,0,1:0:0:0:
174,245,86978,1,8,1:0:0:0:
173,244,87136,1,0,1:0:0:0:
173,244,87294,1,8,1:0:0:0:
173,244,87452,1,0,1:0:0:0:
145,81,87531,1,0,1:0:0:0:
174,245,87610,1,8,1:0:0:0:
159,189,87689,1,8,1:0:0:0:
174,245,87768,1,0,1:0:0:0:
174,245,88083,1,8,1:0:0:0:
173,244,88241,1,8,1:0:0:0:
173,244,88399,1,0,1:0:0:0:
174,245,88557,1,8,1:0:0:0:
168,193,88636,1,8,1:0:0:0:
174,245,88715,1,0,1:0:0:0:
174,245,88873,1,0,1:0:0:0:
174,245,89031,1,8,1:0:0:0:
173,244,89189,1,0,1:0:0:0:
173,244,89347,1,8,1:0:0:0:
174,245,89504,1,8,1:0:0:0:
174,245,89662,1,0,1:0:0:0:
174,245,89820,1,8,1:0:0:0:
174,245,89978,1,0,1:0:0:0:
173,244,90294,1,0,1:0:0:0:
203,216,90373,1,0,1:0:0:0:
132,169,90452,1,0,1:0:0:0:
203,216,90531,1,0,1:0:0:0:
174,245,90610,1,8,1:0:0:0:
174,245,90768,1,8,1:0:0:0:
174,245,90926,1,0,1:0:0:0:
264,177,91083,1,0,1:0:0:0:
215,258,91241,1,8,1:0:0:0:
215,258,91399,1,0,1:0:0:0:
215,258,91557,1,8,1:0:0:0:
215,258,91715,1,8,1:0:0:0:
215,258,91873,1,0,1:0:0:0:
215,258,92031,1,8,1:0:0:0:
215,258,92189,1,0,1:0:0:0:
215,258,92347,1,0,1:0:0:0:
215,258,92504,1,8,1:0:0:0:
215,258,92662,1,8,1:0:0:0:
206,214,92741,1,8,1:0:0:0:
215,258,92820,1,0,1:0:0:0:
215,258,93136,1,0,1:0:0:0:
199,234,93294,1,8,1:0:0:0:
206,214,93373,1,8,1:0:0:0:
199,244,93452,1,8,1:0:0:0:
199,243,93610,1,0,1:0:0:0:
199,244,93768,1,8,1:0:0:0:
199,244,93926,1,0,1:0:0:0:
199,244,94083,1,0,1:0:0:0:
199,244,94241,1,8,1:0:0:0:
199,244,94399,1,0,1:0:0:0:
199,243,94557,1,0,1:0:0:0:
199,244,94715,1,8,1:0:0:0:
197,222,94794,1,8,1:0:0:0:
199,244,94873,1,8,1:0:0:0:
199,244,95031,1,0,1:0:0:0:
199,244,95189,1,8,1:0:0:0:
199,244,95347,1,0,1:0:0:0:
199,244,95662,1,0,1:0:0:0:
199,244,95820,1,8,1:0:0:0:
199,244,95978,1,8,1:0:0:0:
199,244,96136,1,0,1:0:0:0:
201,208,96215,1,0,1:0:0:0:
199,244,96294,1,8,1:0:0:0:
199,244,96452,1,0,1:0:0:0:
199,244,96610,1,8,1:0:0:0:
199,244,96768,1,0,1:0:0:0:
199,244,96926,1,8,1:0:0:0:
199,244,97083,1,8,1:0:0:0:
199,244,97241,1,0,1:0:0:0:
199,244,97399,1,8,1:0:0:0:
200,210,97478,1,0,1:0:0:0:
199,244,97557,1,8,1:0:0:0:
199,244,97715,1,0,1:0:0:0:
199,244,97873,1,8,1:0:0:0:
204,249,98189,1,0,1:0:0:0:
204,249,98347,1,8,1:0:0:0:
199,211,98426,1,8,1:0:0:0:
204,249,98504,1,8,1:0:0:0:
204,249,98662,1,0,1:0:0:0:
204,249,98820,1,8,1:0:0:0:
204,249,98978,1,0,1:0:0:0:
204,249,99136,1,8,1:0:0:0:
199,211,99215,1,8,1:0:0:0:
204,249,99294,1,8,1:0:0:0:
199,211,99373,1,8,1:0:0:0:
204,249,99452,1,0,1:0:0:0:
204,249,99610,1,0,1:0:0:0:
204,249,99768,1,8,1:0:0:0:
199,211,99847,1,8,1:0:0:0:
204,249,99926,1,0,1:0:0:0:
199,211,100004,1,0,1:0:0:0:
204,249,100083,1,8,1:0:0:0:
204,249,100241,1,8,1:0:0:0:
204,249,100399,1,0,1:0:0:0:
204,249,100715,1,8,1:0:0:0:
204,249,100873,1,0,1:0:0:0:
199,211,100952,1,0,1:0:0:0:
204,249,101031,1,0,1:0:0:0:
204,249,101189,1,0,1:0:0:0:
204,249,101347,1,8,1:0:0:0:
199,211,101426,1,8,1:0:0:0:
204,249,101504,1,0,1:0:0:0:
199,211,101583,1,0,1:0:0:0:
204,249,101662,1,8,1:0:0:0:
204,249,101820,1,8,1:0:0:0:
204,249,101978,1,0,1:0:0:0:
199,211,102057,1,0,1:0:0:0:
204,249,102136,1,8,1:0:0:0:
203,214,102215,1,0,1:0:0:0:
204,249,102294,1,8,1:0:0:0:
204,249,102452,1,0,1:0:0:0:
204,249,102610,1,8,1:0:0:0:
204,249,102768,1,8,1:0:0:0:
194,167,102847,1,8,1:0:0:0:
204,249,102926,1,0,1:0:0:0:
273,174,103083,1,0,1:0:0:0:
204,249,103241,1,8,1:0:0:0:
204,249,103399,1,8,1:0:0:0:
194,167,103478,1,8,1:0:0:0:
204,249,103557,1,8,1:0:0:0:
204,249,103715,1,0,1:0:0:0:
194,167,103873,1,8,1:0:0:0:
190,201,103952,1,8,1:0:0:0:
204,249,104031,1,0,1:0:0:0:
181,159,104110,1,0,1:0:0:0:
204,249,104189,1,8,1:0:0:0:
204,249,104347,1,0,1:0:0:0:
204,249,104504,1,0,1:0:0:0:
191,201,104583,1,0,1:0:0:0:
204,249,104662,1,8,1:0:0:0:
191,201,104741,1,8,1:0:0:0:
204,249,104820,1,8,1:0:0:0:
204,249,104978,1,0,1:0:0:0:
204,249,105136,1,8,1:0:0:0:
191,201,105215,1,8,1:0:0:0:
204,249,105294,1,0,1:0:0:0:
178,166,105373,1,0,1:0:0:0:
204,249,105452,1,8,1:0:0:0:
204,249,105768,1,8,1:0:0:0:
204,249,105926,1,0,1:0:0:0:
191,201,106004,1,0,1:0:0:0:
204,249,106083,1,8,1:0:0:0:
204,249,106241,1,0,1:0:0:0:
204,249,106399,1,8,1:0:0:0:
191,201,106478,1,0,1:0:0:0:
204,249,106557,1,8,1:0:0:0:
191,201,106636,1,8,1:0:0:0:
204,249,106715,1,0,1:0:0:0:
204,249,106873,1,0,1:0:0:0:
204,249,107031,1,8,1:0:0:0:
191,201,107110,1,8,1:0:0:0:
204,249,107189,1,0,1:0:0:0:
191,201,107268,1,0,1:0:0:0:
204,249,107347,1,8,1:0:0:0:
204,249,107504,1,0,1:0:0:0:
191,201,107583,1,0,1:0:0:0:
204,249,107662,1,8,1:0:0:0:
204,249,107820,1,8,1:0:0:0:
209,252,107978,1,0,1:0:0:0:
270,148,108136,1,0,1:0:0:0:
209,252,108294,1,8,1:0:0:0:
209,252,108452,1,0,1:0:0:0:
239,185,108531,1,0,1:0:0:0:
209,252,108610,1,8,1:0:0:0:
209,252,108768,1,0,1:0:0:0:
239,185,108926,1,8,1:0:0:0:
239,185,109004,1,8,1:0:0:0:
209,252,109083,1,8,1:0:0:0:
239,185,109162,1,8,1:0:0:0:
209,252,109241,1,0,1:0:0:0:
209,252,109399,1,8,1:0:0:0:
239,185,109478,1,0,1:0:0:0:
209,252,109557,1,8,1:0:0:0:
209,252,109715,1,0,1:0:0:0:
209,252,109873,1,8,1:0:0:0:
239,185,109952,1,8,1:0:0:0:
209,252,110031,1,0,1:0:0:0:
239,185,110110,1,0,1:0:0:0:
209,252,110189,1,8,1:0:0:0:
209,252,110347,1,8,1:0:0:0:
209,252,110504,1,0,1:0:0:0:
200,222,110820,1,0,1:0:0:0:
200,222,110899,1,0,1:0:0:0:
144,96,110978,1,0,1:0:0:0:
188,221,111057,1,0,1:0:0:0:
251,220,111452,1,8,1:0:0:0:
188,189,111610,1,8,1:0:0:0:
251,220,111768,1,0,1:0:0:0:
178,240,112399,1,8,1:0:0:0:
178,240,112715,1,0,1:0:0:0:
178,240,112873,1,0,1:0:0:0:
173,249,113031,1,0,1:0:0:0:
172,249,113347,1,0,1:0:0:0:
276,184,113426,1,0,1:0:0:0:
172,249,113504,1,0,1:0:0:0:
276,184,113583,1,0,1:0:0:0:
172,249,113662,1,0,1:0:0:0:
172,249,113978,1,8,1:0:0:0:
276,184,114057,1,8,1:0:0:0:
276,184,114136,1,8,1:0:0:0:
182,246,114215,1,8,1:0:0:0:
172,249,114294,1,0,1:0:0:0:
172,249,114610,1,0,1:0:0:0:
182,247,114689,1,0,1:0:0:0:
172,249,114768,1,0,1:0:0:0:
182,247,114847,1,0,1:0:0:0:
172,249,114926,1,8,1:0:0:0:
172,249,115083,1,0,1:0:0:0:
172,249,115241,1,8,1:0:0:0:
197,234,115320,1,8,1:0:0:0:
159,203,115399,1,0,1:0:0:0:
156,218,115557,1,0,1:0:0:0:
155,218,115873,1,0,1:0:0:0:
197,235,115952,1,0,1:0:0:0:
155,218,116031,1,0,1:0:0:0:
197,235,116110,1,0,1:0:0:0:
155,218,116504,1,8,1:0:0:0:
207,173,116820,1,0,1:0:0:0:
207,173,116978,1,0,1:0:0:0:
207,173,117136,1,0,1:0:0:0:
207,173,117294,1,0,1:0:0:0:
201,263,117452,1,8,1:0:0:0:
207,173,117610,1,8,1:0:0:0:
201,263,117768,1,8,1:0:0:0:
197,235,117847,1,8,1:0:0:0:
201,263,117926,1,8,1:0:0:0:
197,235,118004,1,8,1:0:0:0:
201,263,118083,1,0,1:0:0:0:
201,263,118399,1,0,1:0:0:0:
197,236,118478,1,0,1:0:0:0:
201,263,118557,1,0,1:0:0:0:
197,236,118636,1,0,1:0:0:0:
201,263,118715,1,8,1:0:0:0:
201,263,119031,1,8,1:0:0:0:
197,236,119110,1,0,1:0:0:0:
201,263,119189,1,8,1:0:0:0:
197,236,119268,1,8,1:0:0:0:
201,263,119347,1,0,1:0:0:0:
201,263,119662,1,8,1:0:0:0:
197,236,119741,1,8,1:0:0:0:
201,263,119820,1,8,1:0:0:0:
197,236,119899,1,8,1:0:0:0:
196,268,119978,1,0,1:0:0:0:
195,268,120136,1,0,1:0:0:0:
197,236,120215,1,8,1:0:0:0:
194,270,120294,1,0,1:0:0:0:
194,270,120452,1,8,1:0:0:0:
194,270,120610,1,0,1:0:0:0:
222,189,121241,1,0,1:0:0:0:
222,189,121873,1,0,1:0:0:0:
222,189,122504,1,0,1:0:0:0:
222,189,122978,1,8,1:0:0:0:
222,189,123136,1,8,1:0:0:0:
205,238,125347,1,8,1:0:0:0:
205,238,125662,1,0,1:0:0:0:
252,232,125820,1,0,1:0:0:0:
252,232,125978,1,8,1:0:0:0:
252,232,126136,1,0,1:0:0:0:
203,189,126215,1,0,1:0:0:0:
252,232,126294,1,8,1:0:0:0:
252,232,126452,1,0,1:0:0:0:
252,232,126610,1,8,1:0:0:0:
252,232,126768,1,8,1:0:0:0:
252,232,126926,1,0,1:0:0:0:
252,232,127083,1,8,1:0:0:0:
252,232,127241,1,0,1:0:0:0:
252,232,127399,1,8,1:0:0:0:
222,178,127478,1,8,1:0:0:0:
252,232,127557,1,8,1:0:0:0:
252,232,127715,1,8,1:0:0:0:
252,232,127873,1,0,1:0:0:0:
252,232,128189,1,8,1:0:0:0:
252,232,128347,1,8,1:0:0:0:
252,232,128504,1,0,1:0:0:0:
252,232,128662,1,8,1:0:0:0:
252,232,128820,1,0,1:0:0:0:
252,232,128978,1,0,1:0:0:0:
226,177,129057,1,0,1:0:0:0:
252,232,129136,1,8,1:0:0:0:
258,228,129294,1,0,1:0:0:0:
258,228,129452,1,8,1:0:0:0:
258,228,129610,1,0,1:0:0:0:
258,228,129768,1,8,1:0:0:0:
258,228,129926,1,8,1:0:0:0:
258,228,130083,1,0,1:0:0:0:
224,181,130241,1,8,1:0:0:0:
224,181,130320,1,8,1:0:0:0:
258,228,130399,1,0,1:0:0:0:
258,228,130715,1,8,1:0:0:0:
258,228,130873,1,8,1:0:0:0:
258,228,131031,1,0,1:0:0:0:
258,228,131189,1,0,1:0:0:0:
224,181,131268,1,8,1:0:0:0:
258,228,131347,1,0,1:0:0:0:
258,228,131504,1,8,1:0:0:0:
258,228,131662,1,0,1:0:0:0:
258,228,131820,1,0,1:0:0:0:
258,228,131978,1,8,1:0:0:0:
258,228,132136,1,8,1:0:0:0:
258,228,132294,1,0,1:0:0:0:
224,183,132452,1,8,1:0:0:0:
209,92,132531,1,0,1:0:0:0:
258,228,132610,1,0,1:0:0:0:
258,228,132768,1,8,1:0:0:0:
211,192,132926,1,0,1:0:0:0:
211,192,133241,1,0,1:0:0:0:
216,227,133399,1,8,1:0:0:0:
216,227,133557,1,8,1:0:0:0:
218,226,133715,1,0,1:0:0:0:
212,223,133794,1,0,1:0:0:0:
218,226,133873,1,8,1:0:0:0:
218,226,134031,1,0,1:0:0:0:
218,226,134189,1,8,1:0:0:0:
216,227,134347,1,0,1:0:0:0:
216,227,134504,1,8,1:0:0:0:
218,226,134662,1,8,1:0:0:0:
218,226,134820,1,0,1:0:0:0:
218,226,134978,1,0,1:0:0:0:
218,226,135136,1,8,1:0:0:0:
216,227,135294,1,0,1:0:0:0:
216,173,135452,1,8,1:0:0:0:
216,173,135531,1,8,1:0:0:0:
216,173,135610,1,8,1:0:0:0:
218,226,135768,1,0,1:0:0:0:
218,226,135926,1,0,1:0:0:0:
218,226,136083,1,8,1:0:0:0:
216,227,136241,1,0,1:0:0:0:
169,204,136320,1,0,1:0:0:0:
216,227,136399,1,8,1:0:0:0:
218,226,136557,1,0,1:0:0:0:
218,226,136715,1,8,1:0:0:0:
218,226,136873,1,8,1:0:0:0:
218,226,137031,1,0,1:0:0:0:
216,227,137189,1,8,1:0:0:0:
216,227,137347,1,0,1:0:0:0:
218,226,137504,1,0,1:0:0:0:
216,199,137583,1,0,1:0:0:0:
218,226,137662,1,8,1:0:0:0:
218,226,137820,1,8,1:0:0:0:
218,226,137978,1,0,1:0:0:0:
216,227,138294,1,8,1:0:0:0:
218,226,138452,1,8,1:0:0:0:
218,226,138610,1,0,1:0:0:0:
218,226,138768,1,8,1:0:0:0:
216,199,138847,1,8,1:0:0:0:
218,226,138926,1,8,1:0:0:0:
216,227,139083,1,0,1:0:0:0:
216,227,139241,1,8,1:0:0:0:
218,226,139399,1,0,1:0:0:0:
218,226,139557,1,0,1:0:0:0:
218,226,139715,1,8,1:0:0:0:
218,226,139873,1,0,1:0:0:0:
316,224,140820,1,0,1:0:0:0:
316,224,140978,1,0,1:0:0:0:
316,224,141136,1,8,1:0:0:0:
316,224,141294,1,0,1:0:0:0:
220,200,141373,1,0,1:0:0:0:
316,224,141452,1,8,1:0:0:0:
220,200,141531,1,8,1:0:0:0:
316,224,141610,1,0,1:0:0:0:
316,224,141768,1,8,1:0:0:0:
316,224,141926,1,8,1:0:0:0:
220,200,142004,1,8,1:0:0:0:
316,224,142083,1,0,1:0:0:0:
316,224,142241,1,0,1:0:0:0:
316,224,142399,1,8,1:0:0:0:
220,200,142478,1,0,1:0:0:0:
316,224,142557,1,8,1:0:0:0:
220,200,142636,1,8,1:0:0:0:
316,224,142715,1,0,1:0:0:0:
316,224,142873,1,8,1:0:0:0:
316,224,143031,1,0,1:0:0:0:
277,169,143189,1,0,1:0:0:0:
212,254,143347,1,8,1:0:0:0:
212,254,143504,1,0,1:0:0:0:
220,200,143583,1,0,1:0:0:0:
212,254,143662,1,0,1:0:0:0:
212,254,143820,1,8,1:0:0:0:
212,254,143978,1,0,1:0:0:0:
220,200,144057,1,0,1:0:0:0:
212,254,144136,1,8,1:0:0:0:
220,200,144215,1,8,1:0:0:0:
212,254,144294,1,0,1:0:0:0:
212,254,144452,1,8,1:0:0:0:
220,200,144531,1,8,1:0:0:0:
212,254,144610,1,0,1:0:0:0:
212,254,144768,1,8,1:0:0:0:
212,254,144926,1,0,1:0:0:0:
220,200,145083,1,0,1:0:0:0:
199,195,145162,1,0,1:0:0:0:
212,254,145241,1,8,1:0:0:0:
242,137,145320,1,0,1:0:0:0:
212,254,145399,1,8,1:0:0:0:
212,254,145557,1,0,1:0:0:0:
212,254,145873,1,0,1:0:0:0:
231,248,146031,1,8,1:0:0:0:
231,248,146189,1,8,1:0:0:0:
231,248,146347,1,0,1:0:0:0:
199,195,146426,1,0,1:0:0:0:
232,248,146504,1,0,1:0:0:0:
231,248,146662,1,8,1:0:0:0:
231,248,146820,1,0,1:0:0:0:
199,195,146899,1,0,1:0:0:0:
231,248,146978,1,8,1:0:0:0:
199,195,147057,1,0,1:0:0:0:
231,248,147136,1,8,1:0:0:0:
231,248,147294,1,8,1:0:0:0:
199,195,147373,1,8,1:0:0:0:
232,248,147452,1,0,1:0:0:0:
231,248,147610,1,8,1:0:0:0:
231,248,147768,1,0,1:0:0:0:
199,195,147847,1,0,1:0:0:0:
231,248,147926,1,8,1:0:0:0:
231,248,148083,1,0,1:0:0:0:
282,170,148241,1,8,1:0:0:0:
232,248,148399,1,0,1:0:0:0:
199,195,148557,1,8,1:0:0:0:
199,195,148636,1,8,1:0:0:0:
231,248,148715,1,8,1:0:0:0:
231,248,148873,1,0,1:0:0:0:
231,248,149031,1,8,1:0:0:0:
199,195,149110,1,8,1:0:0:0:
232,248,149189,1,0,1:0:0:0:
199,195,149268,1,0,1:0:0:0:
232,248,149347,1,0,1:0:0:0:
231,248,149504,1,8,1:0:0:0:
199,195,149583,1,8,1:0:0:0:
231,248,149662,1,8,1:0:0:0:
231,248,149820,1,0,1:0:0:0:
231,248,149978,1,0,1:0:0:0:
199,195,150057,1,0,1:0:0:0:
199,195,150136,1,8,1:0:0:0:
197,201,150215,1,8,1:0:0:0:
232,248,150294,1,0,1:0:0:0:
232,248,150452,1,8,1:0:0:0:
231,248,150610,1,0,1:0:0:0:
231,248,150926,1,8,1:0:0:0:
232,248,151083,1,0,1:0:0:0:
197,201,151162,1,0,1:0:0:0:
232,248,151241,1,0,1:0:0:0:
232,248,151399,1,8,1:0:0:0:
231,248,151557,1,0,1:0:0:0:
197,201,151636,1,0,1:0:0:0:
229,255,151715,1,8,1:0:0:0:
197,201,151794,1,0,1:0:0:0:
231,248,151873,1,8,1:0:0:0:
229,254,152031,1,0,1:0:0:0:
229,254,152189,1,8,1:0:0:0:
197,201,152268,1,8,1:0:0:0:
229,254,152347,1,0,1:0:0:0:
197,201,152426,1,0,1:0:0:0:
231,248,152504,1,0,1:0:0:0:
229,255,152662,1,8,1:0:0:0:
246,137,152741,1,8,1:0:0:0:
231,248,152820,1,0,1:0:0:0:
229,254,152978,1,8,1:0:0:0:
229,254,153136,1,0,1:0:0:0:
269,126,153294,1,0,1:0:0:0:
231,248,153452,1,8,1:0:0:0:
229,255,153610,1,0,1:0:0:0:
197,202,153689,1,0,1:0:0:0:
231,248,153768,1,0,1:0:0:0:
229,254,153926,1,8,1:0:0:0:
229,254,154083,1,0,1:0:0:0:
197,202,154162,1,0,1:0:0:0:
231,248,154241,1,8,1:0:0:0:
207,143,154320,1,0,1:0:0:0:
231,248,154399,1,8,1:0:0:0:
229,255,154557,1,0,1:0:0:0:
231,248,154715,1,8,1:0:0:0:
197,202,154794,1,8,1:0:0:0:
229,254,154873,1,0,1:0:0:0:
229,254,155031,1,0,1:0:0:0:
197,202,155110,1,0,1:0:0:0:
231,248,155189,1,8,1:0:0:0:
197,202,155268,1,8,1:0:0:0:
231,248,155347,1,0,1:0:0:0:
229,255,155504,1,8,1:0:0:0:
231,248,155662,1,0,1:0:0:0:
229,254,155978,1,8,1:0:0:0:
231,248,156136,1,0,1:0:0:0:
509,174,156215,1,0,1:0:0:0:
231,248,156294,1,0,1:0:0:0:
229,255,156452,1,8,1:0:0:0:
231,248,156610,1,0,1:0:0:0:
197,202,156689,1,0,1:0:0:0:
229,254,156768,1,8,1:0:0:0:
197,202,156847,1,8,1:0:0:0:
229,254,156926,1,0,1:0:0:0:
231,248,157083,1,8,1:0:0:0:
231,248,157241,1,0,1:0:0:0:
197,202,157320,1,0,1:0:0:0:
229,255,157399,1,0,1:0:0:0:
197,202,157478,1,0,1:0:0:0:
231,248,157557,1,8,1:0:0:0:
197,202,157715,1,8,1:0:0:0:
197,202,157794,1,8,1:0:0:0:
229,254,157873,1,0,1:0:0:0:
231,248,158031,1,8,1:0:0:0:
231,248,158189,1,0,1:0:0:0:
270,137,158347,1,0,1:0:0:0:
306,149,158426,1,0,1:0:0:0:
231,248,158504,1,8,1:0:0:0:
229,254,158662,1,8,1:0:0:0:
197,202,158741,1,8,1:0:0:0:
229,254,158820,1,8,1:0:0:0:
231,248,158978,1,0,1:0:0:0:
231,248,159136,1,8,1:0:0:0:
231,248,159294,1,0,1:0:0:0:
213,131,159373,1,0,1:0:0:0:
231,248,159452,1,8,1:0:0:0:
229,254,159610,1,8,1:0:0:0:
229,254,159768,1,0,1:0:0:0:
206,189,159847,1,0,1:0:0:0:
235,253,159926,1,8,1:0:0:0:
197,202,160004,1,0,1:0:0:0:
235,253,160083,1,8,1:0:0:0:
235,253,160241,1,0,1:0:0:0:
235,253,160399,1,0,1:0:0:0:
197,202,160478,1,0,1:0:0:0:
236,253,160557,1,8,1:0:0:0:
197,202,160636,1,8,1:0:0:0:
237,253,160715,1,0,1:0:0:0:
235,253,160873,1,8,1:0:0:0:
235,253,161031,1,0,1:0:0:0:
176,247,161347,1,8,1:0:0:0:
176,247,161504,1,8,1:0:0:0:
197,202,161583,1,8,1:0:0:0:
176,247,161662,1,0,1:0:0:0:
176,247,161820,1,8,1:0:0:0:
176,247,161978,1,8,1:0:0:0:
176,247,162136,1,0,1:0:0:0:
176,247,162294,1,0,1:0:0:0:
176,247,162452,1,8,1:0:0:0:
176,247,162610,1,0,1:0:0:0:
176,247,162768,1,0,1:0:0:0:
198,200,162847,1,0,1:0:0:0:
176,247,162926,1,8,1:0:0:0:
176,247,163083,1,8,1:0:0:0:
176,247,163241,1,0,1:0:0:0:
161,254,163557,1,8,1:0:0:0:
161,254,163715,1,8,1:0:0:0:
161,254,163873,1,0,1:0:0:0:
161,254,164031,1,8,1:0:0:0:
199,200,164110,1,8,1:0:0:0:
162,254,164189,1,8,1:0:0:0:
161,254,164347,1,0,1:0:0:0:
161,254,164504,1,8,1:0:0:0:
161,254,164662,1,0,1:0:0:0:
161,254,164820,1,0,1:0:0:0:
161,254,164978,1,8,1:0:0:0:
162,254,165136,1,0,1:0:0:0:
161,254,165294,1,8,1:0:0:0:
161,254,165452,1,8,1:0:0:0:
161,254,165610,1,0,1:0:0:0:
199,200,165689,1,0,1:0:0:0:
161,254,165768,1,0,1:0:0:0:
162,254,166083,1,8,1:0:0:0:
161,254,166241,1,8,1:0:0:0:
161,254,166399,1,0,1:0:0:0:
161,254,166557,1,0,1:0:0:0:
199,200,166636,1,0,1:0:0:0:
161,254,166715,1,8,1:0:0:0:
162,254,166873,1,0,1:0:0:0:
162,254,167031,1,8,1:0:0:0:
161,254,167189,1,0,1:0:0:0:
161,254,167347,1,0,1:0:0:0:
161,254,167504,1,8,1:0:0:0:
161,254,167662,1,0,1:0:0:0:
162,254,167820,1,8,1:0:0:0:
162,254,167978,1,0,1:0:0:0:
199,200,168136,1,8,1:0:0:0:
199,200,168215,1,8,1:0:0:0:
161,254,168294,1,0,1:0:0:0:
161,254,168610,1,8,1:0:0:0:
162,254,168768,1,8,1:0:0:0:
162,254,168926,1,0,1:0:0:0:
161,254,169083,1,0,1:0:0:0:
211,195,169162,1,0,1:0:0:0:
168,255,169241,1,8,1:0:0:0:
169,255,169399,1,0,1:0:0:0:
169,255,169557,1,8,1:0:0:0:
169,255,169715,1,0,1:0:0:0:
170,255,169873,1,0,1:0:0:0:
171,255,170031,1,8,1:0:0:0:
168,255,170189,1,0,1:0:0:0:
169,255,170347,1,0,1:0:0:0:
210,195,170426,1,0,1:0:0:0:
169,255,170504,1,0,1:0:0:0:
169,255,170662,1,8,1:0:0:0:
170,255,170820,1,0,1:0:0:0:
171,255,170978,1,8,1:0:0:0:
168,255,171136,1,4,1:0:0:0:
256,192,171294,12,0,175083,1:0:0:0:
