osu file format v14

[General]
AudioFilename: audio.ogg
AudioLeadIn: 0
PreviewTime: 100342
Countdown: 0
SampleSet: Normal
StackLeniency: 0.7
Mode: 1
LetterboxInBreaks: 0
WidescreenStoryboard: 1

[Editor]
Bookmarks: 171157
DistanceSpacing: 0.6
BeatDivisor: 12
GridSize: 32
TimelineZoom: 2.599999

[Metadata]
Title:skeleton (Lettuce ver.)
TitleUnicode:skeleton (Lettuce ver.)
Artist:Tenchio
ArtistUnicode:Tenchio
Creator:skolodojko
Version:Muzukashii
Source:
Tags:post rock punk instrumental math post-hardcore hardcore post-rock progressive experimental Bloc Party English
BeatmapID:3504596
BeatmapSetID:1709635

[Difficulty]
HPDrainRate:6.5
CircleSize:2
OverallDifficulty:5
ApproachRate:10
SliderMultiplier:1.4
SliderTickRate:1

[Events]
//Background and Video events
0,0,"3641414_2.jpg",0,0
//Break Periods
//Storyboard Layer 0 (Background)
//Storyboard Layer 1 (Fail)
//Storyboard Layer 2 (Pass)
//Storyboard Layer 3 (Foreground)
//Storyboard Layer 4 (Overlay)
//Storyboard Sound Samples

[TimingPoints]
611,315.789473684211,4,1,0,70,1,0
10716,-100,4,1,0,80,0,0
21453,-100,4,1,0,90,0,0
41032,315.789473684211,7,1,0,90,1,0
41347,-100,7,1,0,80,0,0
45453,315.789473684211,4,1,0,80,1,0
50505,315.789473684211,7,1,0,80,1,0
54926,315.789473684211,4,1,0,80,1,0
59978,-100,4,1,0,100,0,1
70083,-100,4,1,0,80,0,0
100399,-100,4,1,0,100,0,1
110504,-100,4,1,0,80,0,0
125347,-100,4,1,0,70,0,0
125662,-100,4,1,0,80,0,0
140820,-100,4,1,0,100,0,1
161031,-100,4,1,0,90,0,0
161347,-100,4,1,0,80,0,0
171235,-100,4,1,0,40,0,0

[HitObjects]
244,200,611,5,8,1:0:0:0:
236,222,1716,1,0,1:0:0:0:
202,189,3137,1,8,1:0:0:0:
202,189,3453,1,0,1:0:0:0:
188,243,4242,1,0,1:0:0:0:
184,216,5663,1,8,1:0:0:0:
184,218,6768,1,0,1:0:0:0:
259,184,8189,1,8,1:0:0:0:
220,208,8505,1,0,1:0:0:0:
224,215,9295,1,0,1:0:0:0:
225,217,10716,1,8,1:0:0:0:
225,217,11032,1,0,1:0:0:0:
225,217,11347,1,0,1:0:0:0:
225,217,11663,1,0,1:0:0:0:
225,217,11979,1,8,1:0:0:0:
225,217,12295,1,0,1:0:0:0:
225,217,12611,1,8,1:0:0:0:
225,217,12926,1,8,1:0:0:0:
225,217,13084,1,8,1:0:0:0:
225,217,13242,1,8,1:0:0:0:
225,217,13558,1,0,1:0:0:0:
225,217,13874,1,8,1:0:0:0:
225,217,14189,1,0,1:0:0:0:
225,217,14505,1,8,1:0:0:0:
225,217,14821,1,8,1:0:0:0:
169,167,15137,1,0,1:0:0:0:
182,235,15453,1,8,1:0:0:0:
182,235,15611,1,8,1:0:0:0:
182,235,15768,1,0,1:0:0:0:
182,235,16084,1,0,1:0:0:0:
182,235,16400,1,8,1:0:0:0:
182,235,16716,1,0,1:0:0:0:
182,235,17032,1,8,1:0:0:0:
182,235,17347,1,0,1:0:0:0:
182,235,17663,1,0,1:0:0:0:
182,235,17821,1,8,1:0:0:0:
182,235,17979,1,0,1:0:0:0:
182,235,18137,1,8,1:0:0:0:
219,215,18295,1,0,1:0:0:0:
239,180,18611,1,8,1:0:0:0:
239,180,18768,1,8,1:0:0:0:
239,180,18926,1,0,1:0:0:0:
264,166,19084,1,0,1:0:0:0:
239,180,19242,1,8,1:0:0:0:
239,180,19400,1,0,1:0:0:0:
269,156,19479,1,0,1:0:0:0:
239,180,19558,1,0,1:0:0:0:
239,180,19716,1,0,1:0:0:0:
239,180,19874,1,8,1:0:0:0:
239,180,20189,1,0,1:0:0:0:
239,180,20505,1,8,1:0:0:0:
173,129,20821,2,0,L|405:175,1,210,0|0,1:0|1:0,1:0:0:0:
268,167,21453,1,0,1:0:0:0:
268,167,21768,1,8,1:0:0:0:
247,194,22084,1,0,1:0:0:0:
216,237,22242,1,0,1:0:0:0:
216,237,22400,1,8,1:0:0:0:
216,237,22716,1,0,1:0:0:0:
216,237,23032,1,8,1:0:0:0:
185,192,23189,1,0,1:0:0:0:
223,181,23268,1,0,1:0:0:0:
216,237,23347,1,0,1:0:0:0:
216,237,23505,1,0,1:0:0:0:
216,237,23663,1,8,1:0:0:0:
216,237,23979,1,0,1:0:0:0:
226,133,24295,1,8,1:0:0:0:
226,133,24611,1,0,1:0:0:0:
226,133,24768,1,8,1:0:0:0:
226,133,24926,1,0,1:0:0:0:
316,158,25084,1,0,1:0:0:0:
226,133,25242,1,8,1:0:0:0:
296,210,25558,1,0,1:0:0:0:
268,167,25874,1,0,1:0:0:0:
268,167,26189,1,8,1:0:0:0:
247,194,26505,1,0,1:0:0:0:
216,237,26663,1,0,1:0:0:0:
216,237,26821,1,8,1:0:0:0:
216,237,27137,1,0,1:0:0:0:
216,237,27453,1,8,1:0:0:0:
185,192,27611,1,8,1:0:0:0:
216,237,27768,1,0,1:0:0:0:
216,237,27926,1,8,1:0:0:0:
216,237,28084,1,8,1:0:0:0:
216,237,28400,1,0,1:0:0:0:
226,133,28716,1,8,1:0:0:0:
226,133,29032,1,0,1:0:0:0:
226,133,29189,1,8,1:0:0:0:
226,133,29347,1,0,1:0:0:0:
320,165,29505,1,0,1:0:0:0:
226,133,29663,1,8,1:0:0:0:
186,206,29979,1,8,1:0:0:0:
186,206,30295,1,0,1:0:0:0:
271,180,30453,1,8,1:0:0:0:
271,180,30611,1,8,1:0:0:0:
271,180,30768,1,0,1:0:0:0:
360,205,30847,1,0,1:0:0:0:
268,167,30926,1,0,1:0:0:0:
268,167,31242,1,8,1:0:0:0:
247,194,31558,1,0,1:0:0:0:
216,237,31716,1,0,1:0:0:0:
216,237,31874,1,8,1:0:0:0:
216,237,32189,1,0,1:0:0:0:
216,237,32505,1,8,1:0:0:0:
216,237,32821,1,8,1:0:0:0:
216,237,32979,1,0,1:0:0:0:
216,237,33137,1,0,1:0:0:0:
199,49,33295,1,8,1:0:0:0:
237,180,33374,1,8,1:0:0:0:
216,237,33453,1,8,1:0:0:0:
226,133,33768,1,0,1:0:0:0:
226,133,34084,1,0,1:0:0:0:
226,133,34242,1,0,1:0:0:0:
226,133,34400,1,8,1:0:0:0:
226,133,34716,1,0,1:0:0:0:
220,163,35032,1,8,1:0:0:0:
220,163,35347,1,0,1:0:0:0:
220,163,35505,1,0,1:0:0:0:
220,163,35663,1,8,1:0:0:0:
220,163,35821,1,0,1:0:0:0:
220,163,35979,1,8,1:0:0:0:
220,163,36295,1,8,1:0:0:0:
220,163,36453,1,8,1:0:0:0:
220,163,36611,1,0,1:0:0:0:
178,193,36926,1,8,1:0:0:0:
178,193,37242,1,0,1:0:0:0:
178,193,37400,1,8,1:0:0:0:
178,193,37558,1,0,1:0:0:0:
178,193,37874,1,0,1:0:0:0:
178,193,38189,1,8,1:0:0:0:
178,193,38505,5,0,1:0:0:0:
178,193,38821,1,8,1:0:0:0:
178,193,38979,1,8,1:0:0:0:
178,193,39137,1,0,1:0:0:0:
178,193,39453,1,8,1:0:0:0:
178,193,39768,1,0,1:0:0:0:
178,193,39926,1,0,1:0:0:0:
178,193,40084,1,8,1:0:0:0:
178,193,40242,1,0,1:0:0:0:
178,193,40400,1,8,1:0:0:0:
324,191,40558,1,8,1:0:0:0:
178,193,40716,1,0,1:0:0:0:
249,219,40795,1,0,1:0:0:0:
249,219,40874,1,0,1:0:0:0:
224,131,41032,1,8,1:0:0:0:
381,238,41347,1,0,1:0:0:0:
218,220,41663,1,8,1:0:0:0:
217,220,41821,1,8,1:0:0:0:
218,220,41979,1,0,1:0:0:0:
218,220,42295,1,8,1:0:0:0:
218,220,42610,1,0,1:0:0:0:
218,220,42926,1,0,1:0:0:0:
218,220,43084,1,8,1:0:0:0:
218,220,43242,1,0,1:0:0:0:
218,220,43558,1,8,1:0:0:0:
227,153,43874,1,0,1:0:0:0:
218,183,44189,1,0,1:0:0:0:
218,186,44505,1,8,1:0:0:0:
218,186,44663,1,8,1:0:0:0:
219,186,44821,1,0,1:0:0:0:
218,183,45137,1,8,1:0:0:0:
218,186,45295,1,0,1:0:0:0:
376,123,45374,1,0,1:0:0:0:
218,186,45453,1,0,1:0:0:0:
288,125,45610,1,0,1:0:0:0:
271,177,45768,1,8,1:0:0:0:
271,177,46084,1,0,1:0:0:0:
271,177,46400,1,8,1:0:0:0:
271,177,46558,1,8,1:0:0:0:
271,177,46716,1,0,1:0:0:0:
271,177,47031,1,8,1:0:0:0:
271,177,47347,1,0,1:0:0:0:
271,177,47663,1,8,1:0:0:0:
271,177,47979,1,0,1:0:0:0:
271,177,48137,1,0,1:0:0:0:
271,177,48295,1,8,1:0:0:0:
271,177,48610,1,8,1:0:0:0:
271,177,48926,1,0,1:0:0:0:
271,177,49242,1,8,1:0:0:0:
271,177,49558,1,0,1:0:0:0:
271,177,49716,1,8,1:0:0:0:
271,177,49874,1,0,1:0:0:0:
279,175,50031,1,0,1:0:0:0:
279,174,50189,1,8,1:0:0:0:
279,174,50505,1,8,1:0:0:0:
280,174,50820,1,0,1:0:0:0:
279,175,50978,1,0,1:0:0:0:
279,174,51136,1,8,1:0:0:0:
279,174,51452,1,0,1:0:0:0:
280,174,51768,1,8,1:0:0:0:
279,174,52083,1,0,1:0:0:0:
279,174,52241,1,8,1:0:0:0:
279,174,52399,1,0,1:0:0:0:
280,174,52557,1,8,1:0:0:0:
338,204,52636,1,8,1:0:0:0:
280,174,52715,1,8,1:0:0:0:
252,121,52873,1,0,1:0:0:0:
234,206,53031,1,8,1:0:0:0:
234,206,53347,1,0,1:0:0:0:
234,206,53662,1,8,1:0:0:0:
247,206,53820,1,8,1:0:0:0:
234,206,53978,1,0,1:0:0:0:
234,206,54294,1,8,1:0:0:0:
234,206,54610,1,0,1:0:0:0:
241,206,54768,1,8,1:0:0:0:
295,206,54847,1,8,1:0:0:0:
357,191,54926,1,8,1:0:0:0:
363,163,55083,1,8,1:0:0:0:
361,169,55241,1,0,1:0:0:0:
272,203,55557,1,8,1:0:0:0:
272,203,55873,1,0,1:0:0:0:
272,203,56189,1,0,1:0:0:0:
272,203,56347,1,8,1:0:0:0:
272,203,56504,1,0,1:0:0:0:
272,203,56662,1,8,1:0:0:0:
272,203,56820,1,0,1:0:0:0:
272,203,57136,1,0,1:0:0:0:
272,203,57452,1,8,1:0:0:0:
272,203,57768,1,8,1:0:0:0:
272,203,57926,1,8,1:0:0:0:
272,203,58083,1,0,1:0:0:0:
272,203,58399,1,8,1:0:0:0:
272,203,58715,1,0,1:0:0:0:
278,198,58873,1,8,1:0:0:0:
336,182,58952,1,8,1:0:0:0:
278,198,59031,1,8,1:0:0:0:
278,198,59189,1,8,1:0:0:0:
278,198,59347,1,0,1:0:0:0:
278,198,59504,1,8,1:0:0:0:
278,198,59662,1,0,1:0:0:0:
327,188,59978,1,0,1:0:0:0:
196,233,60294,1,8,1:0:0:0:
196,233,60452,1,0,1:0:0:0:
241,192,60531,1,0,1:0:0:0:
196,233,60610,1,0,1:0:0:0:
196,233,60768,1,0,1:0:0:0:
196,233,60926,1,8,1:0:0:0:
171,166,61083,1,0,1:0:0:0:
196,233,61241,1,8,1:0:0:0:
196,233,61557,1,0,1:0:0:0:
253,198,61715,1,0,1:0:0:0:
196,233,61873,1,8,1:0:0:0:
196,233,62031,1,0,1:0:0:0:
253,198,62110,1,0,1:0:0:0:
196,233,62189,1,0,1:0:0:0:
196,233,62504,1,8,1:0:0:0:
173,166,62662,1,0,1:0:0:0:
196,233,62820,1,8,1:0:0:0:
196,233,62978,1,0,1:0:0:0:
251,194,63057,1,0,1:0:0:0:
196,233,63136,1,0,1:0:0:0:
196,233,63294,1,8,1:0:0:0:
196,233,63452,1,0,1:0:0:0:
196,233,63768,1,8,1:0:0:0:
196,233,64083,1,0,1:0:0:0:
196,233,64399,1,8,1:0:0:0:
255,202,64557,1,8,1:0:0:0:
196,233,64715,1,0,1:0:0:0:
255,202,64873,1,8,1:0:0:0:
196,233,65031,1,0,1:0:0:0:
196,233,65347,1,8,1:0:0:0:
196,233,65504,1,0,1:0:0:0:
255,202,65583,1,0,1:0:0:0:
196,233,65662,1,0,1:0:0:0:
196,233,65820,1,8,1:0:0:0:
196,233,65978,1,8,1:0:0:0:
177,168,66136,1,0,1:0:0:0:
196,233,66294,1,8,1:0:0:0:
196,233,66610,1,8,1:0:0:0:
196,233,66768,1,0,1:0:0:0:
196,233,66926,1,0,1:0:0:0:
196,233,67083,1,8,1:0:0:0:
256,202,67162,1,8,1:0:0:0:
196,233,67241,1,8,1:0:0:0:
251,158,67399,1,0,1:0:0:0:
251,158,67557,1,8,1:0:0:0:
196,233,67873,1,8,1:0:0:0:
196,233,68031,1,0,1:0:0:0:
256,202,68110,1,0,1:0:0:0:
196,233,68189,1,0,1:0:0:0:
196,233,68347,1,8,1:0:0:0:
196,233,68504,1,0,1:0:0:0:
179,168,68662,1,0,1:0:0:0:
196,233,68820,1,8,1:0:0:0:
249,159,68978,1,0,1:0:0:0:
196,233,69136,1,0,1:0:0:0:
196,233,69294,1,8,1:0:0:0:
196,233,69452,1,0,1:0:0:0:
196,233,69610,1,8,1:0:0:0:
256,203,69689,1,8,1:0:0:0:
196,233,69768,1,8,1:0:0:0:
256,203,69926,1,8,1:0:0:0:
196,233,70083,1,0,1:0:0:0:
196,233,70399,1,0,1:0:0:0:
240,163,70557,1,0,1:0:0:0:
196,233,71031,1,8,1:0:0:0:
196,233,71347,1,0,1:0:0:0:
243,180,71978,1,0,1:0:0:0:
254,185,72294,1,8,1:0:0:0:
254,186,72452,1,8,1:0:0:0:
254,186,72610,1,0,1:0:0:0:
252,188,72926,1,0,1:0:0:0:
176,165,73083,1,8,1:0:0:0:
203,217,73241,1,0,1:0:0:0:
203,217,73557,1,8,1:0:0:0:
312,181,73636,1,8,1:0:0:0:
203,217,73715,1,8,1:0:0:0:
312,181,73873,1,0,1:0:0:0:
239,180,74189,1,0,1:0:0:0:
239,180,74347,1,8,1:0:0:0:
249,184,74504,1,0,1:0:0:0:
246,183,74583,1,0,1:0:0:0:
239,180,74662,1,0,1:0:0:0:
239,180,74820,1,8,1:0:0:0:
239,180,74978,1,8,1:0:0:0:
239,180,75136,1,0,1:0:0:0:
232,215,75452,1,0,1:0:0:0:
254,185,75610,1,0,1:0:0:0:
201,209,76083,1,8,1:0:0:0:
201,209,76399,1,0,1:0:0:0:
201,209,77031,1,8,1:0:0:0:
201,209,77347,1,0,1:0:0:0:
201,209,77504,1,8,1:0:0:0:
201,209,77662,1,0,1:0:0:0:
166,178,77978,1,0,1:0:0:0:
166,178,78136,1,0,1:0:0:0:
166,178,78294,1,8,1:0:0:0:
166,178,78610,1,8,1:0:0:0:
166,178,78926,1,0,1:0:0:0:
166,178,79241,1,8,1:0:0:0:
166,178,79399,1,8,1:0:0:0:
266,171,79478,1,8,1:0:0:0:
166,178,79557,1,8,1:0:0:0:
166,178,79715,1,0,1:0:0:0:
166,178,79873,1,8,1:0:0:0:
166,178,80189,1,0,1:0:0:0:
240,214,80504,1,8,1:0:0:0:
240,214,80820,1,0,1:0:0:0:
240,214,80978,1,0,1:0:0:0:
240,214,81136,1,8,1:0:0:0:
240,214,81452,1,0,1:0:0:0:
240,214,81768,1,8,1:0:0:0:
240,214,81926,1,8,1:0:0:0:
240,214,82083,1,0,1:0:0:0:
240,214,82241,1,8,1:0:0:0:
240,214,82399,1,0,1:0:0:0:
242,146,82557,1,8,1:0:0:0:
242,146,82636,1,8,1:0:0:0:
242,146,82715,1,8,1:0:0:0:
240,214,83031,1,0,1:0:0:0:
185,220,83347,1,8,1:0:0:0:
185,220,83504,1,8,1:0:0:0:
185,220,83662,1,0,1:0:0:0:
185,220,83978,1,8,1:0:0:0:
185,220,84294,1,0,1:0:0:0:
185,220,84610,1,0,1:0:0:0:
185,220,84768,1,8,1:0:0:0:
185,220,84926,1,0,1:0:0:0:
182,176,85083,1,8,1:0:0:0:
246,141,85162,1,8,1:0:0:0:
182,176,85241,1,8,1:0:0:0:
185,220,85557,1,0,1:0:0:0:
185,220,85873,1,8,1:0:0:0:
185,220,86189,1,0,1:0:0:0:
201,179,86347,1,0,1:0:0:0:
185,220,86504,1,8,1:0:0:0:
185,220,86820,1,8,1:0:0:0:
191,220,86978,1,8,1:0:0:0:
192,220,87136,1,0,1:0:0:0:
201,179,87294,1,0,1:0:0:0:
192,220,87452,1,8,1:0:0:0:
171,153,87610,1,0,1:0:0:0:
171,153,87689,1,0,1:0:0:0:
192,220,87768,1,0,1:0:0:0:
192,220,88083,1,8,1:0:0:0:
192,220,88241,1,8,1:0:0:0:
192,220,88399,1,0,1:0:0:0:
192,220,88715,1,8,1:0:0:0:
192,220,89031,1,0,1:0:0:0:
192,220,89347,1,0,1:0:0:0:
192,220,89504,1,8,1:0:0:0:
192,220,89662,1,0,1:0:0:0:
192,220,89820,1,0,1:0:0:0:
192,220,89978,1,8,1:0:0:0:
192,220,90294,1,8,1:0:0:0:
229,139,90373,1,8,1:0:0:0:
229,139,90452,1,8,1:0:0:0:
192,220,90610,1,0,1:0:0:0:
229,139,90768,1,8,1:0:0:0:
192,220,90926,1,0,1:0:0:0:
303,152,91083,1,0,1:0:0:0:
192,220,91241,1,8,1:0:0:0:
192,220,91557,1,0,1:0:0:0:
192,220,91873,1,8,1:0:0:0:
192,220,92189,1,0,1:0:0:0:
192,220,92347,1,8,1:0:0:0:
192,220,92504,1,0,1:0:0:0:
192,220,92662,1,8,1:0:0:0:
270,158,92741,1,8,1:0:0:0:
192,220,92820,1,8,1:0:0:0:
192,220,93136,1,0,1:0:0:0:
192,220,93452,1,8,1:0:0:0:
192,220,93768,1,0,1:0:0:0:
192,220,93926,1,0,1:0:0:0:
192,220,94083,1,8,1:0:0:0:
192,220,94399,1,0,1:0:0:0:
192,220,94557,1,8,1:0:0:0:
192,220,94715,1,0,1:0:0:0:
192,220,94873,1,0,1:0:0:0:
192,220,95031,1,8,1:0:0:0:
192,220,95347,1,0,1:0:0:0:
192,220,95662,1,8,1:0:0:0:
239,176,95820,1,0,1:0:0:0:
192,220,95978,1,8,1:0:0:0:
192,220,96294,1,0,1:0:0:0:
192,220,96610,1,8,1:0:0:0:
192,220,96926,1,0,1:0:0:0:
192,220,97083,1,0,1:0:0:0:
192,220,97241,1,8,1:0:0:0:
197,223,97399,1,0,1:0:0:0:
197,223,97557,1,8,1:0:0:0:
239,137,97715,1,8,1:0:0:0:
239,137,97794,1,8,1:0:0:0:
239,137,97873,1,8,1:0:0:0:
197,223,98189,1,8,1:0:0:0:
281,157,98347,1,0,1:0:0:0:
239,137,98426,1,0,1:0:0:0:
197,223,98504,1,0,1:0:0:0:
197,223,98662,1,8,1:0:0:0:
239,137,98741,1,8,1:0:0:0:
197,223,98820,1,8,1:0:0:0:
197,223,98978,1,0,1:0:0:0:
197,223,99136,1,8,1:0:0:0:
197,223,99452,1,0,1:0:0:0:
197,223,99768,1,8,1:0:0:0:
243,140,99847,1,8,1:0:0:0:
197,223,99926,1,8,1:0:0:0:
197,223,100083,1,0,1:0:0:0:
269,154,100241,1,0,1:0:0:0:
327,188,100399,1,8,1:0:0:0:
196,233,100715,1,0,1:0:0:0:
196,233,100873,1,8,1:0:0:0:
241,192,100952,1,8,1:0:0:0:
196,233,101031,1,8,1:0:0:0:
196,233,101189,1,8,1:0:0:0:
196,233,101347,1,0,1:0:0:0:
171,166,101504,1,0,1:0:0:0:
196,233,101662,1,8,1:0:0:0:
196,233,101978,1,0,1:0:0:0:
253,198,102136,1,8,1:0:0:0:
196,233,102294,1,0,1:0:0:0:
196,233,102452,1,8,1:0:0:0:
253,198,102531,1,8,1:0:0:0:
196,233,102610,1,8,1:0:0:0:
196,233,102926,1,0,1:0:0:0:
173,166,103083,1,0,1:0:0:0:
196,233,103241,1,8,1:0:0:0:
196,233,103399,1,0,1:0:0:0:
251,194,103478,1,0,1:0:0:0:
196,233,103557,1,0,1:0:0:0:
196,233,103715,1,8,1:0:0:0:
196,233,103873,1,0,1:0:0:0:
196,233,104189,1,8,1:0:0:0:
196,233,104504,1,8,1:0:0:0:
196,233,104820,1,0,1:0:0:0:
255,202,104978,1,8,1:0:0:0:
196,233,105136,1,8,1:0:0:0:
255,202,105294,1,8,1:0:0:0:
196,233,105452,1,0,1:0:0:0:
196,233,105768,1,8,1:0:0:0:
196,233,105926,1,0,1:0:0:0:
255,202,106004,1,0,1:0:0:0:
196,233,106083,1,0,1:0:0:0:
196,233,106241,1,8,1:0:0:0:
196,233,106399,1,0,1:0:0:0:
177,168,106557,1,0,1:0:0:0:
196,233,106715,1,8,1:0:0:0:
196,233,107031,1,0,1:0:0:0:
196,233,107189,1,8,1:0:0:0:
196,233,107347,1,8,1:0:0:0:
196,233,107504,1,0,1:0:0:0:
256,202,107583,1,0,1:0:0:0:
196,233,107662,1,0,1:0:0:0:
259,164,107820,1,0,1:0:0:0:
196,233,107978,1,8,1:0:0:0:
196,233,108294,1,8,1:0:0:0:
196,233,108452,1,0,1:0:0:0:
256,202,108531,1,0,1:0:0:0:
196,233,108610,1,0,1:0:0:0:
196,233,108768,1,8,1:0:0:0:
196,233,108926,1,0,1:0:0:0:
179,168,109083,1,0,1:0:0:0:
196,233,109241,1,8,1:0:0:0:
259,166,109399,1,0,1:0:0:0:
196,233,109557,1,0,1:0:0:0:
196,233,109715,1,8,1:0:0:0:
196,233,109873,1,8,1:0:0:0:
196,233,110031,1,0,1:0:0:0:
256,203,110110,1,0,1:0:0:0:
196,233,110189,1,0,1:0:0:0:
256,203,110347,1,8,1:0:0:0:
196,233,110504,1,0,1:0:0:0:
196,233,110820,1,0,1:0:0:0:
274,163,110978,1,0,1:0:0:0:
196,233,111452,1,8,1:0:0:0:
167,154,111610,1,8,1:0:0:0:
196,233,111768,1,0,1:0:0:0:
243,180,112399,1,0,1:0:0:0:
254,185,112715,1,8,1:0:0:0:
260,164,112873,1,8,1:0:0:0:
254,186,113031,1,0,1:0:0:0:
252,188,113347,1,0,1:0:0:0:
176,165,113504,1,8,1:0:0:0:
203,217,113662,1,0,1:0:0:0:
203,217,113978,1,8,1:0:0:0:
312,181,114057,1,8,1:0:0:0:
203,217,114136,1,8,1:0:0:0:
312,181,114294,1,0,1:0:0:0:
239,180,114610,1,0,1:0:0:0:
239,180,114768,1,8,1:0:0:0:
249,184,114926,1,0,1:0:0:0:
246,183,115004,1,0,1:0:0:0:
239,180,115083,1,0,1:0:0:0:
239,180,115241,1,8,1:0:0:0:
239,180,115399,1,8,1:0:0:0:
239,180,115557,1,0,1:0:0:0:
232,215,115873,1,0,1:0:0:0:
232,128,116031,1,0,1:0:0:0:
201,209,116504,1,8,1:0:0:0:
201,209,116820,1,0,1:0:0:0:
197,150,116978,1,0,1:0:0:0:
197,150,117136,1,0,1:0:0:0:
197,150,117294,1,0,1:0:0:0:
201,209,117452,1,8,1:0:0:0:
201,209,117768,1,0,1:0:0:0:
201,209,117926,1,8,1:0:0:0:
201,209,118083,1,0,1:0:0:0:
166,178,118399,1,0,1:0:0:0:
166,178,118557,1,0,1:0:0:0:
166,178,118715,1,8,1:0:0:0:
166,178,119031,1,8,1:0:0:0:
234,168,119189,1,8,1:0:0:0:
166,178,119347,1,0,1:0:0:0:
166,178,119662,1,8,1:0:0:0:
166,178,119820,1,8,1:0:0:0:
266,171,119899,1,8,1:0:0:0:
166,178,119978,1,8,1:0:0:0:
166,178,120136,1,0,1:0:0:0:
166,178,120294,1,8,1:0:0:0:
166,178,120610,1,0,1:0:0:0:
229,142,121241,1,0,1:0:0:0:
229,142,121873,1,0,1:0:0:0:
229,142,122504,1,0,1:0:0:0:
229,149,122978,1,8,1:0:0:0:
229,149,123136,1,8,1:0:0:0:
229,178,125347,1,8,1:0:0:0:
229,178,125662,1,0,1:0:0:0:
240,160,125978,1,8,1:0:0:0:
240,161,126136,1,0,1:0:0:0:
240,165,126294,1,0,1:0:0:0:
240,165,126610,1,8,1:0:0:0:
240,160,126768,1,0,1:0:0:0:
240,160,126926,1,8,1:0:0:0:
240,161,127083,1,8,1:0:0:0:
240,165,127241,1,0,1:0:0:0:
240,165,127399,1,0,1:0:0:0:
240,165,127557,1,8,1:0:0:0:
240,160,127873,1,0,1:0:0:0:
240,165,128189,1,8,1:0:0:0:
240,165,128504,1,0,1:0:0:0:
240,160,128662,1,8,1:0:0:0:
240,160,128820,1,0,1:0:0:0:
240,165,129136,1,8,1:0:0:0:
240,165,129452,1,8,1:0:0:0:
240,160,129610,1,0,1:0:0:0:
243,166,129768,1,0,1:0:0:0:
240,165,129926,1,8,1:0:0:0:
240,165,130083,1,0,1:0:0:0:
240,165,130241,1,8,1:0:0:0:
240,165,130399,1,8,1:0:0:0:
243,169,130557,1,0,1:0:0:0:
243,166,130715,1,8,1:0:0:0:
270,220,131031,1,0,1:0:0:0:
270,220,131347,1,8,1:0:0:0:
270,220,131662,1,0,1:0:0:0:
270,220,131820,1,0,1:0:0:0:
270,220,131978,1,8,1:0:0:0:
270,220,132294,1,8,1:0:0:0:
253,218,132452,1,8,1:0:0:0:
211,189,132531,1,8,1:0:0:0:
270,220,132610,1,8,1:0:0:0:
270,220,132768,1,0,1:0:0:0:
253,218,132926,1,8,1:0:0:0:
253,218,133241,1,0,1:0:0:0:
253,218,133557,1,8,1:0:0:0:
253,218,133873,1,0,1:0:0:0:
253,218,134031,1,0,1:0:0:0:
253,218,134189,1,8,1:0:0:0:
253,218,134347,1,0,1:0:0:0:
253,218,134504,1,8,1:0:0:0:
253,218,134820,1,0,1:0:0:0:
253,218,135136,1,8,1:0:0:0:
253,218,135294,1,8,1:0:0:0:
260,220,135452,1,0,1:0:0:0:
243,148,135531,1,0,1:0:0:0:
260,220,135610,1,0,1:0:0:0:
237,219,135768,1,8,1:0:0:0:
237,219,136083,1,0,1:0:0:0:
239,219,136399,1,8,1:0:0:0:
240,219,136557,1,8,1:0:0:0:
237,219,136715,1,0,1:0:0:0:
164,80,137031,1,8,1:0:0:0:
239,219,137347,1,0,1:0:0:0:
177,184,137504,1,8,1:0:0:0:
250,152,137583,1,8,1:0:0:0:
177,184,137662,1,8,1:0:0:0:
253,169,137820,1,0,1:0:0:0:
177,184,137978,1,8,1:0:0:0:
177,184,138294,1,0,1:0:0:0:
177,184,138610,1,8,1:0:0:0:
177,184,138926,1,0,1:0:0:0:
177,184,139083,1,8,1:0:0:0:
177,184,139241,1,0,1:0:0:0:
192,188,139399,1,0,1:0:0:0:
185,187,139557,1,8,1:0:0:0:
193,189,139715,1,8,1:0:0:0:
189,188,139873,1,0,1:0:0:0:
327,188,140820,1,0,1:0:0:0:
196,233,141136,1,8,1:0:0:0:
196,233,141294,1,0,1:0:0:0:
241,192,141373,1,0,1:0:0:0:
196,233,141452,1,0,1:0:0:0:
196,233,141610,1,0,1:0:0:0:
196,233,141768,1,8,1:0:0:0:
171,166,141926,1,0,1:0:0:0:
196,233,142083,1,8,1:0:0:0:
196,233,142399,1,0,1:0:0:0:
253,198,142557,1,8,1:0:0:0:
196,233,142715,1,8,1:0:0:0:
196,233,142873,1,0,1:0:0:0:
253,198,142952,1,0,1:0:0:0:
196,233,143031,1,0,1:0:0:0:
196,233,143347,1,8,1:0:0:0:
173,166,143504,1,8,1:0:0:0:
196,233,143662,1,0,1:0:0:0:
196,233,143820,1,8,1:0:0:0:
251,194,143899,1,8,1:0:0:0:
196,233,143978,1,8,1:0:0:0:
196,233,144136,1,0,1:0:0:0:
196,233,144294,1,8,1:0:0:0:
196,233,144610,1,0,1:0:0:0:
196,233,144926,1,8,1:0:0:0:
196,233,145241,1,0,1:0:0:0:
255,202,145399,1,0,1:0:0:0:
196,233,145557,1,8,1:0:0:0:
255,202,145715,1,0,1:0:0:0:
196,233,145873,1,8,1:0:0:0:
196,233,146189,1,0,1:0:0:0:
196,233,146347,1,8,1:0:0:0:
255,202,146426,1,8,1:0:0:0:
196,233,146504,1,8,1:0:0:0:
196,233,146662,1,8,1:0:0:0:
196,233,146820,1,0,1:0:0:0:
177,168,146978,1,0,1:0:0:0:
196,233,147136,1,8,1:0:0:0:
196,233,147452,1,0,1:0:0:0:
196,233,147610,1,8,1:0:0:0:
196,233,147768,1,0,1:0:0:0:
196,233,147926,1,8,1:0:0:0:
256,202,148004,1,8,1:0:0:0:
196,233,148083,1,8,1:0:0:0:
273,160,148241,1,0,1:0:0:0:
196,233,148399,1,0,1:0:0:0:
196,233,148715,1,8,1:0:0:0:
196,233,148873,1,0,1:0:0:0:
256,202,148952,1,0,1:0:0:0:
196,233,149031,1,0,1:0:0:0:
196,233,149189,1,0,1:0:0:0:
196,233,149347,1,8,1:0:0:0:
179,168,149504,1,0,1:0:0:0:
196,233,149662,1,8,1:0:0:0:
270,163,149820,1,8,1:0:0:0:
196,233,149978,1,0,1:0:0:0:
196,233,150136,1,8,1:0:0:0:
196,233,150294,1,8,1:0:0:0:
196,233,150452,1,0,1:0:0:0:
256,203,150531,1,0,1:0:0:0:
196,233,150610,1,0,1:0:0:0:
256,203,150768,1,8,1:0:0:0:
327,188,150926,1,0,1:0:0:0:
196,233,151241,1,8,1:0:0:0:
196,233,151399,1,0,1:0:0:0:
241,192,151478,1,0,1:0:0:0:
196,233,151557,1,0,1:0:0:0:
196,233,151715,1,8,1:0:0:0:
196,233,151873,1,0,1:0:0:0:
171,166,152031,1,8,1:0:0:0:
196,233,152189,1,8,1:0:0:0:
196,233,152504,1,0,1:0:0:0:
253,198,152662,1,8,1:0:0:0:
196,233,152820,1,8,1:0:0:0:
196,233,152978,1,0,1:0:0:0:
253,198,153057,1,0,1:0:0:0:
196,233,153136,1,0,1:0:0:0:
196,233,153452,1,8,1:0:0:0:
173,166,153610,1,8,1:0:0:0:
196,233,153768,1,0,1:0:0:0:
196,233,153926,1,8,1:0:0:0:
251,194,154004,1,8,1:0:0:0:
196,233,154083,1,8,1:0:0:0:
196,233,154241,1,0,1:0:0:0:
196,233,154399,1,8,1:0:0:0:
196,233,154715,1,0,1:0:0:0:
196,233,155031,1,8,1:0:0:0:
196,233,155347,1,0,1:0:0:0:
255,202,155504,1,0,1:0:0:0:
196,233,155662,1,8,1:0:0:0:
255,202,155820,1,8,1:0:0:0:
196,233,155978,1,0,1:0:0:0:
196,233,156294,1,8,1:0:0:0:
196,233,156452,1,8,1:0:0:0:
255,202,156531,1,8,1:0:0:0:
196,233,156610,1,8,1:0:0:0:
196,233,156768,1,0,1:0:0:0:
196,233,156926,1,8,1:0:0:0:
177,168,157083,1,0,1:0:0:0:
196,233,157241,1,0,1:0:0:0:
196,233,157557,1,8,1:0:0:0:
196,233,157715,1,8,1:0:0:0:
196,233,157873,1,0,1:0:0:0:
196,233,158031,1,8,1:0:0:0:
256,202,158110,1,8,1:0:0:0:
196,233,158189,1,8,1:0:0:0:
265,165,158347,1,0,1:0:0:0:
265,165,158504,1,8,1:0:0:0:
196,233,158820,1,8,1:0:0:0:
196,233,158978,1,0,1:0:0:0:
256,202,159057,1,0,1:0:0:0:
196,233,159136,1,0,1:0:0:0:
196,233,159294,1,8,1:0:0:0:
196,233,159452,1,0,1:0:0:0:
179,168,159610,1,0,1:0:0:0:
196,233,159768,1,8,1:0:0:0:
263,167,159926,1,0,1:0:0:0:
196,233,160083,1,0,1:0:0:0:
196,233,160241,1,8,1:0:0:0:
196,233,160399,1,8,1:0:0:0:
196,233,160557,1,0,1:0:0:0:
256,203,160636,1,0,1:0:0:0:
196,233,160715,1,0,1:0:0:0:
256,203,160873,1,8,1:0:0:0:
196,233,161031,1,0,1:0:0:0:
168,140,161347,1,8,1:0:0:0:
163,155,161662,1,0,1:0:0:0:
228,173,161820,1,0,1:0:0:0:
163,155,161978,1,8,1:0:0:0:
218,181,162136,1,8,1:0:0:0:
163,156,162294,1,0,1:0:0:0:
224,178,162610,1,8,1:0:0:0:
224,178,162926,1,0,1:0:0:0:
224,178,163241,1,8,1:0:0:0:
224,178,163399,1,8,1:0:0:0:
224,178,163557,1,0,1:0:0:0:
199,207,163873,1,8,1:0:0:0:
199,207,164189,1,0,1:0:0:0:
199,207,164347,1,8,1:0:0:0:
199,207,164504,1,0,1:0:0:0:
199,207,164662,1,0,1:0:0:0:
199,207,164820,1,8,1:0:0:0:
199,207,165136,1,8,1:0:0:0:
199,207,165452,1,0,1:0:0:0:
297,153,165610,1,0,1:0:0:0:
199,207,165768,1,8,1:0:0:0:
199,207,165926,1,8,1:0:0:0:
199,207,166083,1,0,1:0:0:0:
199,207,166399,1,8,1:0:0:0:
199,207,166715,1,0,1:0:0:0:
199,207,166873,1,0,1:0:0:0:
199,207,167031,1,8,1:0:0:0:
199,207,167189,1,0,1:0:0:0:
199,207,167347,1,8,1:0:0:0:
199,207,167662,1,0,1:0:0:0:
199,207,167978,1,8,1:0:0:0:
199,207,168294,1,0,1:0:0:0:
197,214,168452,1,8,1:0:0:0:
197,214,168610,1,0,1:0:0:0:
197,214,168926,1,8,1:0:0:0:
197,214,169241,1,8,1:0:0:0:
197,214,169399,1,8,1:0:0:0:
197,214,169557,1,0,1:0:0:0:
197,214,169715,1,0,1:0:0:0:
197,214,169873,1,8,1:0:0:0:
197,214,170189,1,0,1:0:0:0:
197,214,170504,1,8,1:0:0:0:
197,214,170662,1,8,1:0:0:0:
197,214,170820,1,0,1:0:0:0:
197,214,170978,1,8,1:0:0:0:
197,214,171136,1,4,1:0:0:0:
256,192,171294,12,0,175083,1:0:0:0:
