osu file format v14

[General]
AudioFilename: audio.ogg
AudioLeadIn: 0
PreviewTime: 140098
Countdown: 0
SampleSet: Normal
StackLeniency: 0.7
Mode: 3
LetterboxInBreaks: 0
SpecialStyle: 0
WidescreenStoryboard: 0

[Editor]
Bookmarks: 21442,30915,41021,59968,68493,70073,80178,100389,110494,120600,125651,135756,140810,150914,161021,171126
DistanceSpacing: 1.5
BeatDivisor: 16
GridSize: 4
TimelineZoom: 3.5

[Metadata]
Title:skeleton (Lettuce ver.)
TitleUnicode:skeleton (Lettuce ver.)
Artist:Tenchio
ArtistUnicode:Tenchio
Creator:AHHHHHHHHHHHHHH
Version:simple desire
Source:
Tags:FA Featured Artist Mappers' Guild mg dump ahx14 punk bloc party rock english experimental math post hardcore progressive screamo
BeatmapID:3578643
BeatmapSetID:1749371

[Difficulty]
HPDrainRate:9
CircleSize:4
OverallDifficulty:7.3
ApproachRate:5
SliderMultiplier:1.4
SliderTickRate:1

[Events]
//Background and Video events
0,0,"OsuBackgroundTrimmed.jpg",0,0
//Break Periods
//Storyboard Layer 0 (Background)
//Storyboard Layer 1 (Fail)
//Storyboard Layer 2 (Pass)
//Storyboard Layer 3 (Foreground)
//Storyboard Layer 4 (Overlay)
//Storyboard Sound Samples

[TimingPoints]
600,315.789473684211,4,1,1,50,1,0
41021,315.789473684211,7,1,1,50,1,0
45442,315.789473684211,4,1,1,50,1,0
50494,315.789473684211,7,1,1,50,1,0
54915,315.789473684211,4,1,1,50,1,0
100388,-100,4,1,1,50,0,1
110493,-100,4,1,1,50,0,0
140809,-100,4,1,1,50,0,1
161020,-100,4,1,1,50,0,0

[HitObjects]
192,192,284,128,0,442:0:0:0:0:
448,192,442,128,0,600:0:0:0:0:
192,192,600,128,0,1547:0:0:0:0:
64,192,600,128,0,757:0:0:0:0:
320,192,915,1,0,0:0:0:0:
320,192,1231,1,0,0:0:0:0:
320,192,1468,1,0,0:0:0:0:
448,192,1507,1,0,0:0:0:0:
64,192,1547,1,0,0:0:0:0:
192,192,1626,1,0,0:0:0:0:
192,192,1731,128,0,1915:0:0:0:0:
64,192,1731,128,0,2494:0:0:0:0:
320,192,1863,1,0,0:0:0:0:
320,192,2178,1,0,0:0:0:0:
320,192,2494,1,0,0:0:0:0:
192,192,2810,128,0,2968:0:0:0:0:
448,192,2968,128,0,3126:0:0:0:0:
192,192,3126,128,0,4073:0:0:0:0:
64,192,3126,128,0,3284:0:0:0:0:
64,192,3442,128,0,3678:0:0:0:0:
64,192,3757,1,0,0:0:0:0:
64,192,3968,1,0,0:0:0:0:
320,192,4014,1,0,0:0:0:0:
448,192,4053,1,0,0:0:0:0:
320,192,4113,1,0,0:0:0:0:
192,192,4152,1,0,0:0:0:0:
64,192,4231,128,0,5021:0:0:0:0:
192,192,4231,128,0,4442:0:0:0:0:
448,192,4389,1,0,0:0:0:0:
448,192,4705,1,0,0:0:0:0:
448,192,5021,1,0,0:0:0:0:
192,192,5336,128,0,5494:0:0:0:0:
448,192,5494,128,0,5652:0:0:0:0:
192,192,5652,128,0,6600:0:0:0:0:
64,192,5652,128,0,5810:0:0:0:0:
320,192,5968,1,0,0:0:0:0:
320,192,6284,1,0,0:0:0:0:
64,192,6459,1,0,0:0:0:0:
320,192,6521,1,0,0:0:0:0:
448,192,6560,1,0,0:0:0:0:
64,192,6600,1,0,0:0:0:0:
192,192,6652,1,0,0:0:0:0:
192,192,6738,128,0,6915:0:0:0:0:
64,192,6738,128,0,7547:0:0:0:0:
320,192,6915,1,0,0:0:0:0:
320,192,7231,1,0,0:0:0:0:
320,192,7547,1,0,0:0:0:0:
192,192,7863,128,0,8021:0:0:0:0:
448,192,8021,128,0,8178:0:0:0:0:
192,192,8178,128,0,9126:0:0:0:0:
64,192,8178,128,0,8336:0:0:0:0:
64,192,8494,128,0,8731:0:0:0:0:
64,192,8810,1,0,0:0:0:0:
64,192,9027,1,0,0:0:0:0:
320,192,9067,1,0,0:0:0:0:
448,192,9106,1,0,0:0:0:0:
320,192,9161,1,0,0:0:0:0:
192,192,9301,128,0,9512:0:0:0:0:
64,192,9301,128,0,10073:0:0:0:0:
448,192,9442,1,0,0:0:0:0:
448,192,9757,1,0,0:0:0:0:
448,192,10073,1,0,0:0:0:0:
192,192,10389,128,0,10547:0:0:0:0:
448,192,10547,128,0,10705:0:0:0:0:
192,192,10705,128,0,10942:0:0:0:0:
64,192,10705,1,0,0:0:0:0:
320,192,10863,128,0,11100:0:0:0:0:
192,192,11021,128,0,11257:0:0:0:0:
64,192,11021,1,0,0:0:0:0:
448,192,11100,128,0,11731:0:0:0:0:
320,192,11178,128,0,11415:0:0:0:0:
64,192,11336,128,0,11573:0:0:0:0:
192,192,11336,1,0,0:0:0:0:
320,192,11494,128,0,11731:0:0:0:0:
192,192,11652,128,0,11731:0:0:0:0:
64,192,11652,128,0,11731:0:0:0:0:
192,192,11810,128,0,12047:0:0:0:0:
64,192,11810,1,0,0:0:0:0:
448,192,11968,128,0,12205:0:0:0:0:
320,192,11968,1,0,0:0:0:0:
192,192,12126,1,0,0:0:0:0:
192,192,12231,1,0,0:0:0:0:
448,192,12284,1,0,0:0:0:0:
320,192,12310,128,0,12521:0:0:0:0:
64,192,12442,128,0,12678:0:0:0:0:
448,192,12600,1,0,0:0:0:0:
320,192,12626,128,0,12836:0:0:0:0:
64,192,12757,128,0,12994:0:0:0:0:
448,192,12915,128,0,13126:0:0:0:0:
320,192,12942,128,0,12994:0:0:0:0:
64,192,13073,128,0,13152:0:0:0:0:
320,192,13152,1,0,0:0:0:0:
192,192,13231,128,0,13468:0:0:0:0:
64,192,13231,128,0,13468:0:0:0:0:
448,192,13389,128,0,13863:0:0:0:0:
192,192,13547,128,0,13784:0:0:0:0:
64,192,13547,128,0,13784:0:0:0:0:
320,192,13705,128,0,13942:0:0:0:0:
64,192,13863,128,0,14100:0:0:0:0:
192,192,13863,1,0,0:0:0:0:
320,192,14021,128,0,14257:0:0:0:0:
192,192,14178,128,0,14257:0:0:0:0:
64,192,14178,128,0,14257:0:0:0:0:
64,192,14336,1,0,0:0:0:0:
192,192,14336,128,0,14573:0:0:0:0:
448,192,14494,128,0,14731:0:0:0:0:
320,192,14494,1,0,0:0:0:0:
192,192,14652,1,0,0:0:0:0:
448,192,14810,1,0,0:0:0:0:
320,192,14836,128,0,15047:0:0:0:0:
64,192,14968,128,0,15205:0:0:0:0:
448,192,15126,1,0,0:0:0:0:
320,192,15152,128,0,15363:0:0:0:0:
64,192,15284,128,0,15521:0:0:0:0:
448,192,15442,128,0,15678:0:0:0:0:
320,192,15468,128,0,15521:0:0:0:0:
64,192,15600,128,0,15678:0:0:0:0:
320,192,15678,1,0,0:0:0:0:
192,192,15757,128,0,15994:0:0:0:0:
64,192,15757,1,0,0:0:0:0:
320,192,15915,128,0,16152:0:0:0:0:
192,192,16073,128,0,16310:0:0:0:0:
64,192,16073,1,0,0:0:0:0:
320,192,16231,128,0,16468:0:0:0:0:
64,192,16389,128,0,16626:0:0:0:0:
192,192,16389,1,0,0:0:0:0:
320,192,16547,128,0,16784:0:0:0:0:
64,192,16705,128,0,16757:0:0:0:0:
64,192,16810,1,0,0:0:0:0:
192,192,16863,128,0,17100:0:0:0:0:
448,192,17021,128,0,17257:0:0:0:0:
320,192,17021,1,0,0:0:0:0:
192,192,17178,1,0,0:0:0:0:
448,192,17336,1,0,0:0:0:0:
320,192,17363,128,0,17573:0:0:0:0:
64,192,17494,128,0,17731:0:0:0:0:
448,192,17652,1,0,0:0:0:0:
320,192,17678,128,0,17889:0:0:0:0:
448,192,17810,1,0,0:0:0:0:
64,192,17810,128,0,17968:0:0:0:0:
192,192,17968,1,0,0:0:0:0:
320,192,17968,128,0,18126:0:0:0:0:
448,192,18126,1,0,0:0:0:0:
192,192,18126,128,0,18284:0:0:0:0:
320,192,18284,1,0,0:0:0:0:
448,192,18284,1,0,0:0:0:0:
64,192,18382,1,0,0:0:0:0:
192,192,18442,1,0,0:0:0:0:
320,192,18521,1,0,0:0:0:0:
64,192,18600,1,0,0:0:0:0:
448,192,18600,1,0,0:0:0:0:
320,192,18678,1,0,0:0:0:0:
64,192,18757,1,0,0:0:0:0:
192,192,18863,1,0,0:0:0:0:
448,192,18915,1,0,0:0:0:0:
64,192,18915,1,0,0:0:0:0:
320,192,19006,1,0,0:0:0:0:
448,192,19073,1,0,0:0:0:0:
192,192,19152,1,0,0:0:0:0:
320,192,19231,1,0,0:0:0:0:
64,192,19231,1,0,0:0:0:0:
192,192,19310,1,0,0:0:0:0:
320,192,19389,1,0,0:0:0:0:
64,192,19468,1,0,0:0:0:0:
448,192,19507,1,0,0:0:0:0:
320,192,19547,1,0,0:0:0:0:
192,192,19547,1,0,0:0:0:0:
64,192,19626,1,0,0:0:0:0:
320,192,19705,1,0,0:0:0:0:
320,192,19784,1,0,0:0:0:0:
192,192,19863,1,0,0:0:0:0:
448,192,19942,1,0,0:0:0:0:
192,192,20021,1,0,0:0:0:0:
192,192,20100,1,0,0:0:0:0:
320,192,20178,1,0,0:0:0:0:
448,192,20238,1,0,0:0:0:0:
448,192,20323,1,0,0:0:0:0:
64,192,20396,1,0,0:0:0:0:
64,192,20481,1,0,0:0:0:0:
192,192,20481,1,0,0:0:0:0:
448,192,20810,1,0,0:0:0:0:
64,192,20850,1,0,0:0:0:0:
192,192,20889,1,0,0:0:0:0:
320,192,20928,1,0,0:0:0:0:
448,192,20968,1,0,0:0:0:0:
64,192,21021,1,0,0:0:0:0:
320,192,21073,1,0,0:0:0:0:
192,192,21126,1,0,0:0:0:0:
448,192,21165,1,0,0:0:0:0:
320,192,21205,1,0,0:0:0:0:
192,192,21244,1,0,0:0:0:0:
64,192,21284,1,0,0:0:0:0:
320,192,21323,1,0,0:0:0:0:
448,192,21363,1,0,0:0:0:0:
64,192,21402,1,0,0:0:0:0:
192,192,21442,1,0,0:0:0:0:
448,192,21600,1,0,0:0:0:0:
320,192,21652,1,0,0:0:0:0:
64,192,21705,1,0,0:0:0:0:
320,192,21757,1,0,0:0:0:0:
192,192,21757,1,0,0:0:0:0:
64,192,21915,1,0,0:0:0:0:
320,192,21968,1,0,0:0:0:0:
192,192,22021,1,0,0:0:0:0:
64,192,22073,1,0,0:0:0:0:
448,192,22073,1,0,0:0:0:0:
192,192,22231,1,0,0:0:0:0:
320,192,22284,1,0,0:0:0:0:
64,192,22336,1,0,0:0:0:0:
320,192,22389,1,0,0:0:0:0:
448,192,22389,1,0,0:0:0:0:
64,192,22547,1,0,0:0:0:0:
448,192,22600,1,0,0:0:0:0:
320,192,22652,1,0,0:0:0:0:
192,192,22705,1,0,0:0:0:0:
64,192,22705,1,0,0:0:0:0:
320,192,22863,1,0,0:0:0:0:
192,192,22915,1,0,0:0:0:0:
448,192,22968,1,0,0:0:0:0:
320,192,23021,1,0,0:0:0:0:
192,192,23021,1,0,0:0:0:0:
320,192,23178,1,0,0:0:0:0:
448,192,23257,1,0,0:0:0:0:
192,192,23336,1,0,0:0:0:0:
320,192,23336,1,0,0:0:0:0:
448,192,23494,1,0,0:0:0:0:
64,192,23547,1,0,0:0:0:0:
320,192,23600,1,0,0:0:0:0:
192,192,23652,1,0,0:0:0:0:
64,192,23652,1,0,0:0:0:0:
448,192,23810,1,0,0:0:0:0:
192,192,23863,1,0,0:0:0:0:
320,192,23915,1,0,0:0:0:0:
448,192,23968,1,0,0:0:0:0:
64,192,23968,1,0,0:0:0:0:
320,192,24126,1,0,0:0:0:0:
192,192,24178,1,0,0:0:0:0:
448,192,24231,1,0,0:0:0:0:
192,192,24284,1,0,0:0:0:0:
320,192,24284,1,0,0:0:0:0:
448,192,24442,1,0,0:0:0:0:
64,192,24494,1,0,0:0:0:0:
192,192,24547,1,0,0:0:0:0:
320,192,24600,1,0,0:0:0:0:
448,192,24600,1,0,0:0:0:0:
192,192,24757,1,0,0:0:0:0:
320,192,24810,1,0,0:0:0:0:
64,192,24863,1,0,0:0:0:0:
192,192,24915,1,0,0:0:0:0:
320,192,24915,1,0,0:0:0:0:
64,192,25073,1,0,0:0:0:0:
320,192,25152,1,0,0:0:0:0:
64,192,25231,1,0,0:0:0:0:
192,192,25231,1,0,0:0:0:0:
320,192,25389,1,0,0:0:0:0:
448,192,25389,1,0,0:0:0:0:
320,192,25547,1,0,0:0:0:0:
64,192,25547,1,0,0:0:0:0:
192,192,25705,1,0,0:0:0:0:
192,192,25784,1,0,0:0:0:0:
320,192,25863,1,0,0:0:0:0:
448,192,25863,1,0,0:0:0:0:
192,192,26021,1,0,0:0:0:0:
64,192,26073,1,0,0:0:0:0:
448,192,26126,1,0,0:0:0:0:
320,192,26178,1,0,0:0:0:0:
64,192,26178,1,0,0:0:0:0:
448,192,26336,1,0,0:0:0:0:
64,192,26389,1,0,0:0:0:0:
320,192,26442,1,0,0:0:0:0:
448,192,26494,1,0,0:0:0:0:
192,192,26494,1,0,0:0:0:0:
320,192,26652,1,0,0:0:0:0:
64,192,26705,1,0,0:0:0:0:
448,192,26757,1,0,0:0:0:0:
64,192,26810,1,0,0:0:0:0:
320,192,26810,1,0,0:0:0:0:
448,192,26968,1,0,0:0:0:0:
192,192,27047,1,0,0:0:0:0:
320,192,27126,1,0,0:0:0:0:
448,192,27126,1,0,0:0:0:0:
64,192,27284,1,0,0:0:0:0:
320,192,27336,1,0,0:0:0:0:
192,192,27389,1,0,0:0:0:0:
64,192,27442,1,0,0:0:0:0:
320,192,27442,1,0,0:0:0:0:
64,192,27600,1,0,0:0:0:0:
448,192,27678,1,0,0:0:0:0:
320,192,27757,1,0,0:0:0:0:
64,192,27757,1,0,0:0:0:0:
192,192,27915,1,0,0:0:0:0:
448,192,27968,1,0,0:0:0:0:
64,192,28021,1,0,0:0:0:0:
320,192,28073,1,0,0:0:0:0:
448,192,28073,1,0,0:0:0:0:
192,192,28231,1,0,0:0:0:0:
320,192,28284,1,0,0:0:0:0:
64,192,28336,1,0,0:0:0:0:
192,192,28389,1,0,0:0:0:0:
448,192,28389,1,0,0:0:0:0:
64,192,28547,1,0,0:0:0:0:
320,192,28600,1,0,0:0:0:0:
192,192,28652,1,0,0:0:0:0:
320,192,28705,1,0,0:0:0:0:
64,192,28705,1,0,0:0:0:0:
192,192,28863,1,0,0:0:0:0:
448,192,28915,1,0,0:0:0:0:
320,192,28968,1,0,0:0:0:0:
192,192,29021,1,0,0:0:0:0:
64,192,29021,1,0,0:0:0:0:
320,192,29178,1,0,0:0:0:0:
64,192,29231,1,0,0:0:0:0:
448,192,29284,1,0,0:0:0:0:
320,192,29336,1,0,0:0:0:0:
64,192,29336,1,0,0:0:0:0:
448,192,29494,1,0,0:0:0:0:
192,192,29547,1,0,0:0:0:0:
64,192,29600,1,0,0:0:0:0:
448,192,29652,1,0,0:0:0:0:
320,192,29652,1,0,0:0:0:0:
192,192,29810,1,0,0:0:0:0:
64,192,29863,1,0,0:0:0:0:
320,192,29915,1,0,0:0:0:0:
64,192,29968,1,0,0:0:0:0:
448,192,29968,1,0,0:0:0:0:
320,192,30126,1,0,0:0:0:0:
192,192,30178,1,0,0:0:0:0:
448,192,30231,1,0,0:0:0:0:
64,192,30284,1,0,0:0:0:0:
320,192,30284,1,0,0:0:0:0:
192,192,30442,1,0,0:0:0:0:
64,192,30442,1,0,0:0:0:0:
64,192,30600,1,0,0:0:0:0:
192,192,30600,1,0,0:0:0:0:
320,192,30757,1,0,0:0:0:0:
192,192,30836,1,0,0:0:0:0:
320,192,30915,1,0,0:0:0:0:
448,192,30915,1,0,0:0:0:0:
64,192,30994,1,0,0:0:0:0:
448,192,31073,1,0,0:0:0:0:
64,192,31152,1,0,0:0:0:0:
448,192,31231,1,0,0:0:0:0:
192,192,31231,1,0,0:0:0:0:
448,192,31310,1,0,0:0:0:0:
64,192,31389,1,0,0:0:0:0:
64,192,31468,1,0,0:0:0:0:
320,192,31547,1,0,0:0:0:0:
448,192,31547,1,0,0:0:0:0:
64,192,31626,1,0,0:0:0:0:
448,192,31705,1,0,0:0:0:0:
320,192,31757,1,0,0:0:0:0:
192,192,31810,1,0,0:0:0:0:
448,192,31836,1,0,0:0:0:0:
320,192,31863,1,0,0:0:0:0:
64,192,31863,1,0,0:0:0:0:
192,192,31915,1,0,0:0:0:0:
320,192,32021,1,0,0:0:0:0:
64,192,32047,1,0,0:0:0:0:
448,192,32073,1,0,0:0:0:0:
320,192,32126,1,0,0:0:0:0:
192,192,32178,1,0,0:0:0:0:
64,192,32178,1,0,0:0:0:0:
448,192,32257,1,0,0:0:0:0:
192,192,32336,1,0,0:0:0:0:
320,192,32389,1,0,0:0:0:0:
64,192,32442,1,0,0:0:0:0:
192,192,32494,1,0,0:0:0:0:
320,192,32494,1,0,0:0:0:0:
448,192,32652,1,0,0:0:0:0:
192,192,32705,1,0,0:0:0:0:
320,192,32757,1,0,0:0:0:0:
64,192,32810,1,0,0:0:0:0:
448,192,32810,1,0,0:0:0:0:
192,192,32968,1,0,0:0:0:0:
320,192,33021,1,0,0:0:0:0:
448,192,33073,1,0,0:0:0:0:
64,192,33126,1,0,0:0:0:0:
192,192,33126,1,0,0:0:0:0:
192,192,33284,1,0,0:0:0:0:
64,192,33336,1,0,0:0:0:0:
448,192,33363,1,0,0:0:0:0:
320,192,33363,1,0,0:0:0:0:
192,192,33442,1,0,0:0:0:0:
320,192,33521,1,0,0:0:0:0:
64,192,33600,1,0,0:0:0:0:
320,192,33678,1,0,0:0:0:0:
64,192,33757,1,0,0:0:0:0:
448,192,33757,1,0,0:0:0:0:
64,192,33836,1,0,0:0:0:0:
320,192,33915,1,0,0:0:0:0:
64,192,33994,1,0,0:0:0:0:
320,192,34073,1,0,0:0:0:0:
448,192,34073,1,0,0:0:0:0:
320,192,34152,1,0,0:0:0:0:
64,192,34231,1,0,0:0:0:0:
64,192,34310,1,0,0:0:0:0:
192,192,34389,1,0,0:0:0:0:
448,192,34389,1,0,0:0:0:0:
320,192,34468,1,0,0:0:0:0:
448,192,34547,1,0,0:0:0:0:
64,192,34600,1,0,0:0:0:0:
192,192,34652,1,0,0:0:0:0:
320,192,34705,1,0,0:0:0:0:
448,192,34705,1,0,0:0:0:0:
64,192,34784,1,0,0:0:0:0:
448,192,34863,1,0,0:0:0:0:
448,192,34942,1,0,0:0:0:0:
64,192,35021,1,0,0:0:0:0:
192,192,35021,1,0,0:0:0:0:
320,192,35100,1,0,0:0:0:0:
64,192,35178,1,0,0:0:0:0:
64,192,35257,1,0,0:0:0:0:
320,192,35336,1,0,0:0:0:0:
448,192,35336,1,0,0:0:0:0:
320,192,35415,1,0,0:0:0:0:
192,192,35494,1,0,0:0:0:0:
64,192,35494,1,0,0:0:0:0:
448,192,35573,1,0,0:0:0:0:
320,192,35652,1,0,0:0:0:0:
192,192,35652,1,0,0:0:0:0:
320,192,35810,1,0,0:0:0:0:
64,192,35810,1,0,0:0:0:0:
192,192,35889,1,0,0:0:0:0:
320,192,35968,1,0,0:0:0:0:
448,192,35968,1,0,0:0:0:0:
64,192,36047,1,0,0:0:0:0:
192,192,36067,1,0,0:0:0:0:
320,192,36126,1,0,0:0:0:0:
448,192,36146,1,0,0:0:0:0:
64,192,36205,1,0,0:0:0:0:
192,192,36225,1,0,0:0:0:0:
448,192,36284,1,0,0:0:0:0:
320,192,36284,1,0,0:0:0:0:
192,192,36442,1,0,0:0:0:0:
320,192,36494,1,0,0:0:0:0:
64,192,36547,1,0,0:0:0:0:
192,192,36600,1,0,0:0:0:0:
448,192,36600,1,0,0:0:0:0:
64,192,36757,1,0,0:0:0:0:
320,192,36810,1,0,0:0:0:0:
192,192,36863,1,0,0:0:0:0:
320,192,36915,1,0,0:0:0:0:
448,192,36915,1,0,0:0:0:0:
192,192,37073,1,0,0:0:0:0:
448,192,37126,1,0,0:0:0:0:
320,192,37152,1,0,0:0:0:0:
64,192,37178,1,0,0:0:0:0:
192,192,37231,1,0,0:0:0:0:
448,192,37231,1,0,0:0:0:0:
320,192,37284,1,0,0:0:0:0:
192,192,37336,1,0,0:0:0:0:
448,192,37389,1,0,0:0:0:0:
320,192,37442,1,0,0:0:0:0:
64,192,37494,1,0,0:0:0:0:
320,192,37547,1,0,0:0:0:0:
192,192,37547,1,0,0:0:0:0:
448,192,37705,1,0,0:0:0:0:
320,192,37757,1,0,0:0:0:0:
192,192,37810,1,0,0:0:0:0:
64,192,37863,1,0,0:0:0:0:
448,192,37863,1,0,0:0:0:0:
320,192,37902,1,0,0:0:0:0:
448,192,38021,1,0,0:0:0:0:
64,192,38021,1,0,0:0:0:0:
192,192,38060,1,0,0:0:0:0:
192,192,38178,1,0,0:0:0:0:
64,192,38178,1,0,0:0:0:0:
320,192,38336,1,0,0:0:0:0:
192,192,38415,1,0,0:0:0:0:
64,192,38415,1,0,0:0:0:0:
448,192,38494,1,0,0:0:0:0:
320,192,38573,1,0,0:0:0:0:
448,192,38652,1,0,0:0:0:0:
320,192,38731,1,0,0:0:0:0:
64,192,38810,1,0,0:0:0:0:
448,192,38810,1,0,0:0:0:0:
192,192,38863,1,0,0:0:0:0:
320,192,38915,1,0,0:0:0:0:
448,192,38968,1,0,0:0:0:0:
192,192,39047,1,0,0:0:0:0:
64,192,39126,1,0,0:0:0:0:
448,192,39126,1,0,0:0:0:0:
320,192,39178,1,0,0:0:0:0:
192,192,39231,1,0,0:0:0:0:
64,192,39284,1,0,0:0:0:0:
64,192,39363,1,0,0:0:0:0:
448,192,39442,1,0,0:0:0:0:
320,192,39442,1,0,0:0:0:0:
192,192,39600,1,0,0:0:0:0:
64,192,39652,1,0,0:0:0:0:
320,192,39705,1,0,0:0:0:0:
192,192,39757,1,0,0:0:0:0:
448,192,39757,1,0,0:0:0:0:
448,192,39915,1,0,0:0:0:0:
64,192,39968,1,0,0:0:0:0:
320,192,40021,1,0,0:0:0:0:
448,192,40073,1,0,0:0:0:0:
64,192,40073,1,0,0:0:0:0:
448,192,40231,1,0,0:0:0:0:
320,192,40284,1,0,0:0:0:0:
192,192,40336,1,0,0:0:0:0:
64,192,40389,1,0,0:0:0:0:
448,192,40389,1,0,0:0:0:0:
192,192,40547,1,0,0:0:0:0:
64,192,40547,1,0,0:0:0:0:
448,192,40705,1,0,0:0:0:0:
448,192,40784,1,0,0:0:0:0:
192,192,40863,1,0,0:0:0:0:
192,192,40942,1,0,0:0:0:0:
320,192,41021,1,0,0:0:0:0:
64,192,41178,1,0,0:0:0:0:
320,192,41336,1,0,0:0:0:0:
448,192,41336,1,0,0:0:0:0:
64,192,41494,1,0,0:0:0:0:
320,192,41652,1,0,0:0:0:0:
192,192,41652,1,0,0:0:0:0:
64,192,41810,1,0,0:0:0:0:
320,192,41968,1,0,0:0:0:0:
448,192,41968,1,0,0:0:0:0:
64,192,42126,1,0,0:0:0:0:
448,192,42244,1,0,0:0:0:0:
320,192,42284,1,0,0:0:0:0:
192,192,42284,1,0,0:0:0:0:
64,192,42363,1,0,0:0:0:0:
320,192,42402,1,0,0:0:0:0:
448,192,42442,1,0,0:0:0:0:
448,192,42599,1,0,0:0:0:0:
320,192,42599,1,0,0:0:0:0:
64,192,42757,1,0,0:0:0:0:
448,192,42876,1,0,0:0:0:0:
320,192,42915,1,0,0:0:0:0:
192,192,42915,1,0,0:0:0:0:
64,192,42968,1,0,0:0:0:0:
192,192,43021,1,0,0:0:0:0:
320,192,43073,1,0,0:0:0:0:
448,192,43073,1,0,0:0:0:0:
192,192,43126,1,0,0:0:0:0:
320,192,43192,1,0,0:0:0:0:
448,192,43231,1,0,0:0:0:0:
192,192,43231,1,0,0:0:0:0:
64,192,43321,1,0,0:0:0:0:
192,192,43366,1,0,0:0:0:0:
320,192,43411,1,0,0:0:0:0:
448,192,43468,1,0,0:0:0:0:
192,192,43547,1,0,0:0:0:0:
64,192,43547,1,0,0:0:0:0:
320,192,43626,1,0,0:0:0:0:
448,192,43705,1,0,0:0:0:0:
192,192,43736,1,0,0:0:0:0:
64,192,43803,1,0,0:0:0:0:
320,192,43863,1,0,0:0:0:0:
192,192,43863,1,0,0:0:0:0:
448,192,43942,1,0,0:0:0:0:
192,192,44021,1,0,0:0:0:0:
320,192,44099,1,0,0:0:0:0:
64,192,44178,1,0,0:0:0:0:
192,192,44178,1,0,0:0:0:0:
448,192,44336,1,0,0:0:0:0:
64,192,44415,1,0,0:0:0:0:
448,192,44455,1,0,0:0:0:0:
320,192,44494,1,0,0:0:0:0:
192,192,44494,1,0,0:0:0:0:
64,192,44573,1,0,0:0:0:0:
192,192,44613,1,0,0:0:0:0:
448,192,44652,1,0,0:0:0:0:
320,192,44731,1,0,0:0:0:0:
192,192,44810,1,0,0:0:0:0:
64,192,44810,1,0,0:0:0:0:
320,192,44889,1,0,0:0:0:0:
192,192,44928,1,0,0:0:0:0:
448,192,44968,1,0,0:0:0:0:
64,192,45047,1,0,0:0:0:0:
448,192,45086,1,0,0:0:0:0:
192,192,45126,1,0,0:0:0:0:
320,192,45126,1,0,0:0:0:0:
320,192,45284,1,0,0:0:0:0:
448,192,45284,1,0,0:0:0:0:
192,192,45363,1,0,0:0:0:0:
64,192,45363,1,0,0:0:0:0:
320,192,45442,1,0,0:0:0:0:
192,192,45520,1,0,0:0:0:0:
64,192,45599,1,0,0:0:0:0:
192,192,45678,1,0,0:0:0:0:
448,192,45757,1,0,0:0:0:0:
320,192,45757,1,0,0:0:0:0:
64,192,45820,1,0,0:0:0:0:
448,192,45884,1,0,0:0:0:0:
64,192,45947,1,0,0:0:0:0:
448,192,46010,1,0,0:0:0:0:
320,192,46073,1,0,0:0:0:0:
192,192,46073,1,0,0:0:0:0:
448,192,46152,1,0,0:0:0:0:
192,192,46231,1,0,0:0:0:0:
64,192,46310,1,0,0:0:0:0:
320,192,46409,1,0,0:0:0:0:
448,192,46409,1,0,0:0:0:0:
64,192,46468,1,0,0:0:0:0:
192,192,46547,1,0,0:0:0:0:
448,192,46626,1,0,0:0:0:0:
64,192,46665,1,0,0:0:0:0:
320,192,46705,1,0,0:0:0:0:
192,192,46705,1,0,0:0:0:0:
320,192,46863,1,0,0:0:0:0:
448,192,46942,1,0,0:0:0:0:
192,192,47020,1,0,0:0:0:0:
64,192,47020,1,0,0:0:0:0:
448,192,47099,1,0,0:0:0:0:
320,192,47178,1,0,0:0:0:0:
64,192,47284,1,0,0:0:0:0:
320,192,47336,1,0,0:0:0:0:
192,192,47336,1,0,0:0:0:0:
64,192,47415,1,0,0:0:0:0:
320,192,47494,1,0,0:0:0:0:
448,192,47573,1,0,0:0:0:0:
192,192,47652,1,0,0:0:0:0:
64,192,47652,1,0,0:0:0:0:
192,192,47810,1,0,0:0:0:0:
320,192,47810,1,0,0:0:0:0:
64,192,47863,1,0,0:0:0:0:
448,192,47915,1,0,0:0:0:0:
320,192,47968,1,0,0:0:0:0:
192,192,47968,1,0,0:0:0:0:
448,192,48047,1,0,0:0:0:0:
64,192,48126,1,0,0:0:0:0:
320,192,48165,1,0,0:0:0:0:
192,192,48205,1,0,0:0:0:0:
64,192,48244,1,0,0:0:0:0:
320,192,48284,1,0,0:0:0:0:
448,192,48284,1,0,0:0:0:0:
64,192,48442,1,0,0:0:0:0:
192,192,48599,1,0,0:0:0:0:
320,192,48599,1,0,0:0:0:0:
448,192,48678,1,0,0:0:0:0:
64,192,48757,1,0,0:0:0:0:
192,192,48836,1,0,0:0:0:0:
64,192,48876,1,0,0:0:0:0:
320,192,48915,1,0,0:0:0:0:
448,192,48915,1,0,0:0:0:0:
192,192,48994,1,0,0:0:0:0:
448,192,49034,1,0,0:0:0:0:
64,192,49073,1,0,0:0:0:0:
320,192,49152,1,0,0:0:0:0:
448,192,49231,1,0,0:0:0:0:
64,192,49231,1,0,0:0:0:0:
320,192,49310,1,0,0:0:0:0:
192,192,49389,1,0,0:0:0:0:
448,192,49468,1,0,0:0:0:0:
192,192,49547,1,0,0:0:0:0:
64,192,49547,1,0,0:0:0:0:
320,192,49599,1,0,0:0:0:0:
64,192,49652,1,0,0:0:0:0:
320,192,49705,1,0,0:0:0:0:
448,192,49784,1,0,0:0:0:0:
64,192,49823,1,0,0:0:0:0:
320,192,49863,1,0,0:0:0:0:
192,192,49863,1,0,0:0:0:0:
64,192,49942,1,0,0:0:0:0:
320,192,49968,1,0,0:0:0:0:
448,192,50020,1,0,0:0:0:0:
192,192,50099,1,0,0:0:0:0:
320,192,50178,1,0,0:0:0:0:
64,192,50178,1,0,0:0:0:0:
192,192,50231,1,0,0:0:0:0:
448,192,50284,1,0,0:0:0:0:
64,192,50336,1,0,0:0:0:0:
320,192,50336,1,0,0:0:0:0:
448,192,50389,1,0,0:0:0:0:
192,192,50442,1,0,0:0:0:0:
320,192,50494,1,0,0:0:0:0:
448,192,50494,1,0,0:0:0:0:
64,192,50572,1,0,0:0:0:0:
192,192,50651,1,0,0:0:0:0:
320,192,50704,1,0,0:0:0:0:
448,192,50730,1,0,0:0:0:0:
192,192,50809,1,0,0:0:0:0:
64,192,50809,1,0,0:0:0:0:
448,192,50862,1,0,0:0:0:0:
320,192,50888,1,0,0:0:0:0:
192,192,50967,1,0,0:0:0:0:
64,192,51020,1,0,0:0:0:0:
448,192,51072,1,0,0:0:0:0:
320,192,51125,1,0,0:0:0:0:
192,192,51125,1,0,0:0:0:0:
64,192,51178,1,0,0:0:0:0:
320,192,51230,1,0,0:0:0:0:
192,192,51283,1,0,0:0:0:0:
448,192,51362,1,0,0:0:0:0:
320,192,51401,1,0,0:0:0:0:
192,192,51441,1,0,0:0:0:0:
64,192,51441,1,0,0:0:0:0:
320,192,51599,1,0,0:0:0:0:
64,192,51678,1,0,0:0:0:0:
192,192,51757,1,0,0:0:0:0:
320,192,51757,1,0,0:0:0:0:
448,192,51862,1,0,0:0:0:0:
320,192,51915,1,0,0:0:0:0:
192,192,51967,1,0,0:0:0:0:
448,192,51994,1,0,0:0:0:0:
192,192,52072,1,0,0:0:0:0:
64,192,52072,1,0,0:0:0:0:
320,192,52151,1,0,0:0:0:0:
64,192,52230,1,0,0:0:0:0:
192,192,52270,1,0,0:0:0:0:
448,192,52309,1,0,0:0:0:0:
320,192,52388,1,0,0:0:0:0:
192,192,52388,1,0,0:0:0:0:
64,192,52467,1,0,0:0:0:0:
448,192,52546,1,0,0:0:0:0:
320,192,52546,1,0,0:0:0:0:
192,192,52625,1,0,0:0:0:0:
64,192,52625,1,0,0:0:0:0:
320,192,52704,1,0,0:0:0:0:
448,192,52783,1,0,0:0:0:0:
192,192,52862,1,0,0:0:0:0:
64,192,52941,1,0,0:0:0:0:
320,192,53020,1,0,0:0:0:0:
448,192,53020,1,0,0:0:0:0:
64,192,53099,1,0,0:0:0:0:
192,192,53178,1,0,0:0:0:0:
448,192,53257,1,0,0:0:0:0:
320,192,53336,1,0,0:0:0:0:
192,192,53336,1,0,0:0:0:0:
64,192,53415,1,0,0:0:0:0:
448,192,53494,1,0,0:0:0:0:
192,192,53572,1,0,0:0:0:0:
320,192,53651,1,0,0:0:0:0:
448,192,53651,1,0,0:0:0:0:
64,192,53809,1,0,0:0:0:0:
448,192,53888,1,0,0:0:0:0:
320,192,53967,1,0,0:0:0:0:
192,192,53967,1,0,0:0:0:0:
64,192,54046,1,0,0:0:0:0:
320,192,54086,1,0,0:0:0:0:
448,192,54125,1,0,0:0:0:0:
192,192,54204,1,0,0:0:0:0:
64,192,54244,1,0,0:0:0:0:
320,192,54283,1,0,0:0:0:0:
448,192,54283,1,0,0:0:0:0:
64,192,54336,1,0,0:0:0:0:
192,192,54388,1,0,0:0:0:0:
320,192,54441,1,0,0:0:0:0:
448,192,54520,1,0,0:0:0:0:
64,192,54559,1,0,0:0:0:0:
320,192,54599,1,0,0:0:0:0:
192,192,54599,1,0,0:0:0:0:
448,192,54651,1,0,0:0:0:0:
320,192,54704,1,0,0:0:0:0:
192,192,54757,1,0,0:0:0:0:
64,192,54757,1,0,0:0:0:0:
320,192,54836,1,0,0:0:0:0:
448,192,54836,1,0,0:0:0:0:
64,192,54915,1,0,0:0:0:0:
192,192,54954,1,0,0:0:0:0:
320,192,54993,1,0,0:0:0:0:
448,192,55033,1,0,0:0:0:0:
64,192,55072,1,0,0:0:0:0:
448,192,55151,1,0,0:0:0:0:
192,192,55230,1,0,0:0:0:0:
64,192,55230,1,0,0:0:0:0:
448,192,55309,1,0,0:0:0:0:
320,192,55388,1,0,0:0:0:0:
64,192,55467,1,0,0:0:0:0:
448,192,55507,1,0,0:0:0:0:
320,192,55546,1,0,0:0:0:0:
192,192,55546,1,0,0:0:0:0:
64,192,55625,1,0,0:0:0:0:
192,192,55704,1,0,0:0:0:0:
448,192,55783,1,0,0:0:0:0:
192,192,55862,1,0,0:0:0:0:
64,192,55862,1,0,0:0:0:0:
320,192,55941,1,0,0:0:0:0:
448,192,56020,1,0,0:0:0:0:
64,192,56099,1,0,0:0:0:0:
320,192,56178,1,0,0:0:0:0:
192,192,56178,1,0,0:0:0:0:
64,192,56257,1,0,0:0:0:0:
448,192,56296,1,0,0:0:0:0:
320,192,56336,1,0,0:0:0:0:
192,192,56415,1,0,0:0:0:0:
448,192,56493,1,0,0:0:0:0:
320,192,56493,1,0,0:0:0:0:
64,192,56651,1,0,0:0:0:0:
448,192,56730,1,0,0:0:0:0:
320,192,56809,1,0,0:0:0:0:
192,192,56809,1,0,0:0:0:0:
64,192,56872,1,0,0:0:0:0:
192,192,56936,1,0,0:0:0:0:
448,192,56967,1,0,0:0:0:0:
320,192,56999,1,0,0:0:0:0:
64,192,57062,1,0,0:0:0:0:
320,192,57125,1,0,0:0:0:0:
448,192,57125,1,0,0:0:0:0:
192,192,57204,1,0,0:0:0:0:
448,192,57283,1,0,0:0:0:0:
192,192,57322,1,0,0:0:0:0:
64,192,57362,1,0,0:0:0:0:
448,192,57401,1,0,0:0:0:0:
192,192,57441,1,0,0:0:0:0:
320,192,57441,1,0,0:0:0:0:
64,192,57520,1,0,0:0:0:0:
320,192,57599,1,0,0:0:0:0:
448,192,57678,1,0,0:0:0:0:
192,192,57757,1,0,0:0:0:0:
64,192,57757,1,0,0:0:0:0:
320,192,57836,1,0,0:0:0:0:
64,192,57915,1,0,0:0:0:0:
320,192,57993,1,0,0:0:0:0:
192,192,58072,1,0,0:0:0:0:
448,192,58151,1,0,0:0:0:0:
192,192,58230,1,0,0:0:0:0:
448,192,58309,1,0,0:0:0:0:
192,192,58388,1,0,0:0:0:0:
64,192,58388,1,0,0:0:0:0:
64,192,58467,1,0,0:0:0:0:
320,192,58546,1,0,0:0:0:0:
320,192,58625,1,0,0:0:0:0:
192,192,58704,1,0,0:0:0:0:
192,192,58783,5,0,0:0:0:0:
448,192,58862,1,0,0:0:0:0:
320,192,58941,1,0,0:0:0:0:
448,192,59000,1,0,0:0:0:0:
192,192,59020,1,0,0:0:0:0:
64,192,59020,1,0,0:0:0:0:
320,192,59059,1,0,0:0:0:0:
192,192,59118,1,0,0:0:0:0:
64,192,59178,1,0,0:0:0:0:
320,192,59257,1,0,0:0:0:0:
192,192,59336,1,0,0:0:0:0:
192,192,59415,1,0,0:0:0:0:
320,192,59467,1,0,0:0:0:0:
448,192,59493,1,0,0:0:0:0:
448,192,59572,1,0,0:0:0:0:
64,192,59651,1,0,0:0:0:0:
192,192,59651,1,0,0:0:0:0:
192,192,59730,1,0,0:0:0:0:
64,192,59730,1,0,0:0:0:0:
448,192,59809,1,0,0:0:0:0:
320,192,59809,1,0,0:0:0:0:
448,192,59888,1,0,0:0:0:0:
320,192,59888,1,0,0:0:0:0:
192,192,59967,5,0,0:0:0:0:
64,192,59967,1,0,0:0:0:0:
320,192,60046,1,0,0:0:0:0:
64,192,60125,1,0,0:0:0:0:
192,192,60165,1,0,0:0:0:0:
320,192,60204,1,0,0:0:0:0:
64,192,60283,1,0,0:0:0:0:
448,192,60283,1,0,0:0:0:0:
192,192,60336,1,0,0:0:0:0:
448,192,60388,1,0,0:0:0:0:
320,192,60441,1,0,0:0:0:0:
192,192,60493,1,0,0:0:0:0:
64,192,60546,1,0,0:0:0:0:
448,192,60599,1,0,0:0:0:0:
192,192,60678,1,0,0:0:0:0:
320,192,60717,1,0,0:0:0:0:
64,192,60757,1,0,0:0:0:0:
320,192,60816,1,0,0:0:0:0:
64,192,60855,1,0,0:0:0:0:
192,192,60915,1,0,0:0:0:0:
448,192,60915,1,0,0:0:0:0:
320,192,61020,1,0,0:0:0:0:
192,192,61072,1,0,0:0:0:0:
64,192,61125,1,0,0:0:0:0:
448,192,61178,1,0,0:0:0:0:
320,192,61204,1,0,0:0:0:0:
64,192,61230,1,0,0:0:0:0:
320,192,61309,1,0,0:0:0:0:
448,192,61309,1,0,0:0:0:0:
64,192,61357,1,0,0:0:0:0:
192,192,61388,1,0,0:0:0:0:
320,192,61467,1,0,0:0:0:0:
448,192,61546,1,0,0:0:0:0:
64,192,61546,1,0,0:0:0:0:
192,192,61599,1,0,0:0:0:0:
448,192,61651,1,0,0:0:0:0:
320,192,61704,1,0,0:0:0:0:
192,192,61783,1,0,0:0:0:0:
448,192,61862,1,0,0:0:0:0:
64,192,61941,1,0,0:0:0:0:
192,192,61941,1,0,0:0:0:0:
448,192,61990,1,0,0:0:0:0:
64,192,62020,1,0,0:0:0:0:
192,192,62059,1,0,0:0:0:0:
448,192,62099,1,0,0:0:0:0:
64,192,62178,1,0,0:0:0:0:
320,192,62178,1,0,0:0:0:0:
192,192,62257,1,0,0:0:0:0:
448,192,62336,1,0,0:0:0:0:
64,192,62388,1,0,0:0:0:0:
192,192,62415,1,0,0:0:0:0:
320,192,62415,1,0,0:0:0:0:
448,192,62493,1,0,0:0:0:0:
192,192,62546,1,0,0:0:0:0:
64,192,62572,1,0,0:0:0:0:
320,192,62599,1,0,0:0:0:0:
448,192,62651,1,0,0:0:0:0:
320,192,62730,1,0,0:0:0:0:
192,192,62809,1,0,0:0:0:0:
64,192,62809,1,0,0:0:0:0:
448,192,62862,1,0,0:0:0:0:
64,192,62915,1,0,0:0:0:0:
320,192,62980,1,0,0:0:0:0:
448,192,63020,1,0,0:0:0:0:
64,192,63125,1,0,0:0:0:0:
192,192,63170,1,0,0:0:0:0:
320,192,63204,1,0,0:0:0:0:
448,192,63204,1,0,0:0:0:0:
64,192,63253,1,0,0:0:0:0:
320,192,63309,1,0,0:0:0:0:
192,192,63349,1,0,0:0:0:0:
448,192,63388,1,0,0:0:0:0:
192,192,63441,1,0,0:0:0:0:
64,192,63441,1,0,0:0:0:0:
320,192,63599,1,0,0:0:0:0:
192,192,63658,1,0,0:0:0:0:
448,192,63678,1,0,0:0:0:0:
320,192,63707,1,0,0:0:0:0:
64,192,63747,1,0,0:0:0:0:
192,192,63796,1,0,0:0:0:0:
320,192,63836,1,0,0:0:0:0:
448,192,63836,1,0,0:0:0:0:
192,192,63895,1,0,0:0:0:0:
64,192,63946,1,0,0:0:0:0:
448,192,63993,1,0,0:0:0:0:
320,192,64072,1,0,0:0:0:0:
64,192,64072,1,0,0:0:0:0:
192,192,64125,1,0,0:0:0:0:
448,192,64230,1,0,0:0:0:0:
192,192,64283,1,0,0:0:0:0:
320,192,64336,1,0,0:0:0:0:
64,192,64388,1,0,0:0:0:0:
192,192,64428,1,0,0:0:0:0:
448,192,64467,1,0,0:0:0:0:
192,192,64507,1,0,0:0:0:0:
320,192,64546,1,0,0:0:0:0:
448,192,64578,1,0,0:0:0:0:
192,192,64641,1,0,0:0:0:0:
64,192,64704,1,0,0:0:0:0:
320,192,64704,1,0,0:0:0:0:
192,192,64862,1,0,0:0:0:0:
320,192,64901,1,0,0:0:0:0:
64,192,64941,1,0,0:0:0:0:
192,192,64941,1,0,0:0:0:0:
448,192,65020,1,0,0:0:0:0:
192,192,65065,1,0,0:0:0:0:
448,192,65110,1,0,0:0:0:0:
320,192,65155,1,0,0:0:0:0:
64,192,65197,1,0,0:0:0:0:
192,192,65336,1,0,0:0:0:0:
448,192,65336,1,0,0:0:0:0:
320,192,65388,1,0,0:0:0:0:
192,192,65546,1,0,0:0:0:0:
320,192,65599,1,0,0:0:0:0:
448,192,65651,1,0,0:0:0:0:
192,192,65701,1,0,0:0:0:0:
448,192,65730,1,0,0:0:0:0:
192,192,65778,1,0,0:0:0:0:
320,192,65819,1,0,0:0:0:0:
64,192,65849,1,0,0:0:0:0:
448,192,65877,1,0,0:0:0:0:
320,192,65938,1,0,0:0:0:0:
192,192,65967,1,0,0:0:0:0:
64,192,65967,1,0,0:0:0:0:
448,192,66125,1,0,0:0:0:0:
320,192,66165,1,0,0:0:0:0:
64,192,66204,1,0,0:0:0:0:
320,192,66243,1,0,0:0:0:0:
64,192,66283,1,0,0:0:0:0:
192,192,66362,1,0,0:0:0:0:
448,192,66362,1,0,0:0:0:0:
320,192,66441,1,0,0:0:0:0:
192,192,66520,1,0,0:0:0:0:
64,192,66599,1,0,0:0:0:0:
320,192,66599,1,0,0:0:0:0:
448,192,66678,1,0,0:0:0:0:
192,192,66717,1,0,0:0:0:0:
64,192,66757,1,0,0:0:0:0:
448,192,66836,1,0,0:0:0:0:
320,192,66915,1,0,0:0:0:0:
64,192,66993,1,0,0:0:0:0:
192,192,66993,1,0,0:0:0:0:
320,192,67046,1,0,0:0:0:0:
64,192,67092,1,0,0:0:0:0:
320,192,67122,1,0,0:0:0:0:
192,192,67161,1,0,0:0:0:0:
448,192,67191,1,0,0:0:0:0:
320,192,67230,1,0,0:0:0:0:
64,192,67230,1,0,0:0:0:0:
192,192,67388,1,0,0:0:0:0:
448,192,67441,1,0,0:0:0:0:
64,192,67467,1,0,0:0:0:0:
192,192,67467,1,0,0:0:0:0:
320,192,67546,1,0,0:0:0:0:
64,192,67625,1,0,0:0:0:0:
192,192,67665,1,0,0:0:0:0:
320,192,67704,1,0,0:0:0:0:
64,192,67783,1,0,0:0:0:0:
448,192,67822,1,0,0:0:0:0:
320,192,67862,1,0,0:0:0:0:
192,192,67862,1,0,0:0:0:0:
64,192,67915,1,0,0:0:0:0:
320,192,67967,1,0,0:0:0:0:
448,192,68040,1,0,0:0:0:0:
192,192,68178,1,0,0:0:0:0:
448,192,68217,1,0,0:0:0:0:
192,192,68257,1,0,0:0:0:0:
448,192,68296,1,0,0:0:0:0:
320,192,68336,1,0,0:0:0:0:
64,192,68388,1,0,0:0:0:0:
320,192,68441,1,0,0:0:0:0:
448,192,68493,1,0,0:0:0:0:
192,192,68493,1,0,0:0:0:0:
64,192,68572,1,0,0:0:0:0:
448,192,68651,1,0,0:0:0:0:
320,192,68691,1,0,0:0:0:0:
192,192,68730,1,0,0:0:0:0:
64,192,68730,1,0,0:0:0:0:
320,192,68809,1,0,0:0:0:0:
64,192,68849,1,0,0:0:0:0:
320,192,68888,1,0,0:0:0:0:
448,192,68888,1,0,0:0:0:0:
192,192,68967,1,0,0:0:0:0:
448,192,69046,1,0,0:0:0:0:
320,192,69125,1,0,0:0:0:0:
64,192,69125,1,0,0:0:0:0:
192,192,69204,1,0,0:0:0:0:
320,192,69283,1,0,0:0:0:0:
192,192,69362,1,0,0:0:0:0:
64,192,69362,1,0,0:0:0:0:
448,192,69441,1,0,0:0:0:0:
192,192,69480,1,0,0:0:0:0:
448,192,69520,1,0,0:0:0:0:
320,192,69520,1,0,0:0:0:0:
192,192,69572,1,0,0:0:0:0:
448,192,69625,1,0,0:0:0:0:
192,192,69704,1,0,0:0:0:0:
448,192,69757,1,0,0:0:0:0:
320,192,69757,1,0,0:0:0:0:
64,192,69796,1,0,0:0:0:0:
320,192,69836,1,0,0:0:0:0:
64,192,69895,1,0,0:0:0:0:
192,192,69954,1,0,0:0:0:0:
448,192,69993,1,0,0:0:0:0:
320,192,69993,1,0,0:0:0:0:
192,192,70072,1,0,0:0:0:0:
64,192,70072,1,0,0:0:0:0:
448,192,70388,1,0,0:0:0:0:
448,192,70467,1,0,0:0:0:0:
192,192,70546,1,0,0:0:0:0:
192,192,70625,1,0,0:0:0:0:
320,192,70704,1,0,0:0:0:0:
64,192,70757,1,0,0:0:0:0:
320,192,70809,1,0,0:0:0:0:
192,192,70862,1,0,0:0:0:0:
448,192,70941,1,0,0:0:0:0:
192,192,71020,1,0,0:0:0:0:
64,192,71046,1,0,0:0:0:0:
64,192,71178,1,0,0:0:0:0:
192,192,71230,1,0,0:0:0:0:
448,192,71283,1,0,0:0:0:0:
192,192,71336,1,0,0:0:0:0:
320,192,71336,1,0,0:0:0:0:
448,192,71415,1,0,0:0:0:0:
64,192,71493,1,0,0:0:0:0:
320,192,71651,1,0,0:0:0:0:
448,192,71704,1,0,0:0:0:0:
320,192,71836,1,0,0:0:0:0:
192,192,71967,1,0,0:0:0:0:
64,192,71967,1,0,0:0:0:0:
448,192,71993,1,0,0:0:0:0:
320,192,72020,1,0,0:0:0:0:
192,192,72072,1,0,0:0:0:0:
64,192,72178,1,0,0:0:0:0:
320,192,72283,1,0,0:0:0:0:
448,192,72283,1,0,0:0:0:0:
64,192,72309,1,0,0:0:0:0:
192,192,72362,1,0,0:0:0:0:
448,192,72441,1,0,0:0:0:0:
320,192,72441,1,0,0:0:0:0:
320,192,72599,1,0,0:0:0:0:
448,192,72599,1,0,0:0:0:0:
192,192,72638,1,0,0:0:0:0:
448,192,72678,1,0,0:0:0:0:
192,192,72737,1,0,0:0:0:0:
64,192,72796,1,0,0:0:0:0:
320,192,72915,1,0,0:0:0:0:
320,192,72993,1,0,0:0:0:0:
192,192,73033,1,0,0:0:0:0:
64,192,73072,1,0,0:0:0:0:
320,192,73112,1,0,0:0:0:0:
64,192,73151,1,0,0:0:0:0:
320,192,73230,1,0,0:0:0:0:
64,192,73388,1,0,0:0:0:0:
192,192,73546,1,0,0:0:0:0:
448,192,73625,1,0,0:0:0:0:
64,192,73651,1,0,0:0:0:0:
192,192,73704,1,0,0:0:0:0:
320,192,73757,1,0,0:0:0:0:
448,192,73783,1,0,0:0:0:0:
192,192,73862,1,0,0:0:0:0:
64,192,73862,1,0,0:0:0:0:
320,192,74115,1,0,0:0:0:0:
192,192,74178,1,0,0:0:0:0:
448,192,74217,1,0,0:0:0:0:
320,192,74257,1,0,0:0:0:0:
192,192,74336,1,0,0:0:0:0:
320,192,74415,1,0,0:0:0:0:
64,192,74454,1,0,0:0:0:0:
448,192,74493,1,0,0:0:0:0:
320,192,74546,1,0,0:0:0:0:
64,192,74572,1,0,0:0:0:0:
192,192,74599,1,0,0:0:0:0:
448,192,74651,1,0,0:0:0:0:
192,192,74764,1,0,0:0:0:0:
64,192,74809,1,0,0:0:0:0:
64,192,74888,1,0,0:0:0:0:
448,192,74967,1,0,0:0:0:0:
320,192,74967,1,0,0:0:0:0:
448,192,75125,1,0,0:0:0:0:
64,192,75125,1,0,0:0:0:0:
320,192,75151,1,0,0:0:0:0:
192,192,75204,1,0,0:0:0:0:
64,192,75257,1,0,0:0:0:0:
320,192,75378,1,0,0:0:0:0:
448,192,75441,1,0,0:0:0:0:
448,192,75520,1,0,0:0:0:0:
192,192,75599,1,0,0:0:0:0:
192,192,75678,1,0,0:0:0:0:
448,192,75717,1,0,0:0:0:0:
320,192,75757,1,0,0:0:0:0:
64,192,75836,1,0,0:0:0:0:
320,192,75934,1,0,0:0:0:0:
64,192,75993,1,0,0:0:0:0:
192,192,76072,1,0,0:0:0:0:
448,192,76230,1,0,0:0:0:0:
320,192,76283,1,0,0:0:0:0:
448,192,76336,1,0,0:0:0:0:
64,192,76388,1,0,0:0:0:0:
192,192,76388,1,0,0:0:0:0:
320,192,76467,1,0,0:0:0:0:
64,192,76546,1,0,0:0:0:0:
448,192,76625,1,0,0:0:0:0:
320,192,76665,1,0,0:0:0:0:
192,192,76704,1,0,0:0:0:0:
320,192,76783,1,0,0:0:0:0:
64,192,76836,1,0,0:0:0:0:
192,192,76915,1,0,0:0:0:0:
320,192,76993,1,0,0:0:0:0:
448,192,77020,1,0,0:0:0:0:
192,192,77059,1,0,0:0:0:0:
448,192,77099,1,0,0:0:0:0:
192,192,77151,1,0,0:0:0:0:
448,192,77230,1,0,0:0:0:0:
64,192,77336,1,0,0:0:0:0:
448,192,77415,1,0,0:0:0:0:
64,192,77441,1,0,0:0:0:0:
320,192,77493,1,0,0:0:0:0:
64,192,77546,1,0,0:0:0:0:
320,192,77599,1,0,0:0:0:0:
192,192,77651,1,0,0:0:0:0:
64,192,77651,1,0,0:0:0:0:
448,192,77704,1,0,0:0:0:0:
320,192,77757,1,0,0:0:0:0:
192,192,77809,1,0,0:0:0:0:
448,192,77841,1,0,0:0:0:0:
320,192,77904,1,0,0:0:0:0:
64,192,77967,1,0,0:0:0:0:
64,192,78046,1,0,0:0:0:0:
320,192,78125,1,0,0:0:0:0:
320,192,78204,1,0,0:0:0:0:
192,192,78283,1,0,0:0:0:0:
320,192,78599,1,0,0:0:0:0:
320,192,78757,1,0,0:0:0:0:
320,192,78836,1,0,0:0:0:0:
64,192,78915,1,0,0:0:0:0:
192,192,78915,1,0,0:0:0:0:
448,192,79072,1,0,0:0:0:0:
320,192,79230,1,0,0:0:0:0:
192,192,79309,1,0,0:0:0:0:
320,192,79388,1,0,0:0:0:0:
320,192,79546,1,0,0:0:0:0:
64,192,79546,1,0,0:0:0:0:
192,192,79704,1,0,0:0:0:0:
192,192,79783,1,0,0:0:0:0:
448,192,79862,1,0,0:0:0:0:
448,192,79941,1,0,0:0:0:0:
64,192,80020,1,0,0:0:0:0:
320,192,80099,1,0,0:0:0:0:
192,192,80178,1,0,0:0:0:0:
64,192,80336,1,0,0:0:0:0:
320,192,80493,1,0,0:0:0:0:
448,192,80493,1,0,0:0:0:0:
64,192,80651,1,0,0:0:0:0:
192,192,80809,1,0,0:0:0:0:
320,192,80809,1,0,0:0:0:0:
64,192,80967,1,0,0:0:0:0:
448,192,81125,1,0,0:0:0:0:
320,192,81125,1,0,0:0:0:0:
64,192,81283,1,0,0:0:0:0:
192,192,81441,1,0,0:0:0:0:
320,192,81441,1,0,0:0:0:0:
64,192,81599,1,0,0:0:0:0:
448,192,81757,1,0,0:0:0:0:
320,192,81757,1,0,0:0:0:0:
192,192,81883,1,0,0:0:0:0:
64,192,81915,1,0,0:0:0:0:
320,192,81946,1,0,0:0:0:0:
448,192,82009,1,0,0:0:0:0:
192,192,82072,1,0,0:0:0:0:
320,192,82072,1,0,0:0:0:0:
64,192,82125,1,0,0:0:0:0:
320,192,82178,1,0,0:0:0:0:
64,192,82230,1,0,0:0:0:0:
192,192,82309,1,0,0:0:0:0:
320,192,82388,1,0,0:0:0:0:
448,192,82388,1,0,0:0:0:0:
64,192,82546,1,0,0:0:0:0:
448,192,82625,1,0,0:0:0:0:
320,192,82625,1,0,0:0:0:0:
64,192,82665,1,0,0:0:0:0:
192,192,82704,1,0,0:0:0:0:
320,192,82783,1,0,0:0:0:0:
64,192,82839,1,0,0:0:0:0:
320,192,82884,1,0,0:0:0:0:
448,192,82930,1,0,0:0:0:0:
192,192,83020,1,0,0:0:0:0:
64,192,83020,1,0,0:0:0:0:
448,192,83178,1,0,0:0:0:0:
64,192,83257,1,0,0:0:0:0:
192,192,83336,1,0,0:0:0:0:
320,192,83336,1,0,0:0:0:0:
448,192,83493,1,0,0:0:0:0:
192,192,83651,1,0,0:0:0:0:
64,192,83651,1,0,0:0:0:0:
448,192,83809,1,0,0:0:0:0:
192,192,83967,1,0,0:0:0:0:
320,192,83967,1,0,0:0:0:0:
448,192,84125,1,0,0:0:0:0:
192,192,84283,1,0,0:0:0:0:
64,192,84283,1,0,0:0:0:0:
320,192,84362,1,0,0:0:0:0:
448,192,84401,1,0,0:0:0:0:
64,192,84441,1,0,0:0:0:0:
448,192,84493,1,0,0:0:0:0:
64,192,84546,1,0,0:0:0:0:
192,192,84599,1,0,0:0:0:0:
448,192,84678,1,0,0:0:0:0:
192,192,84757,1,0,0:0:0:0:
64,192,84757,1,0,0:0:0:0:
320,192,84809,1,0,0:0:0:0:
192,192,84862,1,0,0:0:0:0:
64,192,84915,1,0,0:0:0:0:
448,192,84915,1,0,0:0:0:0:
320,192,84967,1,0,0:0:0:0:
448,192,85072,1,0,0:0:0:0:
64,192,85072,1,0,0:0:0:0:
320,192,85151,1,0,0:0:0:0:
64,192,85191,1,0,0:0:0:0:
192,192,85230,1,0,0:0:0:0:
320,192,85230,1,0,0:0:0:0:
192,192,85336,1,0,0:0:0:0:
64,192,85388,1,0,0:0:0:0:
320,192,85546,1,0,0:0:0:0:
448,192,85546,1,0,0:0:0:0:
64,192,85704,1,0,0:0:0:0:
448,192,85783,1,0,0:0:0:0:
320,192,85862,1,0,0:0:0:0:
192,192,85862,1,0,0:0:0:0:
64,192,86020,1,0,0:0:0:0:
448,192,86178,1,0,0:0:0:0:
320,192,86178,1,0,0:0:0:0:
64,192,86336,1,0,0:0:0:0:
192,192,86493,1,0,0:0:0:0:
320,192,86493,1,0,0:0:0:0:
64,192,86651,1,0,0:0:0:0:
320,192,86809,1,0,0:0:0:0:
448,192,86809,1,0,0:0:0:0:
192,192,86888,1,0,0:0:0:0:
448,192,86928,1,0,0:0:0:0:
192,192,86967,1,0,0:0:0:0:
320,192,87020,1,0,0:0:0:0:
64,192,87072,1,0,0:0:0:0:
320,192,87125,1,0,0:0:0:0:
192,192,87125,1,0,0:0:0:0:
448,192,87178,1,0,0:0:0:0:
192,192,87230,1,0,0:0:0:0:
320,192,87283,1,0,0:0:0:0:
64,192,87388,1,0,0:0:0:0:
448,192,87441,1,0,0:0:0:0:
64,192,87493,1,0,0:0:0:0:
448,192,87520,1,0,0:0:0:0:
192,192,87599,1,0,0:0:0:0:
320,192,87651,1,0,0:0:0:0:
192,192,87678,1,0,0:0:0:0:
448,192,87704,1,0,0:0:0:0:
320,192,87757,1,0,0:0:0:0:
64,192,87757,1,0,0:0:0:0:
192,192,87836,1,0,0:0:0:0:
448,192,87915,1,0,0:0:0:0:
192,192,88072,1,0,0:0:0:0:
64,192,88072,1,0,0:0:0:0:
448,192,88230,1,0,0:0:0:0:
64,192,88309,1,0,0:0:0:0:
192,192,88388,1,0,0:0:0:0:
320,192,88388,1,0,0:0:0:0:
448,192,88546,1,0,0:0:0:0:
192,192,88704,1,0,0:0:0:0:
64,192,88704,1,0,0:0:0:0:
448,192,88862,1,0,0:0:0:0:
320,192,89020,1,0,0:0:0:0:
192,192,89020,1,0,0:0:0:0:
448,192,89178,1,0,0:0:0:0:
64,192,89336,1,0,0:0:0:0:
192,192,89336,1,0,0:0:0:0:
448,192,89441,1,0,0:0:0:0:
320,192,89493,1,0,0:0:0:0:
320,192,89612,1,0,0:0:0:0:
448,192,89651,1,0,0:0:0:0:
192,192,89691,1,0,0:0:0:0:
64,192,89809,1,0,0:0:0:0:
192,192,89809,1,0,0:0:0:0:
320,192,89849,1,0,0:0:0:0:
192,192,89928,1,0,0:0:0:0:
64,192,89967,1,0,0:0:0:0:
448,192,89967,1,0,0:0:0:0:
320,192,89993,1,0,0:0:0:0:
320,192,90125,1,0,0:0:0:0:
64,192,90178,1,0,0:0:0:0:
320,192,90230,1,0,0:0:0:0:
448,192,90283,1,0,0:0:0:0:
64,192,90283,1,0,0:0:0:0:
192,192,90336,1,0,0:0:0:0:
320,192,90388,1,0,0:0:0:0:
192,192,90441,1,0,0:0:0:0:
448,192,90599,1,0,0:0:0:0:
320,192,90599,1,0,0:0:0:0:
64,192,90757,1,0,0:0:0:0:
320,192,90809,1,0,0:0:0:0:
448,192,90862,1,0,0:0:0:0:
192,192,90915,1,0,0:0:0:0:
320,192,90915,1,0,0:0:0:0:
64,192,91072,1,0,0:0:0:0:
320,192,91230,1,0,0:0:0:0:
448,192,91230,1,0,0:0:0:0:
64,192,91388,1,0,0:0:0:0:
448,192,91467,1,0,0:0:0:0:
320,192,91546,1,0,0:0:0:0:
192,192,91546,1,0,0:0:0:0:
64,192,91625,1,0,0:0:0:0:
320,192,91704,1,0,0:0:0:0:
192,192,91736,1,0,0:0:0:0:
64,192,91799,1,0,0:0:0:0:
320,192,91862,1,0,0:0:0:0:
448,192,91862,1,0,0:0:0:0:
192,192,91901,1,0,0:0:0:0:
320,192,91941,1,0,0:0:0:0:
64,192,91980,1,0,0:0:0:0:
192,192,92020,1,0,0:0:0:0:
448,192,92138,1,0,0:0:0:0:
320,192,92178,1,0,0:0:0:0:
192,192,92178,1,0,0:0:0:0:
64,192,92257,1,0,0:0:0:0:
448,192,92336,1,0,0:0:0:0:
64,192,92375,1,0,0:0:0:0:
192,192,92434,1,0,0:0:0:0:
320,192,92493,1,0,0:0:0:0:
448,192,92493,1,0,0:0:0:0:
64,192,92572,1,0,0:0:0:0:
64,192,92674,1,0,0:0:0:0:
448,192,92730,1,0,0:0:0:0:
320,192,92730,1,0,0:0:0:0:
192,192,92770,1,0,0:0:0:0:
320,192,92809,1,0,0:0:0:0:
192,192,92872,1,0,0:0:0:0:
448,192,92936,1,0,0:0:0:0:
320,192,92967,1,0,0:0:0:0:
448,192,93125,1,0,0:0:0:0:
320,192,93125,1,0,0:0:0:0:
64,192,93283,1,0,0:0:0:0:
192,192,93336,1,0,0:0:0:0:
448,192,93388,1,0,0:0:0:0:
320,192,93441,1,0,0:0:0:0:
192,192,93441,1,0,0:0:0:0:
64,192,93599,1,0,0:0:0:0:
320,192,93757,1,0,0:0:0:0:
448,192,93757,1,0,0:0:0:0:
64,192,93915,1,0,0:0:0:0:
320,192,93946,1,0,0:0:0:0:
448,192,94009,1,0,0:0:0:0:
192,192,94072,1,0,0:0:0:0:
320,192,94072,1,0,0:0:0:0:
64,192,94136,1,0,0:0:0:0:
64,192,94230,1,0,0:0:0:0:
320,192,94283,1,0,0:0:0:0:
320,192,94388,1,0,0:0:0:0:
448,192,94388,1,0,0:0:0:0:
192,192,94441,1,0,0:0:0:0:
320,192,94493,1,0,0:0:0:0:
64,192,94546,1,0,0:0:0:0:
192,192,94572,1,0,0:0:0:0:
320,192,94704,1,0,0:0:0:0:
192,192,94704,1,0,0:0:0:0:
448,192,94730,1,0,0:0:0:0:
64,192,94783,1,0,0:0:0:0:
192,192,94822,1,0,0:0:0:0:
448,192,94862,1,0,0:0:0:0:
320,192,94862,1,0,0:0:0:0:
64,192,94901,1,0,0:0:0:0:
320,192,94941,1,0,0:0:0:0:
192,192,95000,1,0,0:0:0:0:
448,192,95020,1,0,0:0:0:0:
64,192,95059,1,0,0:0:0:0:
192,192,95178,1,0,0:0:0:0:
320,192,95209,1,0,0:0:0:0:
448,192,95272,1,0,0:0:0:0:
64,192,95296,1,0,0:0:0:0:
320,192,95336,1,0,0:0:0:0:
192,192,95336,1,0,0:0:0:0:
64,192,95388,1,0,0:0:0:0:
320,192,95493,1,0,0:0:0:0:
448,192,95572,1,0,0:0:0:0:
64,192,95651,1,0,0:0:0:0:
192,192,95651,1,0,0:0:0:0:
448,192,95809,1,0,0:0:0:0:
320,192,95862,1,0,0:0:0:0:
64,192,95915,1,0,0:0:0:0:
192,192,95967,1,0,0:0:0:0:
320,192,95967,1,0,0:0:0:0:
448,192,96125,1,0,0:0:0:0:
64,192,96283,1,0,0:0:0:0:
192,192,96283,1,0,0:0:0:0:
448,192,96441,1,0,0:0:0:0:
64,192,96520,1,0,0:0:0:0:
320,192,96599,1,0,0:0:0:0:
192,192,96599,1,0,0:0:0:0:
448,192,96757,1,0,0:0:0:0:
192,192,96915,1,0,0:0:0:0:
64,192,96915,1,0,0:0:0:0:
192,192,97041,1,0,0:0:0:0:
320,192,97104,1,0,0:0:0:0:
64,192,97167,1,0,0:0:0:0:
192,192,97230,1,0,0:0:0:0:
320,192,97230,1,0,0:0:0:0:
448,192,97265,1,0,0:0:0:0:
64,192,97336,1,0,0:0:0:0:
320,192,97388,1,0,0:0:0:0:
192,192,97415,1,0,0:0:0:0:
64,192,97441,1,0,0:0:0:0:
320,192,97493,1,0,0:0:0:0:
192,192,97546,1,0,0:0:0:0:
448,192,97572,1,0,0:0:0:0:
192,192,97625,1,0,0:0:0:0:
320,192,97704,1,0,0:0:0:0:
64,192,97757,1,0,0:0:0:0:
320,192,97783,1,0,0:0:0:0:
192,192,97809,1,0,0:0:0:0:
64,192,97862,1,0,0:0:0:0:
448,192,97901,1,0,0:0:0:0:
320,192,97941,1,0,0:0:0:0:
64,192,98020,1,0,0:0:0:0:
192,192,98046,1,0,0:0:0:0:
448,192,98118,1,0,0:0:0:0:
64,192,98178,1,0,0:0:0:0:
192,192,98178,1,0,0:0:0:0:
448,192,98257,1,0,0:0:0:0:
320,192,98296,1,0,0:0:0:0:
192,192,98336,1,0,0:0:0:0:
448,192,98415,1,0,0:0:0:0:
64,192,98493,1,0,0:0:0:0:
320,192,98572,1,0,0:0:0:0:
64,192,98651,1,0,0:0:0:0:
320,192,98730,1,0,0:0:0:0:
192,192,98809,1,0,0:0:0:0:
64,192,98809,1,0,0:0:0:0:
448,192,98888,1,0,0:0:0:0:
192,192,98967,1,0,0:0:0:0:
448,192,99046,1,0,0:0:0:0:
64,192,99125,1,0,0:0:0:0:
64,192,99204,1,0,0:0:0:0:
320,192,99283,1,0,0:0:0:0:
320,192,99362,1,0,0:0:0:0:
192,192,99441,1,0,0:0:0:0:
64,192,99441,1,0,0:0:0:0:
320,192,99480,1,0,0:0:0:0:
192,192,99520,1,0,0:0:0:0:
448,192,99599,1,0,0:0:0:0:
192,192,99678,1,0,0:0:0:0:
320,192,99717,1,0,0:0:0:0:
64,192,99757,1,0,0:0:0:0:
320,192,99809,1,0,0:0:0:0:
448,192,99836,1,0,0:0:0:0:
192,192,99915,1,0,0:0:0:0:
64,192,99915,1,0,0:0:0:0:
448,192,99993,1,0,0:0:0:0:
320,192,100033,1,0,0:0:0:0:
64,192,100072,1,0,0:0:0:0:
192,192,100072,1,0,0:0:0:0:
448,192,100125,1,0,0:0:0:0:
64,192,100178,1,0,0:0:0:0:
448,192,100230,1,0,0:0:0:0:
64,192,100283,1,0,0:0:0:0:
448,192,100336,1,0,0:0:0:0:
192,192,100388,1,0,0:0:0:0:
64,192,100388,1,0,0:0:0:0:
320,192,100467,1,0,0:0:0:0:
448,192,100546,1,0,0:0:0:0:
192,192,100625,1,0,0:0:0:0:
320,192,100704,1,0,0:0:0:0:
448,192,100704,1,0,0:0:0:0:
64,192,100743,1,0,0:0:0:0:
320,192,100783,1,0,0:0:0:0:
192,192,100822,1,0,0:0:0:0:
448,192,100862,1,0,0:0:0:0:
64,192,100915,1,0,0:0:0:0:
320,192,100967,1,0,0:0:0:0:
192,192,101020,1,0,0:0:0:0:
448,192,101072,1,0,0:0:0:0:
320,192,101099,1,0,0:0:0:0:
64,192,101099,1,0,0:0:0:0:
192,192,101151,1,0,0:0:0:0:
192,192,101230,1,0,0:0:0:0:
320,192,101265,1,0,0:0:0:0:
448,192,101300,1,0,0:0:0:0:
192,192,101336,1,0,0:0:0:0:
64,192,101336,1,0,0:0:0:0:
448,192,101415,1,0,0:0:0:0:
320,192,101454,1,0,0:0:0:0:
64,192,101493,1,0,0:0:0:0:
448,192,101539,1,0,0:0:0:0:
192,192,101572,1,0,0:0:0:0:
320,192,101625,1,0,0:0:0:0:
192,192,101678,1,0,0:0:0:0:
448,192,101730,1,0,0:0:0:0:
64,192,101730,1,0,0:0:0:0:
320,192,101780,1,0,0:0:0:0:
192,192,101829,1,0,0:0:0:0:
320,192,101918,1,0,0:0:0:0:
64,192,101967,1,0,0:0:0:0:
448,192,101967,1,0,0:0:0:0:
192,192,102007,1,0,0:0:0:0:
320,192,102046,1,0,0:0:0:0:
64,192,102105,1,0,0:0:0:0:
448,192,102165,1,0,0:0:0:0:
320,192,102204,1,0,0:0:0:0:
192,192,102263,1,0,0:0:0:0:
448,192,102313,1,0,0:0:0:0:
192,192,102362,1,0,0:0:0:0:
320,192,102362,1,0,0:0:0:0:
320,192,102441,1,0,0:0:0:0:
192,192,102510,1,0,0:0:0:0:
320,192,102579,1,0,0:0:0:0:
64,192,102599,1,0,0:0:0:0:
448,192,102599,1,0,0:0:0:0:
192,192,102725,1,0,0:0:0:0:
320,192,102757,1,0,0:0:0:0:
64,192,102796,1,0,0:0:0:0:
192,192,102836,1,0,0:0:0:0:
320,192,102915,1,0,0:0:0:0:
448,192,102954,1,0,0:0:0:0:
192,192,103003,1,0,0:0:0:0:
64,192,103053,1,0,0:0:0:0:
448,192,103072,1,0,0:0:0:0:
192,192,103112,1,0,0:0:0:0:
320,192,103171,1,0,0:0:0:0:
64,192,103230,1,0,0:0:0:0:
192,192,103230,1,0,0:0:0:0:
320,192,103275,1,0,0:0:0:0:
448,192,103321,1,0,0:0:0:0:
192,192,103411,1,0,0:0:0:0:
192,192,103501,1,0,0:0:0:0:
448,192,103546,1,0,0:0:0:0:
64,192,103586,1,0,0:0:0:0:
448,192,103625,1,0,0:0:0:0:
192,192,103665,1,0,0:0:0:0:
320,192,103730,1,0,0:0:0:0:
64,192,103796,1,0,0:0:0:0:
448,192,103862,1,0,0:0:0:0:
192,192,103862,1,0,0:0:0:0:
320,192,104000,1,0,0:0:0:0:
192,192,104040,1,0,0:0:0:0:
320,192,104099,1,0,0:0:0:0:
64,192,104138,1,0,0:0:0:0:
320,192,104178,1,0,0:0:0:0:
192,192,104230,1,0,0:0:0:0:
448,192,104276,1,0,0:0:0:0:
64,192,104276,1,0,0:0:0:0:
320,192,104336,1,0,0:0:0:0:
192,192,104388,1,0,0:0:0:0:
448,192,104441,1,0,0:0:0:0:
64,192,104493,1,0,0:0:0:0:
192,192,104493,1,0,0:0:0:0:
448,192,104572,1,0,0:0:0:0:
320,192,104625,1,0,0:0:0:0:
64,192,104651,1,0,0:0:0:0:
192,192,104730,1,0,0:0:0:0:
320,192,104770,1,0,0:0:0:0:
448,192,104809,1,0,0:0:0:0:
448,192,104888,1,0,0:0:0:0:
64,192,104888,1,0,0:0:0:0:
192,192,104928,1,0,0:0:0:0:
320,192,104967,1,0,0:0:0:0:
192,192,105020,1,0,0:0:0:0:
64,192,105072,1,0,0:0:0:0:
448,192,105125,1,0,0:0:0:0:
320,192,105125,1,0,0:0:0:0:
192,192,105230,1,0,0:0:0:0:
64,192,105296,1,0,0:0:0:0:
320,192,105322,1,0,0:0:0:0:
192,192,105362,1,0,0:0:0:0:
448,192,105362,1,0,0:0:0:0:
448,192,105441,1,0,0:0:0:0:
192,192,105493,1,0,0:0:0:0:
64,192,105546,1,0,0:0:0:0:
320,192,105599,1,0,0:0:0:0:
448,192,105678,1,0,0:0:0:0:
64,192,105730,1,0,0:0:0:0:
192,192,105757,1,0,0:0:0:0:
320,192,105757,1,0,0:0:0:0:
448,192,105809,1,0,0:0:0:0:
192,192,105915,1,0,0:0:0:0:
320,192,105993,1,0,0:0:0:0:
192,192,106046,1,0,0:0:0:0:
320,192,106099,1,0,0:0:0:0:
64,192,106125,1,0,0:0:0:0:
448,192,106151,1,0,0:0:0:0:
192,192,106191,1,0,0:0:0:0:
448,192,106230,1,0,0:0:0:0:
192,192,106290,1,0,0:0:0:0:
192,192,106388,1,0,0:0:0:0:
320,192,106388,1,0,0:0:0:0:
448,192,106493,1,0,0:0:0:0:
64,192,106529,1,0,0:0:0:0:
320,192,106599,1,0,0:0:0:0:
192,192,106625,1,0,0:0:0:0:
64,192,106625,1,0,0:0:0:0:
448,192,106665,1,0,0:0:0:0:
320,192,106704,1,0,0:0:0:0:
64,192,106794,1,0,0:0:0:0:
320,192,106794,1,0,0:0:0:0:
192,192,106839,1,0,0:0:0:0:
448,192,106901,1,0,0:0:0:0:
320,192,106980,1,0,0:0:0:0:
192,192,107020,1,0,0:0:0:0:
64,192,107020,1,0,0:0:0:0:
320,192,107099,1,0,0:0:0:0:
448,192,107125,1,0,0:0:0:0:
192,192,107178,1,0,0:0:0:0:
64,192,107257,1,0,0:0:0:0:
448,192,107257,1,0,0:0:0:0:
320,192,107336,1,0,0:0:0:0:
192,192,107375,1,0,0:0:0:0:
320,192,107415,1,0,0:0:0:0:
448,192,107415,1,0,0:0:0:0:
192,192,107467,1,0,0:0:0:0:
448,192,107520,1,0,0:0:0:0:
192,192,107572,1,0,0:0:0:0:
64,192,107625,1,0,0:0:0:0:
320,192,107651,1,0,0:0:0:0:
448,192,107651,1,0,0:0:0:0:
64,192,107809,1,0,0:0:0:0:
320,192,107849,1,0,0:0:0:0:
192,192,107888,1,0,0:0:0:0:
64,192,107888,1,0,0:0:0:0:
320,192,107941,1,0,0:0:0:0:
320,192,108020,1,0,0:0:0:0:
192,192,108059,1,0,0:0:0:0:
64,192,108112,1,0,0:0:0:0:
448,192,108125,1,0,0:0:0:0:
320,192,108165,1,0,0:0:0:0:
192,192,108243,1,0,0:0:0:0:
64,192,108283,1,0,0:0:0:0:
320,192,108283,1,0,0:0:0:0:
448,192,108362,1,0,0:0:0:0:
192,192,108441,1,0,0:0:0:0:
448,192,108520,1,0,0:0:0:0:
320,192,108520,1,0,0:0:0:0:
192,192,108599,1,0,0:0:0:0:
320,192,108638,1,0,0:0:0:0:
448,192,108678,1,0,0:0:0:0:
64,192,108678,1,0,0:0:0:0:
320,192,108730,1,0,0:0:0:0:
64,192,108776,1,0,0:0:0:0:
192,192,108816,1,0,0:0:0:0:
448,192,108869,1,0,0:0:0:0:
192,192,108915,1,0,0:0:0:0:
320,192,108915,1,0,0:0:0:0:
448,192,109072,1,0,0:0:0:0:
192,192,109151,1,0,0:0:0:0:
64,192,109151,1,0,0:0:0:0:
448,192,109201,1,0,0:0:0:0:
192,192,109250,1,0,0:0:0:0:
448,192,109309,1,0,0:0:0:0:
320,192,109309,1,0,0:0:0:0:
64,192,109349,1,0,0:0:0:0:
192,192,109428,1,0,0:0:0:0:
448,192,109487,1,0,0:0:0:0:
192,192,109546,1,0,0:0:0:0:
320,192,109546,1,0,0:0:0:0:
192,192,109645,1,0,0:0:0:0:
320,192,109724,1,0,0:0:0:0:
448,192,109783,1,0,0:0:0:0:
64,192,109783,1,0,0:0:0:0:
192,192,109822,1,0,0:0:0:0:
320,192,109862,1,0,0:0:0:0:
192,192,109911,1,0,0:0:0:0:
320,192,109941,1,0,0:0:0:0:
448,192,109941,1,0,0:0:0:0:
64,192,110020,1,0,0:0:0:0:
192,192,110072,1,0,0:0:0:0:
64,192,110125,1,0,0:0:0:0:
320,192,110178,1,0,0:0:0:0:
448,192,110178,1,0,0:0:0:0:
192,192,110241,1,0,0:0:0:0:
448,192,110272,1,0,0:0:0:0:
320,192,110304,1,0,0:0:0:0:
64,192,110336,1,0,0:0:0:0:
448,192,110388,1,0,0:0:0:0:
64,192,110441,1,0,0:0:0:0:
320,192,110493,1,0,0:0:0:0:
192,192,110493,1,0,0:0:0:0:
448,192,110557,1,0,0:0:0:0:
192,192,110620,1,0,0:0:0:0:
448,192,110809,1,0,0:0:0:0:
64,192,110872,1,0,0:0:0:0:
448,192,110888,1,0,0:0:0:0:
320,192,110936,1,0,0:0:0:0:
192,192,110967,1,0,0:0:0:0:
192,192,111046,1,0,0:0:0:0:
448,192,111125,1,0,0:0:0:0:
320,192,111184,1,0,0:0:0:0:
320,192,111283,1,0,0:0:0:0:
192,192,111322,1,0,0:0:0:0:
448,192,111382,1,0,0:0:0:0:
320,192,111421,1,0,0:0:0:0:
64,192,111441,1,0,0:0:0:0:
64,192,111599,1,0,0:0:0:0:
192,192,111651,1,0,0:0:0:0:
320,192,111678,1,0,0:0:0:0:
448,192,111730,1,0,0:0:0:0:
192,192,111757,1,0,0:0:0:0:
64,192,111757,1,0,0:0:0:0:
192,192,111897,1,0,0:0:0:0:
320,192,111915,1,0,0:0:0:0:
64,192,111967,1,0,0:0:0:0:
320,192,112072,1,0,0:0:0:0:
448,192,112125,1,0,0:0:0:0:
320,192,112178,1,0,0:0:0:0:
192,192,112270,1,0,0:0:0:0:
192,192,112388,1,0,0:0:0:0:
448,192,112388,1,0,0:0:0:0:
320,192,112441,1,0,0:0:0:0:
64,192,112467,1,0,0:0:0:0:
192,192,112493,1,0,0:0:0:0:
320,192,112546,1,0,0:0:0:0:
192,192,112625,1,0,0:0:0:0:
448,192,112704,1,0,0:0:0:0:
320,192,112704,1,0,0:0:0:0:
64,192,112783,1,0,0:0:0:0:
192,192,112822,1,0,0:0:0:0:
448,192,112862,1,0,0:0:0:0:
320,192,112862,1,0,0:0:0:0:
64,192,112888,1,0,0:0:0:0:
448,192,113020,1,0,0:0:0:0:
320,192,113020,1,0,0:0:0:0:
64,192,113336,1,0,0:0:0:0:
448,192,113399,1,0,0:0:0:0:
64,192,113415,1,0,0:0:0:0:
320,192,113493,1,0,0:0:0:0:
192,192,113525,1,0,0:0:0:0:
320,192,113572,1,0,0:0:0:0:
64,192,113651,1,0,0:0:0:0:
192,192,113715,1,0,0:0:0:0:
64,192,113809,1,0,0:0:0:0:
192,192,113862,1,0,0:0:0:0:
448,192,113908,1,0,0:0:0:0:
320,192,113947,1,0,0:0:0:0:
64,192,113967,1,0,0:0:0:0:
192,192,114046,1,0,0:0:0:0:
448,192,114125,1,0,0:0:0:0:
320,192,114178,1,0,0:0:0:0:
192,192,114204,1,0,0:0:0:0:
64,192,114257,1,0,0:0:0:0:
320,192,114283,1,0,0:0:0:0:
448,192,114283,1,0,0:0:0:0:
192,192,114322,1,0,0:0:0:0:
448,192,114441,1,0,0:0:0:0:
320,192,114500,1,0,0:0:0:0:
64,192,114599,1,0,0:0:0:0:
192,192,114634,1,0,0:0:0:0:
448,192,114678,1,0,0:0:0:0:
64,192,114757,1,0,0:0:0:0:
192,192,114783,1,0,0:0:0:0:
448,192,114836,1,0,0:0:0:0:
192,192,114915,1,0,0:0:0:0:
320,192,114915,1,0,0:0:0:0:
448,192,114978,1,0,0:0:0:0:
64,192,115009,1,0,0:0:0:0:
192,192,115041,1,0,0:0:0:0:
320,192,115072,1,0,0:0:0:0:
192,192,115125,1,0,0:0:0:0:
448,192,115191,1,0,0:0:0:0:
64,192,115230,1,0,0:0:0:0:
320,192,115270,1,0,0:0:0:0:
192,192,115309,1,0,0:0:0:0:
448,192,115349,1,0,0:0:0:0:
320,192,115388,1,0,0:0:0:0:
192,192,115388,1,0,0:0:0:0:
64,192,115441,1,0,0:0:0:0:
448,192,115546,1,0,0:0:0:0:
320,192,115546,1,0,0:0:0:0:
192,192,115609,1,0,0:0:0:0:
320,192,115672,1,0,0:0:0:0:
320,192,115809,1,0,0:0:0:0:
448,192,115862,1,0,0:0:0:0:
64,192,115915,1,0,0:0:0:0:
448,192,115941,1,0,0:0:0:0:
192,192,116020,1,0,0:0:0:0:
192,192,116099,1,0,0:0:0:0:
320,192,116143,1,0,0:0:0:0:
448,192,116178,1,0,0:0:0:0:
192,192,116223,1,0,0:0:0:0:
64,192,116268,1,0,0:0:0:0:
320,192,116336,1,0,0:0:0:0:
192,192,116388,1,0,0:0:0:0:
320,192,116441,1,0,0:0:0:0:
64,192,116493,1,0,0:0:0:0:
64,192,116651,1,0,0:0:0:0:
320,192,116691,1,0,0:0:0:0:
448,192,116750,1,0,0:0:0:0:
192,192,116809,1,0,0:0:0:0:
64,192,116809,1,0,0:0:0:0:
448,192,116888,1,0,0:0:0:0:
64,192,116928,1,0,0:0:0:0:
320,192,116967,1,0,0:0:0:0:
192,192,117020,1,0,0:0:0:0:
448,192,117072,1,0,0:0:0:0:
320,192,117125,1,0,0:0:0:0:
64,192,117151,1,0,0:0:0:0:
64,192,117230,1,0,0:0:0:0:
320,192,117283,1,0,0:0:0:0:
64,192,117415,1,0,0:0:0:0:
192,192,117441,1,0,0:0:0:0:
448,192,117441,1,0,0:0:0:0:
320,192,117486,1,0,0:0:0:0:
192,192,117531,1,0,0:0:0:0:
192,192,117651,1,0,0:0:0:0:
448,192,117704,1,0,0:0:0:0:
64,192,117757,1,0,0:0:0:0:
320,192,117836,1,0,0:0:0:0:
448,192,117875,1,0,0:0:0:0:
64,192,117915,1,0,0:0:0:0:
192,192,117967,1,0,0:0:0:0:
320,192,117993,1,0,0:0:0:0:
448,192,118037,1,0,0:0:0:0:
64,192,118072,1,0,0:0:0:0:
320,192,118132,1,0,0:0:0:0:
192,192,118171,1,0,0:0:0:0:
192,192,118270,1,0,0:0:0:0:
320,192,118309,1,0,0:0:0:0:
448,192,118349,1,0,0:0:0:0:
64,192,118388,1,0,0:0:0:0:
64,192,118467,1,0,0:0:0:0:
448,192,118507,1,0,0:0:0:0:
320,192,118546,1,0,0:0:0:0:
320,192,118625,1,0,0:0:0:0:
192,192,118665,1,0,0:0:0:0:
64,192,118704,1,0,0:0:0:0:
192,192,118783,1,0,0:0:0:0:
320,192,118862,1,0,0:0:0:0:
448,192,119020,1,0,0:0:0:0:
448,192,119178,1,0,0:0:0:0:
192,192,119257,1,0,0:0:0:0:
448,192,119336,1,0,0:0:0:0:
320,192,119336,1,0,0:0:0:0:
192,192,119651,1,0,0:0:0:0:
448,192,119730,1,0,0:0:0:0:
192,192,119809,1,0,0:0:0:0:
320,192,119862,1,0,0:0:0:0:
192,192,119967,1,0,0:0:0:0:
320,192,120020,1,0,0:0:0:0:
448,192,120046,1,0,0:0:0:0:
192,192,120125,1,0,0:0:0:0:
320,192,120178,1,0,0:0:0:0:
448,192,120204,1,0,0:0:0:0:
192,192,120283,1,0,0:0:0:0:
320,192,120336,1,0,0:0:0:0:
64,192,120362,1,0,0:0:0:0:
192,192,120441,1,0,0:0:0:0:
320,192,120493,1,0,0:0:0:0:
64,192,120520,1,0,0:0:0:0:
320,192,120599,128,0,120678:0:0:0:0:
448,192,120599,1,0,0:0:0:0:
320,192,120757,128,0,120915:0:0:0:0:
64,192,120915,128,0,121072:0:0:0:0:
448,192,121072,128,0,121309:0:0:0:0:
64,192,121230,128,0,121309:0:0:0:0:
64,192,121388,128,0,121546:0:0:0:0:
448,192,121546,128,0,121783:0:0:0:0:
64,192,121704,128,0,121783:0:0:0:0:
64,192,121862,128,0,121941:0:0:0:0:
64,192,122020,128,0,122178:0:0:0:0:
448,192,122178,1,0,0:0:0:0:
320,192,122230,128,0,122730:0:0:0:0:
448,192,122493,128,0,123046:0:0:0:0:
320,192,122809,128,0,123046:0:0:0:0:
192,192,122967,1,0,0:0:0:0:
64,192,122967,1,0,0:0:0:0:
64,192,123125,1,0,0:0:0:0:
320,192,123125,128,0,123204:0:0:0:0:
320,192,123283,128,0,123441:0:0:0:0:
64,192,123441,128,0,123599:0:0:0:0:
448,192,123599,128,0,123836:0:0:0:0:
64,192,123757,128,0,123836:0:0:0:0:
64,192,123915,128,0,124072:0:0:0:0:
448,192,124072,128,0,124309:0:0:0:0:
64,192,124230,128,0,124309:0:0:0:0:
64,192,124388,128,0,124467:0:0:0:0:
64,192,124546,128,0,124704:0:0:0:0:
448,192,124704,1,0,0:0:0:0:
320,192,124757,128,0,125257:0:0:0:0:
192,192,124803,1,0,0:0:0:0:
64,192,124862,1,0,0:0:0:0:
192,192,124921,1,0,0:0:0:0:
64,192,124980,1,0,0:0:0:0:
448,192,125020,128,0,125572:0:0:0:0:
64,192,125151,1,0,0:0:0:0:
192,192,125178,1,0,0:0:0:0:
192,192,125296,1,0,0:0:0:0:
320,192,125336,128,0,125572:0:0:0:0:
64,192,125336,128,0,125415:0:0:0:0:
64,192,125493,128,0,125651:0:0:0:0:
192,192,125651,1,0,0:0:0:0:
320,192,125651,128,0,125730:0:0:0:0:
320,192,125809,128,0,126204:0:0:0:0:
64,192,125967,1,0,0:0:0:0:
192,192,125967,128,0,126125:0:0:0:0:
64,192,126125,128,0,126362:0:0:0:0:
448,192,126125,128,0,126520:0:0:0:0:
320,192,126283,128,0,126678:0:0:0:0:
192,192,126283,128,0,126362:0:0:0:0:
192,192,126441,128,0,126520:0:0:0:0:
192,192,126599,1,0,0:0:0:0:
64,192,126599,128,0,126836:0:0:0:0:
448,192,126599,128,0,126836:0:0:0:0:
320,192,126757,128,0,126836:0:0:0:0:
192,192,126915,1,0,0:0:0:0:
320,192,126915,128,0,126993:0:0:0:0:
320,192,127072,128,0,127230:0:0:0:0:
64,192,127230,128,0,127783:0:0:0:0:
192,192,127270,128,0,127467:0:0:0:0:
448,192,127388,1,0,0:0:0:0:
192,192,127546,128,0,127783:0:0:0:0:
320,192,127546,128,0,127783:0:0:0:0:
448,192,127704,128,0,127941:0:0:0:0:
192,192,127862,128,0,128099:0:0:0:0:
64,192,127901,128,0,128099:0:0:0:0:
448,192,128020,128,0,128178:0:0:0:0:
320,192,128072,1,0,0:0:0:0:
320,192,128178,1,0,0:0:0:0:
192,192,128178,128,0,128257:0:0:0:0:
448,192,128283,1,0,0:0:0:0:
192,192,128336,128,0,128730:0:0:0:0:
64,192,128388,1,0,0:0:0:0:
448,192,128493,1,0,0:0:0:0:
320,192,128493,128,0,128651:0:0:0:0:
448,192,128651,128,0,128888:0:0:0:0:
64,192,128651,128,0,129046:0:0:0:0:
192,192,128809,128,0,129204:0:0:0:0:
320,192,128809,128,0,128888:0:0:0:0:
320,192,128967,128,0,129046:0:0:0:0:
320,192,129125,1,0,0:0:0:0:
448,192,129125,128,0,129362:0:0:0:0:
64,192,129125,128,0,129362:0:0:0:0:
192,192,129283,128,0,129362:0:0:0:0:
320,192,129441,1,0,0:0:0:0:
192,192,129441,128,0,129520:0:0:0:0:
192,192,129599,128,0,129757:0:0:0:0:
448,192,129757,128,0,130309:0:0:0:0:
320,192,129796,128,0,129993:0:0:0:0:
64,192,129915,1,0,0:0:0:0:
320,192,130072,128,0,130309:0:0:0:0:
192,192,130072,128,0,130309:0:0:0:0:
64,192,130230,128,0,130467:0:0:0:0:
320,192,130388,128,0,130599:0:0:0:0:
448,192,130428,128,0,130599:0:0:0:0:
64,192,130546,128,0,130704:0:0:0:0:
192,192,130599,1,0,0:0:0:0:
448,192,130651,1,0,0:0:0:0:
320,192,130704,128,0,130783:0:0:0:0:
192,192,130704,1,0,0:0:0:0:
64,192,130757,1,0,0:0:0:0:
448,192,130809,1,0,0:0:0:0:
320,192,130862,128,0,131257:0:0:0:0:
192,192,130921,1,0,0:0:0:0:
448,192,130980,1,0,0:0:0:0:
64,192,131020,1,0,0:0:0:0:
192,192,131020,128,0,131178:0:0:0:0:
64,192,131178,128,0,131415:0:0:0:0:
448,192,131178,128,0,131572:0:0:0:0:
320,192,131336,128,0,131730:0:0:0:0:
192,192,131336,128,0,131415:0:0:0:0:
192,192,131493,128,0,131572:0:0:0:0:
64,192,131651,128,0,131888:0:0:0:0:
192,192,131651,1,0,0:0:0:0:
448,192,131651,128,0,131888:0:0:0:0:
320,192,131809,128,0,131888:0:0:0:0:
192,192,131967,1,0,0:0:0:0:
320,192,131967,128,0,132046:0:0:0:0:
64,192,132030,1,0,0:0:0:0:
448,192,132095,1,0,0:0:0:0:
320,192,132125,128,0,132283:0:0:0:0:
64,192,132283,128,0,132836:0:0:0:0:
192,192,132322,128,0,132520:0:0:0:0:
448,192,132441,1,0,0:0:0:0:
448,192,132520,1,0,0:0:0:0:
192,192,132599,128,0,132836:0:0:0:0:
320,192,132599,128,0,132836:0:0:0:0:
448,192,132757,128,0,132993:0:0:0:0:
192,192,132915,128,0,133151:0:0:0:0:
64,192,132954,128,0,133151:0:0:0:0:
448,192,133072,128,0,133230:0:0:0:0:
320,192,133125,1,0,0:0:0:0:
192,192,133230,128,0,133309:0:0:0:0:
320,192,133230,1,0,0:0:0:0:
64,192,133293,1,0,0:0:0:0:
448,192,133357,1,0,0:0:0:0:
192,192,133388,128,0,133783:0:0:0:0:
320,192,133420,1,0,0:0:0:0:
448,192,133546,1,0,0:0:0:0:
320,192,133546,128,0,133704:0:0:0:0:
448,192,133704,128,0,133941:0:0:0:0:
64,192,133704,128,0,134099:0:0:0:0:
192,192,133862,128,0,134257:0:0:0:0:
320,192,133862,128,0,133941:0:0:0:0:
320,192,134020,128,0,134099:0:0:0:0:
320,192,134178,1,0,0:0:0:0:
448,192,134178,128,0,134415:0:0:0:0:
64,192,134178,128,0,134415:0:0:0:0:
192,192,134336,128,0,134415:0:0:0:0:
320,192,134493,1,0,0:0:0:0:
192,192,134493,128,0,134572:0:0:0:0:
192,192,134651,128,0,134809:0:0:0:0:
448,192,134809,128,0,135362:0:0:0:0:
320,192,134849,128,0,135046:0:0:0:0:
64,192,134967,1,0,0:0:0:0:
320,192,135125,128,0,135362:0:0:0:0:
192,192,135125,128,0,135362:0:0:0:0:
64,192,135283,128,0,135520:0:0:0:0:
320,192,135441,128,0,135651:0:0:0:0:
448,192,135480,128,0,135651:0:0:0:0:
192,192,135531,1,0,0:0:0:0:
64,192,135599,128,0,135757:0:0:0:0:
192,192,135651,1,0,0:0:0:0:
448,192,135704,1,0,0:0:0:0:
320,192,135757,128,0,135836:0:0:0:0:
192,192,135757,1,0,0:0:0:0:
64,192,135862,1,0,0:0:0:0:
320,192,135915,128,0,136309:0:0:0:0:
448,192,135967,1,0,0:0:0:0:
192,192,136072,128,0,136230:0:0:0:0:
64,192,136072,128,0,136388:0:0:0:0:
448,192,136230,128,0,136941:0:0:0:0:
192,192,136388,128,0,136625:0:0:0:0:
320,192,136388,1,0,0:0:0:0:
320,192,136546,1,0,0:0:0:0:
192,192,136704,1,0,0:0:0:0:
64,192,136704,128,0,137178:0:0:0:0:
320,192,136862,128,0,136941:0:0:0:0:
192,192,137020,1,0,0:0:0:0:
320,192,137020,128,0,137099:0:0:0:0:
320,192,137178,128,0,137336:0:0:0:0:
64,192,137336,128,0,137493:0:0:0:0:
192,192,137388,128,0,137493:0:0:0:0:
448,192,137493,1,0,0:0:0:0:
320,192,137493,1,0,0:0:0:0:
192,192,137572,1,0,0:0:0:0:
64,192,137572,1,0,0:0:0:0:
192,192,137651,128,0,137888:0:0:0:0:
320,192,137678,128,0,137888:0:0:0:0:
448,192,137809,128,0,138046:0:0:0:0:
192,192,137967,128,0,138204:0:0:0:0:
64,192,137993,128,0,138204:0:0:0:0:
448,192,138125,128,0,138283:0:0:0:0:
320,192,138178,1,0,0:0:0:0:
192,192,138283,128,0,138362:0:0:0:0:
320,192,138283,1,0,0:0:0:0:
448,192,138388,1,0,0:0:0:0:
192,192,138441,128,0,138836:0:0:0:0:
64,192,138493,1,0,0:0:0:0:
320,192,138599,128,0,138757:0:0:0:0:
448,192,138599,128,0,138915:0:0:0:0:
64,192,138757,128,0,139467:0:0:0:0:
320,192,138915,128,0,139151:0:0:0:0:
192,192,138915,1,0,0:0:0:0:
192,192,139072,1,0,0:0:0:0:
320,192,139230,1,0,0:0:0:0:
448,192,139230,128,0,139704:0:0:0:0:
192,192,139388,128,0,139467:0:0:0:0:
320,192,139546,1,0,0:0:0:0:
192,192,139546,128,0,139625:0:0:0:0:
192,192,139704,128,0,139862:0:0:0:0:
448,192,139862,128,0,140020:0:0:0:0:
320,192,139862,128,0,140020:0:0:0:0:
64,192,140037,1,0,0:0:0:0:
192,192,140115,1,0,0:0:0:0:
320,192,140178,1,0,0:0:0:0:
448,192,140197,1,0,0:0:0:0:
64,192,140309,1,0,0:0:0:0:
448,192,140336,1,0,0:0:0:0:
320,192,140362,1,0,0:0:0:0:
320,192,140493,1,0,0:0:0:0:
192,192,140546,1,0,0:0:0:0:
320,192,140584,1,0,0:0:0:0:
448,192,140629,1,0,0:0:0:0:
64,192,140661,1,0,0:0:0:0:
192,192,140691,1,0,0:0:0:0:
448,192,140809,1,0,0:0:0:0:
64,192,140809,128,0,140928:0:0:0:0:
192,192,140868,128,0,141026:0:0:0:0:
448,192,140915,1,0,0:0:0:0:
320,192,140967,1,0,0:0:0:0:
64,192,141026,1,0,0:0:0:0:
448,192,141125,1,0,0:0:0:0:
320,192,141125,1,0,0:0:0:0:
192,192,141165,128,0,141243:0:0:0:0:
320,192,141214,128,0,141293:0:0:0:0:
64,192,141273,128,0,141342:0:0:0:0:
192,192,141322,128,0,141441:0:0:0:0:
448,192,141388,128,0,141493:0:0:0:0:
320,192,141441,128,0,141520:0:0:0:0:
64,192,141490,128,0,141559:0:0:0:0:
192,192,141540,128,0,141579:0:0:0:0:
448,192,141599,128,0,141638:0:0:0:0:
64,192,141628,128,0,141688:0:0:0:0:
320,192,141668,128,0,141717:0:0:0:0:
448,192,141727,128,0,141766:0:0:0:0:
192,192,141757,128,0,141816:0:0:0:0:
64,192,141757,1,0,0:0:0:0:
320,192,141796,128,0,141865:0:0:0:0:
192,192,141865,128,0,141944:0:0:0:0:
64,192,141915,128,0,142020:0:0:0:0:
320,192,141993,1,0,0:0:0:0:
448,192,141993,1,0,0:0:0:0:
192,192,142072,128,0,142125:0:0:0:0:
448,192,142125,128,0,142204:0:0:0:0:
64,192,142151,1,0,0:0:0:0:
192,192,142178,128,0,142270:0:0:0:0:
320,192,142230,128,0,142290:0:0:0:0:
448,192,142309,128,0,142378:0:0:0:0:
320,192,142349,128,0,142408:0:0:0:0:
64,192,142388,1,0,0:0:0:0:
192,192,142388,128,0,142526:0:0:0:0:
64,192,142487,128,0,142566:0:0:0:0:
320,192,142546,1,0,0:0:0:0:
448,192,142586,1,0,0:0:0:0:
192,192,142684,1,0,0:0:0:0:
64,192,142724,1,0,0:0:0:0:
448,192,142783,1,0,0:0:0:0:
320,192,142783,1,0,0:0:0:0:
192,192,142809,128,0,142888:0:0:0:0:
320,192,142862,128,0,142961:0:0:0:0:
448,192,142980,1,0,0:0:0:0:
192,192,143020,1,0,0:0:0:0:
64,192,143020,1,0,0:0:0:0:
192,192,143099,1,0,0:0:0:0:
448,192,143138,1,0,0:0:0:0:
64,192,143178,1,0,0:0:0:0:
448,192,143257,1,0,0:0:0:0:
320,192,143257,1,0,0:0:0:0:
64,192,143304,1,0,0:0:0:0:
320,192,143362,1,0,0:0:0:0:
192,192,143405,128,0,143572:0:0:0:0:
448,192,143458,1,0,0:0:0:0:
320,192,143493,1,0,0:0:0:0:
64,192,143533,128,0,143592:0:0:0:0:
320,192,143592,1,0,0:0:0:0:
64,192,143651,1,0,0:0:0:0:
192,192,143651,1,0,0:0:0:0:
448,192,143704,128,0,143757:0:0:0:0:
320,192,143730,128,0,143809:0:0:0:0:
64,192,143854,1,0,0:0:0:0:
64,192,143928,1,0,0:0:0:0:
192,192,143977,128,0,144105:0:0:0:0:
320,192,144072,128,0,144125:0:0:0:0:
448,192,144099,128,0,144151:0:0:0:0:
64,192,144125,128,0,144178:0:0:0:0:
320,192,144178,128,0,144230:0:0:0:0:
192,192,144230,128,0,144283:0:0:0:0:
320,192,144283,1,0,0:0:0:0:
448,192,144283,1,0,0:0:0:0:
192,192,144342,1,0,0:0:0:0:
320,192,144441,128,0,144520:0:0:0:0:
448,192,144520,1,0,0:0:0:0:
64,192,144520,1,0,0:0:0:0:
192,192,144559,128,0,144599:0:0:0:0:
320,192,144599,128,0,144678:0:0:0:0:
192,192,144678,128,0,144730:0:0:0:0:
64,192,144704,128,0,144875:0:0:0:0:
448,192,144776,128,0,144855:0:0:0:0:
320,192,144836,128,0,144915:0:0:0:0:
192,192,144915,1,0,0:0:0:0:
448,192,144915,1,0,0:0:0:0:
320,192,144993,1,0,0:0:0:0:
64,192,145046,1,0,0:0:0:0:
64,192,145151,1,0,0:0:0:0:
448,192,145151,1,0,0:0:0:0:
192,192,145217,1,0,0:0:0:0:
320,192,145257,128,0,145441:0:0:0:0:
192,192,145322,128,0,145401:0:0:0:0:
448,192,145349,128,0,145546:0:0:0:0:
192,192,145546,1,0,0:0:0:0:
64,192,145546,1,0,0:0:0:0:
192,192,145625,1,0,0:0:0:0:
448,192,145704,1,0,0:0:0:0:
192,192,145743,1,0,0:0:0:0:
64,192,145792,1,0,0:0:0:0:
320,192,145792,1,0,0:0:0:0:
448,192,145862,1,0,0:0:0:0:
192,192,145915,1,0,0:0:0:0:
320,192,145951,128,0,146030:0:0:0:0:
448,192,145980,128,0,146118:0:0:0:0:
64,192,146030,1,0,0:0:0:0:
64,192,146118,1,0,0:0:0:0:
448,192,146178,1,0,0:0:0:0:
320,192,146178,128,0,146257:0:0:0:0:
64,192,146227,128,0,146355:0:0:0:0:
320,192,146336,1,0,0:0:0:0:
64,192,146415,1,0,0:0:0:0:
192,192,146415,1,0,0:0:0:0:
448,192,146493,128,0,146592:0:0:0:0:
320,192,146523,128,0,146691:0:0:0:0:
192,192,146572,1,0,0:0:0:0:
64,192,146651,128,0,146879:0:0:0:0:
192,192,146730,128,0,146790:0:0:0:0:
320,192,146809,1,0,0:0:0:0:
448,192,146809,1,0,0:0:0:0:
192,192,146854,1,0,0:0:0:0:
320,192,146899,128,0,147012:0:0:0:0:
448,192,146945,128,0,147012:0:0:0:0:
64,192,146967,128,0,147086:0:0:0:0:
192,192,146993,128,0,147056:0:0:0:0:
320,192,147056,1,0,0:0:0:0:
448,192,147056,1,0,0:0:0:0:
192,192,147125,1,0,0:0:0:0:
64,192,147165,128,0,147322:0:0:0:0:
192,192,147230,128,0,147441:0:0:0:0:
448,192,147230,1,0,0:0:0:0:
320,192,147283,1,0,0:0:0:0:
64,192,147441,1,0,0:0:0:0:
448,192,147441,1,0,0:0:0:0:
64,192,147531,1,0,0:0:0:0:
448,192,147599,1,0,0:0:0:0:
448,192,147678,1,0,0:0:0:0:
192,192,147757,1,0,0:0:0:0:
320,192,147796,128,0,147865:0:0:0:0:
448,192,147836,128,0,147967:0:0:0:0:
192,192,147865,1,0,0:0:0:0:
64,192,147915,128,0,147993:0:0:0:0:
320,192,147967,1,0,0:0:0:0:
192,192,148033,1,0,0:0:0:0:
448,192,148072,1,0,0:0:0:0:
320,192,148072,1,0,0:0:0:0:
320,192,148191,1,0,0:0:0:0:
64,192,148230,1,0,0:0:0:0:
192,192,148309,1,0,0:0:0:0:
320,192,148309,1,0,0:0:0:0:
64,192,148388,1,0,0:0:0:0:
320,192,148428,128,0,148507:0:0:0:0:
448,192,148478,128,0,148614:0:0:0:0:
192,192,148546,1,0,0:0:0:0:
64,192,148586,1,0,0:0:0:0:
448,192,148665,128,0,148783:0:0:0:0:
64,192,148704,1,0,0:0:0:0:
192,192,148704,128,0,148901:0:0:0:0:
320,192,148783,128,0,148862:0:0:0:0:
64,192,148862,128,0,148967:0:0:0:0:
448,192,148941,128,0,149020:0:0:0:0:
64,192,149020,128,0,149099:0:0:0:0:
192,192,149072,128,0,149138:0:0:0:0:
320,192,149099,128,0,149191:0:0:0:0:
448,192,149151,128,0,149257:0:0:0:0:
64,192,149178,128,0,149415:0:0:0:0:
320,192,149336,1,0,0:0:0:0:
192,192,149336,128,0,149493:0:0:0:0:
448,192,149467,1,0,0:0:0:0:
320,192,149493,1,0,0:0:0:0:
192,192,149572,1,0,0:0:0:0:
64,192,149572,1,0,0:0:0:0:
320,192,149612,128,0,149691:0:0:0:0:
448,192,149651,128,0,149711:0:0:0:0:
64,192,149730,128,0,149888:0:0:0:0:
320,192,149770,128,0,149829:0:0:0:0:
448,192,149809,128,0,149849:0:0:0:0:
192,192,149849,128,0,149928:0:0:0:0:
320,192,149928,128,0,150007:0:0:0:0:
192,192,149967,128,0,150020:0:0:0:0:
64,192,149967,128,0,150046:0:0:0:0:
448,192,150007,1,0,0:0:0:0:
320,192,150086,128,0,150145:0:0:0:0:
192,192,150125,128,0,150204:0:0:0:0:
64,192,150165,128,0,150243:0:0:0:0:
320,192,150204,1,0,0:0:0:0:
448,192,150204,128,0,150283:0:0:0:0:
192,192,150283,128,0,150362:0:0:0:0:
64,192,150322,128,0,150401:0:0:0:0:
320,192,150362,1,0,0:0:0:0:
448,192,150362,128,0,150441:0:0:0:0:
192,192,150441,128,0,150520:0:0:0:0:
64,192,150480,128,0,150559:0:0:0:0:
448,192,150520,128,0,150599:0:0:0:0:
320,192,150599,1,0,0:0:0:0:
192,192,150599,128,0,150678:0:0:0:0:
64,192,150638,128,0,150717:0:0:0:0:
448,192,150678,128,0,150757:0:0:0:0:
192,192,150757,128,0,150836:0:0:0:0:
64,192,150796,128,0,150875:0:0:0:0:
320,192,150836,1,0,0:0:0:0:
448,192,150836,128,0,150915:0:0:0:0:
192,192,150915,1,0,0:0:0:0:
64,192,150915,1,0,0:0:0:0:
320,192,150985,128,0,151072:0:0:0:0:
192,192,151027,128,0,151163:0:0:0:0:
64,192,151072,1,0,0:0:0:0:
448,192,151107,128,0,151265:0:0:0:0:
320,192,151151,1,0,0:0:0:0:
192,192,151230,1,0,0:0:0:0:
64,192,151230,1,0,0:0:0:0:
320,192,151290,128,0,151368:0:0:0:0:
64,192,151349,128,0,151447:0:0:0:0:
448,192,151398,128,0,151536:0:0:0:0:
320,192,151467,1,0,0:0:0:0:
64,192,151507,1,0,0:0:0:0:
192,192,151546,128,0,151586:0:0:0:0:
448,192,151625,128,0,151743:0:0:0:0:
192,192,151665,128,0,151743:0:0:0:0:
320,192,151704,128,0,151842:0:0:0:0:
64,192,151724,128,0,151803:0:0:0:0:
192,192,151862,1,0,0:0:0:0:
64,192,151862,1,0,0:0:0:0:
320,192,151907,128,0,151952:0:0:0:0:
192,192,151930,128,0,151997:0:0:0:0:
448,192,151997,128,0,152065:0:0:0:0:
64,192,152042,128,0,152178:0:0:0:0:
192,192,152099,1,0,0:0:0:0:
320,192,152099,1,0,0:0:0:0:
448,192,152178,128,0,152336:0:0:0:0:
192,192,152257,1,0,0:0:0:0:
64,192,152257,1,0,0:0:0:0:
192,192,152375,128,0,152434:0:0:0:0:
320,192,152415,128,0,152493:0:0:0:0:
448,192,152454,128,0,152572:0:0:0:0:
192,192,152493,1,0,0:0:0:0:
64,192,152493,1,0,0:0:0:0:
192,192,152612,1,0,0:0:0:0:
320,192,152632,1,0,0:0:0:0:
448,192,152651,1,0,0:0:0:0:
64,192,152730,1,0,0:0:0:0:
320,192,152770,1,0,0:0:0:0:
64,192,152809,1,0,0:0:0:0:
320,192,152849,1,0,0:0:0:0:
448,192,152888,1,0,0:0:0:0:
192,192,152888,128,0,153007:0:0:0:0:
64,192,152928,128,0,153125:0:0:0:0:
320,192,153072,1,0,0:0:0:0:
448,192,153125,1,0,0:0:0:0:
192,192,153125,1,0,0:0:0:0:
320,192,153178,1,0,0:0:0:0:
192,192,153230,1,0,0:0:0:0:
64,192,153283,1,0,0:0:0:0:
448,192,153362,1,0,0:0:0:0:
320,192,153362,1,0,0:0:0:0:
192,192,153441,1,0,0:0:0:0:
448,192,153480,1,0,0:0:0:0:
192,192,153520,128,0,153599:0:0:0:0:
448,192,153559,128,0,153678:0:0:0:0:
64,192,153599,1,0,0:0:0:0:
320,192,153638,128,0,153707:0:0:0:0:
192,192,153678,128,0,153836:0:0:0:0:
320,192,153757,1,0,0:0:0:0:
448,192,153757,1,0,0:0:0:0:
64,192,153802,128,0,153915:0:0:0:0:
320,192,153915,128,0,153974:0:0:0:0:
192,192,153993,1,0,0:0:0:0:
320,192,154072,1,0,0:0:0:0:
64,192,154112,128,0,154171:0:0:0:0:
448,192,154151,1,0,0:0:0:0:
192,192,154171,128,0,154230:0:0:0:0:
64,192,154230,128,0,154290:0:0:0:0:
192,192,154290,128,0,154349:0:0:0:0:
64,192,154349,128,0,154467:0:0:0:0:
448,192,154388,1,0,0:0:0:0:
320,192,154388,1,0,0:0:0:0:
192,192,154428,128,0,154507:0:0:0:0:
320,192,154487,128,0,154586:0:0:0:0:
448,192,154546,1,0,0:0:0:0:
64,192,154566,128,0,154724:0:0:0:0:
320,192,154625,1,0,0:0:0:0:
192,192,154625,1,0,0:0:0:0:
448,192,154724,1,0,0:0:0:0:
320,192,154783,1,0,0:0:0:0:
64,192,154783,1,0,0:0:0:0:
192,192,154822,1,0,0:0:0:0:
320,192,154882,128,0,154961:0:0:0:0:
448,192,154941,128,0,154980:0:0:0:0:
192,192,154980,1,0,0:0:0:0:
320,192,155020,128,0,155138:0:0:0:0:
64,192,155020,1,0,0:0:0:0:
64,192,155138,1,0,0:0:0:0:
192,192,155178,128,0,155237:0:0:0:0:
320,192,155217,128,0,155336:0:0:0:0:
192,192,155296,1,0,0:0:0:0:
64,192,155336,128,0,155503:0:0:0:0:
448,192,155415,1,0,0:0:0:0:
320,192,155415,128,0,155582:0:0:0:0:
192,192,155454,1,0,0:0:0:0:
192,192,155553,128,0,155612:0:0:0:0:
448,192,155651,1,0,0:0:0:0:
64,192,155651,1,0,0:0:0:0:
320,192,155691,1,0,0:0:0:0:
192,192,155757,1,0,0:0:0:0:
320,192,155783,1,0,0:0:0:0:
64,192,155809,1,0,0:0:0:0:
320,192,155888,1,0,0:0:0:0:
448,192,155888,1,0,0:0:0:0:
192,192,155967,1,0,0:0:0:0:
448,192,156007,1,0,0:0:0:0:
192,192,156046,128,0,156099:0:0:0:0:
320,192,156072,128,0,156151:0:0:0:0:
448,192,156125,128,0,156204:0:0:0:0:
64,192,156160,128,0,156283:0:0:0:0:
192,192,156204,1,0,0:0:0:0:
320,192,156283,1,0,0:0:0:0:
448,192,156283,128,0,156378:0:0:0:0:
192,192,156346,128,0,156507:0:0:0:0:
64,192,156441,128,0,156507:0:0:0:0:
448,192,156520,128,0,156572:0:0:0:0:
320,192,156559,128,0,156599:0:0:0:0:
448,192,156638,128,0,156697:0:0:0:0:
64,192,156678,1,0,0:0:0:0:
192,192,156678,128,0,156730:0:0:0:0:
320,192,156730,128,0,156836:0:0:0:0:
448,192,156757,1,0,0:0:0:0:
64,192,156809,128,0,156915:0:0:0:0:
448,192,156915,1,0,0:0:0:0:
192,192,156915,1,0,0:0:0:0:
320,192,156978,128,0,157041:0:0:0:0:
192,192,157009,128,0,157104:0:0:0:0:
448,192,157072,128,0,157230:0:0:0:0:
192,192,157151,1,0,0:0:0:0:
320,192,157151,1,0,0:0:0:0:
64,192,157230,1,0,0:0:0:0:
448,192,157309,1,0,0:0:0:0:
320,192,157309,1,0,0:0:0:0:
192,192,157388,128,0,157467:0:0:0:0:
320,192,157428,128,0,157507:0:0:0:0:
448,192,157467,128,0,157586:0:0:0:0:
64,192,157546,1,0,0:0:0:0:
192,192,157546,128,0,157704:0:0:0:0:
64,192,157651,128,0,157822:0:0:0:0:
320,192,157783,1,0,0:0:0:0:
448,192,157783,1,0,0:0:0:0:
192,192,157822,1,0,0:0:0:0:
320,192,157862,128,0,157980:0:0:0:0:
64,192,157941,1,0,0:0:0:0:
448,192,157941,1,0,0:0:0:0:
192,192,157980,128,0,158099:0:0:0:0:
448,192,158040,128,0,158118:0:0:0:0:
64,192,158079,128,0,158178:0:0:0:0:
192,192,158138,1,0,0:0:0:0:
448,192,158178,1,0,0:0:0:0:
320,192,158178,1,0,0:0:0:0:
192,192,158257,1,0,0:0:0:0:
320,192,158296,1,0,0:0:0:0:
192,192,158336,1,0,0:0:0:0:
64,192,158415,1,0,0:0:0:0:
320,192,158415,1,0,0:0:0:0:
192,192,158493,1,0,0:0:0:0:
448,192,158553,1,0,0:0:0:0:
192,192,158592,1,0,0:0:0:0:
320,192,158651,128,0,158717:0:0:0:0:
448,192,158678,128,0,158757:0:0:0:0:
64,192,158730,128,0,158809:0:0:0:0:
192,192,158809,1,0,0:0:0:0:
320,192,158809,1,0,0:0:0:0:
448,192,158872,1,0,0:0:0:0:
64,192,158936,1,0,0:0:0:0:
448,192,158999,1,0,0:0:0:0:
64,192,159062,1,0,0:0:0:0:
192,192,159125,1,0,0:0:0:0:
320,192,159178,128,0,159230:0:0:0:0:
64,192,159204,1,0,0:0:0:0:
448,192,159204,128,0,159270:0:0:0:0:
192,192,159243,128,0,159322:0:0:0:0:
320,192,159322,1,0,0:0:0:0:
448,192,159362,1,0,0:0:0:0:
64,192,159441,1,0,0:0:0:0:
192,192,159441,1,0,0:0:0:0:
192,192,159520,1,0,0:0:0:0:
448,192,159618,1,0,0:0:0:0:
64,192,159651,1,0,0:0:0:0:
320,192,159678,1,0,0:0:0:0:
192,192,159678,1,0,0:0:0:0:
64,192,159757,1,0,0:0:0:0:
448,192,159796,1,0,0:0:0:0:
320,192,159836,1,0,0:0:0:0:
192,192,159836,1,0,0:0:0:0:
448,192,159915,1,0,0:0:0:0:
64,192,159967,1,0,0:0:0:0:
192,192,159993,128,0,160046:0:0:0:0:
64,192,160072,1,0,0:0:0:0:
448,192,160072,1,0,0:0:0:0:
320,192,160107,128,0,160195:0:0:0:0:
192,192,160178,128,0,160230:0:0:0:0:
448,192,160195,1,0,0:0:0:0:
64,192,160230,1,0,0:0:0:0:
320,192,160262,128,0,160357:0:0:0:0:
192,192,160325,128,0,160388:0:0:0:0:
64,192,160325,1,0,0:0:0:0:
448,192,160401,1,0,0:0:0:0:
192,192,160467,128,0,160526:0:0:0:0:
64,192,160467,1,0,0:0:0:0:
320,192,160507,128,0,160566:0:0:0:0:
448,192,160546,1,0,0:0:0:0:
320,192,160616,128,0,160686:0:0:0:0:
192,192,160651,128,0,160743:0:0:0:0:
64,192,160704,1,0,0:0:0:0:
448,192,160704,1,0,0:0:0:0:
320,192,160743,128,0,160822:0:0:0:0:
64,192,160794,128,0,160884:0:0:0:0:
192,192,160884,128,0,160975:0:0:0:0:
320,192,160941,1,0,0:0:0:0:
448,192,160941,128,0,161020:0:0:0:0:
64,192,161020,1,0,0:0:0:0:
320,192,161178,128,0,161415:0:0:0:0:
64,192,161336,1,0,0:0:0:0:
448,192,161336,128,0,161533:0:0:0:0:
192,192,161493,1,0,0:0:0:0:
448,192,161651,128,0,161888:0:0:0:0:
320,192,161809,128,0,162007:0:0:0:0:
64,192,161967,1,0,0:0:0:0:
448,192,161967,1,0,0:0:0:0:
320,192,162125,128,0,162362:0:0:0:0:
192,192,162125,1,0,0:0:0:0:
448,192,162283,128,0,162480:0:0:0:0:
192,192,162441,1,0,0:0:0:0:
448,192,162599,128,0,162836:0:0:0:0:
64,192,162599,1,0,0:0:0:0:
320,192,162757,128,0,162915:0:0:0:0:
448,192,162915,128,0,163230:0:0:0:0:
64,192,162915,128,0,163230:0:0:0:0:
192,192,163072,1,0,0:0:0:0:
320,192,163230,1,0,0:0:0:0:
192,192,163230,128,0,163467:0:0:0:0:
320,192,163388,128,0,163546:0:0:0:0:
448,192,163546,1,0,0:0:0:0:
192,192,163704,128,0,163941:0:0:0:0:
448,192,163862,1,0,0:0:0:0:
64,192,163862,128,0,164059:0:0:0:0:
320,192,164020,1,0,0:0:0:0:
64,192,164178,128,0,164415:0:0:0:0:
192,192,164336,128,0,164533:0:0:0:0:
448,192,164493,1,0,0:0:0:0:
320,192,164493,1,0,0:0:0:0:
192,192,164651,128,0,164888:0:0:0:0:
320,192,164651,1,0,0:0:0:0:
64,192,164809,128,0,165007:0:0:0:0:
448,192,164967,128,0,165046:0:0:0:0:
64,192,165125,128,0,165362:0:0:0:0:
448,192,165125,128,0,165204:0:0:0:0:
192,192,165283,128,0,165441:0:0:0:0:
64,192,165441,128,0,165599:0:0:0:0:
448,192,165441,128,0,165599:0:0:0:0:
320,192,165599,128,0,165678:0:0:0:0:
320,192,165757,128,0,165836:0:0:0:0:
448,192,165757,1,0,0:0:0:0:
320,192,165915,128,0,165993:0:0:0:0:
64,192,166072,128,0,166309:0:0:0:0:
320,192,166072,128,0,166151:0:0:0:0:
320,192,166230,128,0,166467:0:0:0:0:
448,192,166388,128,0,166586:0:0:0:0:
64,192,166388,128,0,166704:0:0:0:0:
192,192,166546,1,0,0:0:0:0:
448,192,166704,128,0,166941:0:0:0:0:
192,192,166704,128,0,167020:0:0:0:0:
320,192,166862,128,0,167059:0:0:0:0:
448,192,167020,1,0,0:0:0:0:
64,192,167020,128,0,167336:0:0:0:0:
320,192,167178,128,0,167415:0:0:0:0:
192,192,167178,1,0,0:0:0:0:
448,192,167336,128,0,167533:0:0:0:0:
192,192,167336,128,0,167651:0:0:0:0:
64,192,167493,1,0,0:0:0:0:
448,192,167651,128,0,167888:0:0:0:0:
64,192,167651,128,0,167888:0:0:0:0:
320,192,167809,128,0,167967:0:0:0:0:
64,192,167967,128,0,168283:0:0:0:0:
448,192,167967,128,0,168283:0:0:0:0:
192,192,168125,1,0,0:0:0:0:
192,192,168283,128,0,168520:0:0:0:0:
320,192,168283,1,0,0:0:0:0:
320,192,168441,128,0,168599:0:0:0:0:
448,192,168599,128,0,168915:0:0:0:0:
192,192,168599,128,0,168678:0:0:0:0:
192,192,168757,128,0,168993:0:0:0:0:
64,192,168915,128,0,169112:0:0:0:0:
320,192,168915,128,0,169230:0:0:0:0:
448,192,169072,1,0,0:0:0:0:
64,192,169230,128,0,169467:0:0:0:0:
448,192,169230,128,0,169546:0:0:0:0:
192,192,169388,128,0,169586:0:0:0:0:
64,192,169546,1,0,0:0:0:0:
320,192,169546,128,0,169862:0:0:0:0:
192,192,169704,128,0,169941:0:0:0:0:
448,192,169704,1,0,0:0:0:0:
64,192,169862,128,0,170059:0:0:0:0:
448,192,169862,128,0,170178:0:0:0:0:
320,192,170020,1,0,0:0:0:0:
64,192,170178,128,0,170415:0:0:0:0:
320,192,170178,128,0,170415:0:0:0:0:
192,192,170336,128,0,170493:0:0:0:0:
320,192,170493,128,0,170809:0:0:0:0:
64,192,170493,128,0,170730:0:0:0:0:
192,192,170651,128,0,170730:0:0:0:0:
448,192,170809,128,0,171046:0:0:0:0:
192,192,170809,128,0,170888:0:0:0:0:
192,192,170967,128,0,171125:0:0:0:0:
448,192,171125,1,0,0:0:0:0:
192,192,171191,1,0,0:0:0:0:
320,192,171230,1,0,0:0:0:0:
64,192,171265,1,0,0:0:0:0:
192,192,171300,1,0,0:0:0:0:
448,192,171342,1,0,0:0:0:0:
320,192,171362,128,0,175191:0:0:0:0:
448,192,175072,1,0,0:0:0:0:
192,192,175112,1,0,0:0:0:0:
448,192,175151,128,0,175230:0:0:0:0:
64,192,175191,128,0,175270:0:0:0:0:
192,192,175230,128,0,175309:0:0:0:0:
