osu file format v14

[General]
AudioFilename: audio.ogg
AudioLeadIn: 0
PreviewTime: 140098
Countdown: 0
SampleSet: Normal
StackLeniency: 0.7
Mode: 3
LetterboxInBreaks: 0
SpecialStyle: 0
WidescreenStoryboard: 1

[Editor]
Bookmarks: 21442,30915,41021,59968,70073,80178,100389,110494,120600,125651,135756,140810,161021,171126
DistanceSpacing: 1.5
BeatDivisor: 4
GridSize: 4
TimelineZoom: 2.8

[Metadata]
Title:skeleton (Lettuce ver.)
TitleUnicode:skeleton (Lettuce ver.)
Artist:Tenchio
ArtistUnicode:Tenchio
Creator:AHHHHHHHHHHHHHH
Version:Insane
Source:
Tags:FA Featured Artist Mappers' Guild mg dump ahx14 punk bloc party rock english experimental math post hardcore progressive screamo
BeatmapID:3578641
BeatmapSetID:1749371

[Difficulty]
HPDrainRate:7.5
CircleSize:4
OverallDifficulty:6.9
ApproachRate:5
SliderMultiplier:1.4
SliderTickRate:1

[Events]
//Background and Video events
0,0,"OsuBackgroundTrimmed.jpg",0,0
//Break Periods
//Storyboard Layer 0 (Background)
//Storyboard Layer 1 (Fail)
//Storyboard Layer 2 (Pass)
//Storyboard Layer 3 (Foreground)
//Storyboard Layer 4 (Overlay)
//Storyboard Sound Samples

[TimingPoints]
600,315.789473684211,4,1,1,50,1,0
41021,315.789473684211,7,1,1,50,1,0
45442,315.789473684211,4,1,1,50,1,0
50494,315.789473684211,7,1,1,50,1,0
54915,315.789473684211,4,1,1,50,1,0
100388,-100,4,1,1,50,0,1
110493,-100,4,1,1,50,0,0
140809,-100,4,1,1,50,0,1
161020,-100,4,1,1,50,0,0

[HitObjects]
192,192,284,128,0,442:0:0:0:0:
448,192,442,128,0,600:0:0:0:0:
320,192,600,128,0,1547:0:0:0:0:
192,192,1468,128,0,1626:0:0:0:0:
64,192,1731,128,0,2494:0:0:0:0:
192,192,2810,128,0,2968:0:0:0:0:
448,192,2968,128,0,3126:0:0:0:0:
320,192,3126,128,0,3442:0:0:0:0:
192,192,3442,128,0,4073:0:0:0:0:
320,192,3968,128,0,4152:0:0:0:0:
64,192,4231,128,0,5021:0:0:0:0:
192,192,5336,128,0,5494:0:0:0:0:
448,192,5494,128,0,5652:0:0:0:0:
320,192,5652,128,0,6600:0:0:0:0:
192,192,6459,128,0,6670:0:0:0:0:
64,192,6738,128,0,7547:0:0:0:0:
192,192,7863,128,0,8021:0:0:0:0:
448,192,8021,128,0,8178:0:0:0:0:
320,192,8178,128,0,8494:0:0:0:0:
192,192,8494,128,0,9126:0:0:0:0:
320,192,9027,128,0,9205:0:0:0:0:
64,192,9301,128,0,10073:0:0:0:0:
192,192,10389,128,0,10547:0:0:0:0:
448,192,10547,128,0,10705:0:0:0:0:
320,192,10705,128,0,10863:0:0:0:0:
64,192,10705,1,0,0:0:0:0:
192,192,10863,1,0,0:0:0:0:
320,192,11021,128,0,11178:0:0:0:0:
64,192,11021,1,0,0:0:0:0:
448,192,11178,1,0,0:0:0:0:
320,192,11336,1,0,0:0:0:0:
192,192,11336,128,0,11494:0:0:0:0:
448,192,11494,1,0,0:0:0:0:
320,192,11652,1,0,0:0:0:0:
192,192,11652,128,0,11731:0:0:0:0:
320,192,11810,1,0,0:0:0:0:
192,192,11810,128,0,11968:0:0:0:0:
64,192,11968,1,0,0:0:0:0:
448,192,11968,128,0,12126:0:0:0:0:
320,192,12126,1,0,0:0:0:0:
192,192,12284,1,0,0:0:0:0:
64,192,12284,128,0,12442:0:0:0:0:
320,192,12442,1,0,0:0:0:0:
64,192,12600,128,0,12757:0:0:0:0:
192,192,12600,1,0,0:0:0:0:
320,192,12757,1,0,0:0:0:0:
192,192,12915,1,0,0:0:0:0:
64,192,12915,128,0,13073:0:0:0:0:
320,192,13073,128,0,13231:0:0:0:0:
192,192,13231,128,0,13389:0:0:0:0:
320,192,13389,1,0,0:0:0:0:
192,192,13547,128,0,13705:0:0:0:0:
448,192,13547,1,0,0:0:0:0:
64,192,13705,1,0,0:0:0:0:
192,192,13863,1,0,0:0:0:0:
320,192,13863,128,0,14021:0:0:0:0:
64,192,14021,1,0,0:0:0:0:
320,192,14178,128,0,14257:0:0:0:0:
192,192,14178,1,0,0:0:0:0:
320,192,14336,128,0,14494:0:0:0:0:
192,192,14336,1,0,0:0:0:0:
448,192,14494,1,0,0:0:0:0:
64,192,14494,128,0,14652:0:0:0:0:
192,192,14652,1,0,0:0:0:0:
320,192,14810,1,0,0:0:0:0:
448,192,14810,128,0,14968:0:0:0:0:
192,192,14968,1,0,0:0:0:0:
320,192,15126,1,0,0:0:0:0:
448,192,15126,128,0,15284:0:0:0:0:
192,192,15284,1,0,0:0:0:0:
448,192,15442,128,0,15600:0:0:0:0:
320,192,15442,1,0,0:0:0:0:
192,192,15600,128,0,15757:0:0:0:0:
320,192,15757,128,0,15915:0:0:0:0:
64,192,15757,1,0,0:0:0:0:
192,192,15915,1,0,0:0:0:0:
64,192,16073,1,0,0:0:0:0:
320,192,16073,128,0,16231:0:0:0:0:
448,192,16231,1,0,0:0:0:0:
192,192,16389,128,0,16547:0:0:0:0:
320,192,16389,1,0,0:0:0:0:
448,192,16547,1,0,0:0:0:0:
192,192,16705,128,0,16863:0:0:0:0:
320,192,16863,1,0,0:0:0:0:
64,192,16863,128,0,17021:0:0:0:0:
448,192,17021,128,0,17178:0:0:0:0:
192,192,17021,1,0,0:0:0:0:
320,192,17178,1,0,0:0:0:0:
64,192,17336,128,0,17494:0:0:0:0:
192,192,17336,1,0,0:0:0:0:
320,192,17494,1,0,0:0:0:0:
64,192,17652,128,0,17810:0:0:0:0:
192,192,17652,1,0,0:0:0:0:
320,192,17810,1,0,0:0:0:0:
448,192,17810,1,0,0:0:0:0:
192,192,17968,1,0,0:0:0:0:
64,192,17968,128,0,18126:0:0:0:0:
448,192,18126,128,0,18284:0:0:0:0:
192,192,18126,1,0,0:0:0:0:
64,192,18284,1,0,0:0:0:0:
320,192,18382,1,0,0:0:0:0:
192,192,18442,1,0,0:0:0:0:
320,192,18521,1,0,0:0:0:0:
64,192,18600,1,0,0:0:0:0:
192,192,18678,1,0,0:0:0:0:
448,192,18757,1,0,0:0:0:0:
64,192,18863,1,0,0:0:0:0:
320,192,18915,1,0,0:0:0:0:
192,192,18994,1,0,0:0:0:0:
320,192,19073,1,0,0:0:0:0:
192,192,19152,1,0,0:0:0:0:
448,192,19231,1,0,0:0:0:0:
320,192,19310,1,0,0:0:0:0:
64,192,19389,1,0,0:0:0:0:
448,192,19468,1,0,0:0:0:0:
192,192,19547,1,0,0:0:0:0:
320,192,19626,1,0,0:0:0:0:
448,192,19705,1,0,0:0:0:0:
320,192,19784,1,0,0:0:0:0:
64,192,19942,1,0,0:0:0:0:
192,192,20021,1,0,0:0:0:0:
64,192,20100,1,0,0:0:0:0:
320,192,20178,1,0,0:0:0:0:
448,192,20257,1,0,0:0:0:0:
192,192,20336,1,0,0:0:0:0:
448,192,20415,1,0,0:0:0:0:
192,192,20494,1,0,0:0:0:0:
64,192,20494,1,0,0:0:0:0:
320,192,20810,1,0,0:0:0:0:
192,192,20889,1,0,0:0:0:0:
320,192,20968,1,0,0:0:0:0:
192,192,21047,1,0,0:0:0:0:
448,192,21126,1,0,0:0:0:0:
320,192,21178,1,0,0:0:0:0:
192,192,21231,1,0,0:0:0:0:
64,192,21284,1,0,0:0:0:0:
320,192,21336,1,0,0:0:0:0:
448,192,21389,1,0,0:0:0:0:
192,192,21442,1,0,0:0:0:0:
320,192,21600,1,0,0:0:0:0:
192,192,21678,1,0,0:0:0:0:
64,192,21757,1,0,0:0:0:0:
448,192,21757,1,0,0:0:0:0:
192,192,21915,1,0,0:0:0:0:
320,192,21994,1,0,0:0:0:0:
448,192,22073,1,0,0:0:0:0:
64,192,22231,1,0,0:0:0:0:
320,192,22310,1,0,0:0:0:0:
192,192,22389,1,0,0:0:0:0:
448,192,22389,1,0,0:0:0:0:
320,192,22547,1,0,0:0:0:0:
64,192,22626,1,0,0:0:0:0:
192,192,22705,1,0,0:0:0:0:
320,192,22863,1,0,0:0:0:0:
192,192,22942,1,0,0:0:0:0:
64,192,23021,1,0,0:0:0:0:
64,192,23178,1,0,0:0:0:0:
448,192,23257,1,0,0:0:0:0:
320,192,23336,1,0,0:0:0:0:
192,192,23494,1,0,0:0:0:0:
448,192,23573,1,0,0:0:0:0:
320,192,23652,1,0,0:0:0:0:
64,192,23652,1,0,0:0:0:0:
448,192,23810,1,0,0:0:0:0:
192,192,23889,1,0,0:0:0:0:
64,192,23968,1,0,0:0:0:0:
320,192,24126,1,0,0:0:0:0:
448,192,24205,1,0,0:0:0:0:
192,192,24284,1,0,0:0:0:0:
64,192,24284,1,0,0:0:0:0:
448,192,24442,1,0,0:0:0:0:
320,192,24521,1,0,0:0:0:0:
192,192,24600,1,0,0:0:0:0:
64,192,24757,1,0,0:0:0:0:
448,192,24836,1,0,0:0:0:0:
320,192,24915,1,0,0:0:0:0:
192,192,24915,1,0,0:0:0:0:
448,192,25073,1,0,0:0:0:0:
64,192,25152,1,0,0:0:0:0:
192,192,25231,1,0,0:0:0:0:
192,192,25389,1,0,0:0:0:0:
448,192,25547,1,0,0:0:0:0:
320,192,25547,1,0,0:0:0:0:
64,192,25705,1,0,0:0:0:0:
320,192,25784,1,0,0:0:0:0:
64,192,25863,1,0,0:0:0:0:
192,192,26021,1,0,0:0:0:0:
448,192,26100,1,0,0:0:0:0:
320,192,26178,1,0,0:0:0:0:
64,192,26178,1,0,0:0:0:0:
448,192,26336,1,0,0:0:0:0:
192,192,26415,1,0,0:0:0:0:
64,192,26494,1,0,0:0:0:0:
192,192,26652,1,0,0:0:0:0:
320,192,26731,1,0,0:0:0:0:
448,192,26810,1,0,0:0:0:0:
64,192,26810,1,0,0:0:0:0:
320,192,26968,1,0,0:0:0:0:
192,192,27047,1,0,0:0:0:0:
64,192,27126,1,0,0:0:0:0:
448,192,27284,1,0,0:0:0:0:
192,192,27363,1,0,0:0:0:0:
320,192,27442,1,0,0:0:0:0:
64,192,27442,1,0,0:0:0:0:
192,192,27600,1,0,0:0:0:0:
448,192,27678,1,0,0:0:0:0:
320,192,27757,1,0,0:0:0:0:
192,192,27915,1,0,0:0:0:0:
320,192,27994,1,0,0:0:0:0:
448,192,28073,1,0,0:0:0:0:
64,192,28073,1,0,0:0:0:0:
192,192,28231,1,0,0:0:0:0:
448,192,28310,1,0,0:0:0:0:
192,192,28389,1,0,0:0:0:0:
320,192,28547,1,0,0:0:0:0:
64,192,28626,1,0,0:0:0:0:
192,192,28705,1,0,0:0:0:0:
448,192,28705,1,0,0:0:0:0:
64,192,28863,1,0,0:0:0:0:
320,192,28942,1,0,0:0:0:0:
448,192,29021,1,0,0:0:0:0:
192,192,29178,1,0,0:0:0:0:
64,192,29257,1,0,0:0:0:0:
320,192,29336,1,0,0:0:0:0:
448,192,29336,1,0,0:0:0:0:
64,192,29494,1,0,0:0:0:0:
192,192,29573,1,0,0:0:0:0:
320,192,29652,1,0,0:0:0:0:
448,192,29810,1,0,0:0:0:0:
64,192,29889,1,0,0:0:0:0:
192,192,29968,1,0,0:0:0:0:
320,192,29968,1,0,0:0:0:0:
64,192,30126,1,0,0:0:0:0:
448,192,30205,1,0,0:0:0:0:
192,192,30284,1,0,0:0:0:0:
192,192,30442,1,0,0:0:0:0:
64,192,30442,1,0,0:0:0:0:
64,192,30600,1,0,0:0:0:0:
192,192,30600,1,0,0:0:0:0:
448,192,30757,1,0,0:0:0:0:
192,192,30836,1,0,0:0:0:0:
448,192,30915,1,0,0:0:0:0:
64,192,30994,1,0,0:0:0:0:
448,192,31073,1,0,0:0:0:0:
64,192,31152,1,0,0:0:0:0:
320,192,31231,1,0,0:0:0:0:
192,192,31231,1,0,0:0:0:0:
448,192,31310,1,0,0:0:0:0:
192,192,31389,1,0,0:0:0:0:
320,192,31468,1,0,0:0:0:0:
64,192,31547,1,0,0:0:0:0:
448,192,31705,1,0,0:0:0:0:
320,192,31784,1,0,0:0:0:0:
448,192,31863,1,0,0:0:0:0:
64,192,31863,1,0,0:0:0:0:
192,192,32021,1,0,0:0:0:0:
64,192,32100,1,0,0:0:0:0:
320,192,32178,1,0,0:0:0:0:
448,192,32336,1,0,0:0:0:0:
320,192,32415,1,0,0:0:0:0:
192,192,32494,1,0,0:0:0:0:
448,192,32494,1,0,0:0:0:0:
64,192,32652,1,0,0:0:0:0:
192,192,32731,1,0,0:0:0:0:
320,192,32810,1,0,0:0:0:0:
448,192,32968,1,0,0:0:0:0:
320,192,33047,1,0,0:0:0:0:
64,192,33126,1,0,0:0:0:0:
64,192,33284,1,0,0:0:0:0:
320,192,33363,1,0,0:0:0:0:
448,192,33363,1,0,0:0:0:0:
192,192,33442,1,0,0:0:0:0:
448,192,33521,1,0,0:0:0:0:
192,192,33600,1,0,0:0:0:0:
320,192,33678,1,0,0:0:0:0:
64,192,33757,1,0,0:0:0:0:
448,192,33757,1,0,0:0:0:0:
192,192,33836,1,0,0:0:0:0:
448,192,33915,1,0,0:0:0:0:
64,192,33994,1,0,0:0:0:0:
192,192,34073,1,0,0:0:0:0:
448,192,34152,1,0,0:0:0:0:
192,192,34231,1,0,0:0:0:0:
320,192,34310,1,0,0:0:0:0:
64,192,34389,1,0,0:0:0:0:
448,192,34389,1,0,0:0:0:0:
192,192,34468,1,0,0:0:0:0:
320,192,34547,1,0,0:0:0:0:
64,192,34626,1,0,0:0:0:0:
448,192,34705,1,0,0:0:0:0:
192,192,34784,1,0,0:0:0:0:
448,192,34863,1,0,0:0:0:0:
192,192,34942,1,0,0:0:0:0:
320,192,35021,1,0,0:0:0:0:
448,192,35021,1,0,0:0:0:0:
64,192,35178,1,0,0:0:0:0:
320,192,35257,1,0,0:0:0:0:
64,192,35336,1,0,0:0:0:0:
320,192,35494,1,0,0:0:0:0:
448,192,35494,1,0,0:0:0:0:
192,192,35652,1,0,0:0:0:0:
64,192,35652,1,0,0:0:0:0:
320,192,35810,1,0,0:0:0:0:
448,192,35810,1,0,0:0:0:0:
64,192,35968,1,0,0:0:0:0:
320,192,36047,1,0,0:0:0:0:
64,192,36126,1,0,0:0:0:0:
320,192,36205,1,0,0:0:0:0:
192,192,36284,1,0,0:0:0:0:
64,192,36284,1,0,0:0:0:0:
448,192,36442,1,0,0:0:0:0:
320,192,36521,1,0,0:0:0:0:
64,192,36600,1,0,0:0:0:0:
192,192,36757,1,0,0:0:0:0:
64,192,36836,1,0,0:0:0:0:
192,192,36915,1,0,0:0:0:0:
320,192,36915,1,0,0:0:0:0:
448,192,37073,1,0,0:0:0:0:
320,192,37152,1,0,0:0:0:0:
64,192,37231,1,0,0:0:0:0:
192,192,37310,1,0,0:0:0:0:
64,192,37389,1,0,0:0:0:0:
320,192,37468,1,0,0:0:0:0:
448,192,37547,1,0,0:0:0:0:
192,192,37547,1,0,0:0:0:0:
320,192,37705,1,0,0:0:0:0:
64,192,37784,1,0,0:0:0:0:
192,192,37863,1,0,0:0:0:0:
192,192,38021,1,0,0:0:0:0:
448,192,38178,1,0,0:0:0:0:
320,192,38178,1,0,0:0:0:0:
64,192,38336,1,0,0:0:0:0:
320,192,38415,1,0,0:0:0:0:
448,192,38415,1,0,0:0:0:0:
192,192,38494,1,0,0:0:0:0:
448,192,38573,1,0,0:0:0:0:
192,192,38652,1,0,0:0:0:0:
320,192,38731,1,0,0:0:0:0:
64,192,38810,1,0,0:0:0:0:
448,192,38810,1,0,0:0:0:0:
192,192,38889,1,0,0:0:0:0:
320,192,38968,1,0,0:0:0:0:
320,192,39126,1,0,0:0:0:0:
64,192,39205,1,0,0:0:0:0:
320,192,39284,1,0,0:0:0:0:
64,192,39363,1,0,0:0:0:0:
448,192,39442,1,0,0:0:0:0:
192,192,39442,1,0,0:0:0:0:
448,192,39600,1,0,0:0:0:0:
320,192,39678,1,0,0:0:0:0:
64,192,39757,1,0,0:0:0:0:
64,192,39915,1,0,0:0:0:0:
320,192,39994,1,0,0:0:0:0:
192,192,40073,1,0,0:0:0:0:
448,192,40073,1,0,0:0:0:0:
192,192,40231,1,0,0:0:0:0:
320,192,40310,1,0,0:0:0:0:
64,192,40389,1,0,0:0:0:0:
64,192,40547,1,0,0:0:0:0:
448,192,40547,1,0,0:0:0:0:
320,192,40705,1,0,0:0:0:0:
192,192,40784,1,0,0:0:0:0:
320,192,40863,1,0,0:0:0:0:
192,192,40942,1,0,0:0:0:0:
64,192,41021,1,0,0:0:0:0:
320,192,41178,1,0,0:0:0:0:
192,192,41336,1,0,0:0:0:0:
448,192,41336,1,0,0:0:0:0:
64,192,41494,1,0,0:0:0:0:
320,192,41652,1,0,0:0:0:0:
192,192,41810,1,0,0:0:0:0:
448,192,41968,1,0,0:0:0:0:
64,192,41968,1,0,0:0:0:0:
192,192,42126,1,0,0:0:0:0:
448,192,42284,1,0,0:0:0:0:
320,192,42363,1,0,0:0:0:0:
64,192,42442,1,0,0:0:0:0:
192,192,42599,1,0,0:0:0:0:
448,192,42599,1,0,0:0:0:0:
320,192,42757,1,0,0:0:0:0:
64,192,42915,1,0,0:0:0:0:
192,192,42994,1,0,0:0:0:0:
320,192,43073,1,0,0:0:0:0:
448,192,43073,1,0,0:0:0:0:
192,192,43152,1,0,0:0:0:0:
64,192,43231,1,0,0:0:0:0:
320,192,43389,1,0,0:0:0:0:
64,192,43547,1,0,0:0:0:0:
448,192,43547,1,0,0:0:0:0:
320,192,43626,1,0,0:0:0:0:
192,192,43705,1,0,0:0:0:0:
64,192,43784,1,0,0:0:0:0:
320,192,43863,1,0,0:0:0:0:
192,192,44021,1,0,0:0:0:0:
64,192,44178,1,0,0:0:0:0:
448,192,44178,1,0,0:0:0:0:
192,192,44336,1,0,0:0:0:0:
320,192,44415,1,0,0:0:0:0:
64,192,44494,1,0,0:0:0:0:
320,192,44652,1,0,0:0:0:0:
192,192,44731,1,0,0:0:0:0:
448,192,44810,1,0,0:0:0:0:
320,192,44810,1,0,0:0:0:0:
64,192,44889,1,0,0:0:0:0:
192,192,44968,1,0,0:0:0:0:
320,192,45047,1,0,0:0:0:0:
64,192,45126,1,0,0:0:0:0:
448,192,45284,1,0,0:0:0:0:
320,192,45284,1,0,0:0:0:0:
192,192,45363,1,0,0:0:0:0:
64,192,45363,1,0,0:0:0:0:
448,192,45442,1,0,0:0:0:0:
320,192,45520,1,0,0:0:0:0:
192,192,45599,1,0,0:0:0:0:
64,192,45757,1,0,0:0:0:0:
448,192,45757,1,0,0:0:0:0:
192,192,45915,1,0,0:0:0:0:
320,192,45994,1,0,0:0:0:0:
64,192,46073,1,0,0:0:0:0:
448,192,46152,1,0,0:0:0:0:
320,192,46231,1,0,0:0:0:0:
64,192,46389,1,0,0:0:0:0:
192,192,46389,1,0,0:0:0:0:
320,192,46547,1,0,0:0:0:0:
192,192,46626,1,0,0:0:0:0:
448,192,46705,1,0,0:0:0:0:
64,192,46863,1,0,0:0:0:0:
320,192,46942,1,0,0:0:0:0:
192,192,47020,1,0,0:0:0:0:
64,192,47020,1,0,0:0:0:0:
448,192,47099,1,0,0:0:0:0:
320,192,47178,1,0,0:0:0:0:
64,192,47257,1,0,0:0:0:0:
192,192,47336,1,0,0:0:0:0:
448,192,47415,1,0,0:0:0:0:
192,192,47494,1,0,0:0:0:0:
64,192,47573,1,0,0:0:0:0:
320,192,47652,1,0,0:0:0:0:
448,192,47652,1,0,0:0:0:0:
192,192,47810,1,0,0:0:0:0:
448,192,47889,1,0,0:0:0:0:
192,192,47968,1,0,0:0:0:0:
320,192,48047,1,0,0:0:0:0:
64,192,48126,1,0,0:0:0:0:
192,192,48205,1,0,0:0:0:0:
320,192,48284,1,0,0:0:0:0:
448,192,48284,1,0,0:0:0:0:
192,192,48442,1,0,0:0:0:0:
320,192,48599,1,0,0:0:0:0:
64,192,48757,1,0,0:0:0:0:
192,192,48836,1,0,0:0:0:0:
320,192,48915,1,0,0:0:0:0:
448,192,48915,1,0,0:0:0:0:
192,192,48994,1,0,0:0:0:0:
64,192,49073,1,0,0:0:0:0:
320,192,49152,1,0,0:0:0:0:
448,192,49231,1,0,0:0:0:0:
192,192,49310,1,0,0:0:0:0:
320,192,49389,1,0,0:0:0:0:
64,192,49547,1,0,0:0:0:0:
448,192,49547,1,0,0:0:0:0:
320,192,49705,1,0,0:0:0:0:
192,192,49784,1,0,0:0:0:0:
448,192,49863,1,0,0:0:0:0:
320,192,49942,1,0,0:0:0:0:
64,192,50020,1,0,0:0:0:0:
192,192,50178,1,0,0:0:0:0:
448,192,50178,1,0,0:0:0:0:
320,192,50336,1,0,0:0:0:0:
192,192,50336,1,0,0:0:0:0:
320,192,50494,1,0,0:0:0:0:
64,192,50494,1,0,0:0:0:0:
192,192,50651,1,0,0:0:0:0:
320,192,50730,1,0,0:0:0:0:
448,192,50809,1,0,0:0:0:0:
64,192,50809,1,0,0:0:0:0:
192,192,50888,1,0,0:0:0:0:
448,192,50967,1,0,0:0:0:0:
320,192,51046,1,0,0:0:0:0:
64,192,51125,1,0,0:0:0:0:
448,192,51204,1,0,0:0:0:0:
64,192,51283,1,0,0:0:0:0:
320,192,51362,1,0,0:0:0:0:
192,192,51441,1,0,0:0:0:0:
448,192,51441,1,0,0:0:0:0:
320,192,51599,1,0,0:0:0:0:
64,192,51757,1,0,0:0:0:0:
192,192,51862,1,0,0:0:0:0:
448,192,51915,1,0,0:0:0:0:
192,192,51994,1,0,0:0:0:0:
64,192,52072,1,0,0:0:0:0:
320,192,52072,1,0,0:0:0:0:
448,192,52230,1,0,0:0:0:0:
192,192,52309,1,0,0:0:0:0:
448,192,52388,1,0,0:0:0:0:
192,192,52546,1,0,0:0:0:0:
64,192,52546,1,0,0:0:0:0:
320,192,52625,1,0,0:0:0:0:
448,192,52625,1,0,0:0:0:0:
64,192,52704,1,0,0:0:0:0:
192,192,52862,1,0,0:0:0:0:
320,192,52941,1,0,0:0:0:0:
448,192,53020,1,0,0:0:0:0:
64,192,53020,1,0,0:0:0:0:
320,192,53178,1,0,0:0:0:0:
448,192,53257,1,0,0:0:0:0:
192,192,53336,1,0,0:0:0:0:
320,192,53494,1,0,0:0:0:0:
192,192,53651,1,0,0:0:0:0:
64,192,53651,1,0,0:0:0:0:
448,192,53809,1,0,0:0:0:0:
320,192,53967,1,0,0:0:0:0:
64,192,53967,1,0,0:0:0:0:
192,192,54072,1,0,0:0:0:0:
320,192,54204,1,0,0:0:0:0:
64,192,54283,1,0,0:0:0:0:
448,192,54283,1,0,0:0:0:0:
320,192,54362,1,0,0:0:0:0:
64,192,54441,1,0,0:0:0:0:
192,192,54520,1,0,0:0:0:0:
448,192,54599,1,0,0:0:0:0:
192,192,54757,1,0,0:0:0:0:
64,192,54757,1,0,0:0:0:0:
448,192,54836,1,0,0:0:0:0:
320,192,54836,1,0,0:0:0:0:
64,192,54915,1,0,0:0:0:0:
320,192,54993,1,0,0:0:0:0:
64,192,55072,1,0,0:0:0:0:
192,192,55151,1,0,0:0:0:0:
448,192,55230,1,0,0:0:0:0:
320,192,55230,1,0,0:0:0:0:
192,192,55388,1,0,0:0:0:0:
320,192,55467,1,0,0:0:0:0:
64,192,55546,1,0,0:0:0:0:
448,192,55625,1,0,0:0:0:0:
320,192,55704,1,0,0:0:0:0:
64,192,55862,1,0,0:0:0:0:
192,192,55862,1,0,0:0:0:0:
320,192,56020,1,0,0:0:0:0:
192,192,56099,1,0,0:0:0:0:
448,192,56178,1,0,0:0:0:0:
192,192,56257,1,0,0:0:0:0:
320,192,56336,1,0,0:0:0:0:
64,192,56493,1,0,0:0:0:0:
448,192,56493,1,0,0:0:0:0:
192,192,56651,1,0,0:0:0:0:
320,192,56730,1,0,0:0:0:0:
192,192,56809,1,0,0:0:0:0:
448,192,56888,1,0,0:0:0:0:
320,192,56967,1,0,0:0:0:0:
64,192,57046,1,0,0:0:0:0:
192,192,57125,1,0,0:0:0:0:
448,192,57125,1,0,0:0:0:0:
320,192,57283,1,0,0:0:0:0:
192,192,57362,1,0,0:0:0:0:
448,192,57441,1,0,0:0:0:0:
64,192,57520,1,0,0:0:0:0:
448,192,57599,1,0,0:0:0:0:
192,192,57678,1,0,0:0:0:0:
64,192,57757,1,0,0:0:0:0:
320,192,57757,1,0,0:0:0:0:
448,192,57836,1,0,0:0:0:0:
64,192,57915,1,0,0:0:0:0:
192,192,57993,1,0,0:0:0:0:
320,192,58072,1,0,0:0:0:0:
64,192,58151,1,0,0:0:0:0:
320,192,58230,1,0,0:0:0:0:
192,192,58309,1,0,0:0:0:0:
448,192,58388,1,0,0:0:0:0:
64,192,58388,1,0,0:0:0:0:
320,192,58467,1,0,0:0:0:0:
64,192,58546,1,0,0:0:0:0:
448,192,58625,1,0,0:0:0:0:
192,192,58704,1,0,0:0:0:0:
320,192,58783,5,0,0:0:0:0:
192,192,58862,1,0,0:0:0:0:
320,192,58941,1,0,0:0:0:0:
64,192,59020,1,0,0:0:0:0:
448,192,59020,1,0,0:0:0:0:
192,192,59099,1,0,0:0:0:0:
448,192,59178,1,0,0:0:0:0:
192,192,59257,1,0,0:0:0:0:
320,192,59336,1,0,0:0:0:0:
64,192,59415,1,0,0:0:0:0:
320,192,59493,1,0,0:0:0:0:
64,192,59572,1,0,0:0:0:0:
448,192,59651,1,0,0:0:0:0:
192,192,59651,1,0,0:0:0:0:
320,192,59730,1,0,0:0:0:0:
64,192,59809,1,0,0:0:0:0:
192,192,59888,1,0,0:0:0:0:
64,192,59967,5,0,0:0:0:0:
448,192,59967,1,0,0:0:0:0:
320,192,60125,1,0,0:0:0:0:
192,192,60204,1,0,0:0:0:0:
64,192,60283,1,0,0:0:0:0:
448,192,60283,1,0,0:0:0:0:
320,192,60362,1,0,0:0:0:0:
448,192,60441,1,0,0:0:0:0:
64,192,60520,1,0,0:0:0:0:
192,192,60599,1,0,0:0:0:0:
320,192,60678,1,0,0:0:0:0:
448,192,60757,1,0,0:0:0:0:
320,192,60836,1,0,0:0:0:0:
192,192,60915,1,0,0:0:0:0:
64,192,60915,1,0,0:0:0:0:
320,192,61072,1,0,0:0:0:0:
64,192,61125,1,0,0:0:0:0:
320,192,61178,1,0,0:0:0:0:
192,192,61230,1,0,0:0:0:0:
448,192,61309,1,0,0:0:0:0:
64,192,61309,1,0,0:0:0:0:
320,192,61388,1,0,0:0:0:0:
64,192,61467,1,0,0:0:0:0:
448,192,61546,1,0,0:0:0:0:
192,192,61546,1,0,0:0:0:0:
64,192,61704,1,0,0:0:0:0:
320,192,61783,1,0,0:0:0:0:
192,192,61862,1,0,0:0:0:0:
320,192,61941,1,0,0:0:0:0:
448,192,61941,1,0,0:0:0:0:
192,192,61967,1,0,0:0:0:0:
448,192,62072,1,0,0:0:0:0:
192,192,62178,1,0,0:0:0:0:
64,192,62178,1,0,0:0:0:0:
320,192,62336,1,0,0:0:0:0:
64,192,62415,1,0,0:0:0:0:
448,192,62415,1,0,0:0:0:0:
192,192,62493,1,0,0:0:0:0:
448,192,62572,1,0,0:0:0:0:
320,192,62651,1,0,0:0:0:0:
192,192,62809,1,0,0:0:0:0:
64,192,62809,1,0,0:0:0:0:
320,192,62862,1,0,0:0:0:0:
192,192,62967,1,0,0:0:0:0:
64,192,63046,1,0,0:0:0:0:
448,192,63125,1,0,0:0:0:0:
192,192,63188,1,0,0:0:0:0:
320,192,63251,1,0,0:0:0:0:
64,192,63315,1,0,0:0:0:0:
192,192,63378,1,0,0:0:0:0:
448,192,63441,1,0,0:0:0:0:
320,192,63441,1,0,0:0:0:0:
192,192,63599,1,0,0:0:0:0:
448,192,63651,1,0,0:0:0:0:
320,192,63704,1,0,0:0:0:0:
64,192,63757,1,0,0:0:0:0:
192,192,63836,1,0,0:0:0:0:
320,192,63836,1,0,0:0:0:0:
448,192,63915,1,0,0:0:0:0:
192,192,63967,1,0,0:0:0:0:
320,192,64020,1,0,0:0:0:0:
64,192,64072,1,0,0:0:0:0:
448,192,64072,1,0,0:0:0:0:
192,192,64230,1,0,0:0:0:0:
448,192,64325,1,0,0:0:0:0:
320,192,64388,1,0,0:0:0:0:
64,192,64451,1,0,0:0:0:0:
320,192,64515,1,0,0:0:0:0:
192,192,64578,1,0,0:0:0:0:
448,192,64641,1,0,0:0:0:0:
320,192,64704,1,0,0:0:0:0:
64,192,64704,1,0,0:0:0:0:
192,192,64862,1,0,0:0:0:0:
320,192,64941,1,0,0:0:0:0:
448,192,64941,1,0,0:0:0:0:
64,192,65020,1,0,0:0:0:0:
320,192,65072,1,0,0:0:0:0:
192,192,65125,1,0,0:0:0:0:
448,192,65178,1,0,0:0:0:0:
64,192,65336,1,0,0:0:0:0:
320,192,65336,1,0,0:0:0:0:
192,192,65546,1,0,0:0:0:0:
448,192,65599,1,0,0:0:0:0:
64,192,65651,1,0,0:0:0:0:
320,192,65704,1,0,0:0:0:0:
192,192,65757,1,0,0:0:0:0:
448,192,65809,1,0,0:0:0:0:
320,192,65862,1,0,0:0:0:0:
64,192,65915,1,0,0:0:0:0:
192,192,65967,1,0,0:0:0:0:
448,192,65967,1,0,0:0:0:0:
192,192,66125,1,0,0:0:0:0:
64,192,66178,1,0,0:0:0:0:
320,192,66230,1,0,0:0:0:0:
192,192,66283,1,0,0:0:0:0:
320,192,66362,1,0,0:0:0:0:
448,192,66362,1,0,0:0:0:0:
192,192,66441,1,0,0:0:0:0:
448,192,66520,1,0,0:0:0:0:
320,192,66599,1,0,0:0:0:0:
64,192,66599,1,0,0:0:0:0:
192,192,66678,1,0,0:0:0:0:
320,192,66757,1,0,0:0:0:0:
192,192,66836,1,0,0:0:0:0:
448,192,66915,1,0,0:0:0:0:
64,192,66993,1,0,0:0:0:0:
320,192,66993,1,0,0:0:0:0:
192,192,67053,1,0,0:0:0:0:
448,192,67112,1,0,0:0:0:0:
64,192,67171,1,0,0:0:0:0:
320,192,67230,1,0,0:0:0:0:
448,192,67230,1,0,0:0:0:0:
192,192,67388,1,0,0:0:0:0:
320,192,67441,1,0,0:0:0:0:
64,192,67493,1,0,0:0:0:0:
192,192,67546,1,0,0:0:0:0:
448,192,67651,1,0,0:0:0:0:
320,192,67704,1,0,0:0:0:0:
448,192,67862,1,0,0:0:0:0:
64,192,67862,1,0,0:0:0:0:
192,192,67925,1,0,0:0:0:0:
320,192,67988,1,0,0:0:0:0:
64,192,68051,1,0,0:0:0:0:
448,192,68178,1,0,0:0:0:0:
320,192,68257,1,0,0:0:0:0:
192,192,68257,1,0,0:0:0:0:
64,192,68316,1,0,0:0:0:0:
320,192,68375,1,0,0:0:0:0:
192,192,68434,1,0,0:0:0:0:
64,192,68493,1,0,0:0:0:0:
448,192,68493,1,0,0:0:0:0:
320,192,68651,1,0,0:0:0:0:
64,192,68704,1,0,0:0:0:0:
192,192,68757,1,0,0:0:0:0:
448,192,68809,1,0,0:0:0:0:
320,192,68888,1,0,0:0:0:0:
64,192,68888,1,0,0:0:0:0:
192,192,68967,1,0,0:0:0:0:
448,192,69125,1,0,0:0:0:0:
320,192,69125,1,0,0:0:0:0:
64,192,69204,1,0,0:0:0:0:
320,192,69283,1,0,0:0:0:0:
64,192,69362,1,0,0:0:0:0:
192,192,69362,1,0,0:0:0:0:
448,192,69441,1,0,0:0:0:0:
192,192,69493,1,0,0:0:0:0:
448,192,69546,1,0,0:0:0:0:
64,192,69599,1,0,0:0:0:0:
192,192,69651,1,0,0:0:0:0:
320,192,69704,1,0,0:0:0:0:
64,192,69757,1,0,0:0:0:0:
448,192,69809,1,0,0:0:0:0:
64,192,69862,1,0,0:0:0:0:
320,192,69915,1,0,0:0:0:0:
192,192,69967,1,0,0:0:0:0:
448,192,70020,1,0,0:0:0:0:
64,192,70072,1,0,0:0:0:0:
320,192,70388,1,0,0:0:0:0:
64,192,70467,1,0,0:0:0:0:
320,192,70546,1,0,0:0:0:0:
64,192,70625,1,0,0:0:0:0:
448,192,70704,1,0,0:0:0:0:
320,192,70757,1,0,0:0:0:0:
192,192,70809,1,0,0:0:0:0:
64,192,70862,1,0,0:0:0:0:
320,192,70941,1,0,0:0:0:0:
448,192,71020,1,0,0:0:0:0:
192,192,71178,1,0,0:0:0:0:
448,192,71257,1,0,0:0:0:0:
192,192,71336,1,0,0:0:0:0:
64,192,71336,1,0,0:0:0:0:
320,192,71651,1,0,0:0:0:0:
320,192,71836,1,0,0:0:0:0:
192,192,71967,1,0,0:0:0:0:
64,192,71967,1,0,0:0:0:0:
448,192,72020,1,0,0:0:0:0:
192,192,72072,1,0,0:0:0:0:
320,192,72157,1,0,0:0:0:0:
64,192,72283,1,0,0:0:0:0:
448,192,72283,1,0,0:0:0:0:
448,192,72441,1,0,0:0:0:0:
64,192,72441,1,0,0:0:0:0:
64,192,72599,1,0,0:0:0:0:
448,192,72599,1,0,0:0:0:0:
320,192,72651,1,0,0:0:0:0:
192,192,72704,1,0,0:0:0:0:
64,192,72757,1,0,0:0:0:0:
320,192,72809,1,0,0:0:0:0:
448,192,72915,1,0,0:0:0:0:
192,192,72993,1,0,0:0:0:0:
448,192,73072,1,0,0:0:0:0:
192,192,73151,1,0,0:0:0:0:
320,192,73230,1,0,0:0:0:0:
192,192,73388,1,0,0:0:0:0:
64,192,73546,1,0,0:0:0:0:
320,192,73625,1,0,0:0:0:0:
64,192,73704,1,0,0:0:0:0:
320,192,73783,1,0,0:0:0:0:
448,192,73862,1,0,0:0:0:0:
192,192,73862,1,0,0:0:0:0:
320,192,74099,1,0,0:0:0:0:
192,192,74178,1,0,0:0:0:0:
448,192,74257,1,0,0:0:0:0:
192,192,74336,1,0,0:0:0:0:
320,192,74415,1,0,0:0:0:0:
64,192,74493,1,0,0:0:0:0:
192,192,74572,1,0,0:0:0:0:
448,192,74651,1,0,0:0:0:0:
64,192,74809,1,0,0:0:0:0:
320,192,74888,1,0,0:0:0:0:
64,192,74967,1,0,0:0:0:0:
448,192,75125,1,0,0:0:0:0:
320,192,75178,1,0,0:0:0:0:
64,192,75441,1,0,0:0:0:0:
320,192,75520,1,0,0:0:0:0:
64,192,75599,1,0,0:0:0:0:
320,192,75678,1,0,0:0:0:0:
192,192,75757,1,0,0:0:0:0:
448,192,75836,1,0,0:0:0:0:
320,192,75915,1,0,0:0:0:0:
64,192,75993,1,0,0:0:0:0:
192,192,76072,1,0,0:0:0:0:
320,192,76230,1,0,0:0:0:0:
192,192,76283,1,0,0:0:0:0:
448,192,76336,1,0,0:0:0:0:
64,192,76388,1,0,0:0:0:0:
320,192,76388,1,0,0:0:0:0:
192,192,76515,1,0,0:0:0:0:
320,192,76578,1,0,0:0:0:0:
448,192,76641,1,0,0:0:0:0:
192,192,76704,1,0,0:0:0:0:
64,192,76862,1,0,0:0:0:0:
448,192,77020,1,0,0:0:0:0:
320,192,77072,1,0,0:0:0:0:
192,192,77125,1,0,0:0:0:0:
64,192,77336,1,0,0:0:0:0:
192,192,77399,1,0,0:0:0:0:
448,192,77462,1,0,0:0:0:0:
64,192,77525,1,0,0:0:0:0:
320,192,77588,1,0,0:0:0:0:
192,192,77651,1,0,0:0:0:0:
448,192,77715,1,0,0:0:0:0:
320,192,77778,1,0,0:0:0:0:
64,192,77841,1,0,0:0:0:0:
192,192,77904,1,0,0:0:0:0:
448,192,77967,1,0,0:0:0:0:
64,192,78046,1,0,0:0:0:0:
448,192,78125,1,0,0:0:0:0:
64,192,78204,1,0,0:0:0:0:
320,192,78283,1,0,0:0:0:0:
192,192,78599,1,0,0:0:0:0:
320,192,78757,1,0,0:0:0:0:
192,192,78836,1,0,0:0:0:0:
448,192,78915,1,0,0:0:0:0:
64,192,78915,1,0,0:0:0:0:
192,192,79230,1,0,0:0:0:0:
320,192,79309,1,0,0:0:0:0:
448,192,79388,1,0,0:0:0:0:
192,192,79546,1,0,0:0:0:0:
320,192,79704,1,0,0:0:0:0:
192,192,79783,1,0,0:0:0:0:
64,192,79862,1,0,0:0:0:0:
320,192,79941,1,0,0:0:0:0:
64,192,80020,1,0,0:0:0:0:
320,192,80099,1,0,0:0:0:0:
192,192,80178,1,0,0:0:0:0:
320,192,80336,1,0,0:0:0:0:
448,192,80493,1,0,0:0:0:0:
64,192,80493,1,0,0:0:0:0:
192,192,80651,1,0,0:0:0:0:
320,192,80809,1,0,0:0:0:0:
448,192,80967,1,0,0:0:0:0:
192,192,81125,1,0,0:0:0:0:
64,192,81125,1,0,0:0:0:0:
448,192,81283,1,0,0:0:0:0:
64,192,81441,1,0,0:0:0:0:
192,192,81599,1,0,0:0:0:0:
320,192,81757,1,0,0:0:0:0:
448,192,81757,1,0,0:0:0:0:
64,192,81875,1,0,0:0:0:0:
192,192,81954,1,0,0:0:0:0:
320,192,82033,1,0,0:0:0:0:
448,192,82112,1,0,0:0:0:0:
64,192,82171,1,0,0:0:0:0:
448,192,82230,1,0,0:0:0:0:
320,192,82283,1,0,0:0:0:0:
192,192,82336,1,0,0:0:0:0:
448,192,82388,1,0,0:0:0:0:
64,192,82388,1,0,0:0:0:0:
320,192,82546,1,0,0:0:0:0:
192,192,82625,1,0,0:0:0:0:
64,192,82625,1,0,0:0:0:0:
320,192,82704,1,0,0:0:0:0:
448,192,82783,1,0,0:0:0:0:
192,192,82862,1,0,0:0:0:0:
448,192,83020,1,0,0:0:0:0:
320,192,83020,1,0,0:0:0:0:
64,192,83178,1,0,0:0:0:0:
192,192,83336,1,0,0:0:0:0:
448,192,83493,1,0,0:0:0:0:
192,192,83651,1,0,0:0:0:0:
64,192,83651,1,0,0:0:0:0:
448,192,83809,1,0,0:0:0:0:
64,192,83967,1,0,0:0:0:0:
192,192,84125,1,0,0:0:0:0:
320,192,84283,1,0,0:0:0:0:
448,192,84283,1,0,0:0:0:0:
64,192,84362,1,0,0:0:0:0:
192,192,84441,1,0,0:0:0:0:
320,192,84493,1,0,0:0:0:0:
448,192,84546,1,0,0:0:0:0:
64,192,84599,1,0,0:0:0:0:
320,192,84651,1,0,0:0:0:0:
192,192,84704,1,0,0:0:0:0:
64,192,84757,1,0,0:0:0:0:
448,192,84757,1,0,0:0:0:0:
320,192,84915,1,0,0:0:0:0:
448,192,84915,1,0,0:0:0:0:
192,192,85072,1,0,0:0:0:0:
64,192,85072,1,0,0:0:0:0:
320,192,85151,1,0,0:0:0:0:
64,192,85230,1,0,0:0:0:0:
448,192,85230,1,0,0:0:0:0:
192,192,85388,1,0,0:0:0:0:
320,192,85546,1,0,0:0:0:0:
448,192,85546,1,0,0:0:0:0:
64,192,85704,1,0,0:0:0:0:
192,192,85862,1,0,0:0:0:0:
448,192,86020,1,0,0:0:0:0:
64,192,86178,1,0,0:0:0:0:
192,192,86178,1,0,0:0:0:0:
448,192,86336,1,0,0:0:0:0:
192,192,86493,1,0,0:0:0:0:
64,192,86651,1,0,0:0:0:0:
320,192,86809,1,0,0:0:0:0:
448,192,86809,1,0,0:0:0:0:
192,192,86888,1,0,0:0:0:0:
320,192,86967,1,0,0:0:0:0:
64,192,87020,1,0,0:0:0:0:
192,192,87072,1,0,0:0:0:0:
448,192,87125,1,0,0:0:0:0:
64,192,87283,1,0,0:0:0:0:
192,192,87441,1,0,0:0:0:0:
320,192,87520,1,0,0:0:0:0:
192,192,87599,1,0,0:0:0:0:
320,192,87678,1,0,0:0:0:0:
448,192,87757,1,0,0:0:0:0:
192,192,87836,1,0,0:0:0:0:
64,192,87915,1,0,0:0:0:0:
448,192,88072,1,0,0:0:0:0:
320,192,88072,1,0,0:0:0:0:
64,192,88230,1,0,0:0:0:0:
448,192,88388,1,0,0:0:0:0:
320,192,88546,1,0,0:0:0:0:
192,192,88704,1,0,0:0:0:0:
64,192,88704,1,0,0:0:0:0:
320,192,88862,1,0,0:0:0:0:
64,192,89020,1,0,0:0:0:0:
192,192,89178,1,0,0:0:0:0:
320,192,89336,1,0,0:0:0:0:
448,192,89336,1,0,0:0:0:0:
64,192,89493,1,0,0:0:0:0:
320,192,89651,1,0,0:0:0:0:
448,192,89704,1,0,0:0:0:0:
192,192,89809,1,0,0:0:0:0:
320,192,89809,1,0,0:0:0:0:
64,192,89862,1,0,0:0:0:0:
192,192,89967,1,0,0:0:0:0:
448,192,89967,1,0,0:0:0:0:
320,192,90020,1,0,0:0:0:0:
64,192,90125,1,0,0:0:0:0:
192,192,90178,1,0,0:0:0:0:
448,192,90230,1,0,0:0:0:0:
192,192,90283,1,0,0:0:0:0:
320,192,90336,1,0,0:0:0:0:
448,192,90388,1,0,0:0:0:0:
64,192,90441,1,0,0:0:0:0:
320,192,90599,1,0,0:0:0:0:
448,192,90599,1,0,0:0:0:0:
64,192,90757,1,0,0:0:0:0:
320,192,90836,1,0,0:0:0:0:
192,192,90915,1,0,0:0:0:0:
448,192,91072,1,0,0:0:0:0:
192,192,91230,1,0,0:0:0:0:
64,192,91230,1,0,0:0:0:0:
448,192,91388,1,0,0:0:0:0:
64,192,91546,1,0,0:0:0:0:
320,192,91704,1,0,0:0:0:0:
448,192,91783,1,0,0:0:0:0:
192,192,91862,1,0,0:0:0:0:
64,192,91862,1,0,0:0:0:0:
320,192,91925,1,0,0:0:0:0:
192,192,91988,1,0,0:0:0:0:
320,192,92178,1,0,0:0:0:0:
192,192,92336,1,0,0:0:0:0:
448,192,92415,1,0,0:0:0:0:
64,192,92493,1,0,0:0:0:0:
320,192,92493,1,0,0:0:0:0:
192,192,92612,1,0,0:0:0:0:
64,192,92671,1,0,0:0:0:0:
448,192,92730,1,0,0:0:0:0:
320,192,92730,1,0,0:0:0:0:
64,192,92809,1,0,0:0:0:0:
320,192,92967,1,0,0:0:0:0:
448,192,93125,1,0,0:0:0:0:
192,192,93125,1,0,0:0:0:0:
64,192,93283,1,0,0:0:0:0:
192,192,93362,1,0,0:0:0:0:
320,192,93441,1,0,0:0:0:0:
448,192,93599,1,0,0:0:0:0:
192,192,93757,1,0,0:0:0:0:
64,192,93757,1,0,0:0:0:0:
448,192,93915,1,0,0:0:0:0:
192,192,94072,1,0,0:0:0:0:
64,192,94230,1,0,0:0:0:0:
192,192,94283,1,0,0:0:0:0:
320,192,94388,1,0,0:0:0:0:
448,192,94388,1,0,0:0:0:0:
64,192,94451,1,0,0:0:0:0:
448,192,94515,1,0,0:0:0:0:
192,192,94704,1,0,0:0:0:0:
320,192,94757,1,0,0:0:0:0:
192,192,94862,1,0,0:0:0:0:
64,192,94862,1,0,0:0:0:0:
448,192,94915,1,0,0:0:0:0:
320,192,94967,1,0,0:0:0:0:
64,192,95020,1,0,0:0:0:0:
448,192,95178,1,0,0:0:0:0:
192,192,95178,1,0,0:0:0:0:
64,192,95283,1,0,0:0:0:0:
192,192,95336,1,0,0:0:0:0:
448,192,95493,1,0,0:0:0:0:
320,192,95651,1,0,0:0:0:0:
64,192,95651,1,0,0:0:0:0:
192,192,95809,1,0,0:0:0:0:
448,192,95967,1,0,0:0:0:0:
320,192,96125,1,0,0:0:0:0:
192,192,96283,1,0,0:0:0:0:
64,192,96283,1,0,0:0:0:0:
448,192,96441,1,0,0:0:0:0:
64,192,96599,1,0,0:0:0:0:
192,192,96757,1,0,0:0:0:0:
320,192,96915,1,0,0:0:0:0:
448,192,96915,1,0,0:0:0:0:
64,192,97072,1,0,0:0:0:0:
448,192,97178,1,0,0:0:0:0:
320,192,97230,1,0,0:0:0:0:
64,192,97336,1,0,0:0:0:0:
192,192,97388,1,0,0:0:0:0:
320,192,97493,1,0,0:0:0:0:
192,192,97546,1,0,0:0:0:0:
64,192,97546,1,0,0:0:0:0:
448,192,97625,1,0,0:0:0:0:
64,192,97704,1,0,0:0:0:0:
192,192,97757,1,0,0:0:0:0:
320,192,97809,1,0,0:0:0:0:
448,192,97862,1,0,0:0:0:0:
64,192,97941,1,0,0:0:0:0:
448,192,98020,1,0,0:0:0:0:
192,192,98099,1,0,0:0:0:0:
64,192,98178,1,0,0:0:0:0:
320,192,98178,1,0,0:0:0:0:
448,192,98241,1,0,0:0:0:0:
192,192,98304,1,0,0:0:0:0:
320,192,98367,1,0,0:0:0:0:
64,192,98430,1,0,0:0:0:0:
192,192,98493,1,0,0:0:0:0:
448,192,98572,1,0,0:0:0:0:
192,192,98651,1,0,0:0:0:0:
320,192,98730,1,0,0:0:0:0:
448,192,98809,1,0,0:0:0:0:
64,192,98809,1,0,0:0:0:0:
192,192,98888,1,0,0:0:0:0:
448,192,98967,1,0,0:0:0:0:
64,192,99046,1,0,0:0:0:0:
192,192,99125,1,0,0:0:0:0:
320,192,99204,1,0,0:0:0:0:
192,192,99283,1,0,0:0:0:0:
320,192,99362,1,0,0:0:0:0:
64,192,99441,1,0,0:0:0:0:
448,192,99441,1,0,0:0:0:0:
192,192,99504,1,0,0:0:0:0:
320,192,99567,1,0,0:0:0:0:
64,192,99630,1,0,0:0:0:0:
192,192,99693,1,0,0:0:0:0:
448,192,99757,1,0,0:0:0:0:
320,192,99809,1,0,0:0:0:0:
192,192,99862,1,0,0:0:0:0:
448,192,99915,1,0,0:0:0:0:
64,192,99915,1,0,0:0:0:0:
320,192,99993,1,0,0:0:0:0:
192,192,100072,1,0,0:0:0:0:
64,192,100072,1,0,0:0:0:0:
448,192,100125,1,0,0:0:0:0:
320,192,100178,1,0,0:0:0:0:
192,192,100230,1,0,0:0:0:0:
448,192,100283,1,0,0:0:0:0:
64,192,100336,1,0,0:0:0:0:
192,192,100388,1,0,0:0:0:0:
320,192,100388,1,0,0:0:0:0:
320,192,100546,1,0,0:0:0:0:
192,192,100625,1,0,0:0:0:0:
64,192,100704,1,0,0:0:0:0:
448,192,100704,1,0,0:0:0:0:
320,192,100749,1,0,0:0:0:0:
192,192,100794,1,0,0:0:0:0:
448,192,100862,1,0,0:0:0:0:
64,192,100941,1,0,0:0:0:0:
320,192,101020,1,0,0:0:0:0:
192,192,101099,1,0,0:0:0:0:
64,192,101099,1,0,0:0:0:0:
320,192,101151,1,0,0:0:0:0:
192,192,101257,1,0,0:0:0:0:
320,192,101336,1,0,0:0:0:0:
448,192,101336,1,0,0:0:0:0:
320,192,101493,1,0,0:0:0:0:
64,192,101546,1,0,0:0:0:0:
192,192,101599,1,0,0:0:0:0:
448,192,101651,1,0,0:0:0:0:
320,192,101730,1,0,0:0:0:0:
192,192,101730,1,0,0:0:0:0:
64,192,101809,1,0,0:0:0:0:
320,192,101888,1,0,0:0:0:0:
64,192,101967,1,0,0:0:0:0:
448,192,101967,1,0,0:0:0:0:
192,192,102125,1,0,0:0:0:0:
64,192,102178,1,0,0:0:0:0:
320,192,102230,1,0,0:0:0:0:
448,192,102283,1,0,0:0:0:0:
192,192,102362,1,0,0:0:0:0:
320,192,102362,1,0,0:0:0:0:
64,192,102441,1,0,0:0:0:0:
192,192,102599,1,0,0:0:0:0:
448,192,102599,1,0,0:0:0:0:
64,192,102757,1,0,0:0:0:0:
320,192,102809,1,0,0:0:0:0:
192,192,102862,1,0,0:0:0:0:
448,192,102915,1,0,0:0:0:0:
320,192,102967,1,0,0:0:0:0:
64,192,103020,1,0,0:0:0:0:
192,192,103099,1,0,0:0:0:0:
320,192,103178,1,0,0:0:0:0:
448,192,103230,1,0,0:0:0:0:
64,192,103230,1,0,0:0:0:0:
192,192,103411,1,0,0:0:0:0:
320,192,103501,1,0,0:0:0:0:
448,192,103546,1,0,0:0:0:0:
192,192,103609,1,0,0:0:0:0:
448,192,103672,1,0,0:0:0:0:
64,192,103736,1,0,0:0:0:0:
192,192,103799,1,0,0:0:0:0:
320,192,103862,1,0,0:0:0:0:
448,192,103862,1,0,0:0:0:0:
64,192,104000,1,0,0:0:0:0:
320,192,104059,1,0,0:0:0:0:
64,192,104118,1,0,0:0:0:0:
192,192,104178,1,0,0:0:0:0:
448,192,104241,1,0,0:0:0:0:
320,192,104304,1,0,0:0:0:0:
64,192,104367,1,0,0:0:0:0:
448,192,104430,1,0,0:0:0:0:
192,192,104493,1,0,0:0:0:0:
64,192,104493,1,0,0:0:0:0:
320,192,104599,1,0,0:0:0:0:
192,192,104651,1,0,0:0:0:0:
448,192,104704,1,0,0:0:0:0:
320,192,104757,1,0,0:0:0:0:
64,192,104809,1,0,0:0:0:0:
192,192,104888,1,0,0:0:0:0:
448,192,104888,1,0,0:0:0:0:
64,192,104967,1,0,0:0:0:0:
320,192,105020,1,0,0:0:0:0:
192,192,105072,1,0,0:0:0:0:
448,192,105125,1,0,0:0:0:0:
64,192,105125,1,0,0:0:0:0:
320,192,105243,1,0,0:0:0:0:
448,192,105303,1,0,0:0:0:0:
64,192,105362,1,0,0:0:0:0:
192,192,105362,1,0,0:0:0:0:
320,192,105441,1,0,0:0:0:0:
64,192,105520,1,0,0:0:0:0:
448,192,105678,1,0,0:0:0:0:
320,192,105717,1,0,0:0:0:0:
192,192,105757,1,0,0:0:0:0:
64,192,105757,1,0,0:0:0:0:
320,192,105915,1,0,0:0:0:0:
64,192,105993,1,0,0:0:0:0:
448,192,106053,1,0,0:0:0:0:
64,192,106112,1,0,0:0:0:0:
192,192,106171,1,0,0:0:0:0:
320,192,106230,1,0,0:0:0:0:
192,192,106309,1,0,0:0:0:0:
448,192,106388,1,0,0:0:0:0:
64,192,106388,1,0,0:0:0:0:
192,192,106520,1,0,0:0:0:0:
320,192,106572,1,0,0:0:0:0:
64,192,106625,1,0,0:0:0:0:
448,192,106625,1,0,0:0:0:0:
320,192,106704,1,0,0:0:0:0:
192,192,106794,1,0,0:0:0:0:
64,192,106794,1,0,0:0:0:0:
448,192,106862,1,0,0:0:0:0:
320,192,107020,1,0,0:0:0:0:
448,192,107020,1,0,0:0:0:0:
64,192,107125,1,0,0:0:0:0:
192,192,107178,1,0,0:0:0:0:
448,192,107257,1,0,0:0:0:0:
320,192,107257,1,0,0:0:0:0:
192,192,107336,1,0,0:0:0:0:
64,192,107415,1,0,0:0:0:0:
320,192,107415,1,0,0:0:0:0:
448,192,107467,1,0,0:0:0:0:
192,192,107520,1,0,0:0:0:0:
320,192,107572,1,0,0:0:0:0:
64,192,107651,1,0,0:0:0:0:
192,192,107651,1,0,0:0:0:0:
448,192,107783,1,0,0:0:0:0:
320,192,107836,1,0,0:0:0:0:
192,192,107888,1,0,0:0:0:0:
64,192,107888,1,0,0:0:0:0:
448,192,107941,1,0,0:0:0:0:
192,192,108020,1,0,0:0:0:0:
320,192,108099,1,0,0:0:0:0:
64,192,108151,1,0,0:0:0:0:
192,192,108204,1,0,0:0:0:0:
320,192,108283,1,0,0:0:0:0:
448,192,108283,1,0,0:0:0:0:
64,192,108362,1,0,0:0:0:0:
320,192,108441,1,0,0:0:0:0:
192,192,108520,1,0,0:0:0:0:
64,192,108520,1,0,0:0:0:0:
448,192,108599,1,0,0:0:0:0:
320,192,108651,1,0,0:0:0:0:
192,192,108704,1,0,0:0:0:0:
448,192,108757,1,0,0:0:0:0:
192,192,108809,1,0,0:0:0:0:
64,192,108862,1,0,0:0:0:0:
448,192,108915,1,0,0:0:0:0:
320,192,108915,1,0,0:0:0:0:
192,192,109072,1,0,0:0:0:0:
448,192,109151,1,0,0:0:0:0:
320,192,109151,1,0,0:0:0:0:
64,192,109211,1,0,0:0:0:0:
320,192,109270,1,0,0:0:0:0:
192,192,109309,1,0,0:0:0:0:
64,192,109309,1,0,0:0:0:0:
448,192,109349,1,0,0:0:0:0:
192,192,109487,1,0,0:0:0:0:
448,192,109546,1,0,0:0:0:0:
64,192,109546,1,0,0:0:0:0:
320,192,109645,1,0,0:0:0:0:
192,192,109724,1,0,0:0:0:0:
448,192,109783,1,0,0:0:0:0:
320,192,109783,1,0,0:0:0:0:
64,192,109836,1,0,0:0:0:0:
320,192,109888,1,0,0:0:0:0:
192,192,109941,1,0,0:0:0:0:
64,192,109941,1,0,0:0:0:0:
448,192,110020,1,0,0:0:0:0:
320,192,110072,1,0,0:0:0:0:
192,192,110125,1,0,0:0:0:0:
64,192,110178,1,0,0:0:0:0:
448,192,110178,1,0,0:0:0:0:
320,192,110248,1,0,0:0:0:0:
64,192,110318,1,0,0:0:0:0:
448,192,110388,1,0,0:0:0:0:
192,192,110441,1,0,0:0:0:0:
320,192,110493,1,0,0:0:0:0:
448,192,110557,1,0,0:0:0:0:
192,192,110620,1,0,0:0:0:0:
64,192,110809,1,0,0:0:0:0:
320,192,110888,1,0,0:0:0:0:
64,192,110967,1,0,0:0:0:0:
320,192,111046,1,0,0:0:0:0:
192,192,111125,1,0,0:0:0:0:
64,192,111178,1,0,0:0:0:0:
320,192,111283,1,0,0:0:0:0:
448,192,111336,1,0,0:0:0:0:
192,192,111388,1,0,0:0:0:0:
320,192,111441,1,0,0:0:0:0:
320,192,111599,1,0,0:0:0:0:
192,192,111678,1,0,0:0:0:0:
64,192,111757,1,0,0:0:0:0:
448,192,111757,1,0,0:0:0:0:
64,192,111915,1,0,0:0:0:0:
192,192,112072,1,0,0:0:0:0:
448,192,112125,1,0,0:0:0:0:
320,192,112178,1,0,0:0:0:0:
64,192,112270,1,0,0:0:0:0:
320,192,112388,1,0,0:0:0:0:
448,192,112388,1,0,0:0:0:0:
64,192,112441,1,0,0:0:0:0:
192,192,112493,1,0,0:0:0:0:
320,192,112546,1,0,0:0:0:0:
192,192,112625,1,0,0:0:0:0:
448,192,112704,1,0,0:0:0:0:
64,192,112704,1,0,0:0:0:0:
64,192,112862,1,0,0:0:0:0:
448,192,112862,1,0,0:0:0:0:
64,192,113020,1,0,0:0:0:0:
448,192,113020,1,0,0:0:0:0:
320,192,113090,1,0,0:0:0:0:
192,192,113160,1,0,0:0:0:0:
448,192,113336,1,0,0:0:0:0:
192,192,113415,1,0,0:0:0:0:
448,192,113493,1,0,0:0:0:0:
192,192,113572,1,0,0:0:0:0:
320,192,113651,1,0,0:0:0:0:
448,192,113730,1,0,0:0:0:0:
320,192,113809,1,0,0:0:0:0:
64,192,113862,1,0,0:0:0:0:
192,192,113915,1,0,0:0:0:0:
448,192,113967,1,0,0:0:0:0:
64,192,114046,1,0,0:0:0:0:
448,192,114125,1,0,0:0:0:0:
64,192,114204,1,0,0:0:0:0:
192,192,114283,1,0,0:0:0:0:
320,192,114283,1,0,0:0:0:0:
448,192,114441,1,0,0:0:0:0:
320,192,114599,1,0,0:0:0:0:
192,192,114651,1,0,0:0:0:0:
448,192,114757,1,0,0:0:0:0:
320,192,114809,1,0,0:0:0:0:
64,192,114915,1,0,0:0:0:0:
448,192,114915,1,0,0:0:0:0:
192,192,114967,1,0,0:0:0:0:
320,192,115020,1,0,0:0:0:0:
64,192,115072,1,0,0:0:0:0:
192,192,115125,1,0,0:0:0:0:
448,192,115230,1,0,0:0:0:0:
64,192,115309,1,0,0:0:0:0:
448,192,115388,1,0,0:0:0:0:
192,192,115546,1,0,0:0:0:0:
64,192,115599,1,0,0:0:0:0:
448,192,115862,1,0,0:0:0:0:
192,192,115941,1,0,0:0:0:0:
448,192,116020,1,0,0:0:0:0:
192,192,116099,1,0,0:0:0:0:
320,192,116178,1,0,0:0:0:0:
64,192,116223,1,0,0:0:0:0:
192,192,116268,1,0,0:0:0:0:
448,192,116336,1,0,0:0:0:0:
320,192,116388,1,0,0:0:0:0:
192,192,116441,1,0,0:0:0:0:
64,192,116493,1,0,0:0:0:0:
192,192,116651,1,0,0:0:0:0:
320,192,116704,1,0,0:0:0:0:
64,192,116757,1,0,0:0:0:0:
448,192,116809,1,0,0:0:0:0:
192,192,116809,1,0,0:0:0:0:
320,192,116967,1,0,0:0:0:0:
64,192,117020,1,0,0:0:0:0:
448,192,117072,1,0,0:0:0:0:
192,192,117151,1,0,0:0:0:0:
64,192,117230,1,0,0:0:0:0:
320,192,117283,1,0,0:0:0:0:
192,192,117441,1,0,0:0:0:0:
320,192,117493,1,0,0:0:0:0:
64,192,117546,1,0,0:0:0:0:
320,192,117599,1,0,0:0:0:0:
192,192,117678,1,0,0:0:0:0:
448,192,117757,1,0,0:0:0:0:
64,192,117836,1,0,0:0:0:0:
448,192,117915,1,0,0:0:0:0:
64,192,117993,1,0,0:0:0:0:
448,192,118072,1,0,0:0:0:0:
320,192,118072,1,0,0:0:0:0:
192,192,118125,1,0,0:0:0:0:
64,192,118178,1,0,0:0:0:0:
320,192,118230,1,0,0:0:0:0:
192,192,118283,1,0,0:0:0:0:
448,192,118336,1,0,0:0:0:0:
64,192,118388,1,0,0:0:0:0:
320,192,118467,1,0,0:0:0:0:
64,192,118546,1,0,0:0:0:0:
320,192,118625,1,0,0:0:0:0:
448,192,118704,1,0,0:0:0:0:
320,192,119020,1,0,0:0:0:0:
192,192,119178,1,0,0:0:0:0:
320,192,119257,1,0,0:0:0:0:
448,192,119336,1,0,0:0:0:0:
64,192,119336,1,0,0:0:0:0:
320,192,119651,1,0,0:0:0:0:
448,192,119730,1,0,0:0:0:0:
64,192,119809,1,0,0:0:0:0:
448,192,119888,1,0,0:0:0:0:
64,192,119967,1,0,0:0:0:0:
448,192,120046,1,0,0:0:0:0:
192,192,120125,1,0,0:0:0:0:
320,192,120204,1,0,0:0:0:0:
64,192,120283,1,0,0:0:0:0:
320,192,120362,1,0,0:0:0:0:
64,192,120441,1,0,0:0:0:0:
320,192,120520,1,0,0:0:0:0:
64,192,120599,1,0,0:0:0:0:
192,192,120599,128,0,120757:0:0:0:0:
320,192,120757,128,0,120915:0:0:0:0:
64,192,120915,1,0,0:0:0:0:
448,192,121072,128,0,121230:0:0:0:0:
192,192,121230,1,0,0:0:0:0:
64,192,121388,1,0,0:0:0:0:
448,192,121546,128,0,121704:0:0:0:0:
192,192,121704,1,0,0:0:0:0:
64,192,121862,128,0,122020:0:0:0:0:
320,192,122020,128,0,122178:0:0:0:0:
192,192,122178,128,0,122493:0:0:0:0:
448,192,122493,128,0,122809:0:0:0:0:
64,192,122809,128,0,123125:0:0:0:0:
448,192,122967,1,0,0:0:0:0:
320,192,122967,1,0,0:0:0:0:
192,192,123125,128,0,123283:0:0:0:0:
448,192,123125,1,0,0:0:0:0:
320,192,123283,128,0,123441:0:0:0:0:
64,192,123441,1,0,0:0:0:0:
448,192,123599,128,0,123757:0:0:0:0:
192,192,123757,1,0,0:0:0:0:
64,192,123915,1,0,0:0:0:0:
448,192,124072,128,0,124230:0:0:0:0:
192,192,124230,1,0,0:0:0:0:
64,192,124388,128,0,124546:0:0:0:0:
320,192,124546,128,0,124704:0:0:0:0:
192,192,124704,128,0,125020:0:0:0:0:
64,192,124862,128,0,125020:0:0:0:0:
448,192,125020,128,0,125336:0:0:0:0:
320,192,125178,128,0,125336:0:0:0:0:
64,192,125336,128,0,125651:0:0:0:0:
192,192,125336,1,0,0:0:0:0:
448,192,125493,1,0,0:0:0:0:
192,192,125651,1,0,0:0:0:0:
448,192,125651,128,0,125809:0:0:0:0:
192,192,125809,128,0,126283:0:0:0:0:
448,192,125967,1,0,0:0:0:0:
320,192,125967,1,0,0:0:0:0:
448,192,126125,128,0,126441:0:0:0:0:
64,192,126283,128,0,126599:0:0:0:0:
192,192,126441,128,0,126599:0:0:0:0:
320,192,126599,1,0,0:0:0:0:
448,192,126599,128,0,126915:0:0:0:0:
64,192,126757,1,0,0:0:0:0:
64,192,126915,128,0,127230:0:0:0:0:
192,192,127072,128,0,127230:0:0:0:0:
320,192,127230,128,0,127862:0:0:0:0:
448,192,127230,1,0,0:0:0:0:
64,192,127388,1,0,0:0:0:0:
448,192,127546,128,0,127862:0:0:0:0:
192,192,127704,1,0,0:0:0:0:
64,192,127862,1,0,0:0:0:0:
192,192,127862,128,0,128178:0:0:0:0:
448,192,128020,128,0,128178:0:0:0:0:
320,192,128178,1,0,0:0:0:0:
64,192,128178,128,0,128336:0:0:0:0:
320,192,128336,128,0,128809:0:0:0:0:
64,192,128493,1,0,0:0:0:0:
192,192,128493,1,0,0:0:0:0:
64,192,128651,128,0,128967:0:0:0:0:
448,192,128809,128,0,129125:0:0:0:0:
320,192,128967,128,0,129125:0:0:0:0:
192,192,129125,1,0,0:0:0:0:
64,192,129125,128,0,129441:0:0:0:0:
448,192,129283,1,0,0:0:0:0:
448,192,129441,128,0,129757:0:0:0:0:
320,192,129599,128,0,129757:0:0:0:0:
192,192,129757,128,0,130388:0:0:0:0:
64,192,129757,1,0,0:0:0:0:
448,192,129915,1,0,0:0:0:0:
64,192,130072,128,0,130388:0:0:0:0:
320,192,130230,1,0,0:0:0:0:
448,192,130388,1,0,0:0:0:0:
320,192,130388,128,0,130704:0:0:0:0:
448,192,130546,128,0,130704:0:0:0:0:
192,192,130704,1,0,0:0:0:0:
64,192,130704,128,0,131020:0:0:0:0:
192,192,130862,128,0,131336:0:0:0:0:
448,192,131020,1,0,0:0:0:0:
320,192,131020,1,0,0:0:0:0:
448,192,131178,128,0,131493:0:0:0:0:
64,192,131336,128,0,131651:0:0:0:0:
192,192,131493,128,0,131651:0:0:0:0:
320,192,131651,1,0,0:0:0:0:
448,192,131651,128,0,131967:0:0:0:0:
64,192,131809,1,0,0:0:0:0:
64,192,131967,128,0,132283:0:0:0:0:
192,192,132125,128,0,132283:0:0:0:0:
320,192,132283,128,0,132915:0:0:0:0:
448,192,132283,1,0,0:0:0:0:
448,192,132441,1,0,0:0:0:0:
192,192,132520,1,0,0:0:0:0:
448,192,132599,128,0,132915:0:0:0:0:
64,192,132599,1,0,0:0:0:0:
192,192,132757,1,0,0:0:0:0:
64,192,132915,1,0,0:0:0:0:
192,192,132915,128,0,133230:0:0:0:0:
448,192,133072,128,0,133230:0:0:0:0:
320,192,133230,1,0,0:0:0:0:
320,192,133388,128,0,133862:0:0:0:0:
64,192,133546,1,0,0:0:0:0:
192,192,133546,1,0,0:0:0:0:
64,192,133704,128,0,134020:0:0:0:0:
448,192,133862,128,0,134178:0:0:0:0:
320,192,134020,128,0,134178:0:0:0:0:
192,192,134178,1,0,0:0:0:0:
64,192,134178,128,0,134493:0:0:0:0:
448,192,134336,1,0,0:0:0:0:
448,192,134493,128,0,134809:0:0:0:0:
320,192,134651,128,0,134809:0:0:0:0:
192,192,134809,128,0,135441:0:0:0:0:
64,192,134809,1,0,0:0:0:0:
448,192,134967,1,0,0:0:0:0:
64,192,135125,128,0,135441:0:0:0:0:
320,192,135283,1,0,0:0:0:0:
448,192,135441,1,0,0:0:0:0:
320,192,135441,128,0,135757:0:0:0:0:
192,192,135531,1,0,0:0:0:0:
448,192,135599,128,0,135757:0:0:0:0:
64,192,135757,128,0,136072:0:0:0:0:
192,192,135757,128,0,135836:0:0:0:0:
192,192,135915,128,0,136388:0:0:0:0:
448,192,136072,1,0,0:0:0:0:
320,192,136072,128,0,136388:0:0:0:0:
448,192,136230,128,0,136546:0:0:0:0:
64,192,136388,128,0,136704:0:0:0:0:
192,192,136546,128,0,136704:0:0:0:0:
448,192,136704,128,0,137020:0:0:0:0:
320,192,136704,128,0,137178:0:0:0:0:
64,192,136862,1,0,0:0:0:0:
64,192,137020,128,0,137336:0:0:0:0:
192,192,137178,128,0,137336:0:0:0:0:
320,192,137336,128,0,137967:0:0:0:0:
448,192,137336,1,0,0:0:0:0:
448,192,137493,1,0,0:0:0:0:
192,192,137572,1,0,0:0:0:0:
448,192,137651,128,0,137967:0:0:0:0:
64,192,137651,128,0,137809:0:0:0:0:
192,192,137809,1,0,0:0:0:0:
64,192,137967,1,0,0:0:0:0:
192,192,137967,128,0,138283:0:0:0:0:
448,192,138125,128,0,138283:0:0:0:0:
320,192,138283,1,0,0:0:0:0:
64,192,138283,128,0,138441:0:0:0:0:
320,192,138441,128,0,138915:0:0:0:0:
64,192,138599,1,0,0:0:0:0:
192,192,138599,128,0,138915:0:0:0:0:
64,192,138757,128,0,139072:0:0:0:0:
448,192,138915,128,0,139230:0:0:0:0:
320,192,139072,128,0,139230:0:0:0:0:
64,192,139230,128,0,139546:0:0:0:0:
192,192,139230,128,0,139704:0:0:0:0:
448,192,139388,1,0,0:0:0:0:
448,192,139546,128,0,139862:0:0:0:0:
320,192,139704,128,0,139862:0:0:0:0:
192,192,139862,1,0,0:0:0:0:
64,192,139862,1,0,0:0:0:0:
320,192,140040,1,0,0:0:0:0:
192,192,140118,1,0,0:0:0:0:
448,192,140178,1,0,0:0:0:0:
64,192,140309,1,0,0:0:0:0:
320,192,140362,1,0,0:0:0:0:
448,192,140493,1,0,0:0:0:0:
320,192,140546,1,0,0:0:0:0:
192,192,140599,1,0,0:0:0:0:
64,192,140651,1,0,0:0:0:0:
64,192,140809,5,0,0:0:0:0:
192,192,140809,128,0,141125:0:0:0:0:
320,192,140872,1,0,0:0:0:0:
448,192,140967,128,0,141125:0:0:0:0:
320,192,141125,1,0,0:0:0:0:
64,192,141125,128,0,141546:0:0:0:0:
192,192,141204,128,0,141283:0:0:0:0:
448,192,141283,128,0,141441:0:0:0:0:
320,192,141362,128,0,141441:0:0:0:0:
192,192,141441,128,0,141651:0:0:0:0:
320,192,141599,1,0,0:0:0:0:
64,192,141651,128,0,141757:0:0:0:0:
448,192,141704,1,0,0:0:0:0:
192,192,141757,128,0,141915:0:0:0:0:
320,192,141757,1,0,0:0:0:0:
64,192,141836,128,0,141915:0:0:0:0:
448,192,141993,1,0,0:0:0:0:
320,192,141993,1,0,0:0:0:0:
64,192,142072,1,0,0:0:0:0:
192,192,142125,1,0,0:0:0:0:
320,192,142178,1,0,0:0:0:0:
448,192,142230,1,0,0:0:0:0:
64,192,142388,1,0,0:0:0:0:
448,192,142388,1,0,0:0:0:0:
192,192,142546,1,0,0:0:0:0:
448,192,142625,1,0,0:0:0:0:
320,192,142704,1,0,0:0:0:0:
64,192,142783,1,0,0:0:0:0:
192,192,142783,128,0,142941:0:0:0:0:
320,192,142862,128,0,143020:0:0:0:0:
64,192,143020,1,0,0:0:0:0:
448,192,143020,1,0,0:0:0:0:
192,192,143099,1,0,0:0:0:0:
448,192,143178,1,0,0:0:0:0:
320,192,143257,1,0,0:0:0:0:
64,192,143257,1,0,0:0:0:0:
192,192,143336,128,0,143572:0:0:0:0:
448,192,143533,128,0,143730:0:0:0:0:
64,192,143651,1,0,0:0:0:0:
192,192,143651,1,0,0:0:0:0:
320,192,143730,128,0,143809:0:0:0:0:
64,192,143809,128,0,143967:0:0:0:0:
192,192,143888,128,0,143967:0:0:0:0:
320,192,143967,128,0,144125:0:0:0:0:
64,192,144125,128,0,144283:0:0:0:0:
192,192,144283,1,0,0:0:0:0:
320,192,144283,1,0,0:0:0:0:
448,192,144441,128,0,144599:0:0:0:0:
64,192,144520,1,0,0:0:0:0:
320,192,144520,128,0,144599:0:0:0:0:
192,192,144599,1,0,0:0:0:0:
64,192,144678,128,0,144836:0:0:0:0:
320,192,144757,128,0,144915:0:0:0:0:
448,192,144836,128,0,144915:0:0:0:0:
192,192,144915,1,0,0:0:0:0:
64,192,144915,1,0,0:0:0:0:
320,192,144993,1,0,0:0:0:0:
64,192,145151,1,0,0:0:0:0:
448,192,145151,1,0,0:0:0:0:
320,192,145230,128,0,145546:0:0:0:0:
192,192,145290,1,0,0:0:0:0:
448,192,145349,128,0,145546:0:0:0:0:
64,192,145546,1,0,0:0:0:0:
192,192,145546,1,0,0:0:0:0:
320,192,145625,1,0,0:0:0:0:
64,192,145704,1,0,0:0:0:0:
192,192,145783,1,0,0:0:0:0:
320,192,145783,1,0,0:0:0:0:
448,192,145862,1,0,0:0:0:0:
64,192,145941,128,0,146178:0:0:0:0:
192,192,146020,1,0,0:0:0:0:
448,192,146099,1,0,0:0:0:0:
192,192,146178,1,0,0:0:0:0:
320,192,146178,128,0,146336:0:0:0:0:
64,192,146415,1,0,0:0:0:0:
192,192,146415,1,0,0:0:0:0:
448,192,146493,128,0,146651:0:0:0:0:
320,192,146572,1,0,0:0:0:0:
64,192,146651,128,0,147125:0:0:0:0:
192,192,146730,1,0,0:0:0:0:
448,192,146809,1,0,0:0:0:0:
320,192,146809,128,0,146967:0:0:0:0:
192,192,146967,128,0,147046:0:0:0:0:
448,192,147046,1,0,0:0:0:0:
320,192,147046,1,0,0:0:0:0:
192,192,147125,1,0,0:0:0:0:
448,192,147230,1,0,0:0:0:0:
64,192,147230,1,0,0:0:0:0:
320,192,147283,128,0,147441:0:0:0:0:
64,192,147441,1,0,0:0:0:0:
192,192,147441,128,0,147520:0:0:0:0:
448,192,147520,128,0,147599:0:0:0:0:
192,192,147599,128,0,147678:0:0:0:0:
448,192,147678,128,0,147757:0:0:0:0:
64,192,147757,1,0,0:0:0:0:
320,192,147836,128,0,148072:0:0:0:0:
64,192,147915,128,0,148072:0:0:0:0:
448,192,148072,1,0,0:0:0:0:
192,192,148072,128,0,148151:0:0:0:0:
320,192,148151,128,0,148230:0:0:0:0:
192,192,148230,128,0,148309:0:0:0:0:
320,192,148309,128,0,148388:0:0:0:0:
448,192,148309,1,0,0:0:0:0:
64,192,148388,128,0,148625:0:0:0:0:
192,192,148467,128,0,148625:0:0:0:0:
448,192,148546,1,0,0:0:0:0:
320,192,148625,1,0,0:0:0:0:
448,192,148704,128,0,148862:0:0:0:0:
64,192,148704,1,0,0:0:0:0:
192,192,148783,128,0,149020:0:0:0:0:
64,192,148862,128,0,149020:0:0:0:0:
320,192,148941,1,0,0:0:0:0:
448,192,149020,128,0,149336:0:0:0:0:
320,192,149099,1,0,0:0:0:0:
64,192,149178,128,0,149336:0:0:0:0:
320,192,149336,1,0,0:0:0:0:
192,192,149336,128,0,149493:0:0:0:0:
320,192,149493,1,0,0:0:0:0:
192,192,149572,1,0,0:0:0:0:
64,192,149572,1,0,0:0:0:0:
448,192,149651,128,0,149730:0:0:0:0:
64,192,149730,1,0,0:0:0:0:
448,192,149809,128,0,149888:0:0:0:0:
64,192,149888,1,0,0:0:0:0:
320,192,149967,1,0,0:0:0:0:
448,192,149967,1,0,0:0:0:0:
192,192,150046,1,0,0:0:0:0:
64,192,150125,128,0,150204:0:0:0:0:
320,192,150204,1,0,0:0:0:0:
448,192,150204,1,0,0:0:0:0:
64,192,150283,128,0,150362:0:0:0:0:
448,192,150362,1,0,0:0:0:0:
320,192,150362,1,0,0:0:0:0:
64,192,150441,128,0,150520:0:0:0:0:
448,192,150520,1,0,0:0:0:0:
192,192,150599,1,0,0:0:0:0:
64,192,150599,128,0,150678:0:0:0:0:
448,192,150678,128,0,150757:0:0:0:0:
64,192,150757,128,0,150836:0:0:0:0:
448,192,150836,128,0,150915:0:0:0:0:
320,192,150915,1,0,0:0:0:0:
64,192,150915,1,0,0:0:0:0:
192,192,150993,128,0,151230:0:0:0:0:
64,192,151072,128,0,151230:0:0:0:0:
448,192,151230,1,0,0:0:0:0:
320,192,151230,1,0,0:0:0:0:
192,192,151309,1,0,0:0:0:0:
320,192,151388,1,0,0:0:0:0:
64,192,151467,1,0,0:0:0:0:
192,192,151546,1,0,0:0:0:0:
448,192,151546,1,0,0:0:0:0:
320,192,151625,128,0,151783:0:0:0:0:
448,192,151704,128,0,151783:0:0:0:0:
320,192,151862,1,0,0:0:0:0:
64,192,151862,1,0,0:0:0:0:
192,192,151941,128,0,152099:0:0:0:0:
64,192,152020,128,0,152099:0:0:0:0:
320,192,152099,1,0,0:0:0:0:
448,192,152099,1,0,0:0:0:0:
192,192,152178,1,0,0:0:0:0:
64,192,152257,128,0,152493:0:0:0:0:
448,192,152257,1,0,0:0:0:0:
192,192,152336,128,0,152493:0:0:0:0:
320,192,152493,1,0,0:0:0:0:
448,192,152493,128,0,152651:0:0:0:0:
64,192,152572,1,0,0:0:0:0:
320,192,152651,128,0,152730:0:0:0:0:
192,192,152730,1,0,0:0:0:0:
448,192,152809,1,0,0:0:0:0:
320,192,152888,128,0,153125:0:0:0:0:
448,192,152967,128,0,153125:0:0:0:0:
192,192,153125,1,0,0:0:0:0:
64,192,153125,1,0,0:0:0:0:
320,192,153204,1,0,0:0:0:0:
64,192,153283,1,0,0:0:0:0:
448,192,153362,1,0,0:0:0:0:
320,192,153362,1,0,0:0:0:0:
192,192,153441,1,0,0:0:0:0:
64,192,153520,128,0,153757:0:0:0:0:
192,192,153599,128,0,153757:0:0:0:0:
448,192,153757,1,0,0:0:0:0:
320,192,153757,128,0,153915:0:0:0:0:
64,192,153915,128,0,154072:0:0:0:0:
448,192,154072,1,0,0:0:0:0:
320,192,154151,128,0,154388:0:0:0:0:
448,192,154230,128,0,154388:0:0:0:0:
64,192,154388,1,0,0:0:0:0:
192,192,154388,128,0,154704:0:0:0:0:
64,192,154546,128,0,154704:0:0:0:0:
448,192,154625,1,0,0:0:0:0:
320,192,154625,1,0,0:0:0:0:
192,192,154783,1,0,0:0:0:0:
64,192,154783,1,0,0:0:0:0:
448,192,154862,1,0,0:0:0:0:
320,192,154941,128,0,155178:0:0:0:0:
64,192,155020,1,0,0:0:0:0:
448,192,155020,128,0,155178:0:0:0:0:
192,192,155178,128,0,155336:0:0:0:0:
64,192,155257,1,0,0:0:0:0:
320,192,155336,1,0,0:0:0:0:
448,192,155415,128,0,155651:0:0:0:0:
320,192,155493,128,0,155651:0:0:0:0:
192,192,155651,1,0,0:0:0:0:
64,192,155651,1,0,0:0:0:0:
320,192,155730,1,0,0:0:0:0:
64,192,155809,1,0,0:0:0:0:
320,192,155888,1,0,0:0:0:0:
448,192,155888,1,0,0:0:0:0:
192,192,155967,128,0,156125:0:0:0:0:
64,192,156020,1,0,0:0:0:0:
320,192,156072,1,0,0:0:0:0:
448,192,156125,128,0,156283:0:0:0:0:
192,192,156204,1,0,0:0:0:0:
64,192,156283,1,0,0:0:0:0:
320,192,156283,128,0,156441:0:0:0:0:
192,192,156441,128,0,156599:0:0:0:0:
448,192,156599,1,0,0:0:0:0:
320,192,156678,128,0,156836:0:0:0:0:
64,192,156678,1,0,0:0:0:0:
448,192,156757,128,0,156836:0:0:0:0:
448,192,156915,1,0,0:0:0:0:
64,192,156915,1,0,0:0:0:0:
192,192,156993,128,0,157230:0:0:0:0:
64,192,157072,128,0,157230:0:0:0:0:
320,192,157151,1,0,0:0:0:0:
448,192,157151,1,0,0:0:0:0:
192,192,157309,1,0,0:0:0:0:
64,192,157309,1,0,0:0:0:0:
448,192,157388,128,0,157546:0:0:0:0:
320,192,157467,1,0,0:0:0:0:
192,192,157546,128,0,157704:0:0:0:0:
64,192,157546,1,0,0:0:0:0:
320,192,157704,128,0,157862:0:0:0:0:
448,192,157783,1,0,0:0:0:0:
192,192,157783,1,0,0:0:0:0:
64,192,157862,128,0,158020:0:0:0:0:
448,192,157941,1,0,0:0:0:0:
320,192,157941,128,0,158099:0:0:0:0:
192,192,158020,1,0,0:0:0:0:
64,192,158099,1,0,0:0:0:0:
320,192,158178,1,0,0:0:0:0:
448,192,158178,1,0,0:0:0:0:
192,192,158336,128,0,158415:0:0:0:0:
448,192,158415,128,0,158493:0:0:0:0:
64,192,158415,1,0,0:0:0:0:
320,192,158493,1,0,0:0:0:0:
64,192,158572,128,0,158730:0:0:0:0:
192,192,158651,128,0,158730:0:0:0:0:
320,192,158730,1,0,0:0:0:0:
448,192,158809,1,0,0:0:0:0:
64,192,158809,1,0,0:0:0:0:
192,192,158967,1,0,0:0:0:0:
320,192,159046,1,0,0:0:0:0:
448,192,159125,128,0,159283:0:0:0:0:
192,192,159204,1,0,0:0:0:0:
64,192,159204,1,0,0:0:0:0:
320,192,159283,1,0,0:0:0:0:
64,192,159441,1,0,0:0:0:0:
448,192,159441,1,0,0:0:0:0:
192,192,159520,1,0,0:0:0:0:
448,192,159599,1,0,0:0:0:0:
192,192,159678,1,0,0:0:0:0:
64,192,159678,1,0,0:0:0:0:
320,192,159836,1,0,0:0:0:0:
448,192,159836,1,0,0:0:0:0:
64,192,159888,1,0,0:0:0:0:
192,192,159941,1,0,0:0:0:0:
320,192,159993,1,0,0:0:0:0:
64,192,160072,1,0,0:0:0:0:
448,192,160072,1,0,0:0:0:0:
192,192,160178,1,0,0:0:0:0:
320,192,160178,1,0,0:0:0:0:
448,192,160325,1,0,0:0:0:0:
192,192,160325,1,0,0:0:0:0:
64,192,160467,1,0,0:0:0:0:
320,192,160467,1,0,0:0:0:0:
192,192,160546,1,0,0:0:0:0:
320,192,160625,1,0,0:0:0:0:
64,192,160704,1,0,0:0:0:0:
448,192,160704,128,0,160941:0:0:0:0:
320,192,160783,128,0,160941:0:0:0:0:
192,192,160862,128,0,161020:0:0:0:0:
64,192,160941,128,0,161020:0:0:0:0:
448,192,161020,1,0,0:0:0:0:
192,192,161178,128,0,161493:0:0:0:0:
448,192,161336,1,0,0:0:0:0:
320,192,161336,1,0,0:0:0:0:
64,192,161493,1,0,0:0:0:0:
192,192,161651,128,0,161967:0:0:0:0:
448,192,161809,1,0,0:0:0:0:
320,192,161967,1,0,0:0:0:0:
448,192,161967,1,0,0:0:0:0:
64,192,162125,1,0,0:0:0:0:
192,192,162125,128,0,162441:0:0:0:0:
64,192,162283,128,0,162441:0:0:0:0:
320,192,162441,1,0,0:0:0:0:
192,192,162599,128,0,162915:0:0:0:0:
448,192,162599,1,0,0:0:0:0:
64,192,162757,128,0,162915:0:0:0:0:
448,192,162915,128,0,163230:0:0:0:0:
64,192,163072,1,0,0:0:0:0:
320,192,163230,1,0,0:0:0:0:
192,192,163230,128,0,163388:0:0:0:0:
448,192,163388,128,0,163546:0:0:0:0:
64,192,163546,1,0,0:0:0:0:
320,192,163704,128,0,164020:0:0:0:0:
64,192,163862,1,0,0:0:0:0:
192,192,163862,1,0,0:0:0:0:
448,192,164020,1,0,0:0:0:0:
320,192,164178,128,0,164493:0:0:0:0:
64,192,164336,1,0,0:0:0:0:
192,192,164493,1,0,0:0:0:0:
64,192,164493,1,0,0:0:0:0:
448,192,164651,1,0,0:0:0:0:
320,192,164651,128,0,164967:0:0:0:0:
448,192,164809,128,0,164967:0:0:0:0:
192,192,164967,128,0,165125:0:0:0:0:
320,192,165125,128,0,165441:0:0:0:0:
64,192,165125,1,0,0:0:0:0:
448,192,165283,128,0,165441:0:0:0:0:
64,192,165441,128,0,165599:0:0:0:0:
448,192,165599,128,0,165678:0:0:0:0:
448,192,165757,128,0,165836:0:0:0:0:
192,192,165757,1,0,0:0:0:0:
448,192,165915,128,0,165993:0:0:0:0:
448,192,166072,128,0,166230:0:0:0:0:
192,192,166230,128,0,166546:0:0:0:0:
448,192,166388,1,0,0:0:0:0:
320,192,166388,128,0,166862:0:0:0:0:
64,192,166546,1,0,0:0:0:0:
192,192,166704,128,0,167020:0:0:0:0:
448,192,166862,1,0,0:0:0:0:
448,192,167020,1,0,0:0:0:0:
320,192,167020,128,0,167336:0:0:0:0:
192,192,167178,128,0,167493:0:0:0:0:
64,192,167178,1,0,0:0:0:0:
64,192,167336,128,0,167651:0:0:0:0:
320,192,167493,1,0,0:0:0:0:
448,192,167651,1,0,0:0:0:0:
192,192,167651,128,0,168125:0:0:0:0:
64,192,167809,128,0,167967:0:0:0:0:
448,192,167967,128,0,168283:0:0:0:0:
64,192,168125,1,0,0:0:0:0:
192,192,168283,128,0,168441:0:0:0:0:
320,192,168283,1,0,0:0:0:0:
448,192,168441,128,0,168599:0:0:0:0:
64,192,168599,128,0,168757:0:0:0:0:
320,192,168757,128,0,169072:0:0:0:0:
64,192,168915,1,0,0:0:0:0:
192,192,168915,128,0,169388:0:0:0:0:
448,192,169072,1,0,0:0:0:0:
320,192,169230,128,0,169546:0:0:0:0:
64,192,169388,1,0,0:0:0:0:
64,192,169546,1,0,0:0:0:0:
192,192,169546,128,0,169862:0:0:0:0:
320,192,169704,128,0,170020:0:0:0:0:
448,192,169704,1,0,0:0:0:0:
448,192,169862,128,0,170178:0:0:0:0:
192,192,170020,128,0,170336:0:0:0:0:
320,192,170178,128,0,170651:0:0:0:0:
64,192,170178,128,0,170336:0:0:0:0:
448,192,170336,128,0,170493:0:0:0:0:
64,192,170493,128,0,170809:0:0:0:0:
192,192,170651,128,0,170730:0:0:0:0:
192,192,170809,128,0,170888:0:0:0:0:
448,192,170809,1,0,0:0:0:0:
192,192,170967,128,0,171046:0:0:0:0:
192,192,171125,1,0,0:0:0:0:
320,192,171184,1,0,0:0:0:0:
64,192,171243,1,0,0:0:0:0:
192,192,171303,1,0,0:0:0:0:
448,192,171362,128,0,175072:0:0:0:0:
192,192,175072,128,0,175230:0:0:0:0:
