osu file format v14

[General]
AudioFilename: audio.mp3
AudioLeadIn: 0
PreviewTime: 160899
Countdown: 0
SampleSet: Soft
StackLeniency: 0.7
Mode: 3
LetterboxInBreaks: 0
SpecialStyle: 0
WidescreenStoryboard: 1

[Editor]
Bookmarks: 669,3869,10269,23069,35869,43869,44669,53269,66069,69469,79069,91870,105584,119299,125699,151299,164099,176899,183299,189699,202499,213699
DistanceSpacing: 0.9
BeatDivisor: 6
GridSize: 8
TimelineZoom: 3.350003

[Metadata]
Title:multiband depression
TitleUnicode:multiband depression
Artist:Tenchio
ArtistUnicode:Tenchio
Creator:chwisuwu
Version:1925 DAYS
Source:
Tags:featured artist rock experimental crosshatching holographs of a cityscape (antiopus) kashiwa daisuke math post hardcore progressive vocaloid FA English Protastic101
BeatmapID:4042784
BeatmapSetID:1936860

[Difficulty]
HPDrainRate:8.6
CircleSize:4
OverallDifficulty:8.6
ApproachRate:5
SliderMultiplier:1.4
SliderTickRate:1

[Events]
//Background and Video events
0,0,"abstract.jpg",0,0
//Break Periods
//Storyboard Layer 0 (Background)
//Storyboard Layer 1 (Fail)
//Storyboard Layer 2 (Pass)
//Storyboard Layer 3 (Foreground)
//Storyboard Layer 4 (Overlay)
//Storyboard Sound Samples

[TimingPoints]
669,400,2,2,1,30,1,0
3869,-100,4,2,1,70,0,1
10269,400,4,2,1,30,1,0
10269,-100,4,2,1,30,0,0
22469,-100,4,2,1,50,0,0
35869,400,5,2,1,30,1,0
43869,-100,5,2,1,70,0,0
44669,400,5,2,1,70,1,0
49269,400,5,2,1,70,1,0
53269,400,4,2,1,70,1,0
66069,-100,4,2,1,30,0,0
69469,400,4,2,1,50,1,0
91870,428.571428571429,4,2,1,30,1,0
91870,-93.3333334577778,4,2,1,30,0,0
105584,428.571428571429,3,2,1,90,1,0
105584,-93.3333334577778,4,2,1,70,0,0
106726,428.571428571429,3,2,1,70,1,0
106726,-93.3333334577778,4,2,1,70,0,0
107868,428.571428571429,3,2,1,70,1,0
107868,-93.3333334577778,4,2,1,70,0,0
109010,428.571428571429,3,2,1,70,1,0
109010,-93.3333334577778,4,2,1,70,0,0
110152,428.571428571429,3,2,1,70,1,0
110152,-93.3333334577778,4,2,1,70,0,0
111294,428.571428571429,3,2,1,70,1,0
111294,-93.3333334577778,4,2,1,70,0,0
112436,428.571428571429,4,2,1,70,1,0
112436,-93.3333334577778,4,2,1,70,0,0
119299,400,4,2,1,70,1,0
125699,-100,4,2,1,70,0,1
151299,-100,4,2,1,30,0,0
164099,-100,4,2,1,50,0,0
176899,-100,4,2,1,70,0,1
189699,-100,4,2,1,30,0,0

[HitObjects]
192,192,669,5,0,0:0:0:0:
64,192,669,128,0,802:0:0:0:0:
192,192,802,128,0,935:0:0:0:0:
448,192,935,128,0,1069:0:0:0:0:
320,192,1069,128,0,1202:0:0:0:0:
448,192,1202,128,0,1602:0:0:0:0:
320,192,1335,128,0,1469:0:0:0:0:
64,192,1469,128,0,1602:0:0:0:0:
192,192,1469,1,0,0:0:0:0:
192,192,1602,128,0,1735:0:0:0:0:
448,192,1735,128,0,1869:0:0:0:0:
320,192,1869,128,0,2002:0:0:0:0:
448,192,2002,128,0,2402:0:0:0:0:
320,192,2135,128,0,2269:0:0:0:0:
64,192,2269,128,0,2402:0:0:0:0:
192,192,2269,1,0,0:0:0:0:
192,192,2402,128,0,2535:0:0:0:0:
448,192,2535,128,0,2802:0:0:0:0:
320,192,2669,128,0,2935:0:0:0:0:
64,192,2802,128,0,3202:0:0:0:0:
192,192,2935,128,0,3069:0:0:0:0:
320,192,3069,1,0,0:0:0:0:
448,192,3069,128,0,3335:0:0:0:0:
320,192,3202,128,0,3469:0:0:0:0:
64,192,3335,128,0,3602:0:0:0:0:
192,192,3469,128,0,3802:0:0:0:0:
448,192,3469,128,0,3602:0:0:0:0:
320,192,3602,128,0,3802:0:0:0:0:
448,192,3735,128,0,3802:0:0:0:0:
64,192,3735,128,0,3802:0:0:0:0:
64,192,3869,1,2,0:0:0:0:
192,192,3869,1,4,0:0:0:0:
448,192,3869,1,0,0:0:0:0:
320,192,3869,1,0,0:0:0:0:
448,192,4002,1,0,0:0:0:0:
64,192,4002,1,2,0:0:0:0:
320,192,4135,1,0,0:0:0:0:
192,192,4135,1,8,0:0:0:0:
448,192,4135,1,0,0:0:0:0:
64,192,4269,1,2,0:0:0:0:
320,192,4269,1,0,0:0:0:0:
192,192,4402,1,0,0:0:0:0:
64,192,4402,1,8,0:0:0:0:
448,192,4402,1,0,0:0:0:0:
448,192,4535,1,0,0:0:0:0:
320,192,4535,1,2,0:0:0:0:
64,192,4669,1,8,0:0:0:0:
320,192,4669,1,0,0:0:0:0:
192,192,4669,1,0,0:0:0:0:
448,192,4802,1,0,0:0:0:0:
320,192,4802,1,2,0:0:0:0:
192,192,4869,1,8,0:0:0:0:
448,192,4935,1,0,0:0:0:0:
64,192,4935,1,2,0:0:0:0:
320,192,5069,1,0,0:0:0:0:
192,192,5069,1,8,0:0:0:0:
448,192,5069,1,0,0:0:0:0:
64,192,5202,1,2,0:0:0:0:
320,192,5269,1,2,0:0:0:0:
448,192,5269,1,0,0:0:0:0:
192,192,5335,1,2,0:0:0:0:
64,192,5335,1,0,0:0:0:0:
320,192,5402,1,2,0:0:0:0:
64,192,5469,1,2,0:0:0:0:
448,192,5469,1,0,0:0:0:0:
192,192,5469,1,8,0:0:0:0:
320,192,5602,1,0,0:0:0:0:
64,192,5602,1,2,0:0:0:0:
192,192,5735,1,8,0:0:0:0:
320,192,5735,1,0,0:0:0:0:
448,192,5735,1,0,0:0:0:0:
448,192,5869,1,0,0:0:0:0:
64,192,5869,1,2,0:0:0:0:
192,192,6002,1,0,0:0:0:0:
64,192,6002,1,8,0:0:0:0:
320,192,6002,1,0,0:0:0:0:
192,192,6135,1,2,0:0:0:0:
448,192,6135,1,0,0:0:0:0:
64,192,6269,1,8,0:0:0:0:
320,192,6269,1,0,0:0:0:0:
448,192,6269,1,0,0:0:0:0:
192,192,6402,1,2,0:0:0:0:
64,192,6402,1,0,0:0:0:0:
320,192,6469,1,8,0:0:0:0:
448,192,6535,1,0,0:0:0:0:
192,192,6535,1,2,0:0:0:0:
64,192,6535,1,0,0:0:0:0:
192,192,6669,1,8,0:0:0:0:
320,192,6669,1,0,0:0:0:0:
448,192,6669,1,0,0:0:0:0:
320,192,6802,1,0,0:0:0:0:
448,192,6802,1,0,0:0:0:0:
64,192,6802,1,2,0:0:0:0:
192,192,6935,1,8,0:0:0:0:
64,192,6935,1,0,0:0:0:0:
448,192,7002,1,8,0:0:0:0:
192,192,7069,1,0,0:0:0:0:
64,192,7069,1,4,0:0:0:0:
320,192,7069,1,8,0:0:0:0:
320,192,7202,1,2,0:0:0:0:
448,192,7202,1,0,0:0:0:0:
64,192,7335,1,0,0:0:0:0:
192,192,7335,1,8,0:0:0:0:
448,192,7335,1,0,0:0:0:0:
320,192,7469,1,0,0:0:0:0:
64,192,7469,1,2,0:0:0:0:
192,192,7602,1,8,0:0:0:0:
320,192,7602,1,0,0:0:0:0:
448,192,7602,1,0,0:0:0:0:
192,192,7735,1,0,0:0:0:0:
64,192,7735,1,2,0:0:0:0:
64,192,7869,1,8,0:0:0:0:
320,192,7869,1,0,0:0:0:0:
448,192,7869,1,0,0:0:0:0:
192,192,8002,1,2,0:0:0:0:
320,192,8002,1,0,0:0:0:0:
448,192,8069,1,0,0:0:0:0:
64,192,8069,1,8,0:0:0:0:
192,192,8135,1,2,0:0:0:0:
320,192,8135,1,0,0:0:0:0:
64,192,8269,1,8,0:0:0:0:
448,192,8269,1,0,0:0:0:0:
192,192,8269,1,0,0:0:0:0:
320,192,8402,1,2,0:0:0:0:
192,192,8469,1,2,0:0:0:0:
448,192,8469,1,0,0:0:0:0:
320,192,8535,1,0,0:0:0:0:
64,192,8535,1,2,0:0:0:0:
192,192,8602,1,2,0:0:0:0:
64,192,8669,1,8,0:0:0:0:
320,192,8669,1,0,0:0:0:0:
448,192,8669,1,0,0:0:0:0:
192,192,8802,1,2,0:0:0:0:
64,192,8802,1,0,0:0:0:0:
192,192,8935,1,2,0:0:0:0:
320,192,8935,1,0,0:0:0:0:
448,192,9069,1,0,0:0:0:0:
192,192,9069,1,0,0:0:0:0:
64,192,9069,1,8,0:0:0:0:
320,192,9202,1,2,0:0:0:0:
448,192,9202,1,0,0:0:0:0:
320,192,9335,1,2,0:0:0:0:
192,192,9335,1,0,0:0:0:0:
448,192,9469,1,0,0:0:0:0:
64,192,9469,1,8,0:0:0:0:
320,192,9469,1,0,0:0:0:0:
192,192,9602,1,2,0:0:0:0:
448,192,9602,1,0,0:0:0:0:
320,192,9735,1,0,0:0:0:0:
192,192,9735,1,0,0:0:0:0:
64,192,9735,1,8,0:0:0:0:
192,192,9869,1,8,0:0:0:0:
320,192,9869,1,0,0:0:0:0:
448,192,9869,1,0,0:0:0:0:
192,192,10002,1,8,0:0:0:0:
64,192,10002,1,0,0:0:0:0:
320,192,10069,1,0,0:0:0:0:
448,192,10135,1,0,0:0:0:0:
192,192,10135,1,8,0:0:0:0:
64,192,10135,1,0,0:0:0:0:
64,192,10269,1,8,0:0:0:0:
448,192,10269,1,0,0:0:0:0:
192,192,10269,1,4,0:0:0:0:
320,192,10269,1,0,0:0:0:0:
448,192,10669,1,0,0:0:0:0:
448,192,11069,1,0,0:0:0:0:
320,192,11469,1,0,0:0:0:0:
448,192,11669,1,0,0:0:0:0:
320,192,12269,1,0,0:0:0:0:
448,192,12469,1,0,0:0:0:0:
448,192,12869,1,0,0:0:0:0:
448,192,13069,128,0,13469:0:0:0:0:
320,192,13269,128,0,13469:0:0:0:0:
64,192,13469,128,0,13769:0:0:0:0:
64,192,13869,128,0,14169:0:0:0:0:
64,192,14269,128,0,14569:0:0:0:0:
192,192,14469,128,0,14569:0:0:0:0:
320,192,14669,1,0,0:0:0:0:
64,192,14669,128,0,14869:0:0:0:0:
192,192,14869,128,0,15369:0:0:0:0:
64,192,15269,128,0,15369:0:0:0:0:
320,192,15469,1,0,0:0:0:0:
192,192,15469,128,0,15669:0:0:0:0:
64,192,15669,128,0,16169:0:0:0:0:
192,192,16069,128,0,16169:0:0:0:0:
448,192,16269,1,0,0:0:0:0:
448,192,16369,1,0,0:0:0:0:
192,192,16469,1,0,0:0:0:0:
192,192,16569,1,0,0:0:0:0:
320,192,16669,128,0,16969:0:0:0:0:
448,192,16669,1,0,0:0:0:0:
448,192,17069,128,0,17369:0:0:0:0:
192,192,17069,128,0,17369:0:0:0:0:
448,192,17469,128,0,17769:0:0:0:0:
192,192,17469,128,0,17769:0:0:0:0:
320,192,17669,128,0,17769:0:0:0:0:
192,192,17869,128,0,18069:0:0:0:0:
448,192,17869,128,0,18069:0:0:0:0:
64,192,18069,128,0,18569:0:0:0:0:
320,192,18069,128,0,18569:0:0:0:0:
192,192,18469,128,0,18569:0:0:0:0:
64,192,18669,128,0,18869:0:0:0:0:
320,192,18669,128,0,18869:0:0:0:0:
192,192,18869,128,0,19369:0:0:0:0:
448,192,18869,128,0,19369:0:0:0:0:
320,192,19269,128,0,19369:0:0:0:0:
448,192,19469,128,0,19669:0:0:0:0:
192,192,19469,128,0,19669:0:0:0:0:
320,192,19669,128,0,19769:0:0:0:0:
64,192,19669,128,0,19769:0:0:0:0:
320,192,19869,128,0,20169:0:0:0:0:
448,192,19869,128,0,20169:0:0:0:0:
320,192,20269,128,0,20569:0:0:0:0:
448,192,20269,128,0,20569:0:0:0:0:
320,192,20669,128,0,20969:0:0:0:0:
448,192,20669,128,0,20969:0:0:0:0:
192,192,20869,128,0,20969:0:0:0:0:
64,192,20869,128,0,20969:0:0:0:0:
192,192,21069,128,0,21269:0:0:0:0:
64,192,21069,128,0,21269:0:0:0:0:
320,192,21269,128,0,21769:0:0:0:0:
448,192,21269,128,0,21769:0:0:0:0:
192,192,21669,128,0,21769:0:0:0:0:
64,192,21669,128,0,21769:0:0:0:0:
192,192,21869,128,0,21969:0:0:0:0:
64,192,21869,128,0,21969:0:0:0:0:
320,192,22069,1,0,0:0:0:0:
448,192,22069,1,0,0:0:0:0:
192,192,22235,1,0,0:0:0:0:
320,192,22269,1,0,0:0:0:0:
448,192,22302,1,0,0:0:0:0:
320,192,22469,1,0,0:0:0:0:
64,192,22469,1,2,0:0:0:0:
64,192,22669,1,8,0:0:0:0:
448,192,22669,1,0,0:0:0:0:
192,192,22669,1,0,0:0:0:0:
320,192,22869,1,0,0:0:0:0:
64,192,23069,1,2,0:0:0:0:
192,192,23069,1,4,0:0:0:0:
320,192,23069,128,0,23369:0:0:0:0:
448,192,23069,128,0,23369:0:0:0:0:
192,192,23269,128,0,23569:0:0:0:0:
64,192,23469,1,8,0:0:0:0:
320,192,23469,128,0,23569:0:0:0:0:
448,192,23469,128,0,23769:0:0:0:0:
192,192,23669,128,0,23969:0:0:0:0:
320,192,23869,128,0,24169:0:0:0:0:
64,192,24069,1,2,0:0:0:0:
192,192,24069,128,0,24369:0:0:0:0:
320,192,24269,1,0,0:0:0:0:
64,192,24269,1,8,0:0:0:0:
448,192,24269,128,0,24569:0:0:0:0:
320,192,24469,128,0,24569:0:0:0:0:
192,192,24469,128,2,24769:0:0:0:0:
320,192,24669,128,0,24969:0:0:0:0:
64,192,24869,1,2,0:0:0:0:
192,192,24869,128,0,25169:0:0:0:0:
64,192,25069,1,8,0:0:0:0:
448,192,25069,128,0,25369:0:0:0:0:
320,192,25069,128,0,25169:0:0:0:0:
192,192,25269,128,0,25569:0:0:0:0:
320,192,25469,128,0,25769:0:0:0:0:
64,192,25669,1,2,0:0:0:0:
448,192,25669,128,0,25969:0:0:0:0:
64,192,25869,1,8,0:0:0:0:
320,192,25869,128,0,25969:0:0:0:0:
192,192,25869,128,0,26169:0:0:0:0:
320,192,26069,1,8,0:0:0:0:
64,192,26069,128,0,26169:0:0:0:0:
448,192,26069,1,0,0:0:0:0:
448,192,26269,1,2,0:0:0:0:
192,192,26269,128,0,26569:0:0:0:0:
320,192,26269,128,4,26569:0:0:0:0:
64,192,26269,1,0,0:0:0:0:
64,192,26469,128,0,26769:0:0:0:0:
448,192,26669,1,8,0:0:0:0:
320,192,26669,128,0,26969:0:0:0:0:
192,192,26669,128,0,26769:0:0:0:0:
64,192,26869,128,0,27169:0:0:0:0:
192,192,27069,128,0,27369:0:0:0:0:
448,192,27269,1,2,0:0:0:0:
64,192,27269,128,0,27569:0:0:0:0:
448,192,27469,1,8,0:0:0:0:
320,192,27469,128,0,27769:0:0:0:0:
192,192,27469,1,0,0:0:0:0:
192,192,27669,128,2,27769:0:0:0:0:
64,192,27669,128,0,27969:0:0:0:0:
320,192,27869,128,0,28169:0:0:0:0:
64,192,28069,1,2,0:0:0:0:
192,192,28069,128,0,28369:0:0:0:0:
448,192,28269,128,0,28569:0:0:0:0:
320,192,28269,128,0,28369:0:0:0:0:
64,192,28269,1,8,0:0:0:0:
192,192,28469,128,0,28769:0:0:0:0:
320,192,28669,128,0,28969:0:0:0:0:
192,192,28869,128,2,29169:0:0:0:0:
64,192,28869,1,0,0:0:0:0:
64,192,29069,1,8,0:0:0:0:
448,192,29069,128,0,29369:0:0:0:0:
320,192,29069,128,0,29169:0:0:0:0:
192,192,29269,1,8,0:0:0:0:
64,192,29269,128,0,29369:0:0:0:0:
320,192,29269,1,0,0:0:0:0:
192,192,29469,1,0,0:0:0:0:
64,192,29469,1,2,0:0:0:0:
320,192,29469,128,0,29769:0:0:0:0:
448,192,29469,128,4,29769:0:0:0:0:
64,192,29669,128,0,29969:0:0:0:0:
448,192,29869,1,8,0:0:0:0:
320,192,29869,128,0,30169:0:0:0:0:
192,192,29869,128,0,29969:0:0:0:0:
64,192,30069,128,0,30369:0:0:0:0:
192,192,30269,128,0,30569:0:0:0:0:
448,192,30469,1,2,0:0:0:0:
64,192,30469,128,0,30769:0:0:0:0:
448,192,30669,1,8,0:0:0:0:
320,192,30669,128,0,30969:0:0:0:0:
192,192,30669,1,0,0:0:0:0:
64,192,30869,128,0,31169:0:0:0:0:
192,192,30869,128,2,30969:0:0:0:0:
320,192,31069,128,0,31369:0:0:0:0:
448,192,31269,1,2,0:0:0:0:
192,192,31269,128,0,31569:0:0:0:0:
64,192,31469,1,8,0:0:0:0:
320,192,31469,128,0,31769:0:0:0:0:
448,192,31469,128,0,31569:0:0:0:0:
192,192,31669,128,0,31969:0:0:0:0:
64,192,31869,128,0,32169:0:0:0:0:
448,192,32069,1,2,0:0:0:0:
192,192,32069,128,0,32369:0:0:0:0:
448,192,32269,1,8,0:0:0:0:
320,192,32269,128,0,32569:0:0:0:0:
64,192,32269,128,0,32369:0:0:0:0:
64,192,32469,1,8,0:0:0:0:
192,192,32469,128,0,32569:0:0:0:0:
448,192,32469,1,0,0:0:0:0:
448,192,32669,1,4,0:0:0:0:
192,192,32669,1,0,0:0:0:0:
64,192,32669,128,0,32969:0:0:0:0:
320,192,32669,128,2,32969:0:0:0:0:
192,192,32869,128,0,33169:0:0:0:0:
448,192,33069,128,0,33269:0:0:0:0:
320,192,33069,128,0,33169:0:0:0:0:
64,192,33069,1,8,0:0:0:0:
192,192,33269,1,0,0:0:0:0:
64,192,33269,128,0,33869:0:0:0:0:
320,192,33669,1,2,0:0:0:0:
448,192,33669,1,0,0:0:0:0:
192,192,33869,1,8,0:0:0:0:
448,192,33869,128,0,34169:0:0:0:0:
320,192,33869,1,0,0:0:0:0:
64,192,34069,1,2,0:0:0:0:
192,192,34069,128,0,34569:0:0:0:0:
320,192,34069,128,0,34169:0:0:0:0:
320,192,34469,1,2,0:0:0:0:
64,192,34469,128,0,34769:0:0:0:0:
448,192,34669,1,8,0:0:0:0:
320,192,34669,128,0,34969:0:0:0:0:
192,192,34669,128,0,34769:0:0:0:0:
192,192,34869,1,2,0:0:0:0:
64,192,34869,128,0,35169:0:0:0:0:
448,192,35069,1,8,0:0:0:0:
192,192,35069,128,0,35369:0:0:0:0:
320,192,35069,128,0,35169:0:0:0:0:
320,192,35269,1,2,0:0:0:0:
448,192,35269,128,0,35569:0:0:0:0:
64,192,35469,1,8,0:0:0:0:
320,192,35469,128,0,35569:0:0:0:0:
192,192,35469,128,0,35569:0:0:0:0:
320,192,35669,128,0,35769:0:0:0:0:
192,192,35669,128,2,35769:0:0:0:0:
64,192,35869,1,2,0:0:0:0:
192,192,35869,1,4,0:0:0:0:
448,192,35869,1,0,0:0:0:0:
320,192,35869,1,0,0:0:0:0:
448,192,36069,1,0,0:0:0:0:
320,192,36169,1,0,0:0:0:0:
448,192,36269,1,0,0:0:0:0:
192,192,36369,1,0,0:0:0:0:
320,192,36469,1,0,0:0:0:0:
448,192,36569,1,0,0:0:0:0:
64,192,36669,1,0,0:0:0:0:
192,192,36769,1,0,0:0:0:0:
448,192,36869,1,0,0:0:0:0:
320,192,36969,1,0,0:0:0:0:
192,192,37069,1,0,0:0:0:0:
320,192,37169,1,0,0:0:0:0:
448,192,37269,1,0,0:0:0:0:
64,192,37369,1,0,0:0:0:0:
192,192,37469,1,0,0:0:0:0:
320,192,37569,1,0,0:0:0:0:
64,192,37669,1,0,0:0:0:0:
320,192,37769,1,0,0:0:0:0:
448,192,37869,1,0,0:0:0:0:
192,192,37969,1,0,0:0:0:0:
320,192,38069,1,0,0:0:0:0:
192,192,38169,1,0,0:0:0:0:
64,192,38269,1,0,0:0:0:0:
448,192,38369,1,0,0:0:0:0:
320,192,38469,1,0,0:0:0:0:
64,192,38569,1,0,0:0:0:0:
448,192,38669,1,0,0:0:0:0:
192,192,38769,1,0,0:0:0:0:
320,192,38869,1,0,0:0:0:0:
64,192,38969,1,0,0:0:0:0:
192,192,39069,1,0,0:0:0:0:
64,192,39169,1,0,0:0:0:0:
448,192,39269,1,0,0:0:0:0:
320,192,39369,1,0,0:0:0:0:
64,192,39469,1,0,0:0:0:0:
448,192,39569,1,0,0:0:0:0:
320,192,39669,1,0,0:0:0:0:
192,192,39769,1,0,0:0:0:0:
64,192,39869,1,0,0:0:0:0:
448,192,39969,1,0,0:0:0:0:
192,192,40069,1,0,0:0:0:0:
320,192,40169,1,0,0:0:0:0:
448,192,40269,1,0,0:0:0:0:
64,192,40369,1,0,0:0:0:0:
320,192,40469,1,0,0:0:0:0:
448,192,40569,1,0,0:0:0:0:
192,192,40669,1,0,0:0:0:0:
320,192,40769,1,0,0:0:0:0:
448,192,40869,1,0,0:0:0:0:
192,192,40969,1,0,0:0:0:0:
320,192,41069,1,0,0:0:0:0:
192,192,41169,1,0,0:0:0:0:
64,192,41269,1,0,0:0:0:0:
448,192,41369,1,0,0:0:0:0:
320,192,41469,1,0,0:0:0:0:
192,192,41569,1,0,0:0:0:0:
320,192,41669,1,0,0:0:0:0:
192,192,41769,1,0,0:0:0:0:
64,192,41869,1,0,0:0:0:0:
320,192,41969,1,0,0:0:0:0:
192,192,42069,1,0,0:0:0:0:
320,192,42169,1,0,0:0:0:0:
448,192,42269,1,0,0:0:0:0:
64,192,42369,1,0,0:0:0:0:
192,192,42469,1,0,0:0:0:0:
448,192,42569,1,0,0:0:0:0:
192,192,42669,1,0,0:0:0:0:
320,192,42769,1,0,0:0:0:0:
448,192,42869,1,0,0:0:0:0:
64,192,42969,1,0,0:0:0:0:
320,192,43069,1,0,0:0:0:0:
192,192,43169,1,0,0:0:0:0:
64,192,43269,1,0,0:0:0:0:
448,192,43369,1,0,0:0:0:0:
320,192,43469,1,0,0:0:0:0:
192,192,43569,1,0,0:0:0:0:
448,192,43669,1,0,0:0:0:0:
320,192,43769,1,0,0:0:0:0:
64,192,43869,1,2,0:0:0:0:
192,192,43869,1,8,0:0:0:0:
192,192,44002,1,8,0:0:0:0:
320,192,44002,1,2,0:0:0:0:
64,192,44135,1,8,0:0:0:0:
448,192,44135,1,2,0:0:0:0:
320,192,44269,1,8,0:0:0:0:
448,192,44269,1,2,0:0:0:0:
192,192,44402,1,8,0:0:0:0:
64,192,44402,1,2,0:0:0:0:
320,192,44535,1,8,0:0:0:0:
64,192,44535,1,2,0:0:0:0:
320,192,44669,1,12,0:0:0:0:
448,192,44669,1,2,0:0:0:0:
192,192,44726,1,0,0:0:0:0:
64,192,44802,1,0,0:0:0:0:
320,192,44869,1,0,0:0:0:0:
192,192,44935,1,0,0:0:0:0:
64,192,44969,1,8,0:0:0:0:
448,192,44969,1,0,0:0:0:0:
320,192,45035,1,0,0:0:0:0:
64,192,45102,1,0,0:0:0:0:
448,192,45169,1,8,0:0:0:0:
320,192,45169,1,0,0:0:0:0:
64,192,45269,1,2,0:0:0:0:
192,192,45269,1,0,0:0:0:0:
320,192,45319,1,0,0:0:0:0:
448,192,45389,1,0,0:0:0:0:
64,192,45469,1,8,0:0:0:0:
192,192,45469,1,0,0:0:0:0:
320,192,45569,1,0,0:0:0:0:
64,192,45669,1,2,0:0:0:0:
448,192,45669,1,4,0:0:0:0:
320,192,45709,1,0,0:0:0:0:
192,192,45769,1,0,0:0:0:0:
448,192,45844,1,0,0:0:0:0:
320,192,45894,1,0,0:0:0:0:
64,192,45913,1,0,0:0:0:0:
192,192,45969,1,8,0:0:0:0:
448,192,45969,1,0,0:0:0:0:
320,192,46040,1,0,0:0:0:0:
64,192,46097,1,0,0:0:0:0:
192,192,46180,1,0,0:0:0:0:
448,192,46269,1,2,0:0:0:0:
320,192,46269,1,0,0:0:0:0:
64,192,46326,1,0,0:0:0:0:
192,192,46383,1,0,0:0:0:0:
64,192,46469,1,8,0:0:0:0:
320,192,46469,1,0,0:0:0:0:
448,192,46535,1,0,0:0:0:0:
192,192,46602,1,0,0:0:0:0:
64,192,46669,1,2,0:0:0:0:
448,192,46669,1,4,0:0:0:0:
320,192,46726,1,0,0:0:0:0:
192,192,46783,1,0,0:0:0:0:
448,192,46844,1,0,0:0:0:0:
64,192,46919,1,0,0:0:0:0:
192,192,46969,1,8,0:0:0:0:
320,192,46969,1,0,0:0:0:0:
448,192,47011,1,0,0:0:0:0:
64,192,47069,1,0,0:0:0:0:
320,192,47126,1,0,0:0:0:0:
192,192,47202,1,0,0:0:0:0:
64,192,47269,1,2,0:0:0:0:
448,192,47269,1,0,0:0:0:0:
192,192,47369,1,0,0:0:0:0:
448,192,47469,1,0,0:0:0:0:
320,192,47469,1,8,0:0:0:0:
192,192,47569,1,0,0:0:0:0:
448,192,47669,1,2,0:0:0:0:
64,192,47669,1,4,0:0:0:0:
320,192,47702,1,0,0:0:0:0:
192,192,47744,1,0,0:0:0:0:
448,192,47869,1,8,0:0:0:0:
64,192,47869,1,4,0:0:0:0:
192,192,47902,1,0,0:0:0:0:
320,192,47944,1,0,0:0:0:0:
64,192,48069,1,8,0:0:0:0:
448,192,48069,1,4,0:0:0:0:
320,192,48102,1,0,0:0:0:0:
192,192,48144,1,0,0:0:0:0:
448,192,48202,1,0,0:0:0:0:
64,192,48269,1,0,0:0:0:0:
192,192,48319,1,0,0:0:0:0:
320,192,48369,1,8,0:0:0:0:
448,192,48369,1,0,0:0:0:0:
64,192,48469,1,0,0:0:0:0:
320,192,48569,1,8,0:0:0:0:
448,192,48569,1,0,0:0:0:0:
192,192,48669,1,2,0:0:0:0:
64,192,48669,1,0,0:0:0:0:
192,192,48769,1,2,0:0:0:0:
64,192,48769,1,0,0:0:0:0:
320,192,48869,1,8,0:0:0:0:
448,192,48869,1,0,0:0:0:0:
320,192,48969,1,8,0:0:0:0:
448,192,48969,1,0,0:0:0:0:
64,192,49069,1,2,0:0:0:0:
192,192,49069,1,0,0:0:0:0:
320,192,49126,1,0,0:0:0:0:
448,192,49183,1,0,0:0:0:0:
192,192,49269,1,4,0:0:0:0:
64,192,49269,1,2,0:0:0:0:
448,192,49319,1,0,0:0:0:0:
320,192,49369,1,0,0:0:0:0:
192,192,49469,1,0,0:0:0:0:
64,192,49569,1,8,0:0:0:0:
448,192,49569,1,0,0:0:0:0:
320,192,49624,1,0,0:0:0:0:
192,192,49694,1,0,0:0:0:0:
320,192,49769,1,8,0:0:0:0:
64,192,49769,1,0,0:0:0:0:
192,192,49869,1,2,0:0:0:0:
448,192,49869,1,0,0:0:0:0:
320,192,49935,1,0,0:0:0:0:
64,192,50011,1,0,0:0:0:0:
320,192,50069,1,8,0:0:0:0:
448,192,50069,1,0,0:0:0:0:
192,192,50169,1,0,0:0:0:0:
64,192,50269,1,2,0:0:0:0:
448,192,50269,1,4,0:0:0:0:
320,192,50369,1,0,0:0:0:0:
448,192,50424,1,0,0:0:0:0:
192,192,50469,1,0,0:0:0:0:
64,192,50535,1,0,0:0:0:0:
448,192,50569,1,8,0:0:0:0:
320,192,50569,1,0,0:0:0:0:
192,192,50669,1,0,0:0:0:0:
320,192,50719,1,0,0:0:0:0:
64,192,50769,1,8,0:0:0:0:
448,192,50769,1,0,0:0:0:0:
192,192,50869,1,2,0:0:0:0:
320,192,50869,1,0,0:0:0:0:
64,192,50969,1,0,0:0:0:0:
448,192,51069,1,8,0:0:0:0:
320,192,51069,1,0,0:0:0:0:
192,192,51119,1,0,0:0:0:0:
64,192,51180,1,0,0:0:0:0:
320,192,51269,1,2,0:0:0:0:
192,192,51269,1,4,0:0:0:0:
448,192,51326,1,0,0:0:0:0:
64,192,51383,1,0,0:0:0:0:
192,192,51446,1,0,0:0:0:0:
320,192,51535,1,0,0:0:0:0:
64,192,51569,1,8,0:0:0:0:
448,192,51569,1,0,0:0:0:0:
320,192,51669,1,0,0:0:0:0:
192,192,51726,1,0,0:0:0:0:
448,192,51802,1,0,0:0:0:0:
64,192,51869,1,2,0:0:0:0:
192,192,51869,1,0,0:0:0:0:
320,192,51935,1,0,0:0:0:0:
64,192,52069,1,8,0:0:0:0:
448,192,52069,1,0,0:0:0:0:
192,192,52113,1,0,0:0:0:0:
320,192,52183,1,0,0:0:0:0:
448,192,52269,1,4,0:0:0:0:
64,192,52269,1,8,0:0:0:0:
192,192,52369,1,8,0:0:0:0:
320,192,52369,1,0,0:0:0:0:
64,192,52469,1,8,0:0:0:0:
448,192,52469,1,0,0:0:0:0:
192,192,52535,1,8,0:0:0:0:
320,192,52602,1,8,0:0:0:0:
64,192,52669,1,8,0:0:0:0:
448,192,52669,1,0,0:0:0:0:
192,192,52769,1,8,0:0:0:0:
320,192,52769,1,0,0:0:0:0:
64,192,52869,1,8,0:0:0:0:
448,192,52869,1,0,0:0:0:0:
192,192,52969,1,8,0:0:0:0:
320,192,52969,1,0,0:0:0:0:
64,192,53069,1,8,0:0:0:0:
448,192,53069,1,0,0:0:0:0:
192,192,53119,1,0,0:0:0:0:
320,192,53169,1,8,0:0:0:0:
448,192,53169,1,0,0:0:0:0:
64,192,53219,1,0,0:0:0:0:
320,192,53269,1,2,0:0:0:0:
192,192,53269,1,0,0:0:0:0:
448,192,53369,1,0,0:0:0:0:
320,192,53469,1,0,0:0:0:0:
192,192,53569,1,0,0:0:0:0:
64,192,53569,1,0,0:0:0:0:
448,192,53669,1,0,0:0:0:0:
64,192,53669,1,8,0:0:0:0:
320,192,53669,1,0,0:0:0:0:
320,192,53769,1,0,0:0:0:0:
64,192,53869,1,0,0:0:0:0:
192,192,53969,1,0,0:0:0:0:
448,192,53969,1,0,0:0:0:0:
320,192,54069,1,0,0:0:0:0:
64,192,54069,1,2,0:0:0:0:
448,192,54169,1,0,0:0:0:0:
192,192,54269,1,0,0:0:0:0:
320,192,54369,1,0,0:0:0:0:
64,192,54369,1,0,0:0:0:0:
192,192,54469,1,8,0:0:0:0:
448,192,54469,1,0,0:0:0:0:
320,192,54469,1,0,0:0:0:0:
448,192,54569,1,0,0:0:0:0:
64,192,54669,1,0,0:0:0:0:
320,192,54769,1,0,0:0:0:0:
448,192,54769,1,0,0:0:0:0:
192,192,54869,1,0,0:0:0:0:
64,192,54869,1,2,0:0:0:0:
320,192,54969,1,0,0:0:0:0:
64,192,55069,1,0,0:0:0:0:
320,192,55169,1,0,0:0:0:0:
448,192,55169,1,0,0:0:0:0:
64,192,55269,1,8,0:0:0:0:
192,192,55269,1,0,0:0:0:0:
448,192,55269,1,0,0:0:0:0:
192,192,55369,1,0,0:0:0:0:
320,192,55469,1,0,0:0:0:0:
448,192,55569,1,0,0:0:0:0:
64,192,55569,1,0,0:0:0:0:
320,192,55669,1,0,0:0:0:0:
192,192,55669,1,2,0:0:0:0:
448,192,55769,1,0,0:0:0:0:
64,192,55869,1,0,0:0:0:0:
192,192,55969,1,0,0:0:0:0:
320,192,55969,1,0,0:0:0:0:
448,192,56069,1,0,0:0:0:0:
64,192,56069,1,8,0:0:0:0:
320,192,56069,1,0,0:0:0:0:
448,192,56169,1,0,0:0:0:0:
192,192,56269,1,0,0:0:0:0:
320,192,56369,1,0,0:0:0:0:
448,192,56369,1,0,0:0:0:0:
192,192,56469,1,4,0:0:0:0:
64,192,56469,1,2,0:0:0:0:
448,192,56569,1,0,0:0:0:0:
320,192,56669,1,0,0:0:0:0:
192,192,56769,1,0,0:0:0:0:
64,192,56769,1,0,0:0:0:0:
448,192,56869,1,0,0:0:0:0:
320,192,56869,1,0,0:0:0:0:
64,192,56869,1,8,0:0:0:0:
320,192,56969,1,0,0:0:0:0:
64,192,57069,1,0,0:0:0:0:
320,192,57169,1,0,0:0:0:0:
192,192,57169,1,0,0:0:0:0:
448,192,57269,1,0,0:0:0:0:
64,192,57269,1,2,0:0:0:0:
192,192,57369,1,0,0:0:0:0:
320,192,57469,1,0,0:0:0:0:
448,192,57569,1,0,0:0:0:0:
64,192,57569,1,0,0:0:0:0:
448,192,57669,1,0,0:0:0:0:
64,192,57669,1,8,0:0:0:0:
192,192,57669,1,0,0:0:0:0:
192,192,57769,1,0,0:0:0:0:
64,192,57869,1,0,0:0:0:0:
320,192,57969,1,0,0:0:0:0:
448,192,57969,1,0,0:0:0:0:
192,192,58069,1,0,0:0:0:0:
64,192,58069,1,2,0:0:0:0:
320,192,58169,1,0,0:0:0:0:
64,192,58269,1,0,0:0:0:0:
448,192,58369,1,0,0:0:0:0:
192,192,58369,1,0,0:0:0:0:
320,192,58469,1,0,0:0:0:0:
448,192,58469,1,0,0:0:0:0:
64,192,58469,1,8,0:0:0:0:
320,192,58569,1,0,0:0:0:0:
64,192,58669,1,0,0:0:0:0:
192,192,58769,1,0,0:0:0:0:
448,192,58769,1,0,0:0:0:0:
320,192,58869,1,0,0:0:0:0:
64,192,58869,1,2,0:0:0:0:
448,192,58969,1,0,0:0:0:0:
192,192,59069,1,0,0:0:0:0:
64,192,59169,1,0,0:0:0:0:
448,192,59169,1,0,0:0:0:0:
192,192,59269,1,8,0:0:0:0:
320,192,59269,1,0,0:0:0:0:
448,192,59269,1,0,0:0:0:0:
320,192,59369,1,0,0:0:0:0:
64,192,59469,1,8,0:0:0:0:
192,192,59469,1,0,0:0:0:0:
448,192,59469,1,0,0:0:0:0:
192,192,59569,1,0,0:0:0:0:
448,192,59669,1,0,0:0:0:0:
64,192,59669,1,2,0:0:0:0:
320,192,59769,1,0,0:0:0:0:
64,192,59869,1,0,0:0:0:0:
192,192,59969,1,0,0:0:0:0:
448,192,59969,1,0,0:0:0:0:
64,192,60069,1,8,0:0:0:0:
320,192,60069,1,0,0:0:0:0:
448,192,60069,1,0,0:0:0:0:
192,192,60169,1,0,0:0:0:0:
448,192,60269,1,0,0:0:0:0:
192,192,60369,1,0,0:0:0:0:
320,192,60369,1,0,0:0:0:0:
448,192,60469,1,0,0:0:0:0:
64,192,60469,1,2,0:0:0:0:
192,192,60569,1,0,0:0:0:0:
320,192,60669,1,0,0:0:0:0:
192,192,60769,1,0,0:0:0:0:
64,192,60769,1,0,0:0:0:0:
320,192,60869,1,0,0:0:0:0:
448,192,60869,1,0,0:0:0:0:
64,192,60869,1,8,0:0:0:0:
192,192,60969,1,0,0:0:0:0:
448,192,61069,128,4,61169:0:0:0:0:
320,192,61069,128,0,61135:0:0:0:0:
64,192,61169,1,0,0:0:0:0:
192,192,61169,1,0,0:0:0:0:
320,192,61269,1,2,0:0:0:0:
448,192,61269,1,0,0:0:0:0:
320,192,61369,1,0,0:0:0:0:
64,192,61469,128,4,61569:0:0:0:0:
192,192,61469,128,0,61535:0:0:0:0:
448,192,61569,1,0,0:0:0:0:
64,192,61669,1,8,0:0:0:0:
192,192,61669,1,0,0:0:0:0:
320,192,61669,1,0,0:0:0:0:
448,192,61769,1,0,0:0:0:0:
192,192,61869,1,0,0:0:0:0:
448,192,61969,1,0,0:0:0:0:
320,192,61969,1,0,0:0:0:0:
192,192,62069,1,0,0:0:0:0:
64,192,62069,1,2,0:0:0:0:
448,192,62169,1,0,0:0:0:0:
320,192,62269,1,0,0:0:0:0:
192,192,62369,1,0,0:0:0:0:
64,192,62369,1,0,0:0:0:0:
448,192,62469,1,0,0:0:0:0:
192,192,62469,1,8,0:0:0:0:
320,192,62469,1,0,0:0:0:0:
448,192,62569,1,0,0:0:0:0:
64,192,62669,1,0,0:0:0:0:
320,192,62769,1,0,0:0:0:0:
448,192,62769,1,0,0:0:0:0:
192,192,62869,1,4,0:0:0:0:
64,192,62869,1,2,0:0:0:0:
192,192,62969,1,0,0:0:0:0:
448,192,63069,1,0,0:0:0:0:
320,192,63169,1,0,0:0:0:0:
64,192,63169,1,0,0:0:0:0:
448,192,63269,1,0,0:0:0:0:
192,192,63269,1,0,0:0:0:0:
64,192,63269,1,8,0:0:0:0:
192,192,63369,1,0,0:0:0:0:
320,192,63469,1,0,0:0:0:0:
64,192,63569,1,0,0:0:0:0:
192,192,63569,1,0,0:0:0:0:
320,192,63669,1,0,0:0:0:0:
448,192,63669,1,2,0:0:0:0:
64,192,63769,1,0,0:0:0:0:
192,192,63869,1,0,0:0:0:0:
448,192,63969,1,0,0:0:0:0:
320,192,63969,1,0,0:0:0:0:
448,192,64069,1,0,0:0:0:0:
192,192,64069,1,0,0:0:0:0:
64,192,64069,1,8,0:0:0:0:
192,192,64169,1,0,0:0:0:0:
448,192,64269,1,0,0:0:0:0:
320,192,64369,1,0,0:0:0:0:
64,192,64369,1,0,0:0:0:0:
192,192,64469,1,2,0:0:0:0:
448,192,64469,1,0,0:0:0:0:
320,192,64569,1,0,0:0:0:0:
64,192,64669,1,0,0:0:0:0:
320,192,64735,1,0,0:0:0:0:
448,192,64769,1,8,0:0:0:0:
192,192,64819,1,0,0:0:0:0:
320,192,64869,1,0,0:0:0:0:
64,192,64869,1,2,0:0:0:0:
448,192,64969,1,0,0:0:0:0:
192,192,65002,1,0,0:0:0:0:
320,192,65035,1,0,0:0:0:0:
64,192,65069,1,8,0:0:0:0:
192,192,65169,1,0,0:0:0:0:
320,192,65269,1,2,0:0:0:0:
448,192,65269,1,0,0:0:0:0:
64,192,65369,1,8,0:0:0:0:
320,192,65402,1,0,0:0:0:0:
192,192,65435,1,0,0:0:0:0:
448,192,65469,1,0,0:0:0:0:
320,192,65569,1,0,0:0:0:0:
448,192,65619,1,0,0:0:0:0:
192,192,65669,1,0,0:0:0:0:
64,192,65669,1,8,0:0:0:0:
64,192,65769,1,8,0:0:0:0:
192,192,65869,1,8,0:0:0:0:
320,192,65869,1,0,0:0:0:0:
64,192,66069,1,2,0:0:0:0:
320,192,66069,128,0,66269:0:0:0:0:
448,192,66169,128,0,66269:0:0:0:0:
192,192,66269,128,0,66469:0:0:0:0:
320,192,66369,128,0,66469:0:0:0:0:
64,192,66469,128,0,66669:0:0:0:0:
192,192,66669,128,0,66869:0:0:0:0:
320,192,66769,128,0,66869:0:0:0:0:
64,192,66869,128,0,67069:0:0:0:0:
192,192,67069,128,0,67169:0:0:0:0:
320,192,67169,128,0,67269:0:0:0:0:
64,192,67269,128,0,67369:0:0:0:0:
320,192,67369,1,0,0:0:0:0:
192,192,67469,1,0,0:0:0:0:
192,192,67569,1,0,0:0:0:0:
320,192,67669,128,0,67869:0:0:0:0:
64,192,67669,1,0,0:0:0:0:
448,192,67769,128,0,67869:0:0:0:0:
192,192,67869,128,0,68069:0:0:0:0:
64,192,68069,128,0,68369:0:0:0:0:
192,192,68169,128,0,68369:0:0:0:0:
320,192,68269,128,0,68369:0:0:0:0:
448,192,68369,128,0,68469:0:0:0:0:
192,192,68469,1,0,0:0:0:0:
64,192,68569,128,0,68769:0:0:0:0:
192,192,68669,128,0,68769:0:0:0:0:
320,192,68769,1,0,0:0:0:0:
64,192,68869,128,0,68969:0:0:0:0:
192,192,68902,128,0,69069:0:0:0:0:
320,192,69069,1,0,0:0:0:0:
448,192,69069,128,0,69269:0:0:0:0:
64,192,69269,128,0,69369:0:0:0:0:
192,192,69269,1,0,0:0:0:0:
320,192,69469,128,0,69569:0:0:0:0:
64,192,69469,1,2,0:1:0:0:
192,192,69569,128,0,69769:0:0:0:0:
320,192,69669,128,0,69769:0:0:0:0:
64,192,69669,1,4,0:1:0:0:
448,192,69769,128,0,69869:0:0:0:0:
192,192,69869,128,0,70069:0:0:0:0:
320,192,69869,1,2,0:1:0:0:
64,192,69969,128,0,70269:0:0:0:0:
448,192,70069,1,8,0:1:0:0:
320,192,70269,128,0,70469:0:0:0:0:
448,192,70269,1,2,0:1:0:0:
192,192,70369,128,0,70469:0:0:0:0:
64,192,70469,128,0,70669:0:0:0:0:
448,192,70469,1,4,0:1:0:0:
192,192,70569,128,0,70669:0:0:0:0:
320,192,70669,128,0,70869:0:0:0:0:
448,192,70669,1,2,0:1:0:0:
192,192,70769,128,0,70869:0:0:0:0:
64,192,70869,1,2,0:1:0:0:
448,192,70869,128,0,71069:0:0:0:0:
320,192,70969,128,0,71069:0:0:0:0:
64,192,71069,1,8,0:1:0:0:
192,192,71069,128,0,71269:0:0:0:0:
448,192,71169,128,0,71469:0:0:0:0:
320,192,71269,128,0,71469:0:0:0:0:
64,192,71269,1,4,0:1:0:0:
192,192,71469,128,0,71669:0:0:0:0:
64,192,71469,1,2,0:1:0:0:
320,192,71569,128,0,71769:0:0:0:0:
448,192,71669,128,0,71769:0:0:0:0:
64,192,71669,1,8,0:1:0:0:
64,192,71769,128,0,71869:0:0:0:0:
192,192,71769,128,0,71869:0:0:0:0:
448,192,71869,128,0,71969:0:0:0:0:
320,192,71869,128,2,72069:0:1:0:0:
192,192,71969,128,0,72069:0:0:0:0:
64,192,72069,128,0,72269:0:0:0:0:
448,192,72069,1,4,0:1:0:0:
192,192,72169,128,0,72269:0:0:0:0:
448,192,72269,1,2,0:1:0:0:
320,192,72269,128,0,72369:0:0:0:0:
192,192,72369,128,0,72669:0:0:0:0:
320,192,72469,128,0,72569:0:0:0:0:
448,192,72469,1,4,0:1:0:0:
64,192,72569,128,0,72669:0:0:0:0:
320,192,72669,128,2,72769:0:0:0:0:
448,192,72669,128,0,72735:0:0:0:0:
64,192,72769,128,2,72869:0:0:0:0:
192,192,72769,128,0,72835:0:0:0:0:
448,192,72869,128,2,72969:0:0:0:0:
320,192,72869,128,0,72935:0:0:0:0:
192,192,72969,128,2,73069:0:0:0:0:
64,192,72969,128,0,73035:0:0:0:0:
320,192,73069,128,2,74669:0:0:0:0:
448,192,73069,128,2,73135:0:1:0:0:
64,192,73291,1,8,0:1:0:0:
192,192,73380,1,8,0:1:0:0:
64,192,73469,1,2,0:0:0:0:
448,192,73469,1,2,0:1:0:0:
192,192,73669,1,4,0:1:0:0:
64,192,73869,1,2,0:0:0:0:
448,192,73869,1,2,0:1:0:0:
64,192,73969,1,0,0:0:0:0:
448,192,74069,1,8,0:1:0:0:
448,192,74169,1,0,0:0:0:0:
192,192,74269,128,2,74369:0:1:0:0:
64,192,74269,1,2,0:0:0:0:
448,192,74369,128,0,74469:0:0:0:0:
192,192,74469,128,4,74569:0:1:0:0:
64,192,74469,1,0,0:0:0:0:
448,192,74569,128,0,74769:0:0:0:0:
192,192,74669,128,2,74869:0:0:0:0:
64,192,74669,1,0,0:0:0:0:
320,192,74769,128,0,75069:0:0:0:0:
448,192,74869,1,0,0:0:0:0:
64,192,74869,128,8,74969:0:1:0:0:
192,192,74969,128,0,75069:0:0:0:0:
64,192,75069,128,2,75269:0:1:0:0:
448,192,75069,1,2,0:0:0:0:
192,192,75169,128,0,75269:0:0:0:0:
448,192,75269,1,4,0:1:0:0:
320,192,75269,128,0,75469:0:0:0:0:
192,192,75369,128,0,75469:0:0:0:0:
448,192,75469,128,2,75669:0:1:0:0:
64,192,75469,1,2,0:0:0:0:
64,192,75669,128,0,75869:0:0:0:0:
320,192,75669,1,4,0:1:0:0:
448,192,75869,128,2,76069:0:1:0:0:
192,192,75869,1,2,0:0:0:0:
64,192,75969,128,0,76169:0:0:0:0:
192,192,76069,128,0,76269:0:0:0:0:
320,192,76069,1,8,0:1:0:0:
448,192,76169,128,0,76369:0:0:0:0:
320,192,76269,128,2,76369:0:1:0:0:
64,192,76269,1,2,0:0:0:0:
192,192,76369,128,0,76569:0:0:0:0:
320,192,76469,128,0,76569:0:0:0:0:
448,192,76469,1,8,0:1:0:0:
64,192,76569,1,8,0:1:0:0:
320,192,76669,128,8,76769:0:1:0:0:
448,192,76669,1,2,0:0:0:0:
192,192,76769,128,0,76869:0:0:0:0:
448,192,76869,1,0,0:0:0:0:
320,192,76869,128,0,77069:0:0:0:0:
64,192,76869,128,2,76969:0:1:0:0:
192,192,76969,128,0,77169:0:0:0:0:
64,192,77069,128,2,77269:0:0:0:0:
448,192,77069,128,8,77169:0:1:0:0:
320,192,77269,128,0,77469:0:0:0:0:
192,192,77269,128,4,77369:0:1:0:0:
64,192,77469,128,2,77669:0:0:0:0:
448,192,77469,128,2,77569:0:1:0:0:
192,192,77569,128,0,77669:0:0:0:0:
320,192,77669,128,4,77869:0:1:0:0:
448,192,77769,128,0,77869:0:0:0:0:
192,192,77769,128,0,77969:0:0:0:0:
64,192,77869,128,2,78069:0:0:0:0:
320,192,77969,128,0,78169:0:0:0:0:
448,192,78069,128,4,78169:0:1:0:0:
64,192,78169,128,0,78369:0:0:0:0:
192,192,78169,128,0,78269:0:0:0:0:
320,192,78269,128,0,78369:0:0:0:0:
448,192,78269,128,2,78469:0:0:0:0:
192,192,78369,128,0,78569:0:0:0:0:
64,192,78469,128,0,78669:0:0:0:0:
320,192,78469,128,0,78569:0:0:0:0:
448,192,78569,128,0,78769:0:0:0:0:
192,192,78669,128,2,78769:0:0:0:0:
320,192,78669,128,0,78769:0:0:0:0:
64,192,78769,128,0,78869:0:0:0:0:
320,192,78869,128,0,78969:0:0:0:0:
448,192,78869,128,0,78969:0:0:0:0:
192,192,78869,128,0,78969:0:0:0:0:
64,192,78969,128,0,79069:0:0:0:0:
192,192,79069,1,2,0:0:0:0:
320,192,79069,1,0,0:0:0:0:
448,192,79069,1,0,0:0:0:0:
64,192,79135,1,0,0:0:0:0:
448,192,79202,1,0,0:0:0:0:
192,192,79269,1,0,0:0:0:0:
64,192,79335,1,0,0:0:0:0:
448,192,79402,1,0,0:0:0:0:
320,192,79469,1,0,0:0:0:0:
64,192,79519,1,0,0:0:0:0:
192,192,79569,1,0,0:0:0:0:
448,192,79619,1,0,0:0:0:0:
320,192,79669,1,0,0:0:0:0:
192,192,79719,1,0,0:0:0:0:
448,192,79769,1,0,0:0:0:0:
64,192,79802,1,0,0:0:0:0:
192,192,79835,1,0,0:0:0:0:
448,192,79869,1,0,0:0:0:0:
320,192,79869,1,8,0:0:0:0:
64,192,79969,1,8,0:0:0:0:
320,192,80069,1,2,0:0:0:0:
448,192,80069,1,0,0:0:0:0:
192,192,80169,1,0,0:0:0:0:
320,192,80269,1,0,0:0:0:0:
64,192,80269,1,8,0:0:0:0:
448,192,80269,128,0,80369:0:0:0:0:
192,192,80369,1,0,0:0:0:0:
320,192,80469,128,0,80569:0:0:0:0:
64,192,80569,1,0,0:0:0:0:
448,192,80669,1,0,0:0:0:0:
192,192,80669,1,2,0:0:0:0:
320,192,80869,1,0,0:0:0:0:
448,192,80969,1,0,0:0:0:0:
320,192,81069,1,0,0:0:0:0:
192,192,81069,1,0,0:0:0:0:
64,192,81069,1,8,0:0:0:0:
192,192,81269,128,0,81469:0:0:0:0:
320,192,81369,128,0,81569:0:0:0:0:
448,192,81469,128,0,81569:0:0:0:0:
192,192,81569,128,0,81769:0:0:0:0:
64,192,81669,128,0,81769:0:0:0:0:
448,192,81669,1,2,0:0:0:0:
320,192,81769,1,0,0:0:0:0:
448,192,81869,1,0,0:0:0:0:
192,192,81869,1,0,0:0:0:0:
64,192,81869,1,8,0:0:0:0:
320,192,81969,128,0,82169:0:0:0:0:
192,192,82069,128,0,82269:0:0:0:0:
64,192,82169,128,0,82269:0:0:0:0:
320,192,82269,1,2,0:0:0:0:
448,192,82269,1,0,0:0:0:0:
64,192,82369,1,0,0:0:0:0:
192,192,82469,1,2,0:0:0:0:
448,192,82469,1,0,0:0:0:0:
320,192,82569,1,0,0:0:0:0:
448,192,82669,1,0,0:0:0:0:
64,192,82669,1,8,0:0:0:0:
192,192,82669,1,0,0:0:0:0:
320,192,82869,128,0,83069:0:0:0:0:
448,192,82969,128,0,83069:0:0:0:0:
64,192,83069,1,0,0:0:0:0:
320,192,83169,1,0,0:0:0:0:
192,192,83269,1,0,0:0:0:0:
64,192,83269,1,2,0:0:0:0:
320,192,83369,1,0,0:0:0:0:
448,192,83469,1,0,0:0:0:0:
64,192,83469,1,8,0:0:0:0:
192,192,83469,128,0,83569:0:0:0:0:
320,192,83569,1,0,0:0:0:0:
448,192,83669,128,0,83769:0:0:0:0:
64,192,83769,1,0,0:0:0:0:
192,192,83869,1,2,0:0:0:0:
448,192,83869,1,0,0:0:0:0:
64,192,84069,1,0,0:0:0:0:
320,192,84169,1,0,0:0:0:0:
192,192,84269,1,0,0:0:0:0:
64,192,84269,1,8,0:0:0:0:
448,192,84269,1,0,0:0:0:0:
320,192,84369,1,0,0:0:0:0:
192,192,84469,128,0,84669:0:0:0:0:
320,192,84569,128,0,84669:0:0:0:0:
64,192,84669,1,0,0:0:0:0:
448,192,84669,1,0,0:0:0:0:
64,192,84769,1,0,0:0:0:0:
320,192,84869,1,0,0:0:0:0:
192,192,84869,1,2,0:0:0:0:
320,192,84969,1,0,0:0:0:0:
192,192,85069,1,0,0:0:0:0:
64,192,85069,1,8,0:0:0:0:
448,192,85069,1,0,0:0:0:0:
320,192,85169,1,0,0:0:0:0:
192,192,85269,1,0,0:0:0:0:
192,192,85369,1,0,0:0:0:0:
64,192,85469,128,0,85569:0:0:0:0:
320,192,85469,1,2,0:0:0:0:
448,192,85569,1,0,0:0:0:0:
64,192,85669,1,0,0:0:0:0:
192,192,85669,1,2,0:0:0:0:
320,192,85769,1,0,0:0:0:0:
64,192,85869,1,8,0:0:0:0:
192,192,85869,1,0,0:0:0:0:
320,192,85869,128,0,86069:0:0:0:0:
64,192,86069,128,0,86269:0:0:0:0:
448,192,86069,1,0,0:0:0:0:
192,192,86169,1,0,0:0:0:0:
448,192,86269,1,0,0:0:0:0:
320,192,86269,1,0,0:0:0:0:
192,192,86369,1,0,0:0:0:0:
448,192,86469,1,2,0:0:0:0:
64,192,86469,128,0,86569:0:0:0:0:
192,192,86569,1,0,0:0:0:0:
64,192,86669,1,8,0:0:0:0:
448,192,86669,1,0,0:0:0:0:
320,192,86669,128,0,86769:0:0:0:0:
192,192,86769,1,0,0:0:0:0:
320,192,86869,1,0,0:0:0:0:
448,192,86869,1,0,0:0:0:0:
192,192,86969,1,0,0:0:0:0:
320,192,87069,1,0,0:0:0:0:
64,192,87069,1,2,0:0:0:0:
448,192,87169,1,0,0:0:0:0:
192,192,87269,1,0,0:0:0:0:
64,192,87369,1,0,0:0:0:0:
448,192,87469,1,0,0:0:0:0:
192,192,87469,1,8,0:0:0:0:
320,192,87469,1,0,0:0:0:0:
64,192,87569,1,0,0:0:0:0:
320,192,87669,128,0,87869:0:0:0:0:
448,192,87769,128,0,87869:0:0:0:0:
192,192,87869,128,0,87969:0:0:0:0:
448,192,87969,128,0,88169:0:0:0:0:
64,192,88069,1,2,0:0:0:0:
192,192,88069,128,0,88169:0:0:0:0:
320,192,88169,128,0,88269:0:0:0:0:
448,192,88269,1,0,0:0:0:0:
192,192,88269,1,0,0:0:0:0:
64,192,88269,1,8,0:0:0:0:
320,192,88369,1,0,0:0:0:0:
64,192,88469,1,0,0:0:0:0:
192,192,88569,1,0,0:0:0:0:
64,192,88669,1,2,0:0:0:0:
320,192,88669,1,0,0:0:0:0:
448,192,88869,1,2,0:0:0:0:
320,192,88869,1,0,0:0:0:0:
192,192,88969,1,0,0:0:0:0:
320,192,89069,1,0,0:0:0:0:
64,192,89069,1,8,0:0:0:0:
448,192,89069,1,0,0:0:0:0:
320,192,89269,1,0,0:0:0:0:
192,192,89369,1,0,0:0:0:0:
448,192,89469,1,0,0:0:0:0:
192,192,89569,1,0,0:0:0:0:
320,192,89669,1,2,0:0:0:0:
448,192,89669,1,0,0:0:0:0:
64,192,89769,1,0,0:0:0:0:
448,192,89869,1,0,0:0:0:0:
320,192,89869,1,8,0:0:0:0:
192,192,89869,128,0,89969:0:0:0:0:
64,192,89969,1,0,0:0:0:0:
320,192,90069,128,0,90169:0:0:0:0:
448,192,90169,1,0,0:0:0:0:
192,192,90269,1,0,0:0:0:0:
64,192,90269,1,2,0:0:0:0:
448,192,90469,1,0,0:0:0:0:
320,192,90569,1,0,0:0:0:0:
448,192,90669,1,0,0:0:0:0:
64,192,90669,1,8,0:0:0:0:
192,192,90669,1,0,0:0:0:0:
320,192,90769,1,0,0:0:0:0:
192,192,90869,128,0,91069:0:0:0:0:
320,192,90969,128,0,91169:0:0:0:0:
448,192,91069,128,0,91369:0:0:0:0:
192,192,91169,1,0,0:0:0:0:
320,192,91269,128,0,91369:0:0:0:0:
64,192,91269,1,2,0:0:0:0:
192,192,91369,1,0,0:0:0:0:
320,192,91469,1,0,0:0:0:0:
64,192,91469,1,8,0:0:0:0:
448,192,91469,1,0,0:0:0:0:
192,192,91569,1,0,0:0:0:0:
448,192,91669,1,0,0:0:0:0:
448,192,93584,128,0,94441:0:0:0:0:
64,192,94441,128,0,94870:0:0:0:0:
64,192,96155,128,0,97012:0:0:0:0:
448,192,97012,128,0,97298:0:0:0:0:
64,192,98298,128,0,98727:0:0:0:0:
448,192,98727,128,0,98834:0:0:0:0:
320,192,98834,128,0,98941:0:0:0:0:
192,192,98941,128,0,99021:0:0:0:0:
320,192,99021,128,0,99075:0:0:0:0:
448,192,99155,128,0,99209:0:0:0:0:
320,192,99209,128,0,99316:0:0:0:0:
320,192,99512,128,0,99584:0:0:0:0:
64,192,99584,128,0,99870:0:0:0:0:
320,192,100441,128,0,100512:0:0:0:0:
448,192,100512,128,0,100584:0:0:0:0:
320,192,100584,128,0,100655:0:0:0:0:
448,192,100655,128,0,100727:0:0:0:0:
192,192,100727,128,0,100798:0:0:0:0:
64,192,100798,128,0,100870:0:0:0:0:
192,192,100870,128,0,100941:0:0:0:0:
64,192,100941,128,0,101012:0:0:0:0:
320,192,101012,128,0,101084:0:0:0:0:
448,192,101084,128,0,101155:0:0:0:0:
320,192,101155,128,0,101227:0:0:0:0:
448,192,101227,128,0,101298:0:0:0:0:
64,192,101727,128,0,102155:0:0:0:0:
448,192,102155,128,0,102441:0:0:0:0:
192,192,102441,128,0,102655:0:0:0:0:
448,192,102655,128,0,103084:0:0:0:0:
64,192,103084,128,0,103155:0:0:0:0:
192,192,103584,128,0,103655:0:0:0:0:
64,192,103655,128,0,104727:0:0:0:0:
192,192,104227,128,0,105477:0:0:0:0:
320,192,104441,128,0,105155:0:0:0:0:
448,192,104727,128,0,105155:0:0:0:0:
320,192,105262,128,0,105477:0:0:0:0:
448,192,105262,128,0,105477:0:0:0:0:
64,192,105584,128,2,105869:0:0:0:0:
192,192,105584,1,4,0:0:0:0:
320,192,105584,1,0,0:0:0:0:
448,192,105584,1,0,0:0:0:0:
192,192,105726,128,0,105869:0:0:0:0:
448,192,105726,128,0,106012:0:0:0:0:
320,192,106012,1,0,0:0:0:0:
192,192,106012,1,0,0:0:0:0:
64,192,106012,1,8,0:0:0:0:
192,192,106155,1,0,0:0:0:0:
320,192,106298,1,0,0:0:0:0:
448,192,106298,1,0,0:0:0:0:
64,192,106298,1,8,0:0:0:0:
320,192,106441,1,0,0:0:0:0:
448,192,106584,1,0,0:0:0:0:
64,192,106584,1,8,0:0:0:0:
192,192,106584,1,0,0:0:0:0:
64,192,106726,1,2,0:0:0:0:
320,192,106726,1,0,0:0:0:0:
448,192,106726,1,0,0:0:0:0:
192,192,106726,1,4,0:0:0:0:
320,192,107011,1,0,0:0:0:0:
192,192,107154,1,0,0:0:0:0:
64,192,107154,1,8,0:0:0:0:
448,192,107154,1,0,0:0:0:0:
64,192,107297,1,0,0:0:0:0:
192,192,107440,1,8,0:0:0:0:
320,192,107440,1,0,0:0:0:0:
448,192,107440,1,0,0:0:0:0:
448,192,107583,1,0,0:0:0:0:
320,192,107726,1,0,0:0:0:0:
192,192,107726,1,0,0:0:0:0:
64,192,107726,1,8,0:0:0:0:
448,192,107868,1,0,0:0:0:0:
192,192,107868,1,4,0:0:0:0:
320,192,107868,1,0,0:0:0:0:
64,192,107868,1,2,0:0:0:0:
192,192,108153,1,0,0:0:0:0:
320,192,108296,1,0,0:0:0:0:
448,192,108296,1,0,0:0:0:0:
64,192,108296,1,8,0:0:0:0:
448,192,108439,1,0,0:0:0:0:
320,192,108582,1,0,0:0:0:0:
192,192,108582,1,0,0:0:0:0:
64,192,108582,1,8,0:0:0:0:
320,192,108725,1,0,0:0:0:0:
448,192,108868,1,0,0:0:0:0:
64,192,108868,1,8,0:0:0:0:
192,192,108868,1,0,0:0:0:0:
64,192,109010,1,2,0:0:0:0:
192,192,109010,1,4,0:0:0:0:
320,192,109010,1,0,0:0:0:0:
448,192,109010,1,0,0:0:0:0:
64,192,109295,1,0,0:0:0:0:
192,192,109438,1,8,0:0:0:0:
320,192,109438,1,0,0:0:0:0:
448,192,109438,1,0,0:0:0:0:
320,192,109581,1,0,0:0:0:0:
448,192,109724,1,0,0:0:0:0:
192,192,109724,1,8,0:0:0:0:
64,192,109724,1,0,0:0:0:0:
64,192,109867,1,2,0:0:0:0:
320,192,109867,1,0,0:0:0:0:
192,192,110010,1,8,0:0:0:0:
320,192,110010,1,0,0:0:0:0:
448,192,110010,1,0,0:0:0:0:
448,192,110152,1,0,0:0:0:0:
64,192,110152,1,2,0:0:0:0:
192,192,110152,1,4,0:0:0:0:
320,192,110152,1,0,0:0:0:0:
320,192,110437,1,0,0:0:0:0:
192,192,110580,1,8,0:0:0:0:
64,192,110580,1,0,0:0:0:0:
448,192,110580,1,0,0:0:0:0:
64,192,110723,1,2,0:0:0:0:
320,192,110723,1,0,0:0:0:0:
192,192,110866,1,8,0:0:0:0:
320,192,110866,1,0,0:0:0:0:
448,192,110866,1,0,0:0:0:0:
192,192,111009,1,0,0:0:0:0:
320,192,111152,1,0,0:0:0:0:
448,192,111152,1,0,0:0:0:0:
64,192,111152,1,8,0:0:0:0:
192,192,111294,1,4,0:0:0:0:
64,192,111294,1,2,0:0:0:0:
320,192,111294,1,0,0:0:0:0:
448,192,111294,1,0,0:0:0:0:
320,192,111579,1,2,0:0:0:0:
448,192,111579,1,0,0:0:0:0:
320,192,111722,1,0,0:0:0:0:
192,192,111722,1,0,0:0:0:0:
64,192,111722,1,8,0:0:0:0:
192,192,111865,1,0,0:0:0:0:
320,192,112008,1,0,0:0:0:0:
448,192,112008,1,0,0:0:0:0:
64,192,112008,1,8,0:0:0:0:
320,192,112151,1,0,0:0:0:0:
192,192,112294,1,0,0:0:0:0:
64,192,112294,1,8,0:0:0:0:
448,192,112294,1,0,0:0:0:0:
448,192,112436,1,0,0:0:0:0:
320,192,112436,1,0,0:0:0:0:
192,192,112436,1,4,0:0:0:0:
64,192,112436,1,2,0:0:0:0:
448,192,112721,1,0,0:0:0:0:
320,192,112864,1,0,0:0:0:0:
192,192,112864,1,0,0:0:0:0:
64,192,112864,1,8,0:0:0:0:
192,192,113007,1,0,0:0:0:0:
320,192,113150,1,0,0:0:0:0:
448,192,113150,1,0,0:0:0:0:
64,192,113150,1,8,0:0:0:0:
320,192,113293,1,0,0:0:0:0:
192,192,113293,1,2,0:0:0:0:
192,192,113436,1,0,0:0:0:0:
320,192,113578,1,0,0:0:0:0:
64,192,113578,1,8,0:0:0:0:
448,192,113578,1,0,0:0:0:0:
320,192,113721,1,0,0:0:0:0:
192,192,113864,1,0,0:0:0:0:
64,192,113864,1,8,0:0:0:0:
448,192,113864,1,0,0:0:0:0:
64,192,114007,1,0,0:0:0:0:
192,192,114150,1,2,0:0:0:0:
320,192,114150,1,4,0:0:0:0:
448,192,114150,1,0,0:0:0:0:
320,192,114293,1,8,0:0:0:0:
448,192,114293,1,0,0:0:0:0:
192,192,114436,1,0,0:0:0:0:
64,192,114436,1,0,0:0:0:0:
192,192,114578,1,0,0:0:0:0:
320,192,114578,1,8,0:0:0:0:
320,192,114721,1,0,0:0:0:0:
448,192,114721,1,0,0:0:0:0:
192,192,114864,1,8,0:0:0:0:
448,192,115007,1,0,0:0:0:0:
320,192,115007,128,0,115150:0:0:0:0:
64,192,115007,1,2,0:0:0:0:
192,192,115150,128,8,115293:0:0:0:0:
448,192,115293,128,0,115436:0:0:0:0:
320,192,115293,1,0,0:0:0:0:
64,192,115293,1,2,0:0:0:0:
64,192,115436,128,8,115578:0:0:0:0:
320,192,115578,128,0,115721:0:0:0:0:
192,192,115578,1,2,0:0:0:0:
448,192,115578,1,0,0:0:0:0:
64,192,115721,128,8,115864:0:0:0:0:
320,192,115864,1,4,0:0:0:0:
448,192,115864,1,0,0:0:0:0:
192,192,115864,1,2,0:0:0:0:
64,192,116078,1,8,0:0:0:0:
192,192,116150,1,8,0:0:0:0:
448,192,116293,1,0,0:0:0:0:
320,192,116293,1,4,0:0:0:0:
64,192,116293,1,2,0:0:0:0:
320,192,116436,1,0,0:0:0:0:
448,192,116507,1,0,0:0:0:0:
320,192,116721,1,0,0:0:0:0:
192,192,116721,1,4,0:0:0:0:
64,192,116721,1,2,0:0:0:0:
64,192,116864,1,8,0:0:0:0:
192,192,117007,1,8,0:0:0:0:
448,192,117102,1,8,0:0:0:0:
320,192,117197,1,8,0:0:0:0:
64,192,117293,1,0,0:0:0:0:
192,192,117293,1,8,0:0:0:0:
448,192,117388,1,0,0:0:0:0:
320,192,117388,1,8,0:0:0:0:
64,192,117483,1,0,0:0:0:0:
192,192,117483,1,8,0:0:0:0:
448,192,117578,1,0,0:0:0:0:
320,192,117578,1,4,0:0:0:0:
64,192,117578,1,2,0:0:0:0:
192,192,117864,1,8,0:0:0:0:
320,192,117864,1,0,0:0:0:0:
448,192,117864,1,0,0:0:0:0:
192,192,118007,1,2,0:0:0:0:
64,192,118007,1,0,0:0:0:0:
64,192,118150,1,8,0:0:0:0:
320,192,118150,1,0,0:0:0:0:
448,192,118150,1,0,0:0:0:0:
320,192,118293,1,2,0:0:0:0:
448,192,118293,1,0,0:0:0:0:
64,192,118436,1,2,0:0:0:0:
192,192,118436,1,8,0:0:0:0:
64,192,118578,1,0,0:0:0:0:
320,192,118578,1,8,0:0:0:0:
320,192,118721,1,2,0:0:0:0:
448,192,118721,1,8,0:0:0:0:
192,192,118864,1,8,0:0:0:0:
448,192,118864,1,0,0:0:0:0:
64,192,119007,1,2,0:0:0:0:
192,192,119007,1,8,0:0:0:0:
64,192,119150,1,0,0:0:0:0:
320,192,119150,1,8,0:0:0:0:
320,192,119299,128,8,119499:0:0:0:0:
448,192,119299,128,0,119499:0:0:0:0:
192,192,119299,128,2,119399:0:0:0:0:
64,192,119499,128,0,119599:0:0:0:0:
320,192,119599,128,8,119799:0:0:0:0:
448,192,119599,128,0,119799:0:0:0:0:
192,192,119599,128,2,119699:0:0:0:0:
64,192,119799,128,0,119899:0:0:0:0:
320,192,119899,128,8,120099:0:0:0:0:
448,192,119899,128,0,120099:0:0:0:0:
192,192,119899,128,2,119999:0:0:0:0:
192,192,120099,128,0,120299:0:0:0:0:
64,192,120099,1,8,0:1:0:0:
320,192,120299,128,0,120499:0:0:0:0:
64,192,120299,1,8,0:1:0:0:
192,192,120399,128,0,120499:0:0:0:0:
448,192,120499,128,0,120699:0:0:0:0:
64,192,120499,1,8,0:1:0:0:
320,192,120599,128,0,120899:0:0:0:0:
64,192,120699,1,8,0:1:0:0:
64,192,120899,128,0,121099:0:0:0:0:
192,192,120899,128,8,121099:0:0:0:0:
448,192,120899,128,2,120999:0:0:0:0:
320,192,121099,128,0,121199:0:0:0:0:
192,192,121199,128,8,121399:0:0:0:0:
64,192,121199,128,0,121399:0:0:0:0:
448,192,121199,128,2,121299:0:0:0:0:
320,192,121399,128,0,121499:0:0:0:0:
192,192,121499,128,8,121699:0:0:0:0:
64,192,121499,128,0,121699:0:0:0:0:
448,192,121499,128,2,121599:0:0:0:0:
320,192,121699,128,0,121799:0:0:0:0:
448,192,121699,1,8,0:1:0:0:
192,192,121799,128,0,121899:0:0:0:0:
64,192,121799,1,8,0:1:0:0:
448,192,121899,128,0,121999:0:0:0:0:
192,192,121999,128,0,122099:0:0:0:0:
64,192,121999,1,8,0:1:0:0:
320,192,122099,128,0,122299:0:0:0:0:
448,192,122099,1,8,0:1:0:0:
192,192,122199,128,0,122399:0:0:0:0:
64,192,122299,128,0,122399:0:0:0:0:
448,192,122299,1,8,0:1:0:0:
320,192,122399,128,0,122499:0:0:0:0:
192,192,122499,128,8,122699:0:0:0:0:
448,192,122499,128,0,122699:0:0:0:0:
64,192,122499,128,2,122599:0:0:0:0:
320,192,122699,128,0,122799:0:0:0:0:
448,192,122799,128,0,122999:0:0:0:0:
192,192,122799,128,8,122999:0:0:0:0:
64,192,122799,128,2,122899:0:0:0:0:
320,192,122999,128,0,123099:0:0:0:0:
448,192,123099,128,0,123199:0:0:0:0:
192,192,123099,128,8,123299:0:0:0:0:
64,192,123099,128,2,123199:0:0:0:0:
320,192,123299,128,2,123399:0:0:0:0:
448,192,123299,128,0,123399:0:0:0:0:
192,192,123399,128,0,123499:0:0:0:0:
320,192,123499,128,2,123599:0:0:0:0:
448,192,123499,128,0,123599:0:0:0:0:
64,192,123599,128,8,123699:0:0:0:0:
192,192,123599,128,0,123699:0:0:0:0:
64,192,123799,128,8,123899:0:0:0:0:
192,192,123799,128,0,123899:0:0:0:0:
320,192,123799,128,0,123899:0:0:0:0:
320,192,123999,128,0,124199:0:0:0:0:
192,192,124099,128,0,124199:0:0:0:0:
64,192,124099,1,8,0:1:0:0:
448,192,124199,128,0,124399:0:0:0:0:
64,192,124299,128,8,124499:0:0:0:0:
192,192,124299,128,2,124399:0:0:0:0:
320,192,124299,128,0,124399:0:0:0:0:
192,192,124499,128,0,124699:0:0:0:0:
448,192,124599,1,8,0:1:0:0:
320,192,124599,128,0,124699:0:0:0:0:
64,192,124699,128,0,124899:0:0:0:0:
448,192,124799,128,8,124999:0:0:0:0:
320,192,124799,128,2,124899:0:0:0:0:
192,192,124799,128,0,124899:0:0:0:0:
320,192,124999,128,0,125199:0:0:0:0:
64,192,125099,1,8,0:1:0:0:
192,192,125099,128,0,125199:0:0:0:0:
448,192,125199,128,4,125299:0:1:0:0:
192,192,125399,128,2,125599:0:0:0:0:
320,192,125399,128,4,125599:0:0:0:0:
448,192,125399,128,0,125599:0:0:0:0:
64,192,125699,1,2,0:0:0:0:
192,192,125699,1,4,0:0:0:0:
320,192,125749,1,0,0:0:0:0:
192,192,125799,1,0,0:0:0:0:
448,192,125899,1,0,0:0:0:0:
192,192,125999,1,2,0:0:0:0:
448,192,126099,1,0,0:0:0:0:
320,192,126099,1,0,0:0:0:0:
64,192,126099,1,8,0:0:0:0:
192,192,126149,1,0,0:0:0:0:
448,192,126199,1,0,0:0:0:0:
320,192,126299,1,0,0:0:0:0:
64,192,126399,1,0,0:0:0:0:
320,192,126499,1,2,0:0:0:0:
448,192,126499,1,0,0:0:0:0:
192,192,126565,1,0,0:0:0:0:
448,192,126632,1,0,0:0:0:0:
320,192,126699,1,0,0:0:0:0:
64,192,126749,1,0,0:0:0:0:
192,192,126799,1,0,0:0:0:0:
320,192,126849,1,0,0:0:0:0:
448,192,126899,1,0,0:0:0:0:
64,192,126899,1,8,0:0:0:0:
192,192,126899,1,0,0:0:0:0:
320,192,126999,1,0,0:0:0:0:
192,192,127099,1,0,0:0:0:0:
64,192,127165,1,0,0:0:0:0:
448,192,127232,1,0,0:0:0:0:
192,192,127299,1,0,0:0:0:0:
64,192,127299,1,2,0:0:0:0:
320,192,127365,1,0,0:0:0:0:
448,192,127432,1,0,0:0:0:0:
192,192,127499,1,0,0:0:0:0:
64,192,127565,1,0,0:0:0:0:
448,192,127632,1,0,0:0:0:0:
64,192,127699,1,8,0:0:0:0:
192,192,127699,1,0,0:0:0:0:
320,192,127699,1,0,0:0:0:0:
320,192,127799,1,0,0:0:0:0:
64,192,127899,128,0,128099:0:0:0:0:
192,192,127999,128,0,128099:0:0:0:0:
448,192,128099,1,2,0:0:0:0:
320,192,128099,128,0,128399:0:0:0:0:
192,192,128199,128,0,128399:0:0:0:0:
448,192,128299,128,0,128399:0:0:0:0:
64,192,128399,128,2,128499:0:0:0:0:
320,192,128499,128,0,128699:0:0:0:0:
448,192,128499,1,0,0:0:0:0:
192,192,128499,1,8,0:0:0:0:
64,192,128599,1,0,0:0:0:0:
448,192,128699,128,0,128899:0:0:0:0:
192,192,128799,1,0,0:0:0:0:
320,192,128899,1,0,0:0:0:0:
64,192,128899,1,2,0:0:0:0:
448,192,128949,1,0,0:0:0:0:
192,192,128999,1,0,0:0:0:0:
320,192,129099,1,0,0:0:0:0:
192,192,129199,1,2,0:0:0:0:
320,192,129299,1,0,0:0:0:0:
448,192,129299,1,0,0:0:0:0:
64,192,129299,1,8,0:0:0:0:
192,192,129349,1,0,0:0:0:0:
448,192,129399,1,0,0:0:0:0:
320,192,129499,1,0,0:0:0:0:
192,192,129599,1,0,0:0:0:0:
320,192,129699,1,2,0:0:0:0:
448,192,129699,1,0,0:0:0:0:
64,192,129765,1,0,0:0:0:0:
192,192,129832,1,0,0:0:0:0:
448,192,129899,1,0,0:0:0:0:
64,192,129949,1,0,0:0:0:0:
320,192,129999,1,0,0:0:0:0:
192,192,130049,1,0,0:0:0:0:
448,192,130099,1,0,0:0:0:0:
320,192,130099,1,0,0:0:0:0:
64,192,130099,1,8,0:0:0:0:
192,192,130199,1,0,0:0:0:0:
448,192,130299,1,0,0:0:0:0:
320,192,130365,1,0,0:0:0:0:
64,192,130432,1,0,0:0:0:0:
192,192,130499,1,2,0:0:0:0:
448,192,130499,1,0,0:0:0:0:
320,192,130565,1,0,0:0:0:0:
64,192,130632,1,0,0:0:0:0:
192,192,130699,1,0,0:0:0:0:
448,192,130765,1,0,0:0:0:0:
320,192,130832,1,0,0:0:0:0:
448,192,130899,1,0,0:0:0:0:
192,192,130899,1,0,0:0:0:0:
64,192,130899,1,8,0:0:0:0:
192,192,130999,1,0,0:0:0:0:
320,192,131099,128,0,131199:0:0:0:0:
448,192,131199,128,0,131565:0:0:0:0:
320,192,131299,128,0,131565:0:0:0:0:
64,192,131299,1,2,0:0:0:0:
192,192,131349,128,0,131499:0:0:0:0:
64,192,131499,1,0,0:0:0:0:
192,192,131565,128,0,131699:0:0:0:0:
64,192,131699,128,0,131999:0:0:0:0:
448,192,131699,1,0,0:0:0:0:
320,192,131699,1,8,0:0:0:0:
192,192,131899,128,0,131999:0:0:0:0:
320,192,131899,1,0,0:0:0:0:
64,192,132099,1,2,0:0:0:0:
192,192,132099,1,0,0:0:0:0:
320,192,132149,1,0,0:0:0:0:
64,192,132199,1,0,0:0:0:0:
192,192,132299,1,0,0:0:0:0:
320,192,132399,1,2,0:0:0:0:
448,192,132499,1,0,0:0:0:0:
192,192,132499,1,0,0:0:0:0:
64,192,132499,1,8,0:0:0:0:
320,192,132549,1,0,0:0:0:0:
64,192,132599,1,0,0:0:0:0:
448,192,132699,1,0,0:0:0:0:
192,192,132799,1,0,0:0:0:0:
320,192,132899,1,2,0:0:0:0:
448,192,132899,1,0,0:0:0:0:
64,192,132965,1,0,0:0:0:0:
320,192,133032,1,0,0:0:0:0:
448,192,133099,1,0,0:0:0:0:
192,192,133149,1,0,0:0:0:0:
320,192,133199,1,0,0:0:0:0:
64,192,133249,1,0,0:0:0:0:
192,192,133299,1,8,0:0:0:0:
320,192,133299,1,0,0:0:0:0:
448,192,133299,1,0,0:0:0:0:
64,192,133399,1,0,0:0:0:0:
448,192,133499,1,0,0:0:0:0:
192,192,133565,1,0,0:0:0:0:
320,192,133632,1,0,0:0:0:0:
192,192,133699,1,0,0:0:0:0:
64,192,133699,1,2,0:0:0:0:
448,192,133765,1,0,0:0:0:0:
64,192,133832,1,0,0:0:0:0:
192,192,133899,1,0,0:0:0:0:
448,192,133965,1,0,0:0:0:0:
320,192,134032,1,0,0:0:0:0:
448,192,134099,1,0,0:0:0:0:
192,192,134099,1,0,0:0:0:0:
64,192,134099,1,8,0:0:0:0:
192,192,134199,1,0,0:0:0:0:
448,192,134299,128,0,134399:0:0:0:0:
320,192,134399,128,0,134699:0:0:0:0:
448,192,134499,128,0,134799:0:0:0:0:
64,192,134499,1,2,0:0:0:0:
192,192,134599,128,0,134799:0:0:0:0:
64,192,134699,128,0,134799:0:0:0:0:
320,192,134799,128,2,134899:0:0:0:0:
448,192,134899,128,0,135099:0:0:0:0:
192,192,134899,1,0,0:0:0:0:
64,192,134899,1,8,0:0:0:0:
320,192,134999,1,0,0:0:0:0:
192,192,135099,128,0,135299:0:0:0:0:
64,192,135199,1,0,0:0:0:0:
320,192,135299,1,2,0:0:0:0:
448,192,135299,1,0,0:0:0:0:
192,192,135349,1,0,0:0:0:0:
320,192,135399,1,0,0:0:0:0:
64,192,135499,1,0,0:0:0:0:
448,192,135599,1,2,0:0:0:0:
320,192,135699,1,0,0:0:0:0:
192,192,135699,1,0,0:0:0:0:
64,192,135699,1,8,0:0:0:0:
448,192,135749,1,0,0:0:0:0:
192,192,135799,1,0,0:0:0:0:
320,192,135899,1,0,0:0:0:0:
64,192,135999,1,0,0:0:0:0:
320,192,136099,1,2,0:0:0:0:
448,192,136099,1,0,0:0:0:0:
192,192,136165,1,0,0:0:0:0:
448,192,136232,1,0,0:0:0:0:
320,192,136299,1,0,0:0:0:0:
64,192,136349,1,0,0:0:0:0:
448,192,136399,1,0,0:0:0:0:
192,192,136449,1,0,0:0:0:0:
64,192,136499,1,8,0:0:0:0:
320,192,136499,1,0,0:0:0:0:
448,192,136499,1,0,0:0:0:0:
192,192,136599,1,0,0:0:0:0:
448,192,136699,1,0,0:0:0:0:
64,192,136765,1,0,0:0:0:0:
320,192,136832,1,0,0:0:0:0:
192,192,136899,1,0,0:0:0:0:
64,192,136899,1,2,0:0:0:0:
448,192,136965,1,0,0:0:0:0:
192,192,137032,1,0,0:0:0:0:
320,192,137099,1,0,0:0:0:0:
448,192,137165,1,0,0:0:0:0:
64,192,137232,1,0,0:0:0:0:
192,192,137299,1,8,0:0:0:0:
320,192,137299,1,0,0:0:0:0:
448,192,137299,1,0,0:0:0:0:
448,192,137399,1,0,0:0:0:0:
192,192,137499,128,0,137599:0:0:0:0:
320,192,137599,128,0,137699:0:0:0:0:
64,192,137699,1,2,0:0:0:0:
192,192,137699,128,0,137999:0:0:0:0:
448,192,137749,128,0,137899:0:0:0:0:
320,192,137799,128,0,137949:0:0:0:0:
64,192,137899,128,0,137999:0:0:0:0:
448,192,137999,1,0,0:0:0:0:
448,192,138099,128,0,138399:0:0:0:0:
192,192,138099,128,0,138299:0:0:0:0:
64,192,138099,128,8,138399:0:0:0:0:
320,192,138299,1,0,0:0:0:0:
192,192,138399,1,0,0:0:0:0:
448,192,138499,1,0,0:0:0:0:
320,192,138499,1,2,0:0:0:0:
64,192,138549,1,0,0:0:0:0:
448,192,138599,1,0,0:0:0:0:
192,192,138699,1,0,0:0:0:0:
320,192,138799,1,2,0:0:0:0:
64,192,138899,1,8,0:0:0:0:
192,192,138899,1,0,0:0:0:0:
448,192,138899,1,0,0:0:0:0:
320,192,138949,1,0,0:0:0:0:
64,192,138999,1,0,0:0:0:0:
192,192,139099,1,0,0:0:0:0:
448,192,139199,1,0,0:0:0:0:
192,192,139299,1,0,0:0:0:0:
64,192,139299,1,2,0:0:0:0:
320,192,139365,1,0,0:0:0:0:
64,192,139432,1,0,0:0:0:0:
192,192,139499,1,0,0:0:0:0:
448,192,139549,1,0,0:0:0:0:
320,192,139599,1,0,0:0:0:0:
192,192,139649,1,0,0:0:0:0:
64,192,139699,1,8,0:0:0:0:
448,192,139699,1,0,0:0:0:0:
320,192,139699,1,0,0:0:0:0:
192,192,139799,1,0,0:0:0:0:
320,192,139899,1,0,0:0:0:0:
448,192,139965,1,0,0:0:0:0:
64,192,140032,1,0,0:0:0:0:
320,192,140099,1,2,0:0:0:0:
448,192,140099,1,0,0:0:0:0:
192,192,140165,1,0,0:0:0:0:
64,192,140232,1,0,0:0:0:0:
320,192,140299,1,0,0:0:0:0:
448,192,140365,1,0,0:0:0:0:
64,192,140432,1,0,0:0:0:0:
448,192,140499,1,0,0:0:0:0:
320,192,140499,1,0,0:0:0:0:
192,192,140499,1,8,0:0:0:0:
448,192,140599,1,0,0:0:0:0:
192,192,140699,128,0,140899:0:0:0:0:
320,192,140799,128,0,140899:0:0:0:0:
448,192,140899,128,0,141199:0:0:0:0:
64,192,140899,1,2,0:0:0:0:
320,192,140999,128,0,141199:0:0:0:0:
192,192,141099,128,0,141199:0:0:0:0:
64,192,141199,128,2,141299:0:0:0:0:
448,192,141299,128,0,141499:0:0:0:0:
192,192,141299,1,8,0:0:0:0:
320,192,141299,1,0,0:0:0:0:
64,192,141399,1,0,0:0:0:0:
320,192,141499,128,0,141699:0:0:0:0:
192,192,141599,1,0,0:0:0:0:
64,192,141699,1,2,0:0:0:0:
448,192,141699,1,0,0:0:0:0:
320,192,141749,1,0,0:0:0:0:
192,192,141799,1,0,0:0:0:0:
448,192,141899,1,0,0:0:0:0:
320,192,141999,1,2,0:0:0:0:
192,192,142099,1,0,0:0:0:0:
64,192,142099,1,8,0:0:0:0:
448,192,142099,1,0,0:0:0:0:
320,192,142149,1,0,0:0:0:0:
64,192,142199,1,0,0:0:0:0:
192,192,142299,1,0,0:0:0:0:
320,192,142399,1,0,0:0:0:0:
192,192,142499,1,0,0:0:0:0:
64,192,142499,1,2,0:0:0:0:
448,192,142565,1,0,0:0:0:0:
320,192,142632,1,0,0:0:0:0:
64,192,142699,1,0,0:0:0:0:
448,192,142749,1,0,0:0:0:0:
192,192,142799,1,0,0:0:0:0:
320,192,142849,1,0,0:0:0:0:
64,192,142899,1,8,0:0:0:0:
192,192,142899,1,0,0:0:0:0:
448,192,142899,1,0,0:0:0:0:
320,192,142999,1,0,0:0:0:0:
64,192,143099,1,0,0:0:0:0:
192,192,143165,1,0,0:0:0:0:
448,192,143232,1,0,0:0:0:0:
320,192,143299,1,0,0:0:0:0:
64,192,143299,1,2,0:0:0:0:
192,192,143365,1,0,0:0:0:0:
448,192,143432,1,0,0:0:0:0:
320,192,143499,1,0,0:0:0:0:
64,192,143565,1,0,0:0:0:0:
192,192,143632,1,0,0:0:0:0:
64,192,143699,1,8,0:0:0:0:
320,192,143699,1,0,0:0:0:0:
448,192,143699,1,0,0:0:0:0:
448,192,143799,1,0,0:0:0:0:
320,192,143899,1,0,0:0:0:0:
192,192,143974,128,0,144049:0:0:0:0:
64,192,144049,128,0,144349:0:0:0:0:
320,192,144099,128,0,144249:0:0:0:0:
192,192,144099,1,2,0:0:0:0:
448,192,144149,128,0,144299:0:0:0:0:
320,192,144299,1,0,0:0:0:0:
192,192,144349,128,0,144499:0:0:0:0:
448,192,144499,128,0,144799:0:0:0:0:
320,192,144499,1,0,0:0:0:0:
64,192,144499,1,8,0:0:0:0:
320,192,144699,128,0,144799:0:0:0:0:
192,192,144699,1,0,0:0:0:0:
320,192,144899,1,2,0:0:0:0:
448,192,144899,1,0,0:0:0:0:
64,192,144949,1,0,0:0:0:0:
448,192,144999,1,0,0:0:0:0:
320,192,145099,1,0,0:0:0:0:
192,192,145199,1,2,0:0:0:0:
64,192,145299,1,8,0:0:0:0:
320,192,145299,1,0,0:0:0:0:
448,192,145299,1,0,0:0:0:0:
192,192,145349,1,0,0:0:0:0:
448,192,145399,1,0,0:0:0:0:
64,192,145499,1,0,0:0:0:0:
320,192,145599,1,0,0:0:0:0:
192,192,145699,1,0,0:0:0:0:
64,192,145699,1,2,0:0:0:0:
448,192,145765,1,0,0:0:0:0:
192,192,145832,1,0,0:0:0:0:
64,192,145899,1,0,0:0:0:0:
320,192,145949,1,0,0:0:0:0:
192,192,145999,1,0,0:0:0:0:
448,192,146049,1,0,0:0:0:0:
320,192,146099,1,0,0:0:0:0:
192,192,146099,1,0,0:0:0:0:
64,192,146099,1,8,0:0:0:0:
448,192,146199,1,0,0:0:0:0:
64,192,146299,1,0,0:0:0:0:
320,192,146365,1,0,0:0:0:0:
192,192,146432,1,0,0:0:0:0:
320,192,146499,1,2,0:0:0:0:
448,192,146499,1,0,0:0:0:0:
64,192,146565,1,0,0:0:0:0:
448,192,146632,1,0,0:0:0:0:
320,192,146699,1,0,0:0:0:0:
64,192,146765,1,0,0:0:0:0:
192,192,146832,1,0,0:0:0:0:
64,192,146899,1,8,0:0:0:0:
320,192,146899,1,0,0:0:0:0:
448,192,146899,1,0,0:0:0:0:
192,192,146965,1,0,0:0:0:0:
448,192,147032,1,0,0:0:0:0:
320,192,147099,1,0,0:0:0:0:
64,192,147165,1,0,0:0:0:0:
192,192,147232,1,0,0:0:0:0:
320,192,147299,1,2,0:0:0:0:
448,192,147299,1,0,0:0:0:0:
64,192,147365,1,0,0:0:0:0:
192,192,147432,1,0,0:0:0:0:
448,192,147499,1,0,0:0:0:0:
64,192,147565,1,0,0:0:0:0:
320,192,147632,1,0,0:0:0:0:
448,192,147699,1,0,0:0:0:0:
192,192,147699,1,0,0:0:0:0:
64,192,147699,1,8,0:0:0:0:
192,192,147799,1,0,0:0:0:0:
448,192,147899,1,0,0:0:0:0:
320,192,147899,1,0,0:0:0:0:
64,192,147965,1,0,0:0:0:0:
320,192,148032,1,0,0:0:0:0:
448,192,148099,1,0,0:0:0:0:
192,192,148099,1,2,0:0:0:0:
64,192,148165,1,0,0:0:0:0:
320,192,148232,1,0,0:0:0:0:
448,192,148299,1,0,0:0:0:0:
192,192,148365,1,0,0:0:0:0:
64,192,148432,1,0,0:0:0:0:
192,192,148499,1,8,0:0:0:0:
320,192,148499,1,0,0:0:0:0:
448,192,148499,1,0,0:0:0:0:
64,192,148565,1,0,0:0:0:0:
448,192,148632,1,0,0:0:0:0:
320,192,148699,1,0,0:0:0:0:
64,192,148765,1,0,0:0:0:0:
192,192,148832,1,0,0:0:0:0:
320,192,148899,1,2,0:0:0:0:
448,192,148899,1,0,0:0:0:0:
64,192,148965,1,0,0:0:0:0:
192,192,149032,1,0,0:0:0:0:
448,192,149099,1,0,0:0:0:0:
320,192,149165,1,0,0:0:0:0:
192,192,149232,1,0,0:0:0:0:
448,192,149299,1,0,0:0:0:0:
64,192,149299,1,8,0:0:0:0:
320,192,149299,1,0,0:0:0:0:
320,192,149399,1,0,0:0:0:0:
192,192,149499,1,0,0:0:0:0:
448,192,149499,1,0,0:0:0:0:
64,192,149565,1,0,0:0:0:0:
448,192,149632,1,0,0:0:0:0:
64,192,149699,1,2,0:0:0:0:
192,192,149699,1,0,0:0:0:0:
320,192,149765,1,0,0:0:0:0:
448,192,149832,1,0,0:0:0:0:
192,192,149899,1,0,0:0:0:0:
64,192,149899,1,0,0:0:0:0:
320,192,149999,1,0,0:0:0:0:
64,192,150099,1,8,0:0:0:0:
192,192,150099,1,0,0:0:0:0:
320,192,150199,1,2,0:0:0:0:
448,192,150199,1,0,0:0:0:0:
192,192,150299,1,2,0:0:0:0:
64,192,150299,1,0,0:0:0:0:
192,192,150399,1,2,0:0:0:0:
64,192,150399,1,0,0:0:0:0:
448,192,150499,1,0,0:0:0:0:
320,192,150499,1,2,0:0:0:0:
64,192,150565,1,0,0:0:0:0:
192,192,150632,1,0,0:0:0:0:
448,192,150699,1,0,0:0:0:0:
320,192,150765,1,0,0:0:0:0:
64,192,150832,1,0,0:0:0:0:
192,192,150899,1,8,0:0:0:0:
320,192,150899,1,0,0:0:0:0:
192,192,150999,1,8,0:0:0:0:
448,192,150999,1,0,0:0:0:0:
320,192,151099,1,8,0:0:0:0:
448,192,151099,1,0,0:0:0:0:
64,192,151199,1,0,0:0:0:0:
320,192,151199,1,8,0:0:0:0:
192,192,151299,1,2,0:0:0:0:
64,192,151299,1,0,0:0:0:0:
448,192,154399,1,0,0:0:0:0:
64,192,154499,1,0,0:0:0:0:
192,192,154632,128,0,160810:0:0:0:0:
320,192,154765,128,0,160810:0:0:0:0:
64,192,157765,128,0,157899:0:0:0:0:
64,192,158054,128,0,161699:0:0:0:0:
320,192,160943,128,0,161076:0:0:0:0:
192,192,160943,128,0,162499:0:0:0:0:
448,192,161232,128,0,163999:0:0:0:0:
320,192,161232,128,0,163999:0:0:0:0:
320,192,164099,1,0,0:0:0:0:
448,192,164099,1,0,0:0:0:0:
192,192,164099,1,2,0:0:0:0:
192,192,164299,1,0,0:0:0:0:
320,192,164399,1,0,0:0:0:0:
64,192,164499,1,2,0:0:0:0:
448,192,164599,1,0,0:0:0:0:
320,192,164699,1,0,0:0:0:0:
192,192,164899,1,0,0:0:0:0:
64,192,164899,1,2,0:0:0:0:
448,192,164899,1,0,0:0:0:0:
320,192,164999,1,0,0:0:0:0:
192,192,165099,1,0,0:0:0:0:
320,192,165199,1,0,0:0:0:0:
448,192,165299,1,0,0:0:0:0:
64,192,165299,1,2,0:0:0:0:
192,192,165399,1,0,0:0:0:0:
320,192,165499,1,0,0:0:0:0:
192,192,165599,1,0,0:0:0:0:
320,192,165699,1,0,0:0:0:0:
448,192,165699,1,0,0:0:0:0:
64,192,165699,1,2,0:0:0:0:
192,192,165799,1,0,0:0:0:0:
448,192,165899,1,0,0:0:0:0:
64,192,165999,1,0,0:0:0:0:
320,192,166099,1,2,0:0:0:0:
448,192,166099,1,0,0:0:0:0:
192,192,166199,1,0,0:0:0:0:
448,192,166299,1,0,0:0:0:0:
64,192,166399,1,0,0:0:0:0:
192,192,166499,1,2,0:0:0:0:
320,192,166499,1,0,0:0:0:0:
448,192,166499,1,0,0:0:0:0:
64,192,166599,1,0,0:0:0:0:
448,192,166699,1,0,0:0:0:0:
192,192,166799,1,0,0:0:0:0:
64,192,166899,1,2,0:0:0:0:
320,192,166899,1,0,0:0:0:0:
448,192,166999,1,0,0:0:0:0:
192,192,167099,1,0,0:0:0:0:
448,192,167199,1,0,0:0:0:0:
320,192,167299,1,0,0:0:0:0:
192,192,167299,1,0,0:0:0:0:
64,192,167299,1,2,0:0:0:0:
448,192,167399,1,0,0:0:0:0:
320,192,167499,1,0,0:0:0:0:
64,192,167599,1,0,0:0:0:0:
320,192,167699,1,2,0:0:0:0:
448,192,167699,1,0,0:0:0:0:
192,192,167799,1,0,0:0:0:0:
448,192,167899,1,0,0:0:0:0:
320,192,167999,1,0,0:0:0:0:
64,192,168099,1,2,0:0:0:0:
192,192,168099,1,0,0:0:0:0:
448,192,168099,1,0,0:0:0:0:
320,192,168199,1,0,0:0:0:0:
192,192,168299,1,0,0:0:0:0:
64,192,168399,1,0,0:0:0:0:
448,192,168499,1,0,0:0:0:0:
192,192,168499,1,2,0:0:0:0:
320,192,168599,1,0,0:0:0:0:
64,192,168699,1,0,0:0:0:0:
192,192,168799,1,0,0:0:0:0:
64,192,168899,1,2,0:0:0:0:
320,192,168899,1,0,0:0:0:0:
448,192,168899,1,0,0:0:0:0:
192,192,168999,1,0,0:0:0:0:
448,192,169099,1,0,0:0:0:0:
64,192,169199,1,0,0:0:0:0:
192,192,169299,1,2,0:0:0:0:
320,192,169299,1,0,0:0:0:0:
448,192,169399,1,0,0:0:0:0:
192,192,169499,1,0,0:0:0:0:
64,192,169599,1,0,0:0:0:0:
192,192,169699,1,2,0:0:0:0:
320,192,169699,1,0,0:0:0:0:
448,192,169699,1,0,0:0:0:0:
64,192,169799,1,0,0:0:0:0:
320,192,169899,1,0,0:0:0:0:
448,192,169999,1,0,0:0:0:0:
192,192,170099,1,0,0:0:0:0:
64,192,170099,1,2,0:0:0:0:
320,192,170199,1,0,0:0:0:0:
192,192,170299,1,0,0:0:0:0:
448,192,170399,1,0,0:0:0:0:
64,192,170499,1,2,0:0:0:0:
192,192,170499,1,0,0:0:0:0:
320,192,170499,1,0,0:0:0:0:
448,192,170599,1,0,0:0:0:0:
64,192,170699,1,0,0:0:0:0:
192,192,170799,1,0,0:0:0:0:
320,192,170899,1,2,0:0:0:0:
448,192,170899,1,0,0:0:0:0:
64,192,170999,1,0,0:0:0:0:
448,192,171099,1,0,0:0:0:0:
320,192,171199,1,0,0:0:0:0:
192,192,171299,1,0,0:0:0:0:
448,192,171299,1,0,0:0:0:0:
64,192,171299,1,2,0:0:0:0:
320,192,171399,1,0,0:0:0:0:
64,192,171499,1,0,0:0:0:0:
448,192,171599,1,0,0:0:0:0:
320,192,171699,1,0,0:0:0:0:
64,192,171699,1,2,0:0:0:0:
192,192,171799,1,0,0:0:0:0:
320,192,171899,1,0,0:0:0:0:
192,192,171999,1,0,0:0:0:0:
448,192,172099,1,0,0:0:0:0:
320,192,172099,1,0,0:0:0:0:
64,192,172099,1,2,0:0:0:0:
192,192,172199,1,0,0:0:0:0:
64,192,172299,1,0,0:0:0:0:
320,192,172399,1,0,0:0:0:0:
192,192,172499,1,2,0:0:0:0:
448,192,172499,1,0,0:0:0:0:
64,192,172599,1,0,0:0:0:0:
320,192,172699,1,0,0:0:0:0:
64,192,172799,1,0,0:0:0:0:
192,192,172899,1,2,0:0:0:0:
320,192,172899,1,0,0:0:0:0:
448,192,172899,1,0,0:0:0:0:
64,192,172999,1,0,0:0:0:0:
448,192,173099,1,0,0:0:0:0:
192,192,173199,1,0,0:0:0:0:
448,192,173299,1,0,0:0:0:0:
64,192,173299,1,2,0:0:0:0:
320,192,173399,1,0,0:0:0:0:
192,192,173499,1,0,0:0:0:0:
448,192,173599,1,0,0:0:0:0:
320,192,173699,1,0,0:0:0:0:
192,192,173699,1,0,0:0:0:0:
64,192,173699,1,2,0:0:0:0:
448,192,173799,1,0,0:0:0:0:
192,192,173899,1,0,0:0:0:0:
320,192,173999,1,0,0:0:0:0:
192,192,174099,1,0,0:0:0:0:
64,192,174099,1,2,0:0:0:0:
448,192,174199,1,0,0:0:0:0:
192,192,174299,1,0,0:0:0:0:
320,192,174399,1,0,0:0:0:0:
64,192,174499,1,2,0:0:0:0:
448,192,174499,1,0,0:0:0:0:
192,192,174499,1,0,0:0:0:0:
320,192,174599,1,0,0:0:0:0:
192,192,174699,1,0,0:0:0:0:
64,192,174799,1,0,0:0:0:0:
448,192,174899,1,0,0:0:0:0:
320,192,174899,1,2,0:0:0:0:
64,192,174999,1,0,0:0:0:0:
320,192,175099,1,0,0:0:0:0:
192,192,175199,1,0,0:0:0:0:
64,192,175299,1,2,0:0:0:0:
320,192,175299,1,0,0:0:0:0:
448,192,175299,1,0,0:0:0:0:
192,192,175399,1,0,0:0:0:0:
320,192,175499,1,0,0:0:0:0:
192,192,175599,1,0,0:0:0:0:
448,192,175699,1,0,0:0:0:0:
64,192,175699,1,2,0:0:0:0:
320,192,175799,1,0,0:0:0:0:
192,192,175899,1,0,0:0:0:0:
64,192,175999,1,0,0:0:0:0:
448,192,176099,1,0,0:0:0:0:
320,192,176099,1,0,0:0:0:0:
192,192,176099,1,2,0:0:0:0:
64,192,176199,1,0,0:0:0:0:
320,192,176299,1,0,0:0:0:0:
192,192,176399,1,0,0:0:0:0:
448,192,176499,1,0,0:0:0:0:
320,192,176499,1,8,0:0:0:0:
64,192,176599,1,0,0:0:0:0:
320,192,176699,1,8,0:0:0:0:
192,192,176799,1,2,0:0:0:0:
320,192,176899,128,4,176999:0:0:0:0:
448,192,176899,128,0,177099:0:0:0:0:
64,192,176899,128,2,177099:0:0:0:0:
192,192,176999,128,0,177099:0:0:0:0:
320,192,177099,128,0,177199:0:0:0:0:
448,192,177199,128,0,177299:0:0:0:0:
64,192,177199,128,2,177299:0:0:0:0:
320,192,177299,128,0,177399:0:0:0:0:
192,192,177299,128,0,177399:0:0:0:0:
448,192,177399,128,0,177499:0:0:0:0:
320,192,177499,128,0,177599:0:0:0:0:
192,192,177499,128,0,177599:0:0:0:0:
64,192,177499,128,2,177599:0:0:0:0:
448,192,177599,128,0,177699:0:0:0:0:
320,192,177699,128,0,177899:0:0:0:0:
192,192,177699,128,0,177799:0:0:0:0:
64,192,177699,128,8,177899:0:0:0:0:
448,192,177799,128,0,177899:0:0:0:0:
192,192,177899,128,0,177999:0:0:0:0:
320,192,177999,128,2,178099:0:0:0:0:
448,192,177999,128,0,178099:0:0:0:0:
192,192,178099,128,0,178199:0:0:0:0:
64,192,178099,128,0,178199:0:0:0:0:
320,192,178199,128,0,178299:0:0:0:0:
192,192,178299,128,0,178399:0:0:0:0:
64,192,178299,128,2,178399:0:0:0:0:
448,192,178299,128,0,178399:0:0:0:0:
320,192,178399,128,0,178499:0:0:0:0:
192,192,178499,128,4,178699:0:0:0:0:
64,192,178499,128,2,178599:0:0:0:0:
448,192,178499,128,0,178699:0:0:0:0:
320,192,178599,128,0,178699:0:0:0:0:
64,192,178699,128,0,178799:0:0:0:0:
192,192,178799,128,2,178899:0:0:0:0:
448,192,178799,128,0,178899:0:0:0:0:
64,192,178899,128,0,178999:0:0:0:0:
320,192,178899,128,0,178999:0:0:0:0:
192,192,178999,128,0,179099:0:0:0:0:
320,192,179099,128,0,179199:0:0:0:0:
448,192,179099,128,0,179199:0:0:0:0:
64,192,179099,128,2,179199:0:0:0:0:
192,192,179199,128,0,179299:0:0:0:0:
320,192,179299,128,0,179399:0:0:0:0:
448,192,179299,128,0,179499:0:0:0:0:
64,192,179299,128,8,179499:0:0:0:0:
192,192,179399,128,0,179499:0:0:0:0:
320,192,179499,128,0,179599:0:0:0:0:
448,192,179599,128,0,179699:0:0:0:0:
64,192,179599,128,2,179699:0:0:0:0:
320,192,179699,128,0,179799:0:0:0:0:
192,192,179699,128,0,179799:0:0:0:0:
64,192,179799,128,0,179899:0:0:0:0:
320,192,179899,128,0,179999:0:0:0:0:
448,192,179899,128,0,179999:0:0:0:0:
192,192,179899,128,2,179999:0:0:0:0:
64,192,179999,128,0,180099:0:0:0:0:
192,192,180099,128,2,180299:0:0:0:0:
320,192,180099,128,4,180299:0:0:0:0:
448,192,180099,128,0,180199:0:0:0:0:
64,192,180199,128,0,180299:0:0:0:0:
448,192,180299,128,0,180399:0:0:0:0:
192,192,180399,128,0,180499:0:0:0:0:
64,192,180399,128,2,180499:0:0:0:0:
448,192,180499,128,0,180599:0:0:0:0:
320,192,180499,128,0,180599:0:0:0:0:
192,192,180599,128,0,180699:0:0:0:0:
320,192,180699,128,0,180799:0:0:0:0:
448,192,180699,128,0,180799:0:0:0:0:
64,192,180699,128,2,180799:0:0:0:0:
192,192,180799,128,0,180899:0:0:0:0:
320,192,180899,128,0,181099:0:0:0:0:
448,192,180899,128,0,180999:0:0:0:0:
64,192,180899,128,8,181099:0:0:0:0:
192,192,180999,128,0,181099:0:0:0:0:
448,192,181099,128,0,181199:0:0:0:0:
320,192,181199,128,0,181299:0:0:0:0:
64,192,181199,128,2,181299:0:0:0:0:
448,192,181299,128,0,181399:0:0:0:0:
192,192,181299,128,0,181399:0:0:0:0:
64,192,181399,128,0,181499:0:0:0:0:
192,192,181499,128,2,181599:0:0:0:0:
320,192,181499,128,0,181599:0:0:0:0:
448,192,181499,128,0,181599:0:0:0:0:
64,192,181599,128,0,181699:0:0:0:0:
192,192,181699,128,2,181899:0:0:0:0:
320,192,181699,128,4,181799:0:0:0:0:
448,192,181699,128,0,181899:0:0:0:0:
64,192,181799,128,0,181899:0:0:0:0:
320,192,181899,128,0,181999:0:0:0:0:
448,192,181999,128,0,182099:0:0:0:0:
64,192,181999,128,2,182099:0:0:0:0:
320,192,182099,128,0,182199:0:0:0:0:
192,192,182099,128,0,182199:0:0:0:0:
448,192,182199,128,0,182299:0:0:0:0:
320,192,182299,128,0,182399:0:0:0:0:
192,192,182299,128,0,182399:0:0:0:0:
64,192,182299,128,2,182399:0:0:0:0:
448,192,182399,128,0,182499:0:0:0:0:
64,192,182499,128,8,182599:0:0:0:0:
320,192,182499,128,0,182599:0:0:0:0:
192,192,182499,128,0,182599:0:0:0:0:
448,192,182599,128,0,182699:0:0:0:0:
192,192,182699,128,0,182799:0:0:0:0:
320,192,182799,128,0,182899:0:0:0:0:
64,192,182799,128,2,182899:0:0:0:0:
192,192,182899,128,0,182999:0:0:0:0:
448,192,182899,128,0,182999:0:0:0:0:
320,192,182999,128,0,183099:0:0:0:0:
448,192,183099,128,0,183199:0:0:0:0:
192,192,183099,128,0,183199:0:0:0:0:
64,192,183099,128,2,183199:0:0:0:0:
320,192,183199,128,0,183299:0:0:0:0:
448,192,183299,128,0,183399:0:0:0:0:
192,192,183299,128,4,183499:0:0:0:0:
64,192,183299,128,2,183499:0:0:0:0:
320,192,183399,128,0,183499:0:0:0:0:
448,192,183499,128,0,183599:0:0:0:0:
320,192,183599,128,0,183699:0:0:0:0:
192,192,183599,128,2,183699:0:0:0:0:
64,192,183699,128,0,183799:0:0:0:0:
448,192,183699,128,0,183799:0:0:0:0:
320,192,183799,128,0,183899:0:0:0:0:
448,192,183899,128,0,183999:0:0:0:0:
192,192,183899,128,0,183999:0:0:0:0:
64,192,183899,128,2,183999:0:0:0:0:
320,192,183999,128,0,184099:0:0:0:0:
448,192,184099,128,0,184299:0:0:0:0:
192,192,184099,128,0,184199:0:0:0:0:
64,192,184099,128,8,184299:0:0:0:0:
320,192,184199,128,0,184299:0:0:0:0:
192,192,184299,128,0,184399:0:0:0:0:
448,192,184399,128,0,184499:0:0:0:0:
64,192,184399,128,2,184499:0:0:0:0:
320,192,184499,128,0,184599:0:0:0:0:
192,192,184499,128,0,184599:0:0:0:0:
448,192,184599,128,0,184699:0:0:0:0:
320,192,184699,128,0,184799:0:0:0:0:
192,192,184699,128,0,184799:0:0:0:0:
64,192,184699,128,2,184799:0:0:0:0:
448,192,184799,128,0,184899:0:0:0:0:
320,192,184899,128,0,185099:0:0:0:0:
192,192,184899,128,4,184999:0:0:0:0:
64,192,184899,128,2,185099:0:0:0:0:
448,192,184999,128,0,185099:0:0:0:0:
192,192,185099,128,0,185199:0:0:0:0:
320,192,185199,128,0,185299:0:0:0:0:
64,192,185199,128,2,185299:0:0:0:0:
192,192,185299,128,0,185399:0:0:0:0:
448,192,185299,128,0,185399:0:0:0:0:
64,192,185399,128,0,185499:0:0:0:0:
192,192,185499,128,2,185599:0:0:0:0:
320,192,185499,128,0,185599:0:0:0:0:
448,192,185499,128,0,185599:0:0:0:0:
64,192,185599,128,0,185699:0:0:0:0:
192,192,185699,128,8,185899:0:0:0:0:
320,192,185699,128,0,185899:0:0:0:0:
448,192,185699,128,0,185799:0:0:0:0:
64,192,185799,128,0,185899:0:0:0:0:
448,192,185899,128,0,185999:0:0:0:0:
320,192,185999,128,0,186099:0:0:0:0:
192,192,185999,128,2,186099:0:0:0:0:
448,192,186099,128,0,186199:0:0:0:0:
64,192,186099,128,0,186199:0:0:0:0:
192,192,186199,128,0,186299:0:0:0:0:
320,192,186299,128,0,186399:0:0:0:0:
448,192,186299,128,0,186399:0:0:0:0:
64,192,186299,128,2,186399:0:0:0:0:
192,192,186399,128,0,186499:0:0:0:0:
320,192,186499,128,4,186599:0:0:0:0:
448,192,186499,128,0,186699:0:0:0:0:
64,192,186499,128,2,186699:0:0:0:0:
192,192,186599,128,0,186699:0:0:0:0:
320,192,186699,128,0,186799:0:0:0:0:
192,192,186799,128,2,186899:0:0:0:0:
448,192,186799,128,0,186899:0:0:0:0:
320,192,186899,128,0,186999:0:0:0:0:
64,192,186899,128,0,186999:0:0:0:0:
192,192,186999,128,0,187099:0:0:0:0:
320,192,187099,128,0,187199:0:0:0:0:
448,192,187099,128,0,187199:0:0:0:0:
64,192,187099,128,2,187199:0:0:0:0:
192,192,187199,128,0,187299:0:0:0:0:
64,192,187299,128,8,187499:0:0:0:0:
320,192,187299,128,0,187399:0:0:0:0:
448,192,187299,128,0,187499:0:0:0:0:
192,192,187399,128,0,187499:0:0:0:0:
320,192,187499,128,0,187599:0:0:0:0:
192,192,187599,128,0,187699:0:0:0:0:
64,192,187599,128,2,187699:0:0:0:0:
320,192,187699,128,0,187799:0:0:0:0:
448,192,187699,128,0,187799:0:0:0:0:
192,192,187799,128,0,187899:0:0:0:0:
320,192,187899,128,0,187999:0:0:0:0:
448,192,187899,128,0,187999:0:0:0:0:
64,192,187899,128,2,187999:0:0:0:0:
192,192,187999,128,0,188099:0:0:0:0:
64,192,188099,128,2,188299:0:0:0:0:
320,192,188099,128,4,188299:0:0:0:0:
448,192,188099,128,0,188199:0:0:0:0:
192,192,188199,128,0,188299:0:0:0:0:
448,192,188299,128,0,188399:0:0:0:0:
320,192,188399,128,0,188499:0:0:0:0:
64,192,188399,128,2,188499:0:0:0:0:
192,192,188499,128,0,188599:0:0:0:0:
448,192,188499,128,0,188599:0:0:0:0:
64,192,188599,128,0,188699:0:0:0:0:
320,192,188699,128,0,188799:0:0:0:0:
192,192,188699,128,2,188799:0:0:0:0:
448,192,188699,128,0,188799:0:0:0:0:
64,192,188799,128,0,188899:0:0:0:0:
192,192,188899,128,8,189199:0:0:0:0:
320,192,188899,128,0,189099:0:0:0:0:
448,192,188899,128,0,189099:0:0:0:0:
320,192,189199,128,2,189499:0:0:0:0:
448,192,189199,128,0,189399:0:0:0:0:
192,192,189299,128,0,189599:0:0:0:0:
64,192,189299,128,8,189599:0:0:0:0:
192,192,189699,1,4,0:0:0:0:
64,192,189699,1,2,0:0:0:0:
448,192,189699,1,0,0:0:0:0:
320,192,189699,1,0,0:0:0:0:
64,192,190099,1,0,0:0:0:0:
64,192,190499,1,0,0:0:0:0:
192,192,190899,1,0,0:0:0:0:
64,192,191099,1,0,0:0:0:0:
192,192,191699,1,0,0:0:0:0:
64,192,191899,1,0,0:0:0:0:
64,192,192299,1,0,0:0:0:0:
192,192,192499,1,0,0:0:0:0:
320,192,192699,1,0,0:0:0:0:
448,192,192899,1,0,0:0:0:0:
448,192,193299,1,0,0:0:0:0:
448,192,193699,1,0,0:0:0:0:
320,192,193899,1,0,0:0:0:0:
192,192,194099,1,0,0:0:0:0:
64,192,194099,1,0,0:0:0:0:
320,192,194299,1,0,0:0:0:0:
320,192,194699,1,0,0:0:0:0:
64,192,194899,1,0,0:0:0:0:
192,192,194899,1,0,0:0:0:0:
320,192,195099,1,0,0:0:0:0:
320,192,195499,1,0,0:0:0:0:
192,192,195699,1,0,0:0:0:0:
64,192,195699,1,0,0:0:0:0:
448,192,195899,1,0,0:0:0:0:
64,192,196099,1,0,0:0:0:0:
320,192,196099,1,0,0:0:0:0:
64,192,196499,1,0,0:0:0:0:
320,192,196499,1,0,0:0:0:0:
320,192,196899,1,0,0:0:0:0:
64,192,196899,1,0,0:0:0:0:
192,192,197099,1,0,0:0:0:0:
64,192,197299,1,0,0:0:0:0:
320,192,197299,1,0,0:0:0:0:
192,192,197499,1,0,0:0:0:0:
448,192,197499,1,0,0:0:0:0:
320,192,197899,1,0,0:0:0:0:
192,192,198099,1,0,0:0:0:0:
448,192,198099,1,0,0:0:0:0:
320,192,198299,1,0,0:0:0:0:
64,192,198299,1,0,0:0:0:0:
192,192,198699,1,0,0:0:0:0:
320,192,198899,1,0,0:0:0:0:
64,192,198899,1,0,0:0:0:0:
192,192,199099,1,0,0:0:0:0:
448,192,199099,1,0,0:0:0:0:
192,192,199299,1,0,0:0:0:0:
64,192,199299,1,0,0:0:0:0:
192,192,199699,1,0,0:0:0:0:
64,192,199699,1,0,0:0:0:0:
192,192,200099,1,0,0:0:0:0:
64,192,200099,1,0,0:0:0:0:
320,192,200299,1,0,0:0:0:0:
320,192,200499,1,0,0:0:0:0:
448,192,200499,1,0,0:0:0:0:
64,192,200699,1,0,0:0:0:0:
192,192,200699,1,0,0:0:0:0:
448,192,201099,1,0,0:0:0:0:
320,192,201299,1,0,0:0:0:0:
448,192,201299,1,0,0:0:0:0:
192,192,201499,1,0,0:0:0:0:
64,192,201499,1,0,0:0:0:0:
448,192,201665,1,0,0:0:0:0:
320,192,201699,1,0,0:0:0:0:
192,192,201732,1,0,0:0:0:0:
448,192,201899,1,0,0:0:0:0:
320,192,201899,1,2,0:0:0:0:
192,192,202099,1,0,0:0:0:0:
64,192,202099,1,8,0:0:0:0:
320,192,202099,1,0,0:0:0:0:
64,192,202299,1,0,0:0:0:0:
448,192,202499,1,2,0:0:0:0:
320,192,202499,1,4,0:0:0:0:
192,192,202499,128,0,202799:0:0:0:0:
64,192,202499,128,0,202799:0:0:0:0:
320,192,202699,128,0,202999:0:0:0:0:
448,192,202899,1,8,0:0:0:0:
192,192,202899,128,0,202999:0:0:0:0:
64,192,202899,128,0,203199:0:0:0:0:
320,192,203099,128,0,203399:0:0:0:0:
192,192,203299,128,0,203599:0:0:0:0:
448,192,203499,1,2,0:0:0:0:
320,192,203499,128,0,203799:0:0:0:0:
192,192,203699,1,0,0:0:0:0:
448,192,203699,1,8,0:0:0:0:
64,192,203699,128,0,203999:0:0:0:0:
192,192,203899,128,0,203999:0:0:0:0:
320,192,203899,128,2,204199:0:0:0:0:
192,192,204099,128,0,204399:0:0:0:0:
448,192,204299,1,2,0:0:0:0:
320,192,204299,128,0,204599:0:0:0:0:
448,192,204499,1,8,0:0:0:0:
64,192,204499,128,0,204799:0:0:0:0:
192,192,204499,128,0,204599:0:0:0:0:
320,192,204699,128,0,204999:0:0:0:0:
192,192,204899,128,0,205199:0:0:0:0:
448,192,205099,1,2,0:0:0:0:
64,192,205099,128,0,205399:0:0:0:0:
448,192,205299,1,8,0:0:0:0:
192,192,205299,128,0,205399:0:0:0:0:
320,192,205299,128,0,205599:0:0:0:0:
192,192,205499,1,8,0:0:0:0:
448,192,205499,128,0,205599:0:0:0:0:
64,192,205499,1,0,0:0:0:0:
192,192,205699,1,2,0:0:0:0:
320,192,205699,128,0,205999:0:0:0:0:
64,192,205699,128,4,205999:0:0:0:0:
448,192,205699,1,0,0:0:0:0:
448,192,205899,128,0,206199:0:0:0:0:
64,192,206099,1,8,0:0:0:0:
192,192,206099,128,0,206399:0:0:0:0:
320,192,206099,128,0,206199:0:0:0:0:
448,192,206299,128,0,206599:0:0:0:0:
320,192,206499,128,0,206799:0:0:0:0:
64,192,206699,1,2,0:0:0:0:
448,192,206699,128,0,206999:0:0:0:0:
64,192,206899,1,8,0:0:0:0:
192,192,206899,128,0,207199:0:0:0:0:
320,192,206899,1,0,0:0:0:0:
320,192,207099,128,2,207199:0:0:0:0:
448,192,207099,128,0,207399:0:0:0:0:
192,192,207299,128,0,207599:0:0:0:0:
448,192,207499,1,2,0:0:0:0:
320,192,207499,128,0,207799:0:0:0:0:
64,192,207699,128,0,207999:0:0:0:0:
192,192,207699,128,0,207799:0:0:0:0:
448,192,207699,1,8,0:0:0:0:
320,192,207899,128,0,208199:0:0:0:0:
192,192,208099,128,0,208399:0:0:0:0:
320,192,208299,128,2,208599:0:0:0:0:
448,192,208299,1,0,0:0:0:0:
448,192,208499,1,8,0:0:0:0:
64,192,208499,128,0,208799:0:0:0:0:
192,192,208499,128,0,208599:0:0:0:0:
320,192,208699,1,8,0:0:0:0:
448,192,208699,128,0,208799:0:0:0:0:
192,192,208699,1,0,0:0:0:0:
320,192,208899,1,0,0:0:0:0:
448,192,208899,1,2,0:0:0:0:
192,192,208899,128,0,209199:0:0:0:0:
64,192,208899,128,4,209199:0:0:0:0:
448,192,209099,128,0,209399:0:0:0:0:
64,192,209299,1,8,0:0:0:0:
192,192,209299,128,0,209599:0:0:0:0:
320,192,209299,128,0,209399:0:0:0:0:
448,192,209499,128,0,209799:0:0:0:0:
320,192,209699,128,0,209999:0:0:0:0:
64,192,209899,1,2,0:0:0:0:
448,192,209899,128,0,210199:0:0:0:0:
64,192,210099,1,8,0:0:0:0:
192,192,210099,128,0,210399:0:0:0:0:
320,192,210099,1,0,0:0:0:0:
448,192,210299,128,0,210599:0:0:0:0:
320,192,210299,128,2,210399:0:0:0:0:
192,192,210499,128,0,210799:0:0:0:0:
64,192,210699,1,2,0:0:0:0:
320,192,210699,128,0,210999:0:0:0:0:
448,192,210899,1,8,0:0:0:0:
192,192,210899,128,0,211199:0:0:0:0:
64,192,210899,128,0,210999:0:0:0:0:
320,192,211099,128,0,211399:0:0:0:0:
448,192,211299,128,0,211599:0:0:0:0:
64,192,211499,1,2,0:0:0:0:
320,192,211499,128,0,211799:0:0:0:0:
64,192,211699,1,8,0:0:0:0:
192,192,211699,128,0,211999:0:0:0:0:
448,192,211699,128,0,211799:0:0:0:0:
448,192,211899,1,8,0:0:0:0:
64,192,211899,1,0,0:0:0:0:
320,192,211899,128,0,212099:0:0:0:0:
192,192,212099,1,8,0:0:0:0:
64,192,212099,1,0,0:0:0:0:
448,192,212099,1,2,0:0:0:0:
448,192,212399,1,0,0:0:0:0:
64,192,212399,1,2,0:0:0:0:
320,192,212399,1,8,0:0:0:0:
192,192,212599,1,0,0:0:0:0:
64,192,212699,1,0,0:0:0:0:
320,192,212799,1,0,0:0:0:0:
64,192,212899,1,2,0:0:0:0:
192,192,212899,1,8,0:0:0:0:
448,192,212899,1,0,0:0:0:0:
64,192,213199,1,2,0:0:0:0:
448,192,213199,1,0,0:0:0:0:
192,192,213199,1,8,0:0:0:0:
64,192,213399,1,8,0:0:0:0:
320,192,213399,1,0,0:0:0:0:
192,192,213432,1,0,0:0:0:0:
448,192,213499,1,0,0:0:0:0:
64,192,213565,128,0,214099:0:0:0:0:
192,192,213632,128,0,214165:0:0:0:0:
448,192,213699,128,2,214099:0:0:0:0:
320,192,213699,128,4,214132:0:0:0:0:
