osu file format v14

[General]
AudioFilename: audio.mp3
AudioLeadIn: 0
PreviewTime: 115522
Countdown: 0
SampleSet: Normal
StackLeniency: 0.7
Mode: 1
LetterboxInBreaks: 0
WidescreenStoryboard: 1

[Editor]
DistanceSpacing: 0.9
BeatDivisor: 4
GridSize: 32
TimelineZoom: 0.8

[Metadata]
Title:What The Otters Will Never Know
TitleUnicode:What The Otters Will Never Know
Artist:Tenchio
ArtistUnicode:Tenchio
Creator:Cynplytholowazy
Version:Fapu's Muzukashii
Source:
Tags:Rock Instrumental Progressive A.S.S.L.O.A.D. A.S.S.L.O.A.D ASSLOAD osu! Featured Artist FA Faputa jack1817
BeatmapID:3625528
BeatmapSetID:1771059

[Difficulty]
HPDrainRate:5.5
CircleSize:2
OverallDifficulty:5.5
ApproachRate:10
SliderMultiplier:1.4
SliderTickRate:1

[Events]
//Background and Video events
0,0,"sea-otter-ge8baa79a5_1920.jpg",0,40
//Break Periods
2,70872,83122
//Storyboard Layer 0 (Background)
//Storyboard Layer 1 (Fail)
//Storyboard Layer 2 (Pass)
//Storyboard Layer 3 (Foreground)
//Storyboard Layer 4 (Overlay)
//Storyboard Sound Samples

[TimingPoints]
372,400,4,1,0,35,1,0
372,-100,4,1,0,35,0,0
6772,-100,4,1,0,60,0,0
13172,-100,4,1,0,70,0,0
25972,-100,4,1,0,50,0,0
32372,-100,4,1,0,60,0,0
38772,-100,4,1,0,65,0,0
45172,-100,4,1,0,70,0,0
58272,-100,4,1,0,60,0,0
70774,-100,4,1,0,5,0,0
83472,-100,4,1,0,60,0,0
105872,-100,4,1,0,40,0,0
105972,400,3,1,0,35,1,0
105972,-100,3,1,0,35,0,0
115569,-100,3,1,0,70,0,0
115572,-100,3,1,0,70,0,1
173172,-100,3,1,0,50,0,0

[HitObjects]
256,192,6772,5,4,0:0:0:0:
256,192,7172,1,0,0:0:0:0:
256,192,7572,1,8,0:0:0:0:
256,192,7972,1,0,0:0:0:0:
256,192,8372,1,0,0:0:0:0:
256,192,8772,1,0,0:0:0:0:
256,192,9172,1,8,0:0:0:0:
256,192,9572,1,0,0:0:0:0:
256,192,9972,1,0,0:0:0:0:
256,192,10372,1,0,0:0:0:0:
256,192,10772,1,8,0:0:0:0:
256,192,11172,1,0,0:0:0:0:
256,192,11572,1,0,0:0:0:0:
256,192,11972,1,0,0:0:0:0:
256,192,12372,1,8,0:0:0:0:
256,192,13172,1,4,0:0:0:0:
256,192,13572,1,8,0:0:0:0:
256,192,13772,1,0,0:0:0:0:
256,192,14372,1,8,0:0:0:0:
256,192,14772,1,0,0:0:0:0:
256,192,15072,1,0,0:0:0:0:
256,192,15172,1,8,0:0:0:0:
256,192,15372,1,0,0:0:0:0:
256,192,15972,1,8,0:0:0:0:
256,192,16372,1,0,0:0:0:0:
256,192,16772,1,8,0:0:0:0:
256,192,16972,1,0,0:0:0:0:
256,192,17572,1,8,0:0:0:0:
256,192,17972,1,0,0:0:0:0:
256,192,18272,1,0,0:0:0:0:
256,192,18372,1,8,0:0:0:0:
256,192,18572,1,0,0:0:0:0:
256,192,18872,1,8,0:0:0:0:
256,192,19172,1,8,0:0:0:0:
256,192,19572,1,0,0:0:0:0:
256,192,19972,1,8,0:0:0:0:
256,192,20172,1,8,0:0:0:0:
256,192,20772,1,0,0:0:0:0:
256,192,21172,1,0,0:0:0:0:
256,192,21472,1,8,0:0:0:0:
256,192,21572,1,8,0:0:0:0:
256,192,21772,1,8,0:0:0:0:
256,192,22372,1,0,0:0:0:0:
256,192,22772,1,0,0:0:0:0:
256,192,23172,1,8,0:0:0:0:
256,192,23372,1,8,0:0:0:0:
256,192,23972,1,8,0:0:0:0:
256,192,24372,1,0,0:0:0:0:
256,192,24672,1,8,0:0:0:0:
256,192,24772,1,8,0:0:0:0:
256,192,24972,1,8,0:0:0:0:
256,192,25272,1,0,0:0:0:0:
256,192,25572,1,8,0:0:0:0:
256,192,25972,1,0,0:0:0:0:
256,192,27572,1,0,0:0:0:0:
256,192,28372,1,8,0:0:0:0:
256,192,28772,1,8,0:0:0:0:
256,192,29172,1,0,0:0:0:0:
256,192,30772,1,0,0:0:0:0:
256,192,31072,1,0,0:0:0:0:
256,192,31372,1,0,0:0:0:0:
256,192,32372,1,0,0:0:0:0:
256,192,32672,1,8,0:0:0:0:
256,192,32972,1,8,0:0:0:0:
256,192,33172,1,8,0:0:0:0:
256,192,33972,1,0,0:0:0:0:
256,192,34272,1,8,0:0:0:0:
256,192,34572,1,8,0:0:0:0:
256,192,34772,1,0,0:0:0:0:
256,192,35572,1,0,0:0:0:0:
256,192,35872,1,8,0:0:0:0:
256,192,36172,1,0,0:0:0:0:
256,192,36372,1,0,0:0:0:0:
256,192,37172,1,0,0:0:0:0:
256,192,37472,1,0,0:0:0:0:
256,192,37772,1,0,0:0:0:0:
256,192,37972,1,0,0:0:0:0:
256,192,38772,1,0,0:0:0:0:
256,192,39072,1,8,0:0:0:0:
256,192,39372,1,8,0:0:0:0:
256,192,39572,1,0,0:0:0:0:
256,192,39672,1,8,0:0:0:0:
256,192,40172,1,8,0:0:0:0:
256,192,40372,1,0,0:0:0:0:
256,192,40672,1,8,0:0:0:0:
256,192,40972,1,8,0:0:0:0:
256,192,41172,1,0,0:0:0:0:
256,192,41272,1,8,0:0:0:0:
256,192,41872,1,8,0:0:0:0:
256,192,41972,1,0,0:0:0:0:
256,192,42272,1,8,0:0:0:0:
256,192,42572,1,8,0:0:0:0:
256,192,42772,1,0,0:0:0:0:
256,192,42872,1,8,0:0:0:0:
256,192,43372,1,8,0:0:0:0:
256,192,43572,1,0,0:0:0:0:
256,192,43872,1,8,0:0:0:0:
256,192,44172,1,8,0:0:0:0:
256,192,44372,1,0,0:0:0:0:
256,192,44472,1,0,0:0:0:0:
256,192,44572,1,0,0:0:0:0:
256,192,44772,1,8,0:0:0:0:
256,192,44872,1,8,0:0:0:0:
256,192,44972,1,8,0:0:0:0:
256,192,45172,1,4,0:0:0:0:
256,192,45572,1,8,0:0:0:0:
256,192,45772,1,0,0:0:0:0:
256,192,46372,1,8,0:0:0:0:
256,192,46772,1,0,0:0:0:0:
256,192,47172,1,8,0:0:0:0:
256,192,47372,1,0,0:0:0:0:
256,192,47672,1,0,0:0:0:0:
256,192,47972,1,8,0:0:0:0:
256,192,48372,1,0,0:0:0:0:
256,192,48772,1,8,0:0:0:0:
256,192,48972,1,0,0:0:0:0:
256,192,49572,1,8,0:0:0:0:
256,192,49972,1,0,0:0:0:0:
256,192,50372,1,8,0:0:0:0:
256,192,50572,1,0,0:0:0:0:
256,192,50872,1,8,0:0:0:0:
256,192,51172,1,8,0:0:0:0:
256,192,51572,1,0,0:0:0:0:
256,192,51972,1,8,0:0:0:0:
256,192,52172,1,8,0:0:0:0:
256,192,52772,1,0,0:0:0:0:
256,192,53172,1,0,0:0:0:0:
256,192,53572,1,8,0:0:0:0:
256,192,53772,1,8,0:0:0:0:
256,192,54372,1,0,0:0:0:0:
256,192,54772,1,0,0:0:0:0:
256,192,55172,1,8,0:0:0:0:
256,192,55372,1,8,0:0:0:0:
256,192,55972,1,0,0:0:0:0:
256,192,56372,1,0,0:0:0:0:
256,192,56772,1,8,0:0:0:0:
256,192,56972,1,8,0:0:0:0:
256,192,57272,1,0,0:0:0:0:
256,192,57572,1,8,0:0:0:0:
256,192,57972,1,0,0:0:0:0:
256,192,58772,1,8,0:0:0:0:
256,192,59172,1,8,0:0:0:0:
256,192,59572,1,0,0:0:0:0:
256,192,60372,1,8,0:0:0:0:
256,192,60772,1,0,0:0:0:0:
256,192,61172,1,8,0:0:0:0:
256,192,61972,1,0,0:0:0:0:
256,192,62372,1,0,0:0:0:0:
256,192,62772,1,8,0:0:0:0:
256,192,63172,1,8,0:0:0:0:
256,192,63572,1,0,0:0:0:0:
256,192,63972,1,8,0:0:0:0:
256,192,64372,1,0,0:0:0:0:
256,192,65172,1,8,0:0:0:0:
256,192,65572,1,8,0:0:0:0:
256,192,65972,1,0,0:0:0:0:
256,192,66772,1,8,0:0:0:0:
256,192,67172,1,0,0:0:0:0:
256,192,67572,1,8,0:0:0:0:
256,192,68372,1,8,0:0:0:0:
256,192,68772,1,0,0:0:0:0:
256,192,69172,1,0,0:0:0:0:
256,192,69572,1,8,0:0:0:0:
256,192,69972,1,8,0:0:0:0:
256,192,70372,1,0,0:0:0:0:
256,192,70572,1,8,0:0:0:0:
256,192,70672,1,8,0:0:0:0:
256,192,83572,5,8,0:0:0:0:
256,192,83972,1,0,0:0:0:0:
256,192,84372,1,8,0:0:0:0:
256,192,84772,1,0,0:0:0:0:
256,192,84872,1,0,0:0:0:0:
256,192,85072,1,8,0:0:0:0:
256,192,85172,1,8,0:0:0:0:
256,192,85472,1,0,0:0:0:0:
256,192,85772,1,0,0:0:0:0:
256,192,85972,1,8,0:0:0:0:
256,192,86072,1,8,0:0:0:0:
256,192,86272,1,8,0:0:0:0:
256,192,86372,1,8,0:0:0:0:
256,192,86772,1,8,0:0:0:0:
256,192,87172,1,0,0:0:0:0:
256,192,87572,1,8,0:0:0:0:
256,192,87972,1,0,0:0:0:0:
256,192,88072,1,0,0:0:0:0:
256,192,88272,1,8,0:0:0:0:
256,192,88372,1,8,0:0:0:0:
256,192,88972,1,0,0:0:0:0:
256,192,89172,1,8,0:0:0:0:
256,192,89472,1,8,0:0:0:0:
256,192,89772,1,0,0:0:0:0:
256,192,89972,1,8,0:0:0:0:
256,192,90372,1,0,0:0:0:0:
256,192,90772,1,8,0:0:0:0:
256,192,91172,1,0,0:0:0:0:
256,192,91372,1,8,0:0:0:0:
256,192,91472,1,8,0:0:0:0:
256,192,91572,1,8,0:0:0:0:
256,192,91972,1,0,0:0:0:0:
256,192,92372,1,8,0:0:0:0:
256,192,92472,1,8,0:0:0:0:
256,192,92672,1,0,0:0:0:0:
256,192,92772,1,0,0:0:0:0:
256,192,92972,1,8,0:0:0:0:
256,192,93072,1,8,0:0:0:0:
256,192,93172,1,8,0:0:0:0:
256,192,93572,1,0,0:0:0:0:
256,192,93972,1,8,0:0:0:0:
256,192,94372,1,0,0:0:0:0:
256,192,94572,1,8,0:0:0:0:
256,192,94672,1,8,0:0:0:0:
256,192,94772,1,8,0:0:0:0:
256,192,95172,1,0,0:0:0:0:
256,192,95572,1,8,0:0:0:0:
256,192,95672,1,8,0:0:0:0:
256,192,95872,1,0,0:0:0:0:
256,192,95972,1,0,0:0:0:0:
256,192,96172,1,8,0:0:0:0:
256,192,96372,1,0,0:0:0:0:
256,192,96972,1,0,0:0:0:0:
256,192,97172,1,8,0:0:0:0:
256,192,97572,1,0,0:0:0:0:
256,192,98172,1,0,0:0:0:0:
256,192,98372,1,8,0:0:0:0:
256,192,98772,1,0,0:0:0:0:
256,192,99372,1,0,0:0:0:0:
256,192,99572,1,0,0:0:0:0:
256,192,99972,1,8,0:0:0:0:
256,192,100572,1,0,0:0:0:0:
256,192,100772,1,0,0:0:0:0:
256,192,101172,1,8,0:0:0:0:
256,192,101572,1,8,0:0:0:0:
256,192,101772,1,0,0:0:0:0:
256,192,101972,1,8,0:0:0:0:
256,192,102372,1,0,0:0:0:0:
256,192,102772,1,8,0:0:0:0:
256,192,102972,1,0,0:0:0:0:
256,192,103172,1,8,0:0:0:0:
256,192,103572,1,0,0:0:0:0:
256,192,103972,1,8,0:0:0:0:
256,192,104172,1,0,0:0:0:0:
256,192,104372,1,8,0:0:0:0:
256,192,104772,1,8,0:0:0:0:
256,192,105972,1,0,0:0:0:0:
256,192,107172,1,8,0:0:0:0:
256,192,107772,1,8,0:0:0:0:
256,192,108372,1,0,0:0:0:0:
256,192,109572,1,8,0:0:0:0:
256,192,110772,1,0,0:0:0:0:
256,192,111972,1,8,0:0:0:0:
256,192,112572,1,8,0:0:0:0:
256,192,113172,1,0,0:0:0:0:
256,192,114372,1,8,0:0:0:0:
256,192,115572,1,4,0:0:0:0:
256,192,115972,1,8,0:0:0:0:
256,192,116372,1,8,0:0:0:0:
256,192,116572,1,8,0:0:0:0:
256,192,116772,1,0,0:0:0:0:
256,192,117172,1,8,0:0:0:0:
256,192,117572,1,8,0:0:0:0:
256,192,117772,1,8,0:0:0:0:
256,192,117972,1,0,0:0:0:0:
256,192,118372,1,8,0:0:0:0:
256,192,118572,1,0,0:0:0:0:
256,192,118772,1,8,0:0:0:0:
256,192,118972,1,8,0:0:0:0:
256,192,119172,1,0,0:0:0:0:
256,192,119572,1,8,0:0:0:0:
256,192,120172,1,8,0:0:0:0:
256,192,120272,1,8,0:0:0:0:
256,192,120372,1,8,0:0:0:0:
256,192,120772,1,8,0:0:0:0:
256,192,121172,1,8,0:0:0:0:
256,192,121372,1,8,0:0:0:0:
256,192,121572,1,0,0:0:0:0:
256,192,121972,1,8,0:0:0:0:
256,192,122372,1,8,0:0:0:0:
256,192,122572,1,8,0:0:0:0:
256,192,122772,1,0,0:0:0:0:
256,192,123172,1,8,0:0:0:0:
256,192,123372,1,0,0:0:0:0:
256,192,123572,1,8,0:0:0:0:
256,192,123772,1,8,0:0:0:0:
256,192,123972,1,0,0:0:0:0:
256,192,124372,1,8,0:0:0:0:
256,192,124972,1,8,0:0:0:0:
256,192,125072,1,8,0:0:0:0:
256,192,125172,1,8,0:0:0:0:
256,192,125572,1,0,0:0:0:0:
256,192,125772,1,0,0:0:0:0:
256,192,125972,1,8,0:0:0:0:
256,192,126172,1,8,0:0:0:0:
256,192,126372,1,0,0:0:0:0:
256,192,126772,1,8,0:0:0:0:
256,192,126972,1,0,0:0:0:0:
256,192,127172,1,8,0:0:0:0:
256,192,127372,1,8,0:0:0:0:
256,192,127572,1,0,0:0:0:0:
256,192,127972,1,8,0:0:0:0:
256,192,128372,1,8,0:0:0:0:
256,192,128572,1,8,0:0:0:0:
256,192,128772,1,0,0:0:0:0:
256,192,129172,1,8,0:0:0:0:
256,192,129772,1,8,0:0:0:0:
256,192,129872,1,8,0:0:0:0:
256,192,129972,1,8,0:0:0:0:
256,192,130372,1,0,0:0:0:0:
256,192,130572,1,0,0:0:0:0:
256,192,130772,1,8,0:0:0:0:
256,192,130972,1,8,0:0:0:0:
256,192,131172,1,0,0:0:0:0:
256,192,131572,1,8,0:0:0:0:
256,192,131772,1,0,0:0:0:0:
256,192,131972,1,8,0:0:0:0:
256,192,132172,1,8,0:0:0:0:
256,192,132372,1,0,0:0:0:0:
256,192,132772,1,8,0:0:0:0:
256,192,133172,1,8,0:0:0:0:
256,192,133372,1,8,0:0:0:0:
256,192,133572,1,0,0:0:0:0:
256,192,133972,1,8,0:0:0:0:
256,192,134572,1,8,0:0:0:0:
256,192,134672,1,8,0:0:0:0:
256,192,134772,1,8,0:0:0:0:
256,192,134972,1,0,0:0:0:0:
256,192,135172,1,8,0:0:0:0:
256,192,135372,1,0,0:0:0:0:
256,192,135572,1,8,0:0:0:0:
256,192,135772,1,8,0:0:0:0:
256,192,135972,1,0,0:0:0:0:
256,192,136372,1,8,0:0:0:0:
256,192,136772,1,8,0:0:0:0:
256,192,137172,1,0,0:0:0:0:
256,192,137372,1,0,0:0:0:0:
256,192,137572,1,8,0:0:0:0:
256,192,137772,1,0,0:0:0:0:
256,192,137972,1,8,0:0:0:0:
256,192,138172,1,8,0:0:0:0:
256,192,138372,1,0,0:0:0:0:
256,192,138772,1,8,0:0:0:0:
256,192,139172,1,0,0:0:0:0:
256,192,139572,1,8,0:0:0:0:
256,192,139772,1,0,0:0:0:0:
256,192,139972,1,8,0:0:0:0:
256,192,140172,1,0,0:0:0:0:
256,192,140372,1,8,0:0:0:0:
256,192,140572,1,8,0:0:0:0:
256,192,140772,1,0,0:0:0:0:
256,192,141172,1,8,0:0:0:0:
256,192,141572,1,8,0:0:0:0:
256,192,141972,1,0,0:0:0:0:
256,192,142172,1,0,0:0:0:0:
256,192,142372,1,8,0:0:0:0:
256,192,142572,1,0,0:0:0:0:
256,192,142772,1,8,0:0:0:0:
256,192,142972,1,8,0:0:0:0:
256,192,143172,1,0,0:0:0:0:
256,192,143572,1,8,0:0:0:0:
256,192,143972,1,0,0:0:0:0:
256,192,144372,1,8,0:0:0:0:
256,192,144572,1,8,0:0:0:0:
256,192,144772,1,0,0:0:0:0:
256,192,144972,1,0,0:0:0:0:
256,192,145172,1,8,0:0:0:0:
256,192,145372,1,8,0:0:0:0:
256,192,145572,1,0,0:0:0:0:
256,192,145972,1,8,0:0:0:0:
256,192,146172,1,8,0:0:0:0:
256,192,146372,1,0,0:0:0:0:
256,192,146572,1,0,0:0:0:0:
256,192,146772,1,8,0:0:0:0:
256,192,147172,1,0,0:0:0:0:
256,192,147372,1,8,0:0:0:0:
256,192,147572,1,8,0:0:0:0:
256,192,147772,1,0,0:0:0:0:
256,192,147972,1,8,0:0:0:0:
256,192,148372,1,0,0:0:0:0:
256,192,148772,1,8,0:0:0:0:
256,192,149172,1,8,0:0:0:0:
256,192,149372,1,8,0:0:0:0:
256,192,149572,1,0,0:0:0:0:
256,192,149772,1,0,0:0:0:0:
256,192,149972,1,8,0:0:0:0:
256,192,150172,1,8,0:0:0:0:
256,192,150372,1,0,0:0:0:0:
256,192,150772,1,8,0:0:0:0:
256,192,150972,1,8,0:0:0:0:
256,192,151172,1,0,0:0:0:0:
256,192,151372,1,0,0:0:0:0:
256,192,151572,1,8,0:0:0:0:
256,192,151972,1,0,0:0:0:0:
256,192,152172,1,8,0:0:0:0:
256,192,152372,1,8,0:0:0:0:
256,192,152572,1,0,0:0:0:0:
256,192,152772,1,8,0:0:0:0:
256,192,153172,1,0,0:0:0:0:
256,192,153572,1,8,0:0:0:0:
256,192,153972,1,0,0:0:0:0:
256,192,154172,1,0,0:0:0:0:
256,192,154272,1,0,0:0:0:0:
256,192,154372,1,0,0:0:0:0:
256,192,154572,1,8,0:0:0:0:
256,192,154772,1,0,0:0:0:0:
256,192,154972,1,8,0:0:0:0:
256,192,155172,1,0,0:0:0:0:
256,192,155372,1,8,0:0:0:0:
256,192,155472,1,8,0:0:0:0:
256,192,155572,1,8,0:0:0:0:
256,192,155772,1,0,0:0:0:0:
256,192,155972,1,8,0:0:0:0:
256,192,156372,1,0,0:0:0:0:
256,192,156572,1,0,0:0:0:0:
256,192,156672,1,0,0:0:0:0:
256,192,156772,1,0,0:0:0:0:
256,192,156972,1,8,0:0:0:0:
256,192,157172,1,8,0:0:0:0:
256,192,157372,1,0,0:0:0:0:
256,192,157572,1,8,0:0:0:0:
256,192,157972,1,8,0:0:0:0:
256,192,158372,1,8,0:0:0:0:
256,192,158772,1,0,0:0:0:0:
256,192,158972,1,0,0:0:0:0:
256,192,159072,1,0,0:0:0:0:
256,192,159172,1,0,0:0:0:0:
256,192,159372,1,8,0:0:0:0:
256,192,159572,1,0,0:0:0:0:
256,192,159772,1,8,0:0:0:0:
256,192,159972,1,0,0:0:0:0:
256,192,160172,1,8,0:0:0:0:
256,192,160272,1,8,0:0:0:0:
256,192,160372,1,8,0:0:0:0:
256,192,160572,1,0,0:0:0:0:
256,192,160772,1,8,0:0:0:0:
256,192,161172,1,0,0:0:0:0:
256,192,161372,1,0,0:0:0:0:
256,192,161472,1,0,0:0:0:0:
256,192,161572,1,0,0:0:0:0:
256,192,161772,1,8,0:0:0:0:
256,192,161972,1,8,0:0:0:0:
256,192,162172,1,0,0:0:0:0:
256,192,162372,1,8,0:0:0:0:
256,192,162772,1,8,0:0:0:0:
256,192,163172,1,8,0:0:0:0:
256,192,163572,1,0,0:0:0:0:
256,192,163772,1,8,0:0:0:0:
256,192,163872,1,8,0:0:0:0:
256,192,163972,1,8,0:0:0:0:
256,192,164172,1,0,0:0:0:0:
256,192,164372,1,8,0:0:0:0:
256,192,164572,1,0,0:0:0:0:
256,192,164772,1,8,0:0:0:0:
256,192,164972,1,0,0:0:0:0:
256,192,165072,1,0,0:0:0:0:
256,192,165172,1,0,0:0:0:0:
256,192,165372,1,8,0:0:0:0:
256,192,165572,1,0,0:0:0:0:
256,192,165772,1,0,0:0:0:0:
256,192,165972,1,8,0:0:0:0:
256,192,166372,1,0,0:0:0:0:
256,192,166572,1,8,0:0:0:0:
256,192,166772,1,0,0:0:0:0:
256,192,166972,1,0,0:0:0:0:
256,192,167172,1,8,0:0:0:0:
256,192,167572,1,0,0:0:0:0:
256,192,167972,1,8,0:0:0:0:
256,192,168372,1,0,0:0:0:0:
256,192,168572,1,8,0:0:0:0:
256,192,168672,1,8,0:0:0:0:
256,192,168772,1,8,0:0:0:0:
256,192,168972,1,0,0:0:0:0:
256,192,169172,1,8,0:0:0:0:
256,192,169372,1,0,0:0:0:0:
256,192,169572,1,8,0:0:0:0:
256,192,169772,1,0,0:0:0:0:
256,192,169872,1,0,0:0:0:0:
256,192,169972,1,0,0:0:0:0:
256,192,170172,1,8,0:0:0:0:
256,192,170372,1,0,0:0:0:0:
256,192,170572,1,0,0:0:0:0:
256,192,170772,1,8,0:0:0:0:
256,192,171172,1,0,0:0:0:0:
256,192,171372,1,8,0:0:0:0:
256,192,171572,1,0,0:0:0:0:
256,192,171772,1,0,0:0:0:0:
256,192,171972,1,8,0:0:0:0:
256,192,172372,1,0,0:0:0:0:
256,192,172772,1,8,0:0:0:0:
256,192,173172,1,4,0:0:0:0:
256,192,175572,1,0,0:0:0:0:
256,192,177972,1,8,0:0:0:0:
256,192,180372,1,8,0:0:0:0:
256,192,182772,1,0,0:0:0:0:
256,192,185172,1,0,0:0:0:0:
256,192,187572,1,8,0:0:0:0:
256,192,188972,1,0,0:0:0:0:
256,192,189572,1,8,0:0:0:0:
256,192,190172,1,0,0:0:0:0:
256,192,190572,1,8,0:0:0:0:
256,192,191172,1,8,0:0:0:0:
256,192,191772,1,0,0:0:0:0:
256,192,192172,1,8,0:0:0:0:
