osu file format v14

[General]
AudioFilename: audio.mp3
AudioLeadIn: 0
PreviewTime: 6741
Countdown: 0
SampleSet: Normal
StackLeniency: 0.7
Mode: 1
LetterboxInBreaks: 0
WidescreenStoryboard: 1

[Editor]
Bookmarks: 35064,90737
DistanceSpacing: 1.3
BeatDivisor: 4
GridSize: 32
TimelineZoom: 3.499998

[Metadata]
Title:3 day observer
TitleUnicode:3 day observer
Artist:Tenchio
ArtistUnicode:Tenchio
Creator:skolodojko
Version:oni
Source:
Tags:fa featured artist math rock instrumental mapping to pander: taiko m2p #3 m2p#3 Crosshatching Holographs of a Cityscape (Antiopus) mpg mappers mappers' guild
BeatmapID:3839599
BeatmapSetID:1866570

[Difficulty]
HPDrainRate:6
CircleSize:2
OverallDifficulty:6
ApproachRate:10
SliderMultiplier:1.4
SliderTickRate:1

[Events]
//Background and Video events
0,0,"ho_ho_ho.jpg",0,0
//Break Periods
2,33676,34614
2,60467,78845
2,121072,129205
//Storyboard Layer 0 (Background)
//Storyboard Layer 1 (Fail)
//Storyboard Layer 2 (Pass)
//Storyboard Layer 3 (Foreground)
//Storyboard Layer 4 (Overlay)
//Storyboard Sound Samples

[TimingPoints]
478,352.941176470588,4,1,0,100,1,0
478,-90.9090909090909,4,1,0,100,0,0
6125,352.941176470588,4,1,0,100,1,8
6125,-95.2380952380952,4,1,0,100,0,0
6830,352.941176470588,7,1,0,100,1,0
6830,-95.2380952380952,7,1,0,100,0,0
16712,352.941176470588,4,1,0,80,1,0
16712,-95.2380952380952,4,1,0,80,0,0
16800,-95.8083832335329,4,1,0,80,0,0
16888,-96.3855421686747,4,1,0,80,0,0
16976,-96.969696969697,4,1,0,80,0,0
17064,-97.5609756097561,4,1,0,80,0,0
17153,-98.159509202454,4,1,0,80,0,0
17241,-98.7654320987654,4,1,0,80,0,0
17329,-99.3788819875776,4,1,0,80,0,0
17417,-100,4,1,0,80,0,0
17506,-100.62893081761,4,1,0,80,0,0
17594,-101.26582278481,4,1,0,80,0,0
17682,-101.910828025478,4,1,0,80,0,0
17770,-102.564102564103,4,1,0,80,0,0
17859,-103.225806451613,4,1,0,80,0,0
17947,-103.896103896104,4,1,0,80,0,0
18035,-104.575163398693,4,1,0,80,0,0
18123,-105.263157894737,4,1,0,80,0,0
18212,-105.960264900662,4,1,0,80,0,0
18300,-106.666666666667,4,1,0,80,0,0
18388,-107.38255033557,4,1,0,80,0,0
18476,-108.108108108108,4,1,0,80,0,0
18564,-108.843537414966,4,1,0,80,0,0
18653,-109.58904109589,4,1,0,80,0,0
18741,-110.344827586207,4,1,0,80,0,0
18829,-111.111111111111,4,1,0,80,0,0
18917,-111.888111888112,4,1,0,80,0,0
19006,-112.676056338028,4,1,0,80,0,0
19094,-113.475177304965,4,1,0,80,0,0
19182,-114.285714285714,4,1,0,80,0,0
19270,-115.107913669065,4,1,0,80,0,0
19359,-115.942028985507,4,1,0,80,0,0
19447,-116.788321167883,4,1,0,80,0,0
19535,-117.647058823529,4,1,0,80,0,0
22447,-125,4,1,0,60,0,0
27653,-121.951219512195,4,1,0,60,0,0
27741,-119.047619047619,4,1,0,60,0,0
27829,-116.279069767442,4,1,0,60,0,0
27917,-113.636363636364,4,1,0,60,0,0
27984,-111.111111111111,4,1,0,80,0,0
32064,-108.695652173913,4,1,0,80,0,0
32153,-107.52688172043,4,1,0,80,0,0
32241,-106.382978723404,4,1,0,80,0,0
32417,-104.166666666667,4,1,0,80,0,0
32594,-102.040816326531,4,1,0,80,0,0
32770,-100,4,1,0,80,0,0
32859,-99.009900990099,4,1,0,80,0,0
32947,-98.0392156862745,4,1,0,80,0,0
33123,-96.1538461538461,4,1,0,80,0,0
33300,-94.3396226415094,4,1,0,80,0,0
33476,-92.5925925925926,4,1,0,80,0,0
33653,-100,4,1,0,80,0,0
35064,270.27027027027,7,1,0,90,1,0
35064,-105.263157894737,7,1,0,90,0,0
36955,270.27027027027,4,1,0,90,1,0
36955,-105.263157894737,4,1,0,90,0,0
39117,270.27027027027,7,1,0,90,1,0
39117,-105.263157894737,7,1,0,90,0,0
41008,270.27027027027,4,1,0,90,1,0
41008,-105.263157894737,4,1,0,90,0,0
43170,270.27027027027,4,1,0,90,1,0
43170,-105.263157894737,4,1,0,90,0,0
43305,-111.111111111111,4,1,0,90,0,0
60737,-125,4,1,0,70,0,0
61548,-126.865671641791,4,1,0,70,0,0
62629,-128.787878787879,4,1,0,70,0,0
63710,-130.769230769231,4,1,0,70,0,0
64791,-132.8125,4,1,0,70,0,0
65872,-134.920634920635,4,1,0,70,0,0
66953,-137.096774193548,4,1,0,70,0,0
68035,-139.344262295082,4,1,0,70,0,0
69116,-141.666666666667,4,1,0,70,0,0
70197,-144.067796610169,4,1,0,70,0,0
71278,-146.551724137931,4,1,0,70,0,0
72359,-149.122807017544,4,1,0,70,0,0
73440,-151.785714285714,4,1,0,70,0,0
74521,-154.545454545455,4,1,0,70,0,0
75602,-157.407407407407,4,1,0,70,0,0
76683,-160.377358490566,4,1,0,70,0,0
77764,-163.461538461538,4,1,0,70,0,0
78845,-166.666666666667,4,1,0,70,0,0
89724,-162.43654822335,4,1,0,70,0,0
89791,-158.415841584158,4,1,0,70,0,0
89859,-154.589371980676,4,1,0,70,0,0
89926,-150.943396226415,4,1,0,70,0,0
89994,-147.465437788018,4,1,0,70,0,0
90062,-144.144144144144,4,1,0,70,0,0
90129,-140.969162995595,4,1,0,70,0,0
90197,-137.931034482759,4,1,0,70,0,0
90264,-135.021097046414,4,1,0,70,0,0
90332,-132.231404958678,4,1,0,70,0,0
90399,-129.554655870445,4,1,0,70,0,0
90467,-126.984126984127,4,1,0,70,0,0
90535,-124.513618677043,4,1,0,70,0,0
90602,-122.137404580153,4,1,0,70,0,0
90670,-119.850187265918,4,1,0,70,0,0
90737,270.27027027027,7,1,0,80,1,0
90737,-117.647058823529,7,1,0,80,0,0
121277,-117.647058823529,7,1,0,60,0,0
122899,-142.857142857143,7,1,0,60,0,0
124791,-181.818181818182,7,1,0,60,0,0
126682,-250,7,1,0,60,0,0
128574,540.540540540541,4,1,0,60,1,0
128574,-166.666666666667,4,1,0,60,0,0
129655,540.540540540541,4,1,0,60,1,0
129655,-200,4,1,0,60,0,1
159655,-187.54688672168,4,1,0,60,0,1
159925,-177.085177970604,4,1,0,60,0,1
160195,-167.700821734027,4,1,0,60,0,1
160465,-159.261028826246,4,1,0,60,0,1
160736,-151.630022744503,4,1,0,60,0,1
161006,-144.696860078136,4,1,0,60,0,1
161276,-138.389150290617,4,1,0,60,0,1
161546,-132.59082471493,4,1,0,60,0,1
161817,-127.258844489692,4,1,0,60,0,1
162087,-122.339124051872,4,1,0,60,0,1
162357,-117.799505242078,4,1,0,60,0,1
162628,-113.571834185122,4,1,0,60,0,1
162898,-109.637101195044,4,1,0,60,0,1
163168,-105.965878986966,4,1,0,60,0,1
163438,-102.532554085922,4,1,0,60,0,1
163709,-99.3245927691696,4,1,0,60,0,1
163979,-96.3020030816641,4,1,0,60,0,1
164249,270.27027027027,4,1,0,60,1,0
164249,-186.915887850467,4,1,0,60,0,0
170732,-125,4,1,0,80,0,0
177221,-100,4,1,0,80,0,1
183640,-100,4,1,0,80,0,0

[HitObjects]
253,169,478,5,8,0:0:0:0:
206,221,654,1,0,0:0:0:0:
281,193,742,1,8,0:0:0:0:
167,197,830,1,0,0:0:0:0:
281,193,919,1,8,0:0:0:0:
167,197,1007,1,0,0:0:0:0:
167,197,1183,1,8,0:0:0:0:
167,197,1360,1,8,0:0:0:0:
167,197,1536,1,8,0:0:0:0:
167,197,1713,1,8,0:0:0:0:
167,197,1889,1,8,0:0:0:0:
167,197,2066,1,0,0:0:0:0:
235,173,2154,1,0,0:0:0:0:
167,197,2242,1,8,0:0:0:0:
235,173,2330,1,8,0:0:0:0:
167,197,2419,1,0,0:0:0:0:
167,197,2595,1,8,0:0:0:0:
167,197,2772,1,0,0:0:0:0:
235,173,2860,1,8,0:0:0:0:
167,197,3036,1,8,0:0:0:0:
303,121,3125,1,0,0:0:0:0:
167,197,3301,1,8,0:0:0:0:
167,197,3477,1,0,0:0:0:0:
231,161,3566,1,8,0:0:0:0:
167,197,3654,1,0,0:0:0:0:
167,197,3830,1,0,0:0:0:0:
167,197,4007,1,8,0:0:0:0:
208,140,4095,1,8,0:0:0:0:
167,197,4183,1,8,0:0:0:0:
208,140,4272,1,8,0:0:0:0:
167,197,4360,1,8,0:0:0:0:
167,197,4536,1,8,0:0:0:0:
167,197,4713,1,0,0:0:0:0:
167,197,4889,1,8,0:0:0:0:
240,146,4977,1,0,0:0:0:0:
167,197,5066,1,0,0:0:0:0:
240,146,5154,1,8,0:0:0:0:
167,197,5242,1,0,0:0:0:0:
167,197,5419,1,8,0:0:0:0:
167,197,5595,1,0,0:0:0:0:
240,146,5683,1,8,0:0:0:0:
167,197,5860,1,8,0:0:0:0:
167,197,5948,1,8,0:0:0:0:
223,154,6830,1,8,0:0:0:0:
223,154,7006,1,0,0:0:0:0:
223,154,7182,1,0,0:0:0:0:
223,154,7359,1,8,0:0:0:0:
234,177,7447,1,8,0:0:0:0:
223,154,7535,1,0,0:0:0:0:
223,154,7712,1,8,0:0:0:0:
223,154,7888,1,0,0:0:0:0:
223,154,8065,1,8,0:0:0:0:
223,154,8418,1,0,0:0:0:0:
265,151,8506,1,8,0:0:0:0:
223,154,8594,1,0,0:0:0:0:
223,154,8771,1,8,0:0:0:0:
223,154,8947,1,0,0:0:0:0:
243,148,9035,1,0,0:0:0:0:
223,154,9124,1,8,0:0:0:0:
243,148,9212,1,8,0:0:0:0:
223,154,9300,1,0,0:0:0:0:
223,154,9477,1,0,0:0:0:0:
223,154,9653,1,8,0:0:0:0:
223,154,9829,1,0,0:0:0:0:
242,149,9918,1,8,0:0:0:0:
223,154,10006,1,8,0:0:0:0:
223,154,10182,1,0,0:0:0:0:
223,154,10359,1,8,0:0:0:0:
223,154,10535,1,0,0:0:0:0:
316,167,10888,1,8,0:0:0:0:
244,125,10977,1,8,0:0:0:0:
316,167,11065,1,0,0:0:0:0:
316,167,11241,1,0,0:0:0:0:
318,175,11418,1,8,0:0:0:0:
318,175,11594,1,0,0:0:0:0:
243,132,11682,1,0,0:0:0:0:
318,175,11771,1,8,0:0:0:0:
318,175,11947,1,0,0:0:0:0:
318,175,12124,1,8,0:0:0:0:
318,175,12300,1,0,0:0:0:0:
243,132,12388,1,8,0:0:0:0:
318,175,12477,1,0,0:0:0:0:
318,175,12653,1,8,0:0:0:0:
318,175,12829,1,0,0:0:0:0:
318,175,13006,1,8,0:0:0:0:
318,175,13359,1,0,0:0:0:0:
241,137,13447,1,0,0:0:0:0:
318,175,13535,1,0,0:0:0:0:
318,175,13712,1,8,0:0:0:0:
318,175,13888,1,0,0:0:0:0:
241,137,13977,1,0,0:0:0:0:
318,175,14065,1,8,0:0:0:0:
241,137,14153,1,8,0:0:0:0:
318,175,14241,1,0,0:0:0:0:
318,175,14418,1,0,0:0:0:0:
318,175,14594,1,8,0:0:0:0:
318,175,14771,1,0,0:0:0:0:
241,137,14859,1,0,0:0:0:0:
318,175,14947,1,0,0:0:0:0:
318,175,15124,1,8,0:0:0:0:
318,175,15300,1,0,0:0:0:0:
318,175,15477,1,8,0:0:0:0:
318,175,15829,1,8,0:0:0:0:
241,139,15918,1,8,0:0:0:0:
318,175,16006,1,0,0:0:0:0:
318,175,16182,1,8,0:0:0:0:
318,175,16359,1,0,0:0:0:0:
241,139,16447,1,0,0:0:0:0:
318,175,16535,1,8,0:0:0:0:
241,139,16624,1,8,0:0:0:0:
318,175,16712,1,0,0:0:0:0:
226,229,17064,1,0,0:0:0:0:
226,229,17417,1,0,0:0:0:0:
226,229,17770,1,0,0:0:0:0:
226,229,18123,1,8,0:0:0:0:
226,229,18476,1,0,0:0:0:0:
226,229,18829,1,0,0:0:0:0:
226,229,19006,1,8,0:0:0:0:
226,229,19182,1,8,0:0:0:0:
321,159,19270,1,8,0:0:0:0:
226,229,19359,1,8,0:0:0:0:
226,229,19535,1,0,0:0:0:0:
226,229,19888,1,0,0:0:0:0:
219,226,20241,1,0,0:0:0:0:
210,225,20417,1,8,0:0:0:0:
292,166,20506,1,8,0:0:0:0:
219,226,20594,1,0,0:0:0:0:
292,166,20682,1,8,0:0:0:0:
209,225,20770,1,0,0:0:0:0:
209,225,20947,1,8,0:0:0:0:
246,173,21035,1,8,0:0:0:0:
209,225,21300,1,0,0:0:0:0:
246,173,21564,1,8,0:0:0:0:
209,225,21653,1,0,0:0:0:0:
209,225,21829,1,8,0:0:0:0:
237,158,21917,1,8,0:0:0:0:
209,225,22006,1,0,0:0:0:0:
209,225,22182,1,0,0:0:0:0:
209,225,22359,1,8,0:0:0:0:
262,161,22888,1,0,0:0:0:0:
262,161,23064,1,8,0:0:0:0:
262,161,23241,1,0,0:0:0:0:
198,206,23594,1,8,0:0:0:0:
198,206,23947,1,0,0:0:0:0:
198,206,24300,1,8,0:0:0:0:
198,206,24653,1,0,0:0:0:0:
198,206,24829,1,8,0:0:0:0:
198,206,25006,1,8,0:0:0:0:
198,206,25182,1,8,0:0:0:0:
198,206,25711,1,0,0:0:0:0:
198,206,25888,1,8,0:0:0:0:
198,206,26064,1,0,0:0:0:0:
198,206,26417,1,8,0:0:0:0:
198,206,26770,1,0,0:0:0:0:
198,206,27123,1,8,0:0:0:0:
198,206,27476,1,0,0:0:0:0:
198,206,27653,1,8,0:0:0:0:
278,171,27741,1,8,0:0:0:0:
198,206,27829,1,8,0:0:0:0:
272,183,27917,1,8,0:0:0:0:
278,171,28006,1,0,0:0:0:0:
200,212,28359,1,8,0:0:0:0:
200,212,28535,1,0,0:0:0:0:
200,212,28711,1,8,0:0:0:0:
200,212,29064,1,8,0:0:0:0:
222,176,29241,1,0,0:0:0:0:
222,176,29417,1,8,0:0:0:0:
222,176,29770,1,8,0:0:0:0:
222,176,29947,1,0,0:0:0:0:
222,176,30123,1,8,0:0:0:0:
222,176,30300,1,8,0:0:0:0:
272,133,30388,1,8,0:0:0:0:
222,176,30476,1,0,0:0:0:0:
222,176,30653,1,0,0:0:0:0:
222,176,30829,1,8,0:0:0:0:
222,176,31182,1,8,0:0:0:0:
222,176,31359,1,8,0:0:0:0:
222,176,31535,1,0,0:0:0:0:
222,176,31888,1,8,0:0:0:0:
222,176,32064,1,8,0:0:0:0:
253,145,32153,1,8,0:0:0:0:
222,176,32241,1,0,0:0:0:0:
222,176,32417,1,8,0:0:0:0:
222,176,32594,1,0,0:0:0:0:
222,176,32770,1,0,0:0:0:0:
253,145,32859,1,0,0:0:0:0:
222,176,32947,1,8,0:0:0:0:
222,176,33123,1,0,0:0:0:0:
222,176,33300,1,8,0:0:0:0:
222,176,33476,1,8,0:0:0:0:
215,195,35064,5,4,0:0:0:0:
230,177,35334,1,8,0:0:0:0:
224,182,35469,1,8,0:0:0:0:
224,182,35604,1,0,0:0:0:0:
224,182,35739,1,0,0:0:0:0:
154,215,35874,1,8,0:0:0:0:
154,215,36009,1,8,0:0:0:0:
154,215,36280,1,0,0:0:0:0:
154,215,36415,1,8,0:0:0:0:
154,215,36550,1,0,0:0:0:0:
154,215,36685,1,8,0:0:0:0:
154,215,36820,1,8,0:0:0:0:
154,215,36955,1,0,0:0:0:0:
217,192,37225,1,8,0:0:0:0:
185,200,37360,1,0,0:0:0:0:
217,192,37495,1,8,0:0:0:0:
217,192,37630,1,8,0:0:0:0:
217,192,37765,1,0,0:0:0:0:
185,200,37900,1,0,0:0:0:0:
185,200,38036,1,8,0:0:0:0:
185,200,38171,1,0,0:0:0:0:
185,200,38306,1,8,0:0:0:0:
185,201,38441,1,8,0:0:0:0:
185,201,38576,1,8,0:0:0:0:
185,200,38711,1,0,0:0:0:0:
185,203,38846,1,8,0:0:0:0:
185,200,38982,1,8,0:0:0:0:
185,200,39117,1,0,0:0:0:0:
185,201,39387,1,8,0:0:0:0:
189,206,39522,1,0,0:0:0:0:
185,203,39657,1,8,0:0:0:0:
189,206,39792,1,8,0:0:0:0:
185,201,39927,1,0,0:0:0:0:
189,206,40062,1,8,0:0:0:0:
189,206,40333,1,8,0:0:0:0:
185,203,40468,1,0,0:0:0:0:
189,207,40603,1,0,0:0:0:0:
189,206,40738,1,0,0:0:0:0:
189,206,40873,1,0,0:0:0:0:
189,206,41008,1,8,0:0:0:0:
215,135,41278,1,0,0:0:0:0:
216,136,41413,1,8,0:0:0:0:
214,160,41548,1,8,0:0:0:0:
214,167,41683,1,0,0:0:0:0:
214,167,41818,1,8,0:0:0:0:
214,167,41953,1,0,0:0:0:0:
184,207,42224,1,0,0:0:0:0:
184,207,42359,1,8,0:0:0:0:
184,207,42494,1,8,0:0:0:0:
184,207,42629,1,0,0:0:0:0:
184,207,42764,1,0,0:0:0:0:
184,207,42899,1,8,0:0:0:0:
184,207,43035,1,8,0:0:0:0:
192,223,43170,1,0,0:0:0:0:
199,220,43440,1,0,0:0:0:0:
200,220,43710,1,8,0:0:0:0:
200,220,43980,1,0,0:0:0:0:
200,220,44116,1,8,0:0:0:0:
199,220,44251,1,0,0:0:0:0:
199,220,44386,1,8,0:0:0:0:
200,220,44521,1,0,0:0:0:0:
200,220,44791,1,8,0:0:0:0:
200,220,45062,1,0,0:0:0:0:
199,220,45197,1,8,0:0:0:0:
240,177,45264,1,8,0:0:0:0:
199,220,45332,1,0,0:0:0:0:
249,176,45602,1,0,0:0:0:0:
249,176,45737,1,0,0:0:0:0:
249,176,45872,1,8,0:0:0:0:
247,131,46143,1,0,0:0:0:0:
247,131,46278,1,0,0:0:0:0:
247,131,46413,1,8,0:0:0:0:
250,143,46548,1,8,0:0:0:0:
251,143,46683,1,0,0:0:0:0:
252,143,46953,1,8,0:0:0:0:
252,143,47224,1,0,0:0:0:0:
251,143,47494,1,0,0:0:0:0:
252,143,47764,1,8,0:0:0:0:
252,143,47899,1,0,0:0:0:0:
252,143,48035,1,8,0:0:0:0:
251,143,48305,1,0,0:0:0:0:
252,143,48440,1,0,0:0:0:0:
252,143,48575,1,0,0:0:0:0:
252,143,48710,1,8,0:0:0:0:
252,143,48845,1,0,0:0:0:0:
251,143,49116,1,8,0:0:0:0:
252,143,49386,1,0,0:0:0:0:
252,143,49521,1,8,0:0:0:0:
252,143,49656,1,0,0:0:0:0:
251,143,49926,1,0,0:0:0:0:
252,143,50197,1,8,0:0:0:0:
252,143,50467,1,0,0:0:0:0:
251,143,50602,1,0,0:0:0:0:
251,143,50737,1,8,0:0:0:0:
252,143,50872,1,8,0:0:0:0:
252,143,51007,1,0,0:0:0:0:
252,143,51278,1,8,0:0:0:0:
251,143,51548,1,8,0:0:0:0:
252,143,51683,1,8,0:0:0:0:
252,143,51818,1,0,0:0:0:0:
252,143,52089,1,0,0:0:0:0:
207,199,52359,1,8,0:0:0:0:
207,199,52629,1,0,0:0:0:0:
207,199,52764,1,0,0:0:0:0:
207,199,52899,1,8,0:0:0:0:
207,199,53035,1,0,0:0:0:0:
207,199,53170,1,8,0:0:0:0:
207,199,53440,1,0,0:0:0:0:
207,199,53710,1,8,0:0:0:0:
207,199,53845,1,8,0:0:0:0:
207,199,53980,1,0,0:0:0:0:
207,199,54251,1,8,0:0:0:0:
207,199,54521,1,0,0:0:0:0:
207,199,54791,1,0,0:0:0:0:
207,199,54926,1,0,0:0:0:0:
207,199,55062,1,8,0:0:0:0:
207,199,55197,1,8,0:0:0:0:
207,199,55332,1,0,0:0:0:0:
207,199,55467,1,8,0:0:0:0:
207,199,55602,1,0,0:0:0:0:
207,199,55872,1,0,0:0:0:0:
207,199,56007,1,8,0:0:0:0:
207,199,56143,1,0,0:0:0:0:
207,199,56413,1,0,0:0:0:0:
207,199,56683,1,8,0:0:0:0:
207,199,56953,1,0,0:0:0:0:
207,199,57089,1,0,0:0:0:0:
207,199,57224,1,8,0:0:0:0:
207,199,57359,1,8,0:0:0:0:
207,199,57494,1,0,0:0:0:0:
207,199,57764,1,8,0:0:0:0:
207,199,58035,1,0,0:0:0:0:
207,199,58170,1,8,0:0:0:0:
207,199,58305,1,0,0:0:0:0:
207,199,58575,1,0,0:0:0:0:
207,199,58710,1,0,0:0:0:0:
207,199,58845,1,8,0:0:0:0:
207,199,58980,1,8,0:0:0:0:
207,199,59116,1,0,0:0:0:0:
207,199,59251,1,8,0:0:0:0:
207,199,59386,1,0,0:0:0:0:
207,199,59656,1,8,0:0:0:0:
207,199,59791,1,8,0:0:0:0:
207,199,59926,1,0,0:0:0:0:
207,199,60197,1,8,0:0:0:0:
208,202,79386,5,8,0:0:0:0:
249,181,80467,1,0,0:0:0:0:
203,184,81007,1,0,0:0:0:0:
269,163,81818,1,8,0:0:0:0:
180,239,81908,1,8,0:0:0:0:
180,239,81998,1,8,0:0:0:0:
180,239,82089,1,8,0:0:0:0:
180,239,82179,1,8,0:0:0:0:
180,239,82269,1,8,0:0:0:0:
180,239,82359,1,8,0:0:0:0:
230,188,82989,1,8,0:0:0:0:
182,175,83305,1,0,0:0:0:0:
182,175,83440,1,0,0:0:0:0:
182,175,83575,1,0,0:0:0:0:
190,184,84116,1,8,0:0:0:0:
256,144,84183,1,8,0:0:0:0:
233,155,84251,1,8,0:0:0:0:
229,165,84386,1,0,0:0:0:0:
190,184,84521,1,8,0:0:0:0:
256,144,84589,1,8,0:0:0:0:
190,184,84656,1,8,0:0:0:0:
225,201,85332,1,0,0:0:0:0:
204,208,85647,1,8,0:0:0:0:
178,168,85872,1,0,0:0:0:0:
178,168,86233,1,8,0:0:0:0:
187,193,86818,1,0,0:0:0:0:
184,176,87224,1,0,0:0:0:0:
181,186,87629,1,0,0:0:0:0:
244,189,88170,1,0,0:0:0:0:
258,148,88237,1,0,0:0:0:0:
244,189,88305,1,8,0:0:0:0:
244,189,88440,1,8,0:0:0:0:
244,189,88575,1,8,0:0:0:0:
244,189,88710,1,8,0:0:0:0:
244,189,88845,1,8,0:0:0:0:
213,188,89656,1,0,0:0:0:0:
258,148,89724,1,0,0:0:0:0:
213,188,89791,1,8,0:0:0:0:
213,188,89926,1,0,0:0:0:0:
258,148,89994,1,0,0:0:0:0:
258,148,90062,1,8,0:0:0:0:
213,188,90197,1,0,0:0:0:0:
258,148,90264,1,0,0:0:0:0:
213,188,90332,1,8,0:0:0:0:
213,188,90467,1,0,0:0:0:0:
258,148,90535,1,0,0:0:0:0:
213,188,90602,1,8,0:0:0:0:
257,164,90737,5,4,0:0:0:0:
208,167,91277,1,8,0:0:0:0:
217,206,91547,1,0,0:0:0:0:
217,206,91682,1,8,0:0:0:0:
254,142,91750,1,8,0:0:0:0:
217,206,91818,1,0,0:0:0:0:
274,206,92358,1,0,0:0:0:0:
274,206,92493,1,0,0:0:0:0:
274,206,92628,1,8,0:0:0:0:
274,206,93169,1,0,0:0:0:0:
274,206,93439,1,8,0:0:0:0:
274,206,93709,1,0,0:0:0:0:
274,206,93980,1,8,0:0:0:0:
274,206,94250,1,8,0:0:0:0:
183,186,94318,1,8,0:0:0:0:
254,158,94385,1,8,0:0:0:0:
274,206,94520,1,0,0:0:0:0:
243,180,95061,1,0,0:0:0:0:
240,189,95331,1,8,0:0:0:0:
240,189,95466,1,8,0:0:0:0:
260,166,95534,1,8,0:0:0:0:
240,189,95601,1,8,0:0:0:0:
240,189,96142,1,0,0:0:0:0:
240,189,96277,1,8,0:0:0:0:
240,189,96412,1,0,0:0:0:0:
240,189,96953,1,0,0:0:0:0:
240,189,97223,1,8,0:0:0:0:
234,194,97493,1,0,0:0:0:0:
259,176,97561,1,0,0:0:0:0:
234,194,97628,1,0,0:0:0:0:
234,194,97764,1,8,0:0:0:0:
230,199,98034,1,0,0:0:0:0:
230,199,98169,1,8,0:0:0:0:
234,194,98304,1,0,0:0:0:0:
229,207,98845,1,8,0:0:0:0:
229,207,99115,1,0,0:0:0:0:
294,206,99205,1,0,0:0:0:0:
294,206,99295,1,0,0:0:0:0:
229,207,99385,1,0,0:0:0:0:
198,216,99655,1,8,0:0:0:0:
196,218,99926,1,0,0:0:0:0:
198,216,100061,1,8,0:0:0:0:
196,219,100196,1,0,0:0:0:0:
196,218,100736,1,0,0:0:0:0:
198,216,101007,1,8,0:0:0:0:
196,218,101277,1,8,0:0:0:0:
196,218,101547,1,8,0:0:0:0:
194,222,101818,1,0,0:0:0:0:
196,218,102088,1,8,0:0:0:0:
193,174,102628,1,0,0:0:0:0:
192,182,102764,1,8,0:0:0:0:
193,174,102899,1,0,0:0:0:0:
189,188,103034,1,8,0:0:0:0:
250,167,103101,1,8,0:0:0:0:
192,184,103169,1,8,0:0:0:0:
246,188,103709,1,0,0:0:0:0:
246,188,103845,1,8,0:0:0:0:
246,188,103980,1,0,0:0:0:0:
246,188,104520,1,0,0:0:0:0:
239,197,104791,1,8,0:0:0:0:
239,198,105061,1,0,0:0:0:0:
338,78,105128,1,0,0:0:0:0:
239,198,105196,1,0,0:0:0:0:
239,198,105331,1,8,0:0:0:0:
239,197,105601,1,0,0:0:0:0:
239,197,105736,1,0,0:0:0:0:
239,198,105872,1,8,0:0:0:0:
235,205,106142,1,0,0:0:0:0:
235,206,106412,1,8,0:0:0:0:
235,207,106682,1,8,0:0:0:0:
288,147,106750,1,8,0:0:0:0:
288,147,106818,1,8,0:0:0:0:
235,205,106953,1,8,0:0:0:0:
235,206,107223,1,0,0:0:0:0:
235,207,107493,1,8,0:0:0:0:
281,152,107628,1,0,0:0:0:0:
235,205,107764,1,8,0:0:0:0:
235,206,108034,1,0,0:0:0:0:
235,207,108304,1,8,0:0:0:0:
235,205,108574,1,8,0:0:0:0:
235,206,108845,1,0,0:0:0:0:
235,207,109115,1,8,0:0:0:0:
235,205,109385,1,0,0:0:0:0:
295,178,109453,1,0,0:0:0:0:
295,178,109520,1,0,0:0:0:0:
235,206,109655,1,8,0:0:0:0:
235,207,109926,1,0,0:0:0:0:
235,205,110196,1,8,0:0:0:0:
235,206,110466,1,8,0:0:0:0:
223,171,110601,1,8,0:0:0:0:
235,207,110736,1,0,0:0:0:0:
235,205,111007,1,8,0:0:0:0:
235,206,111277,1,0,0:0:0:0:
220,173,111412,1,8,0:0:0:0:
235,207,111547,1,0,0:0:0:0:
235,205,111818,1,0,0:0:0:0:
235,206,112088,1,8,0:0:0:0:
235,207,112358,1,0,0:0:0:0:
234,211,112628,1,8,0:0:0:0:
205,177,112696,1,8,0:0:0:0:
205,177,112764,1,0,0:0:0:0:
234,212,112899,1,8,0:0:0:0:
235,207,113169,1,0,0:0:0:0:
205,177,113236,1,0,0:0:0:0:
205,177,113304,1,0,0:0:0:0:
234,211,113439,1,8,0:0:0:0:
234,212,113709,1,0,0:0:0:0:
235,207,113980,1,8,0:0:0:0:
234,211,114250,1,0,0:0:0:0:
304,224,114340,1,0,0:0:0:0:
304,224,114430,1,0,0:0:0:0:
234,212,114520,1,0,0:0:0:0:
235,207,114791,1,8,0:0:0:0:
234,211,115061,1,0,0:0:0:0:
258,199,115196,1,8,0:0:0:0:
234,212,115331,1,0,0:0:0:0:
235,207,115601,1,8,0:0:0:0:
234,211,115872,1,0,0:0:0:0:
234,212,116142,1,8,0:0:0:0:
235,207,116412,1,8,0:0:0:0:
234,211,116682,1,8,0:0:0:0:
234,212,116953,1,0,0:0:0:0:
235,207,117223,1,8,0:0:0:0:
234,211,117493,1,0,0:0:0:0:
234,212,117764,1,0,0:0:0:0:
194,211,117899,1,8,0:0:0:0:
235,207,118034,1,0,0:0:0:0:
192,217,118169,1,8,0:0:0:0:
234,211,118304,1,0,0:0:0:0:
234,212,118574,1,0,0:0:0:0:
234,214,118845,1,8,0:0:0:0:
192,224,118980,1,8,0:0:0:0:
234,211,119115,1,0,0:0:0:0:
234,212,119385,1,0,0:0:0:0:
234,214,119655,1,8,0:0:0:0:
234,211,119926,1,0,0:0:0:0:
234,212,120196,1,8,0:0:0:0:
190,226,120264,1,8,0:0:0:0:
190,226,120331,1,8,0:0:0:0:
234,214,120466,1,0,0:0:0:0:
234,211,120736,1,8,0:0:0:0:
190,226,120872,1,8,0:0:0:0:
226,212,129655,5,4,0:0:0:0:
225,202,130736,1,8,0:0:0:0:
217,203,131817,1,0,0:0:0:0:
217,203,132357,1,8,0:0:0:0:
214,210,132628,1,8,0:0:0:0:
217,203,132898,1,8,0:0:0:0:
212,220,133709,1,0,0:0:0:0:
213,218,133979,1,4,0:0:0:0:
212,220,135060,1,8,0:0:0:0:
212,220,136141,1,0,0:0:0:0:
212,220,136682,1,8,0:0:0:0:
212,220,136952,1,0,0:0:0:0:
212,220,137222,1,8,0:0:0:0:
212,220,137763,1,8,0:0:0:0:
212,220,138033,1,8,0:0:0:0:
212,220,138303,1,4,0:0:0:0:
212,220,139384,1,8,0:0:0:0:
215,226,140465,1,0,0:0:0:0:
215,226,140736,1,8,0:0:0:0:
215,226,141006,1,8,0:0:0:0:
215,226,141276,1,0,0:0:0:0:
215,226,141546,1,8,0:0:0:0:
215,226,142087,1,0,0:0:0:0:
215,226,142357,1,8,0:0:0:0:
215,226,142628,1,0,0:0:0:0:
218,232,143709,1,8,0:0:0:0:
218,232,144790,1,0,0:0:0:0:
218,232,145330,1,0,0:0:0:0:
218,232,145601,1,0,0:0:0:0:
218,232,145871,1,8,0:0:0:0:
218,232,146141,1,0,0:0:0:0:
218,232,146411,1,8,0:0:0:0:
218,232,146682,1,8,0:0:0:0:
218,232,146952,1,0,0:0:0:0:
193,216,147222,1,0,0:0:0:0:
192,207,147492,1,0,0:0:0:0:
193,217,147763,1,0,0:0:0:0:
193,216,148033,1,8,0:0:0:0:
239,182,149114,1,0,0:0:0:0:
239,182,149655,1,0,0:0:0:0:
239,182,149925,1,0,0:0:0:0:
239,182,150195,1,8,0:0:0:0:
239,189,150736,1,0,0:0:0:0:
239,191,151006,1,0,0:0:0:0:
239,189,151276,1,0,0:0:0:0:
239,191,152357,1,8,0:0:0:0:
239,191,153438,1,0,0:0:0:0:
239,191,153979,1,0,0:0:0:0:
239,191,154249,1,0,0:0:0:0:
239,191,154519,1,8,0:0:0:0:
239,191,155060,1,8,0:0:0:0:
239,191,155330,1,8,0:0:0:0:
239,191,155601,1,0,0:0:0:0:
239,191,156682,1,8,0:0:0:0:
239,191,157763,1,0,0:0:0:0:
239,191,158033,1,8,0:0:0:0:
239,191,158303,1,8,0:0:0:0:
239,191,158574,1,0,0:0:0:0:
239,191,158844,1,8,0:0:0:0:
202,176,159384,1,0,0:0:0:0:
202,176,159655,1,8,0:0:0:0:
202,176,159925,1,0,0:0:0:0:
202,176,160195,1,0,0:0:0:0:
202,176,160465,1,0,0:0:0:0:
202,176,160736,1,0,0:0:0:0:
202,176,161006,1,8,0:0:0:0:
202,176,161276,1,8,0:0:0:0:
202,176,161546,1,8,0:0:0:0:
205,182,161817,1,8,0:0:0:0:
205,182,162087,1,0,0:0:0:0:
205,186,162357,1,0,0:0:0:0:
205,182,162628,1,0,0:0:0:0:
205,182,162898,1,0,0:0:0:0:
205,186,163168,1,8,0:0:0:0:
205,182,163438,1,8,0:0:0:0:
205,182,163709,1,8,0:0:0:0:
205,186,163979,1,8,0:0:0:0:
205,182,164249,5,0,0:0:0:0:
205,189,164519,1,0,0:0:0:0:
205,186,164789,1,0,0:0:0:0:
205,189,165059,1,0,0:0:0:0:
205,189,165330,1,0,0:0:0:0:
205,186,165600,1,0,0:0:0:0:
205,189,165870,1,0,0:0:0:0:
205,189,166140,1,0,0:0:0:0:
205,186,166411,1,0,0:0:0:0:
205,189,166681,1,0,0:0:0:0:
205,189,166951,1,0,0:0:0:0:
205,186,167221,1,0,0:0:0:0:
205,189,167492,1,0,0:0:0:0:
205,189,167762,1,0,0:0:0:0:
205,186,168032,1,0,0:0:0:0:
205,189,168303,1,0,0:0:0:0:
205,189,168573,1,0,0:0:0:0:
205,186,168843,1,0,0:0:0:0:
205,189,169113,1,0,0:0:0:0:
205,189,169384,1,0,0:0:0:0:
205,186,169654,1,0,0:0:0:0:
205,189,169924,1,0,0:0:0:0:
205,189,170194,1,0,0:0:0:0:
205,186,170465,1,0,0:0:0:0:
166,187,170735,1,8,0:0:0:0:
166,187,170870,1,0,0:0:0:0:
166,187,171005,1,8,0:0:0:0:
266,161,171073,1,8,0:0:0:0:
170,191,171140,1,0,0:0:0:0:
266,161,171208,1,0,0:0:0:0:
198,229,171276,1,8,0:0:0:0:
198,229,171411,1,0,0:0:0:0:
198,229,171546,1,8,0:0:0:0:
198,229,171816,1,0,0:0:0:0:
198,229,171951,1,8,0:0:0:0:
256,159,172019,1,8,0:0:0:0:
198,229,172086,1,8,0:0:0:0:
198,229,172221,1,0,0:0:0:0:
199,229,172357,1,8,0:0:0:0:
230,160,172424,1,8,0:0:0:0:
256,159,172492,1,0,0:0:0:0:
198,229,172627,1,8,0:0:0:0:
185,167,172897,1,0,0:0:0:0:
185,167,173032,1,8,0:0:0:0:
185,167,173167,1,0,0:0:0:0:
205,154,173235,1,0,0:0:0:0:
185,167,173303,1,8,0:0:0:0:
207,153,173370,1,8,0:0:0:0:
185,167,173438,1,0,0:0:0:0:
185,167,173573,1,0,0:0:0:0:
185,167,173708,1,8,0:0:0:0:
185,167,173978,1,0,0:0:0:0:
185,167,174113,1,8,0:0:0:0:
214,154,174181,1,8,0:0:0:0:
185,167,174249,1,0,0:0:0:0:
185,167,174384,1,8,0:0:0:0:
185,167,174519,1,0,0:0:0:0:
219,160,174586,1,0,0:0:0:0:
185,167,174654,1,0,0:0:0:0:
185,167,174789,1,8,0:0:0:0:
185,167,175059,1,8,0:0:0:0:
185,167,175194,1,0,0:0:0:0:
238,149,175262,1,0,0:0:0:0:
219,160,175330,1,8,0:0:0:0:
185,167,175465,1,0,0:0:0:0:
261,125,175532,1,0,0:0:0:0:
185,167,175600,1,8,0:0:0:0:
261,125,175667,1,8,0:0:0:0:
186,168,175735,1,0,0:0:0:0:
185,167,175870,1,8,0:0:0:0:
185,167,176140,1,0,0:0:0:0:
185,167,176276,1,8,0:0:0:0:
230,145,176343,1,8,0:0:0:0:
185,167,176411,1,0,0:0:0:0:
186,168,176546,1,8,0:0:0:0:
185,167,176681,1,0,0:0:0:0:
216,129,176749,1,0,0:0:0:0:
230,145,176816,1,8,0:0:0:0:
185,167,176951,1,0,0:0:0:0:
185,167,177221,1,8,0:0:0:0:
185,141,177289,1,0,0:0:0:0:
186,168,177357,1,0,0:0:0:0:
185,167,177492,1,8,0:0:0:0:
185,167,177627,1,0,0:0:0:0:
185,167,177762,1,8,0:0:0:0:
185,167,177897,1,0,0:0:0:0:
180,133,177965,1,0,0:0:0:0:
185,167,178032,1,8,0:0:0:0:
179,133,178100,1,0,0:0:0:0:
186,168,178167,1,8,0:0:0:0:
185,167,178303,1,0,0:0:0:0:
185,167,178438,1,8,0:0:0:0:
179,133,178505,1,8,0:0:0:0:
185,167,178573,1,8,0:0:0:0:
191,187,178708,1,0,0:0:0:0:
186,176,178843,1,8,0:0:0:0:
191,187,179113,1,0,0:0:0:0:
191,187,179248,1,8,0:0:0:0:
191,187,179384,1,0,0:0:0:0:
178,136,179451,1,0,0:0:0:0:
191,187,179519,1,8,0:0:0:0:
178,136,179586,1,8,0:0:0:0:
191,187,179654,1,0,0:0:0:0:
191,187,179789,1,0,0:0:0:0:
191,187,179924,1,8,0:0:0:0:
178,136,179992,1,8,0:0:0:0:
191,187,180059,1,0,0:0:0:0:
191,187,180194,1,8,0:0:0:0:
178,136,180330,1,0,0:0:0:0:
219,90,180397,1,0,0:0:0:0:
191,187,180465,1,0,0:0:0:0:
191,187,180600,1,8,0:0:0:0:
178,136,180667,1,8,0:0:0:0:
191,187,180735,1,8,0:0:0:0:
191,187,180870,1,0,0:0:0:0:
191,187,181005,1,8,0:0:0:0:
191,187,181276,1,0,0:0:0:0:
205,133,181343,1,0,0:0:0:0:
191,187,181411,1,0,0:0:0:0:
205,133,181478,1,0,0:0:0:0:
191,187,181546,1,8,0:0:0:0:
191,187,181681,1,0,0:0:0:0:
191,187,181816,1,8,0:0:0:0:
191,187,181951,1,8,0:0:0:0:
196,131,182019,1,8,0:0:0:0:
191,187,182086,1,0,0:0:0:0:
191,187,182221,1,8,0:0:0:0:
191,187,182357,1,0,0:0:0:0:
191,187,182492,1,8,0:0:0:0:
191,187,182627,1,0,0:0:0:0:
196,131,182694,1,0,0:0:0:0:
191,187,182762,1,8,0:0:0:0:
196,131,182830,1,8,0:0:0:0:
193,188,182897,1,0,0:0:0:0:
191,187,183032,1,0,0:0:0:0:
194,193,183167,1,8,0:0:0:0:
195,196,183303,1,0,0:0:0:0:
194,193,183438,1,8,0:0:0:0:
204,135,183505,1,8,0:0:0:0:
195,194,183573,1,8,0:0:0:0:
