osu file format v14

[General]
AudioFilename: audio.mp3
AudioLeadIn: 0
PreviewTime: 6741
Countdown: 0
SampleSet: Normal
StackLeniency: 0.7
Mode: 1
LetterboxInBreaks: 0
WidescreenStoryboard: 0

[Editor]
Bookmarks: 35064,90737
DistanceSpacing: 1.3
BeatDivisor: 1
GridSize: 32
TimelineZoom: 3.699997

[Metadata]
Title:3 day observer
TitleUnicode:3 day observer
Artist:Tenchio
ArtistUnicode:Tenchio
Creator:skolodojko
Version:inner oni
Source:
Tags:fa featured artist math rock instrumental mapping to pander: taiko m2p #3 m2p#3 Crosshatching Holographs of a Cityscape (Antiopus) mpg mappers mappers' guild
BeatmapID:3839598
BeatmapSetID:1866570

[Difficulty]
HPDrainRate:5
CircleSize:2
OverallDifficulty:7
ApproachRate:10
SliderMultiplier:1.4
SliderTickRate:1

[Events]
//Background and Video events
0,0,"ho_ho_ho.jpg",0,0
//Break Periods
2,33676,34614
2,60467,78845
2,121139,128574
//Storyboard Layer 0 (Background)
//Storyboard Layer 1 (Fail)
//Storyboard Layer 2 (Pass)
//Storyboard Layer 3 (Foreground)
//Storyboard Layer 4 (Overlay)
//Storyboard Sound Samples

[TimingPoints]
478,352.941176470588,4,1,0,100,1,0
478,-84.7457627118644,4,1,0,100,0,0
566,-85.4700854700855,4,1,0,100,0,0
654,-86.2068965517241,4,1,0,100,0,0
742,-86.9565217391304,4,1,0,100,0,0
830,-87.719298245614,4,1,0,100,0,0
919,-88.4955752212389,4,1,0,100,0,0
1007,-89.2857142857143,4,1,0,100,0,0
1095,-90.0900900900901,4,1,0,100,0,0
1183,-90.9090909090909,4,1,0,100,0,0
1272,-90.0900900900901,4,1,0,100,0,0
1360,-89.2857142857143,4,1,0,100,0,0
1448,-88.4955752212389,4,1,0,100,0,0
1536,-87.719298245614,4,1,0,100,0,0
1625,-86.9565217391304,4,1,0,100,0,0
1713,-86.2068965517241,4,1,0,100,0,0
1801,-85.4700854700855,4,1,0,100,0,0
1889,-84.7457627118644,4,1,0,100,0,0
1955,-85.4700854700855,4,1,0,100,0,0
2043,-86.2068965517241,4,1,0,100,0,0
2131,-86.9565217391304,4,1,0,100,0,0
2219,-87.719298245614,4,1,0,100,0,0
2308,-88.4955752212389,4,1,0,100,0,0
2396,-89.2857142857143,4,1,0,100,0,0
2484,-90.0900900900901,4,1,0,100,0,0
2572,-90.9090909090909,4,1,0,100,0,0
2661,-90.0900900900901,4,1,0,100,0,0
2749,-89.2857142857143,4,1,0,100,0,0
2837,-88.4955752212389,4,1,0,100,0,0
2925,-87.719298245614,4,1,0,100,0,0
3014,-86.9565217391304,4,1,0,100,0,0
3102,-86.2068965517241,4,1,0,100,0,0
3190,-85.4700854700855,4,1,0,100,0,0
3278,-84.7457627118644,4,1,0,100,0,0
3344,-85.4700854700855,4,1,0,100,0,0
3432,-86.2068965517241,4,1,0,100,0,0
3520,-86.9565217391304,4,1,0,100,0,0
3608,-87.719298245614,4,1,0,100,0,0
3697,-88.4955752212389,4,1,0,100,0,0
3785,-89.2857142857143,4,1,0,100,0,0
3873,-90.0900900900901,4,1,0,100,0,0
3961,-90.9090909090909,4,1,0,100,0,0
4007,-84.7457627118644,4,1,0,100,0,0
4779,-85.4700854700855,4,1,0,100,0,0
4867,-86.2068965517241,4,1,0,100,0,0
4955,-86.9565217391304,4,1,0,100,0,0
5043,-87.719298245614,4,1,0,100,0,0
5132,-88.4955752212389,4,1,0,100,0,0
5220,-89.2857142857143,4,1,0,100,0,0
5308,-90.0900900900901,4,1,0,100,0,0
5396,-90.9090909090909,4,1,0,100,0,0
5419,-90.0900900900901,4,1,0,100,0,0
5507,-89.2857142857143,4,1,0,100,0,0
5595,-88.4955752212389,4,1,0,100,0,0
5683,-87.719298245614,4,1,0,100,0,0
5772,-86.9565217391304,4,1,0,100,0,0
5860,-86.2068965517241,4,1,0,100,0,0
5948,-85.4700854700855,4,1,0,100,0,0
6125,352.941176470588,4,1,0,100,1,8
6125,-95.2380952380952,4,1,0,100,0,0
6830,352.941176470588,7,1,0,100,1,0
6830,-95.2380952380952,7,1,0,100,0,0
16712,352.941176470588,4,1,0,80,1,0
16712,-95.2380952380952,4,1,0,80,0,0
16800,-95.8083832335329,4,1,0,80,0,0
16888,-96.3855421686747,4,1,0,80,0,0
16976,-96.969696969697,4,1,0,80,0,0
17064,-97.5609756097561,4,1,0,80,0,0
17153,-98.159509202454,4,1,0,80,0,0
17241,-98.7654320987654,4,1,0,80,0,0
17329,-99.3788819875776,4,1,0,80,0,0
17417,-100,4,1,0,80,0,0
17506,-100.62893081761,4,1,0,80,0,0
17594,-101.26582278481,4,1,0,80,0,0
17682,-101.910828025478,4,1,0,80,0,0
17770,-102.564102564103,4,1,0,80,0,0
17859,-103.225806451613,4,1,0,80,0,0
17947,-103.896103896104,4,1,0,80,0,0
18035,-104.575163398693,4,1,0,80,0,0
18123,-105.263157894737,4,1,0,80,0,0
18212,-105.960264900662,4,1,0,80,0,0
18300,-106.666666666667,4,1,0,80,0,0
18388,-107.38255033557,4,1,0,80,0,0
18476,-108.108108108108,4,1,0,80,0,0
18564,-108.843537414966,4,1,0,80,0,0
18653,-109.58904109589,4,1,0,80,0,0
18741,-110.344827586207,4,1,0,80,0,0
18829,-111.111111111111,4,1,0,80,0,0
18917,-111.888111888112,4,1,0,80,0,0
19006,-112.676056338028,4,1,0,80,0,0
19094,-113.475177304965,4,1,0,80,0,0
19182,-114.285714285714,4,1,0,80,0,0
19270,-115.107913669065,4,1,0,80,0,0
19359,-115.942028985507,4,1,0,80,0,0
19447,-116.788321167883,4,1,0,80,0,0
19535,-117.647058823529,4,1,0,80,0,0
22447,-125,4,1,0,60,0,0
27653,-121.951219512195,4,1,0,60,0,0
27741,-119.047619047619,4,1,0,60,0,0
27829,-116.279069767442,4,1,0,60,0,0
27917,-113.636363636364,4,1,0,60,0,0
27984,-111.111111111111,4,1,0,80,0,0
32064,-108.695652173913,4,1,0,80,0,0
32153,-107.52688172043,4,1,0,80,0,0
32241,-106.382978723404,4,1,0,80,0,0
32417,-104.166666666667,4,1,0,80,0,0
32594,-102.040816326531,4,1,0,80,0,0
32770,-100,4,1,0,80,0,0
32859,-99.009900990099,4,1,0,80,0,0
32947,-98.0392156862745,4,1,0,80,0,0
33123,-96.1538461538461,4,1,0,80,0,0
33300,-94.3396226415094,4,1,0,80,0,0
33476,-92.5925925925926,4,1,0,80,0,0
33653,-100,4,1,0,80,0,0
35064,270.27027027027,7,1,0,90,1,0
35064,-105.263157894737,7,1,0,90,0,0
36955,270.27027027027,4,1,0,90,1,0
36955,-105.263157894737,4,1,0,90,0,0
39117,270.27027027027,7,1,0,90,1,0
39117,-105.263157894737,7,1,0,90,0,0
40468,-111.111111111111,7,1,0,90,0,0
40603,-117.647058823529,7,1,0,90,0,0
40738,-125,7,1,0,90,0,0
40873,-133.333333333333,7,1,0,90,0,0
41008,270.27027027027,4,1,0,90,1,0
41008,-105.263157894737,4,1,0,90,0,0
43170,270.27027027027,4,1,0,90,1,0
43170,-105.263157894737,4,1,0,90,0,0
43305,-111.111111111111,4,1,0,90,0,0
60737,-125,4,1,0,70,0,0
61548,-128.787878787879,4,1,0,70,0,0
62629,-132.8125,4,1,0,70,0,0
63710,-137.096774193548,4,1,0,70,0,0
64791,-141.666666666667,4,1,0,70,0,0
65872,-146.551724137931,4,1,0,70,0,0
66953,-151.785714285714,4,1,0,70,0,0
68035,-157.407407407407,4,1,0,70,0,0
69116,-163.461538461538,4,1,0,70,0,0
70197,-170,4,1,0,70,0,0
71278,-177.083333333333,4,1,0,70,0,0
72359,-184.782608695652,4,1,0,70,0,0
73440,-193.181818181818,4,1,0,70,0,0
74521,-202.380952380952,4,1,0,70,0,0
75602,-212.5,4,1,0,70,0,0
76683,-223.684210526316,4,1,0,70,0,0
77764,-236.111111111111,4,1,0,70,0,0
78845,-250,4,1,0,70,0,0
81908,-243.90243902439,4,1,0,70,0,0
81998,-238.095238095238,4,1,0,70,0,0
82089,-232.558139534884,4,1,0,70,0,0
82179,-227.272727272727,4,1,0,70,0,0
82269,-222.222222222222,4,1,0,70,0,0
82359,-217.391304347826,4,1,0,70,0,0
82449,-250,4,1,0,70,0,0
83170,-238.095238095238,4,1,0,70,0,0
83260,-227.272727272727,4,1,0,70,0,0
83350,-217.391304347826,4,1,0,70,0,0
83530,-208.333333333333,4,1,0,70,0,0
83710,-250,4,1,0,70,0,0
84183,-246.913580246914,4,1,0,70,0,0
84251,-243.90243902439,4,1,0,70,0,0
84318,-240.963855421687,4,1,0,70,0,0
84386,-238.095238095238,4,1,0,70,0,0
84453,-235.294117647059,4,1,0,70,0,0
84521,-232.558139534884,4,1,0,70,0,0
84589,-229.885057471264,4,1,0,70,0,0
84656,-227.272727272727,4,1,0,70,0,0
84724,-224.719101123595,4,1,0,70,0,0
84791,-250,4,1,0,70,0,0
85377,-243.90243902439,4,1,0,70,0,0
85422,-238.095238095238,4,1,0,70,0,0
85467,-232.558139534884,4,1,0,70,0,0
85872,-250,4,1,0,70,0,0
85917,-243.90243902439,4,1,0,70,0,0
85962,-238.095238095238,4,1,0,70,0,0
86007,-250,4,1,0,70,0,0
86278,-243.90243902439,4,1,0,70,0,0
86323,-238.095238095238,4,1,0,70,0,0
86368,-232.558139534884,4,1,0,70,0,0
86413,-250,4,1,0,70,0,0
86841,-222.222222222222,4,1,0,70,0,0
87224,-250,4,1,0,70,0,0
87246,-222.222222222222,4,1,0,70,0,0
87494,-250,4,1,0,70,0,0
87629,-250,4,1,0,70,0,0
87652,-222.222222222222,4,1,0,70,0,0
87764,-250,4,1,0,70,0,0
88440,-238.095238095238,4,1,0,70,0,0
88575,-227.272727272727,4,1,0,70,0,0
88710,-217.391304347826,4,1,0,70,0,0
88845,-208.333333333333,4,1,0,70,0,0
88980,-250,4,1,0,70,0,0
89724,-230.880230880231,4,1,0,70,0,0
89791,-214.477211796247,4,1,0,70,0,0
89859,-200.250312891114,4,1,0,70,0,0
89926,-187.793427230047,4,1,0,70,0,0
89994,-176.795580110497,4,1,0,70,0,0
90062,-167.014613778706,4,1,0,70,0,0
90129,-158.259149357072,4,1,0,70,0,0
90197,-150.375939849624,4,1,0,70,0,0
90264,-143.240823634736,4,1,0,70,0,0
90332,-136.752136752137,4,1,0,70,0,0
90399,-130.825838103025,4,1,0,70,0,0
90467,-125.391849529781,4,1,0,70,0,0
90535,-120.391271632807,4,1,0,70,0,0
90602,-115.774240231548,4,1,0,70,0,0
90670,-111.498257839721,4,1,0,70,0,0
90737,270.27027027027,7,1,0,80,1,0
90737,-107.52688172043,7,1,0,80,0,0
90872,-117.647058823529,7,1,0,80,0,0
121277,-117.647058823529,7,1,0,60,0,0
122899,-142.857142857143,7,1,0,60,0,0
124791,-181.818181818182,7,1,0,60,0,0
126682,-250,7,1,0,60,0,0
128574,540.540540540541,4,1,0,60,1,0
128574,-166.666666666667,4,1,0,60,0,0
129655,540.540540540541,4,1,0,60,1,0
129655,-200,4,1,0,60,0,1
159655,-187.54688672168,4,1,0,60,0,1
159925,-177.085177970604,4,1,0,60,0,1
160195,-167.700821734027,4,1,0,60,0,1
160465,-159.261028826246,4,1,0,60,0,1
160736,-151.630022744503,4,1,0,60,0,1
161006,-144.696860078136,4,1,0,60,0,1
161276,-138.389150290617,4,1,0,60,0,1
161546,-132.59082471493,4,1,0,60,0,1
161817,-127.258844489692,4,1,0,60,0,1
162087,-122.339124051872,4,1,0,60,0,1
162357,-117.799505242078,4,1,0,60,0,1
162628,-113.571834185122,4,1,0,60,0,1
162898,-109.637101195044,4,1,0,60,0,1
163168,-105.965878986966,4,1,0,60,0,1
163438,-102.532554085922,4,1,0,60,0,1
163709,-99.3245927691696,4,1,0,60,0,1
163979,-96.3020030816641,4,1,0,60,0,1
164249,270.27027027027,4,1,0,60,1,0
164249,-186.915887850467,4,1,0,60,0,0
164515,-190.47619047619,4,1,0,60,0,0
164786,-194.174757281553,4,1,0,60,0,0
165056,-198.019801980198,4,1,0,60,0,0
165326,-202.020202020202,4,1,0,60,0,0
165597,-206.185567010309,4,1,0,60,0,0
165867,-210.526315789474,4,1,0,60,0,0
166137,-215.05376344086,4,1,0,60,0,0
166407,-219.78021978022,4,1,0,60,0,0
166678,-224.719101123595,4,1,0,60,0,0
166948,-229.885057471264,4,1,0,60,0,0
167218,-235.294117647059,4,1,0,60,0,0
167488,-240.963855421687,4,1,0,60,0,0
167759,-246.913580246914,4,1,0,60,0,0
168029,-253.164556962025,4,1,0,60,0,0
168299,-259.74025974026,4,1,0,60,0,0
168569,-266.666666666667,4,1,0,60,0,0
168840,-273.972602739726,4,1,0,60,0,0
169110,-281.69014084507,4,1,0,60,0,0
169380,-289.855072463768,4,1,0,60,0,0
169651,-298.507462686567,4,1,0,60,0,0
169921,-307.692307692308,4,1,0,60,0,0
170191,-317.460317460317,4,1,0,60,0,0
170461,-327.868852459016,4,1,0,60,0,0
170732,-100,4,1,0,80,0,0
177221,-100,4,1,0,80,0,1
177289,-99.58071278826,4,1,0,80,0,1
177357,-99.1649269311065,4,1,0,80,0,1
177424,-98.7525987525988,4,1,0,80,0,1
177492,-98.343685300207,4,1,0,80,0,1
177559,-97.9381443298969,4,1,0,80,0,1
177627,-97.5359342915811,4,1,0,80,0,1
177694,-97.1370143149284,4,1,0,80,0,1
177762,-96.7413441955193,4,1,0,80,0,1
177830,-96.3488843813387,4,1,0,80,0,1
177897,-95.959595959596,4,1,0,80,0,1
177965,-95.5734406438632,4,1,0,80,0,1
178032,-95.190380761523,4,1,0,80,0,1
178100,-94.810379241517,4,1,0,80,0,1
178167,-94.4333996023857,4,1,0,80,0,1
178235,-94.0594059405941,4,1,0,80,0,1
178303,-93.6883629191322,4,1,0,80,0,1
178370,-93.3202357563851,4,1,0,80,0,1
178438,-92.9549902152642,4,1,0,80,0,1
178505,-92.5925925925926,4,1,0,80,0,1
178573,-92.2330097087379,4,1,0,80,0,1
178640,-91.8762088974855,4,1,0,80,0,1
178708,-91.5221579961464,4,1,0,80,0,1
178776,-91.1708253358925,4,1,0,80,0,1
178843,-90.8221797323136,4,1,0,80,0,1
178911,-90.4761904761905,4,1,0,80,0,1
178978,-90.1328273244782,4,1,0,80,0,1
179046,-89.7920604914934,4,1,0,80,0,1
179113,-89.4538606403013,4,1,0,80,0,1
179181,-89.1181988742964,4,1,0,80,0,1
179248,-88.785046728972,4,1,0,80,0,1
179316,-88.4543761638734,4,1,0,80,0,1
179384,-88.126159554731,4,1,0,80,0,1
179451,-87.8003696857671,4,1,0,80,0,1
179519,-87.4769797421731,4,1,0,80,0,1
179586,-87.1559633027523,4,1,0,80,0,1
179654,-86.837294332724,4,1,0,80,0,1
179721,-86.5209471766849,4,1,0,80,0,1
179789,-86.2068965517241,4,1,0,80,0,1
179857,-85.8951175406872,4,1,0,80,0,1
179924,-85.5855855855856,4,1,0,80,0,1
179992,-85.278276481149,4,1,0,80,0,1
180059,-84.9731663685152,4,1,0,80,0,1
180127,-84.6702317290553,4,1,0,80,0,1
180194,-84.3694493783304,4,1,0,80,0,1
180262,-84.070796460177,4,1,0,80,0,1
180330,-83.7742504409171,4,1,0,80,0,1
180397,-83.4797891036907,4,1,0,80,0,1
180465,-83.1873905429072,4,1,0,80,0,1
180532,-82.8970331588133,4,1,0,80,0,1
180600,-82.6086956521739,4,1,0,80,0,1
180667,-82.3223570190641,4,1,0,80,0,1
180735,-82.0379965457686,4,1,0,80,0,1
180803,-81.7555938037866,4,1,0,80,0,1
180870,-81.47512864494,4,1,0,80,0,1
180938,-81.1965811965812,4,1,0,80,0,1
181005,-80.9199318568995,4,1,0,80,0,1
181073,-80.6451612903226,4,1,0,80,0,1
181140,-80.3722504230118,4,1,0,80,0,1
181208,-80.1011804384486,4,1,0,80,0,1
181276,-79.8319327731092,4,1,0,80,0,1
181343,-79.5644891122278,4,1,0,80,0,1
181411,-79.2988313856427,4,1,0,80,0,1
181478,-79.0349417637271,4,1,0,80,0,1
181546,-78.7728026533997,4,1,0,80,0,1
181613,-78.5123966942149,4,1,0,80,0,1
181681,-78.2537067545305,4,1,0,80,0,1
181748,-77.9967159277504,4,1,0,80,0,1
181816,-77.7414075286416,4,1,0,80,0,1
181884,-77.4877650897227,4,1,0,80,0,1
181951,-77.2357723577236,4,1,0,80,0,1
182019,-76.9854132901135,4,1,0,80,0,1
182086,-76.7366720516963,4,1,0,80,0,1
182154,-76.4895330112721,4,1,0,80,0,1
182221,-76.2439807383628,4,1,0,80,0,1
182289,-76,4,1,0,80,0,1
182357,-75.7575757575758,4,1,0,80,0,1
182424,-75.516693163752,4,1,0,80,0,1
182492,-75.2773375594295,4,1,0,80,0,1
182559,-75.0394944707741,4,1,0,80,0,1
182627,-74.8031496062992,4,1,0,80,0,1
182694,-74.5682888540031,4,1,0,80,0,1
182762,-74.3348982785603,4,1,0,80,0,1
182830,-74.1029641185648,4,1,0,80,0,1
182897,-73.8724727838258,4,1,0,80,0,1
182965,-73.6434108527132,4,1,0,80,0,1
183032,-73.4157650695518,4,1,0,80,0,1
183100,-73.1895223420647,4,1,0,80,0,1
183167,-72.9646697388633,4,1,0,80,0,1
183235,-72.7411944869832,4,1,0,80,0,1
183303,-72.5190839694657,4,1,0,80,0,1
183370,-72.2983257229833,4,1,0,80,0,1
183438,-72.0789074355084,4,1,0,80,0,1
183505,-71.8608169440242,4,1,0,80,0,1
183573,-71.6440422322775,4,1,0,80,0,1
183640,-71.4285714285714,4,1,0,80,0,0

[HitObjects]
260,124,478,5,8,0:0:0:0:
292,218,566,1,8,0:0:0:0:
232,206,654,1,0,0:0:0:0:
292,218,742,1,8,0:0:0:0:
232,206,830,1,8,0:0:0:0:
292,218,919,1,8,0:0:0:0:
232,206,1007,1,0,0:0:0:0:
292,218,1095,1,0,0:0:0:0:
232,206,1183,1,8,0:0:0:0:
292,218,1272,1,0,0:0:0:0:
305,183,1360,1,8,0:0:0:0:
292,218,1448,1,0,0:0:0:0:
305,183,1536,1,8,0:0:0:0:
292,218,1625,1,0,0:0:0:0:
305,183,1713,1,8,0:0:0:0:
292,218,1801,1,0,0:0:0:0:
305,183,1889,1,8,0:0:0:0:
292,218,1977,1,8,0:0:0:0:
305,183,2066,1,0,0:0:0:0:
292,218,2154,1,8,0:0:0:0:
305,183,2242,1,8,0:0:0:0:
292,218,2330,1,8,0:0:0:0:
305,183,2419,1,0,0:0:0:0:
292,218,2507,1,0,0:0:0:0:
305,183,2595,1,8,0:0:0:0:
292,218,2683,1,0,0:0:0:0:
305,183,2772,1,0,0:0:0:0:
292,218,2860,1,8,0:0:0:0:
305,183,2948,1,8,0:0:0:0:
292,218,3036,1,0,0:0:0:0:
305,183,3125,1,8,0:0:0:0:
292,218,3213,1,0,0:0:0:0:
305,183,3301,1,8,0:0:0:0:
292,218,3389,1,8,0:0:0:0:
305,183,3477,1,0,0:0:0:0:
292,218,3566,1,8,0:0:0:0:
305,183,3654,1,8,0:0:0:0:
292,218,3742,1,8,0:0:0:0:
305,183,3830,1,0,0:0:0:0:
292,218,3919,1,0,0:0:0:0:
305,183,4007,1,8,0:0:0:0:
292,218,4095,1,8,0:0:0:0:
305,183,4183,1,8,0:0:0:0:
292,218,4272,1,8,0:0:0:0:
305,183,4360,1,8,0:0:0:0:
292,218,4448,1,8,0:0:0:0:
305,183,4536,1,8,0:0:0:0:
292,218,4625,1,8,0:0:0:0:
305,183,4713,1,0,0:0:0:0:
292,218,4801,1,0,0:0:0:0:
305,183,4889,1,0,0:0:0:0:
292,218,4977,1,8,0:0:0:0:
305,183,5066,1,8,0:0:0:0:
292,218,5154,1,0,0:0:0:0:
305,183,5242,1,8,0:0:0:0:
292,218,5330,1,0,0:0:0:0:
305,183,5419,1,8,0:0:0:0:
289,224,5507,1,0,0:0:0:0:
305,183,5595,1,0,0:0:0:0:
289,224,5683,1,8,0:0:0:0:
305,183,5772,1,8,0:0:0:0:
289,224,5860,1,0,0:0:0:0:
305,183,5948,1,8,0:0:0:0:
331,200,6830,1,8,0:0:0:0:
331,200,7006,1,0,0:0:0:0:
331,200,7182,1,0,0:0:0:0:
331,200,7359,1,8,0:0:0:0:
256,207,7447,1,8,0:0:0:0:
331,200,7535,1,0,0:0:0:0:
331,200,7712,1,8,0:0:0:0:
331,200,7888,1,0,0:0:0:0:
331,200,8065,1,8,0:0:0:0:
331,200,8418,1,0,0:0:0:0:
243,160,8506,1,0,0:0:0:0:
331,200,8594,1,8,0:0:0:0:
331,200,8771,1,8,0:0:0:0:
331,200,8947,1,0,0:0:0:0:
243,160,9035,1,8,0:0:0:0:
331,200,9124,1,0,0:0:0:0:
309,121,9212,1,0,0:0:0:0:
331,200,9300,1,8,0:0:0:0:
331,200,9477,1,0,0:0:0:0:
331,200,9653,1,0,0:0:0:0:
331,200,9829,1,8,0:0:0:0:
206,201,9918,1,8,0:0:0:0:
331,200,10006,1,0,0:0:0:0:
331,200,10182,1,8,0:0:0:0:
331,200,10359,1,0,0:0:0:0:
331,200,10535,1,8,0:0:0:0:
331,200,10888,1,0,0:0:0:0:
256,135,10977,1,0,0:0:0:0:
331,200,11065,1,0,0:0:0:0:
331,200,11241,1,8,0:0:0:0:
331,200,11418,1,0,0:0:0:0:
331,200,11594,1,0,0:0:0:0:
308,132,11682,1,0,0:0:0:0:
331,200,11771,1,8,0:0:0:0:
331,200,11947,1,0,0:0:0:0:
331,200,12124,1,8,0:0:0:0:
331,200,12300,1,8,0:0:0:0:
250,144,12388,1,8,0:0:0:0:
331,200,12477,1,0,0:0:0:0:
331,200,12653,1,8,0:0:0:0:
278,148,12741,1,8,0:0:0:0:
331,200,12829,1,0,0:0:0:0:
278,148,12918,1,0,0:0:0:0:
331,200,13006,1,8,0:0:0:0:
331,200,13359,1,0,0:0:0:0:
250,140,13447,1,0,0:0:0:0:
331,200,13535,1,8,0:0:0:0:
331,200,13712,1,0,0:0:0:0:
331,200,13888,1,8,0:0:0:0:
250,140,13977,1,8,0:0:0:0:
331,200,14065,1,0,0:0:0:0:
278,149,14153,1,0,0:0:0:0:
331,200,14241,1,8,0:0:0:0:
331,200,14418,1,0,0:0:0:0:
331,200,14594,1,0,0:0:0:0:
331,200,14771,1,8,0:0:0:0:
250,140,14859,1,8,0:0:0:0:
331,200,14947,1,8,0:0:0:0:
331,200,15124,1,0,0:0:0:0:
331,200,15300,1,0,0:0:0:0:
276,98,15388,1,0,0:0:0:0:
331,200,15477,1,8,0:0:0:0:
331,200,15829,1,0,0:0:0:0:
252,143,15918,1,8,0:0:0:0:
331,200,16006,1,0,0:0:0:0:
331,200,16182,1,0,0:0:0:0:
331,200,16359,1,8,0:0:0:0:
252,143,16447,1,8,0:0:0:0:
331,200,16535,1,8,0:0:0:0:
252,143,16624,1,8,0:0:0:0:
331,200,16712,1,0,0:0:0:0:
286,191,17064,1,0,0:0:0:0:
286,191,17417,1,0,0:0:0:0:
286,191,17770,1,0,0:0:0:0:
234,121,18123,1,8,0:0:0:0:
190,167,18476,1,0,0:0:0:0:
200,195,18829,1,0,0:0:0:0:
201,195,19006,1,8,0:0:0:0:
200,195,19182,1,0,0:0:0:0:
285,148,19270,1,8,0:0:0:0:
201,195,19359,1,0,0:0:0:0:
200,195,19535,1,0,0:0:0:0:
201,195,19888,1,0,0:0:0:0:
200,195,20241,1,0,0:0:0:0:
201,195,20417,1,8,0:0:0:0:
285,158,20506,1,8,0:0:0:0:
201,195,20594,1,0,0:0:0:0:
285,158,20682,1,8,0:0:0:0:
201,195,20770,1,8,0:0:0:0:
224,223,20859,1,8,0:0:0:0:
224,223,20947,1,0,0:0:0:0:
224,223,21035,1,8,0:0:0:0:
201,195,21300,1,8,0:0:0:0:
286,172,21388,1,0,0:0:0:0:
242,250,21564,1,0,0:0:0:0:
201,195,21653,1,0,0:0:0:0:
241,172,21829,1,8,0:0:0:0:
241,172,21917,1,8,0:0:0:0:
201,195,22006,1,0,0:0:0:0:
264,148,22094,1,0,0:0:0:0:
241,172,22182,1,0,0:0:0:0:
197,100,22359,1,8,0:0:0:0:
247,178,22888,1,0,0:0:0:0:
243,183,23064,1,8,0:0:0:0:
242,184,23241,1,0,0:0:0:0:
242,184,23594,1,8,0:0:0:0:
185,176,23947,1,0,0:0:0:0:
198,194,24300,1,8,0:0:0:0:
201,198,24653,1,0,0:0:0:0:
202,198,24829,1,8,0:0:0:0:
198,194,25006,1,8,0:0:0:0:
202,199,25182,1,8,0:0:0:0:
201,198,25711,1,0,0:0:0:0:
202,198,25888,1,8,0:0:0:0:
203,200,26064,1,0,0:0:0:0:
201,198,26417,1,8,0:0:0:0:
263,154,26770,1,0,0:0:0:0:
263,154,27123,1,8,0:0:0:0:
263,154,27476,1,0,0:0:0:0:
263,154,27653,1,8,0:0:0:0:
226,209,27741,1,8,0:0:0:0:
263,154,27829,1,8,0:0:0:0:
226,209,27917,1,8,0:0:0:0:
172,226,28006,5,0,0:0:0:0:
260,184,28359,1,0,0:0:0:0:
256,193,28535,1,8,0:0:0:0:
242,166,28623,1,8,0:0:0:0:
256,193,28711,1,0,0:0:0:0:
256,193,28888,1,8,0:0:0:0:
256,193,29064,1,0,0:0:0:0:
256,193,29241,1,0,0:0:0:0:
242,166,29329,1,8,0:0:0:0:
256,193,29417,1,0,0:0:0:0:
223,138,29594,1,8,0:0:0:0:
231,183,29770,1,0,0:0:0:0:
231,186,29947,1,8,0:0:0:0:
219,151,30035,1,8,0:0:0:0:
231,191,30123,1,8,0:0:0:0:
231,192,30476,1,0,0:0:0:0:
231,193,30653,1,8,0:0:0:0:
215,187,30741,1,8,0:0:0:0:
231,193,30829,1,0,0:0:0:0:
231,191,31182,1,0,0:0:0:0:
216,186,31359,1,8,0:0:0:0:
265,144,31447,1,8,0:0:0:0:
231,193,31535,1,8,0:0:0:0:
231,193,31711,1,0,0:0:0:0:
231,193,31888,1,0,0:0:0:0:
231,191,32064,1,8,0:0:0:0:
265,144,32153,1,8,0:0:0:0:
231,191,32241,1,0,0:0:0:0:
231,192,32417,1,8,0:0:0:0:
231,193,32594,1,0,0:0:0:0:
231,193,32770,1,8,0:0:0:0:
265,144,32859,1,0,0:0:0:0:
231,193,32947,1,8,0:0:0:0:
231,191,33123,1,0,0:0:0:0:
231,192,33300,1,8,0:0:0:0:
231,193,33476,1,8,0:0:0:0:
232,195,35064,5,4,0:0:0:0:
232,195,35334,1,8,0:0:0:0:
232,195,35469,1,0,0:0:0:0:
232,195,35604,1,8,0:0:0:0:
232,195,35739,1,0,0:0:0:0:
232,195,35874,1,0,0:0:0:0:
264,144,35942,1,0,0:0:0:0:
232,195,36009,1,8,0:0:0:0:
232,195,36145,1,0,0:0:0:0:
232,195,36280,1,8,0:0:0:0:
232,195,36415,1,8,0:0:0:0:
232,195,36550,1,0,0:0:0:0:
232,195,36685,1,8,0:0:0:0:
232,195,36820,1,0,0:0:0:0:
232,195,36955,1,0,0:0:0:0:
232,195,37225,1,8,0:0:0:0:
232,195,37360,1,0,0:0:0:0:
232,195,37495,1,8,0:0:0:0:
232,195,37630,1,0,0:0:0:0:
246,150,37698,1,0,0:0:0:0:
232,195,37765,1,0,0:0:0:0:
232,195,37900,1,8,0:0:0:0:
232,195,38036,1,0,0:0:0:0:
232,195,38171,1,0,0:0:0:0:
232,195,38306,1,8,0:0:0:0:
232,195,38441,1,0,0:0:0:0:
232,195,38576,1,8,0:0:0:0:
247,155,38644,1,8,0:0:0:0:
232,195,38711,1,8,0:0:0:0:
247,155,38779,1,8,0:0:0:0:
232,195,38846,1,0,0:0:0:0:
196,63,38982,1,0,0:0:0:0:
232,195,39117,1,8,0:0:0:0:
232,195,39387,1,0,0:0:0:0:
192,223,39522,1,0,0:0:0:0:
192,223,39657,1,8,0:0:0:0:
246,155,39725,1,8,0:0:0:0:
192,223,39792,1,8,0:0:0:0:
192,223,39927,1,0,0:0:0:0:
192,223,40062,1,0,0:0:0:0:
192,223,40198,1,8,0:0:0:0:
192,223,40333,1,8,0:0:0:0:
192,223,40468,1,0,0:0:0:0:
192,223,40603,1,0,0:0:0:0:
192,223,40738,1,0,0:0:0:0:
192,223,40873,1,0,0:0:0:0:
192,223,41008,1,8,0:0:0:0:
192,223,41278,1,0,0:0:0:0:
192,223,41413,1,0,0:0:0:0:
192,223,41548,1,8,0:0:0:0:
192,223,41683,1,0,0:0:0:0:
192,223,41818,1,0,0:0:0:0:
192,223,41953,1,8,0:0:0:0:
192,223,42089,1,0,0:0:0:0:
246,155,42156,1,0,0:0:0:0:
192,223,42224,1,0,0:0:0:0:
246,155,42291,1,0,0:0:0:0:
192,223,42359,1,8,0:0:0:0:
192,223,42494,1,0,0:0:0:0:
192,223,42629,1,8,0:0:0:0:
192,223,42764,1,8,0:0:0:0:
192,223,42899,1,0,0:0:0:0:
192,223,43035,1,8,0:0:0:0:
192,223,43170,1,0,0:0:0:0:
199,220,43440,1,0,0:0:0:0:
263,135,43575,1,0,0:0:0:0:
200,220,43710,1,8,0:0:0:0:
245,112,43845,1,0,0:0:0:0:
200,220,43980,1,8,0:0:0:0:
200,220,44116,1,8,0:0:0:0:
199,220,44251,1,0,0:0:0:0:
199,220,44386,1,8,0:0:0:0:
200,220,44521,1,0,0:0:0:0:
263,116,44656,1,0,0:0:0:0:
200,220,44791,1,8,0:0:0:0:
200,220,45062,1,8,0:0:0:0:
234,182,45129,1,8,0:0:0:0:
199,220,45197,1,8,0:0:0:0:
240,177,45264,1,8,0:0:0:0:
199,220,45332,1,0,0:0:0:0:
249,176,45602,1,0,0:0:0:0:
249,176,45737,1,8,0:0:0:0:
249,176,45872,1,0,0:0:0:0:
234,120,46007,1,0,0:0:0:0:
247,131,46143,1,8,0:0:0:0:
247,131,46278,1,8,0:0:0:0:
247,131,46413,1,0,0:0:0:0:
250,143,46548,1,0,0:0:0:0:
251,143,46683,1,8,0:0:0:0:
252,143,46818,1,0,0:0:0:0:
252,143,46953,1,8,0:0:0:0:
252,143,47224,1,0,0:0:0:0:
251,143,47494,1,0,0:0:0:0:
252,143,47764,1,8,0:0:0:0:
252,143,47899,1,0,0:0:0:0:
252,143,48035,1,8,0:0:0:0:
210,118,48170,1,8,0:0:0:0:
251,143,48305,1,0,0:0:0:0:
252,143,48440,1,0,0:0:0:0:
252,143,48575,1,0,0:0:0:0:
252,143,48710,1,8,0:0:0:0:
252,143,48845,1,0,0:0:0:0:
251,143,49116,1,8,0:0:0:0:
252,143,49386,1,8,0:0:0:0:
252,143,49521,1,8,0:0:0:0:
252,143,49656,1,0,0:0:0:0:
251,143,49926,1,0,0:0:0:0:
202,129,50062,1,0,0:0:0:0:
252,143,50197,1,8,0:0:0:0:
202,129,50332,1,0,0:0:0:0:
252,143,50467,1,0,0:0:0:0:
251,143,50602,1,8,0:0:0:0:
251,143,50737,1,0,0:0:0:0:
252,143,50872,1,0,0:0:0:0:
252,143,51007,1,8,0:0:0:0:
252,143,51278,1,8,0:0:0:0:
251,143,51548,1,0,0:0:0:0:
252,143,51683,1,8,0:0:0:0:
252,143,51818,1,0,0:0:0:0:
252,143,52089,1,0,0:0:0:0:
198,137,52224,1,0,0:0:0:0:
207,199,52359,1,8,0:0:0:0:
198,137,52494,1,0,0:0:0:0:
207,199,52629,1,0,0:0:0:0:
207,199,52764,1,0,0:0:0:0:
207,199,52899,1,8,0:0:0:0:
207,199,53035,1,8,0:0:0:0:
207,199,53170,1,0,0:0:0:0:
221,141,53305,1,8,0:0:0:0:
207,199,53440,1,8,0:0:0:0:
207,199,53710,1,0,0:0:0:0:
269,189,53778,1,0,0:0:0:0:
207,199,53845,1,8,0:0:0:0:
269,189,53913,1,8,0:0:0:0:
207,199,53980,1,0,0:0:0:0:
207,199,54251,1,0,0:0:0:0:
215,163,54386,1,0,0:0:0:0:
207,199,54521,1,8,0:0:0:0:
215,163,54656,1,0,0:0:0:0:
207,199,54791,1,0,0:0:0:0:
207,199,54926,1,8,0:0:0:0:
207,199,55062,1,0,0:0:0:0:
207,199,55197,1,0,0:0:0:0:
207,199,55332,1,8,0:0:0:0:
207,199,55467,1,0,0:0:0:0:
207,199,55602,1,8,0:0:0:0:
207,199,55872,1,8,0:0:0:0:
207,199,56007,1,8,0:0:0:0:
207,199,56143,1,0,0:0:0:0:
207,199,56413,1,0,0:0:0:0:
221,163,56548,1,0,0:0:0:0:
207,199,56683,1,8,0:0:0:0:
221,163,56818,1,0,0:0:0:0:
207,199,56953,1,0,0:0:0:0:
207,199,57089,1,0,0:0:0:0:
207,199,57224,1,8,0:0:0:0:
207,199,57359,1,8,0:0:0:0:
207,199,57494,1,0,0:0:0:0:
207,199,57764,1,8,0:0:0:0:
207,199,58035,1,0,0:0:0:0:
207,199,58170,1,8,0:0:0:0:
207,199,58305,1,0,0:0:0:0:
207,199,58575,1,0,0:0:0:0:
207,199,58710,1,8,0:0:0:0:
207,199,58845,1,0,0:0:0:0:
207,199,58980,1,0,0:0:0:0:
207,199,59116,1,8,0:0:0:0:
207,199,59251,1,8,0:0:0:0:
207,199,59386,1,0,0:0:0:0:
207,199,59656,1,8,0:0:0:0:
207,199,59791,1,8,0:0:0:0:
207,199,59926,1,0,0:0:0:0:
207,199,60197,1,8,0:0:0:0:
232,188,79386,5,8,0:0:0:0:
304,113,80467,1,0,0:0:0:0:
297,121,81007,1,8,0:0:0:0:
288,139,81818,1,8,0:0:0:0:
225,209,81908,1,8,0:0:0:0:
225,209,81998,1,8,0:0:0:0:
232,207,82089,1,8,0:0:0:0:
234,205,82179,1,8,0:0:0:0:
234,206,82269,1,8,0:0:0:0:
232,207,82359,1,8,0:0:0:0:
265,172,82989,1,0,0:0:0:0:
231,194,83305,1,8,0:0:0:0:
245,154,83440,1,8,0:0:0:0:
245,154,83575,1,8,0:0:0:0:
286,224,84116,1,8,0:0:0:0:
286,224,84183,1,8,0:0:0:0:
286,224,84251,1,0,0:0:0:0:
286,224,84318,1,0,0:0:0:0:
286,224,84386,1,0,0:0:0:0:
286,224,84453,1,0,0:0:0:0:
286,224,84521,1,8,0:0:0:0:
286,224,84589,1,8,0:0:0:0:
263,218,84656,1,8,0:0:0:0:
286,224,84724,1,8,0:0:0:0:
306,174,85332,1,8,0:0:0:0:
130,246,85377,1,8,0:0:0:0:
130,246,85422,1,8,0:0:0:0:
130,246,85467,1,8,0:0:0:0:
212,164,85647,1,0,0:0:0:0:
152,194,85872,1,8,0:0:0:0:
152,194,85917,1,8,0:0:0:0:
152,194,85962,1,0,0:0:0:0:
217,157,86233,1,8,0:0:0:0:
186,174,86278,1,8,0:0:0:0:
199,205,86323,1,0,0:0:0:0:
199,205,86368,1,0,0:0:0:0:
169,173,86818,1,8,0:0:0:0:
302,172,86852,1,0,0:0:0:0:
187,161,87224,1,8,0:0:0:0:
184,161,87257,1,0,0:0:0:0:
234,141,87629,1,8,0:0:0:0:
234,141,87663,1,0,0:0:0:0:
241,177,88170,5,0,0:0:0:0:
266,172,88237,5,0,0:0:0:0:
241,177,88305,1,8,0:0:0:0:
241,177,88440,1,8,0:0:0:0:
241,177,88575,1,8,0:0:0:0:
241,177,88710,1,8,0:0:0:0:
241,177,88845,1,8,0:0:0:0:
252,197,89656,5,0,0:0:0:0:
236,141,89724,1,0,0:0:0:0:
252,197,89791,1,8,0:0:0:0:
252,197,89926,1,0,0:0:0:0:
236,141,89994,1,0,0:0:0:0:
252,197,90062,1,8,0:0:0:0:
252,197,90197,1,0,0:0:0:0:
236,141,90264,1,0,0:0:0:0:
252,197,90332,1,8,0:0:0:0:
252,197,90467,1,0,0:0:0:0:
236,141,90535,1,0,0:0:0:0:
252,197,90602,1,8,0:0:0:0:
257,164,90737,5,4,0:0:0:0:
208,167,91277,1,8,0:0:0:0:
217,206,91547,1,0,0:0:0:0:
253,144,91615,1,0,0:0:0:0:
217,206,91682,1,8,0:0:0:0:
254,142,91750,1,8,0:0:0:0:
217,206,91818,1,8,0:0:0:0:
274,206,92358,1,8,0:0:0:0:
274,206,92493,1,0,0:0:0:0:
274,206,92628,1,8,0:0:0:0:
274,206,93169,1,0,0:0:0:0:
274,206,93439,1,8,0:0:0:0:
274,206,93709,1,0,0:0:0:0:
274,206,93980,1,8,0:0:0:0:
274,206,94250,1,0,0:0:0:0:
162,231,94318,1,0,0:0:0:0:
162,231,94385,1,0,0:0:0:0:
274,206,94520,1,8,0:0:0:0:
243,180,95061,1,0,0:0:0:0:
240,189,95331,1,8,0:0:0:0:
240,189,95466,1,0,0:0:0:0:
260,166,95534,1,0,0:0:0:0:
240,189,95601,1,8,0:0:0:0:
240,189,96142,1,8,0:0:0:0:
240,189,96277,1,0,0:0:0:0:
240,189,96412,1,8,0:0:0:0:
240,189,96953,1,0,0:0:0:0:
240,189,97223,1,8,0:0:0:0:
234,194,97493,1,0,0:0:0:0:
259,176,97561,1,0,0:0:0:0:
234,194,97628,1,0,0:0:0:0:
234,194,97764,1,8,0:0:0:0:
230,199,98034,1,8,0:0:0:0:
259,176,98101,1,8,0:0:0:0:
230,199,98169,1,0,0:0:0:0:
259,176,98236,1,0,0:0:0:0:
234,194,98304,1,8,0:0:0:0:
229,207,98845,1,0,0:0:0:0:
229,207,99115,1,8,0:0:0:0:
294,206,99205,1,0,0:0:0:0:
294,206,99295,1,0,0:0:0:0:
229,207,99385,1,8,0:0:0:0:
198,216,99655,1,8,0:0:0:0:
196,218,99926,1,8,0:0:0:0:
198,216,100061,1,0,0:0:0:0:
196,219,100196,1,8,0:0:0:0:
196,218,100736,1,0,0:0:0:0:
198,216,101007,1,8,0:0:0:0:
196,218,101277,1,8,0:0:0:0:
196,218,101547,1,8,0:0:0:0:
194,222,101818,1,0,0:0:0:0:
196,218,102088,1,8,0:0:0:0:
193,174,102628,1,0,0:0:0:0:
192,182,102764,1,8,0:0:0:0:
193,174,102899,1,0,0:0:0:0:
189,188,103034,1,8,0:0:0:0:
250,167,103101,1,8,0:0:0:0:
192,184,103169,1,8,0:0:0:0:
246,188,103709,1,0,0:0:0:0:
246,188,103845,1,8,0:0:0:0:
246,188,103980,1,8,0:0:0:0:
246,188,104520,1,0,0:0:0:0:
239,197,104791,1,8,0:0:0:0:
239,198,105061,1,0,0:0:0:0:
338,78,105128,1,0,0:0:0:0:
239,198,105196,1,0,0:0:0:0:
239,198,105331,1,8,0:0:0:0:
239,197,105601,1,8,0:0:0:0:
245,174,105669,1,8,0:0:0:0:
239,197,105736,1,0,0:0:0:0:
245,174,105804,1,0,0:0:0:0:
239,198,105872,1,8,0:0:0:0:
235,205,106142,1,0,0:0:0:0:
235,206,106412,1,8,0:0:0:0:
235,207,106682,1,0,0:0:0:0:
316,196,106750,1,0,0:0:0:0:
316,196,106818,1,0,0:0:0:0:
235,205,106953,1,8,0:0:0:0:
235,206,107223,1,0,0:0:0:0:
235,207,107493,1,8,0:0:0:0:
281,152,107628,1,8,0:0:0:0:
235,205,107764,1,0,0:0:0:0:
235,206,108034,1,8,0:0:0:0:
235,207,108304,1,0,0:0:0:0:
235,205,108574,1,8,0:0:0:0:
235,206,108845,1,0,0:0:0:0:
235,207,109115,1,0,0:0:0:0:
235,205,109385,1,8,0:0:0:0:
295,178,109453,1,0,0:0:0:0:
295,178,109520,1,0,0:0:0:0:
235,206,109655,1,8,0:0:0:0:
235,207,109926,1,0,0:0:0:0:
235,205,110196,1,8,0:0:0:0:
235,206,110466,1,0,0:0:0:0:
223,171,110601,1,8,0:0:0:0:
235,207,110736,1,8,0:0:0:0:
235,205,111007,1,0,0:0:0:0:
235,206,111277,1,8,0:0:0:0:
220,173,111412,1,8,0:0:0:0:
235,207,111547,1,0,0:0:0:0:
235,205,111818,1,0,0:0:0:0:
235,206,112088,1,8,0:0:0:0:
235,207,112358,1,0,0:0:0:0:
234,211,112628,1,8,0:0:0:0:
205,177,112696,1,8,0:0:0:0:
205,177,112764,1,8,0:0:0:0:
234,212,112899,1,0,0:0:0:0:
235,207,113169,1,8,0:0:0:0:
205,177,113236,1,8,0:0:0:0:
205,177,113304,1,8,0:0:0:0:
205,177,113372,1,8,0:0:0:0:
234,211,113439,1,0,0:0:0:0:
234,212,113709,1,0,0:0:0:0:
235,207,113980,1,8,0:0:0:0:
234,211,114250,1,0,0:0:0:0:
304,224,114340,1,8,0:0:0:0:
304,224,114430,1,8,0:0:0:0:
234,212,114520,1,0,0:0:0:0:
235,207,114791,1,8,0:0:0:0:
234,211,115061,1,8,0:0:0:0:
258,199,115196,1,0,0:0:0:0:
234,212,115331,1,8,0:0:0:0:
235,207,115601,1,0,0:0:0:0:
234,211,115872,1,0,0:0:0:0:
234,212,116142,1,8,0:0:0:0:
235,207,116412,1,8,0:0:0:0:
234,211,116682,1,8,0:0:0:0:
234,212,116953,1,0,0:0:0:0:
235,207,117223,1,8,0:0:0:0:
234,211,117493,1,0,0:0:0:0:
234,212,117764,1,0,0:0:0:0:
194,211,117899,1,8,0:0:0:0:
235,207,118034,1,8,0:0:0:0:
192,217,118169,1,0,0:0:0:0:
234,211,118304,1,8,0:0:0:0:
234,212,118574,1,0,0:0:0:0:
234,214,118845,1,0,0:0:0:0:
192,224,118980,1,0,0:0:0:0:
234,211,119115,1,8,0:0:0:0:
234,212,119385,1,0,0:0:0:0:
234,214,119655,1,0,0:0:0:0:
234,211,119926,1,8,0:0:0:0:
234,212,120196,1,0,0:0:0:0:
190,226,120264,1,0,0:0:0:0:
190,226,120331,1,0,0:0:0:0:
234,214,120466,1,8,0:0:0:0:
234,211,120736,1,8,0:0:0:0:
190,226,120804,1,8,0:0:0:0:
190,226,120872,1,8,0:0:0:0:
190,226,120939,1,8,0:0:0:0:
226,212,129655,5,4,0:0:0:0:
225,202,130737,1,8,0:0:0:0:
217,203,131817,1,0,0:0:0:0:
217,203,132357,1,8,0:0:0:0:
214,210,132628,1,8,0:0:0:0:
217,203,132899,1,8,0:0:0:0:
212,220,133709,1,0,0:0:0:0:
213,218,133979,1,4,0:0:0:0:
212,220,135061,1,8,0:0:0:0:
212,220,136141,1,0,0:0:0:0:
212,220,136682,1,8,0:0:0:0:
212,220,136952,1,0,0:0:0:0:
212,220,137223,1,8,0:0:0:0:
212,220,137763,1,8,0:0:0:0:
212,220,138033,1,8,0:0:0:0:
212,220,138303,1,4,0:0:0:0:
212,220,139385,1,8,0:0:0:0:
215,226,140465,1,0,0:0:0:0:
215,226,140736,1,8,0:0:0:0:
215,226,141006,1,8,0:0:0:0:
215,226,141276,1,0,0:0:0:0:
215,226,141547,1,8,0:0:0:0:
215,226,142087,1,0,0:0:0:0:
215,226,142357,1,8,0:0:0:0:
215,226,142628,1,0,0:0:0:0:
218,232,143710,1,8,0:0:0:0:
218,232,144790,1,0,0:0:0:0:
218,232,145330,1,0,0:0:0:0:
218,232,145601,1,0,0:0:0:0:
218,232,145872,1,8,0:0:0:0:
218,232,146141,1,8,0:0:0:0:
218,232,146411,1,8,0:0:0:0:
218,232,146682,1,8,0:0:0:0:
218,232,146952,1,0,0:0:0:0:
193,216,147222,1,0,0:0:0:0:
192,207,147492,1,0,0:0:0:0:
193,217,147763,1,0,0:0:0:0:
193,216,148034,1,8,0:0:0:0:
239,182,149114,1,0,0:0:0:0:
239,182,149655,1,0,0:0:0:0:
239,182,149925,1,0,0:0:0:0:
239,182,150196,1,8,0:0:0:0:
239,189,150736,1,0,0:0:0:0:
239,191,151006,1,0,0:0:0:0:
239,189,151276,1,0,0:0:0:0:
239,191,152358,1,8,0:0:0:0:
239,191,153438,1,0,0:0:0:0:
239,191,153979,1,0,0:0:0:0:
239,191,154249,1,0,0:0:0:0:
239,191,154520,1,8,0:0:0:0:
239,191,155060,1,8,0:0:0:0:
239,191,155330,1,8,0:0:0:0:
239,191,155601,1,0,0:0:0:0:
239,191,156683,1,8,0:0:0:0:
239,191,157763,1,0,0:0:0:0:
239,191,158033,1,8,0:0:0:0:
239,191,158303,1,8,0:0:0:0:
239,191,158574,1,0,0:0:0:0:
239,191,158845,1,8,0:0:0:0:
202,176,159384,1,0,0:0:0:0:
202,176,159655,1,8,0:0:0:0:
202,176,159925,1,0,0:0:0:0:
202,176,160195,1,0,0:0:0:0:
202,176,160465,1,0,0:0:0:0:
202,176,160736,1,0,0:0:0:0:
202,176,161006,1,8,0:0:0:0:
202,176,161276,1,8,0:0:0:0:
202,176,161546,1,8,0:0:0:0:
205,182,161817,1,8,0:0:0:0:
205,182,162087,1,0,0:0:0:0:
205,186,162357,1,0,0:0:0:0:
205,182,162628,1,0,0:0:0:0:
205,182,162898,1,0,0:0:0:0:
205,186,163168,1,8,0:0:0:0:
205,182,163438,1,8,0:0:0:0:
205,182,163709,1,8,0:0:0:0:
205,186,163979,1,8,0:0:0:0:
205,182,164249,5,0,0:0:0:0:
205,189,164519,1,0,0:0:0:0:
205,186,164789,1,0,0:0:0:0:
205,189,165059,1,0,0:0:0:0:
205,189,165330,1,0,0:0:0:0:
205,186,165600,1,0,0:0:0:0:
205,189,165870,1,0,0:0:0:0:
205,189,166140,1,0,0:0:0:0:
205,186,166411,1,0,0:0:0:0:
205,189,166681,1,0,0:0:0:0:
205,189,166951,1,0,0:0:0:0:
205,186,167221,1,0,0:0:0:0:
205,189,167492,1,0,0:0:0:0:
205,189,167762,1,0,0:0:0:0:
205,186,168032,1,0,0:0:0:0:
205,189,168303,1,0,0:0:0:0:
205,189,168573,1,0,0:0:0:0:
205,186,168843,1,0,0:0:0:0:
205,189,169113,1,0,0:0:0:0:
205,189,169384,1,0,0:0:0:0:
205,186,169654,1,0,0:0:0:0:
205,189,169924,1,0,0:0:0:0:
205,189,170194,1,0,0:0:0:0:
205,186,170465,1,0,0:0:0:0:
205,189,170735,1,8,0:0:0:0:
226,170,170870,1,0,0:0:0:0:
226,170,171005,1,8,0:0:0:0:
206,141,171073,1,8,0:0:0:0:
212,137,171140,1,8,0:0:0:0:
206,141,171208,1,8,0:0:0:0:
226,170,171276,1,0,0:0:0:0:
226,170,171411,1,8,0:0:0:0:
237,135,171478,1,0,0:0:0:0:
226,170,171546,1,8,0:0:0:0:
236,135,171613,1,8,0:0:0:0:
226,170,171681,1,0,0:0:0:0:
236,135,171749,1,8,0:0:0:0:
226,170,171816,1,0,0:0:0:0:
226,170,171951,1,0,0:0:0:0:
236,135,172019,1,8,0:0:0:0:
226,170,172086,1,8,0:0:0:0:
340,88,172154,1,8,0:0:0:0:
226,170,172221,1,0,0:0:0:0:
237,135,172289,1,0,0:0:0:0:
226,170,172357,1,8,0:0:0:0:
237,135,172424,1,0,0:0:0:0:
226,170,172492,1,0,0:0:0:0:
236,135,172559,1,8,0:0:0:0:
226,170,172627,1,0,0:0:0:0:
229,140,172694,1,8,0:0:0:0:
226,170,172762,1,8,0:0:0:0:
229,140,172830,1,8,0:0:0:0:
226,170,172897,1,0,0:0:0:0:
226,170,173032,1,0,0:0:0:0:
213,149,173100,1,8,0:0:0:0:
226,170,173167,1,0,0:0:0:0:
307,115,173235,1,0,0:0:0:0:
226,170,173303,1,8,0:0:0:0:
340,221,173370,1,8,0:0:0:0:
226,170,173438,1,0,0:0:0:0:
206,153,173505,1,8,0:0:0:0:
226,170,173573,1,0,0:0:0:0:
208,153,173640,1,0,0:0:0:0:
226,170,173708,1,8,0:0:0:0:
207,153,173776,1,8,0:0:0:0:
226,170,173843,1,8,0:0:0:0:
207,153,173911,1,0,0:0:0:0:
208,152,173978,1,8,0:0:0:0:
208,153,174113,1,0,0:0:0:0:
223,143,174181,1,0,0:0:0:0:
226,170,174249,1,8,0:0:0:0:
223,144,174316,1,8,0:0:0:0:
226,170,174384,1,8,0:0:0:0:
223,144,174451,1,8,0:0:0:0:
226,170,174519,1,0,0:0:0:0:
226,170,174654,1,8,0:0:0:0:
249,142,174721,1,0,0:0:0:0:
226,170,174789,1,8,0:0:0:0:
317,197,174857,1,8,0:0:0:0:
226,170,174924,1,0,0:0:0:0:
317,197,174992,1,0,0:0:0:0:
226,170,175059,1,8,0:0:0:0:
245,161,175127,1,0,0:0:0:0:
226,170,175194,1,0,0:0:0:0:
245,161,175262,1,8,0:0:0:0:
226,170,175330,1,0,0:0:0:0:
317,197,175397,1,0,0:0:0:0:
226,170,175465,1,8,0:0:0:0:
241,164,175532,1,0,0:0:0:0:
226,170,175600,1,8,0:0:0:0:
243,163,175667,1,8,0:0:0:0:
226,170,175735,1,0,0:0:0:0:
241,164,175803,1,8,0:0:0:0:
226,170,175870,1,0,0:0:0:0:
241,164,175938,1,8,0:0:0:0:
226,170,176005,1,0,0:0:0:0:
245,161,176073,1,0,0:0:0:0:
226,170,176140,1,8,0:0:0:0:
226,170,176276,1,0,0:0:0:0:
243,163,176343,1,0,0:0:0:0:
226,170,176411,1,8,0:0:0:0:
311,194,176478,1,0,0:0:0:0:
311,194,176546,1,8,0:0:0:0:
311,194,176613,1,8,0:0:0:0:
226,170,176681,1,8,0:0:0:0:
241,164,176749,1,0,0:0:0:0:
226,170,176816,1,8,0:0:0:0:
241,164,176884,1,8,0:0:0:0:
226,170,176951,1,0,0:0:0:0:
248,154,177019,1,0,0:0:0:0:
226,170,177086,1,0,0:0:0:0:
189,112,177154,1,0,0:0:0:0:
226,170,177221,1,8,0:0:0:0:
247,154,177289,1,0,0:0:0:0:
242,159,177357,1,0,0:0:0:0:
247,154,177424,1,0,0:0:0:0:
226,170,177492,1,8,0:0:0:0:
247,154,177559,1,0,0:0:0:0:
202,171,177627,1,8,0:0:0:0:
247,154,177694,1,8,0:0:0:0:
202,171,177762,1,0,0:0:0:0:
247,154,177830,1,8,0:0:0:0:
202,171,177897,1,8,0:0:0:0:
247,154,177965,1,0,0:0:0:0:
202,171,178032,1,0,0:0:0:0:
248,154,178100,1,0,0:0:0:0:
202,171,178167,1,8,0:0:0:0:
247,154,178235,1,0,0:0:0:0:
202,171,178303,1,0,0:0:0:0:
247,154,178370,1,8,0:0:0:0:
202,171,178438,1,0,0:0:0:0:
247,154,178505,1,8,0:0:0:0:
202,171,178573,1,8,0:0:0:0:
247,154,178640,1,8,0:0:0:0:
202,171,178708,1,8,0:0:0:0:
255,152,178776,1,0,0:0:0:0:
257,152,178843,1,0,0:0:0:0:
227,166,178911,1,8,0:0:0:0:
257,151,178978,1,8,0:0:0:0:
230,166,179046,1,0,0:0:0:0:
256,151,179113,1,8,0:0:0:0:
230,165,179181,1,0,0:0:0:0:
202,171,179248,1,0,0:0:0:0:
230,165,179316,1,0,0:0:0:0:
202,171,179384,1,8,0:0:0:0:
230,165,179451,1,0,0:0:0:0:
202,171,179519,1,0,0:0:0:0:
230,165,179586,1,8,0:0:0:0:
202,171,179654,1,0,0:0:0:0:
230,165,179721,1,8,0:0:0:0:
202,171,179789,1,8,0:0:0:0:
227,166,179857,1,0,0:0:0:0:
202,171,179924,1,0,0:0:0:0:
230,166,179992,1,0,0:0:0:0:
202,171,180059,1,0,0:0:0:0:
230,165,180127,1,8,0:0:0:0:
202,171,180194,1,0,0:0:0:0:
230,165,180262,1,8,0:0:0:0:
202,171,180330,1,8,0:0:0:0:
230,165,180397,1,0,0:0:0:0:
202,171,180465,1,8,0:0:0:0:
230,165,180532,1,8,0:0:0:0:
202,171,180600,1,0,0:0:0:0:
230,165,180667,1,8,0:0:0:0:
202,171,180735,1,0,0:0:0:0:
227,166,180803,1,0,0:0:0:0:
202,171,180870,1,0,0:0:0:0:
230,166,180938,1,8,0:0:0:0:
202,171,181005,1,0,0:0:0:0:
230,165,181073,1,0,0:0:0:0:
202,171,181140,1,8,0:0:0:0:
230,165,181208,1,8,0:0:0:0:
202,171,181276,1,8,0:0:0:0:
230,165,181343,1,0,0:0:0:0:
202,171,181411,1,0,0:0:0:0:
230,165,181478,1,8,0:0:0:0:
202,171,181546,1,8,0:0:0:0:
230,165,181613,1,0,0:0:0:0:
202,171,181681,1,8,0:0:0:0:
227,166,181748,1,0,0:0:0:0:
202,171,181816,1,8,0:0:0:0:
230,166,181884,1,0,0:0:0:0:
202,171,181951,1,0,0:0:0:0:
230,165,182019,1,0,0:0:0:0:
202,171,182086,1,0,0:0:0:0:
230,165,182154,1,8,0:0:0:0:
202,171,182221,1,8,0:0:0:0:
230,165,182289,1,0,0:0:0:0:
202,171,182357,1,8,0:0:0:0:
230,165,182424,1,8,0:0:0:0:
202,171,182492,1,0,0:0:0:0:
230,165,182559,1,8,0:0:0:0:
202,171,182627,1,0,0:0:0:0:
227,166,182694,1,0,0:0:0:0:
202,171,182762,1,0,0:0:0:0:
230,166,182830,1,8,0:0:0:0:
202,171,182897,1,8,0:0:0:0:
230,165,182965,1,0,0:0:0:0:
202,171,183032,1,0,0:0:0:0:
230,165,183100,1,8,0:0:0:0:
202,171,183167,1,0,0:0:0:0:
230,165,183235,1,0,0:0:0:0:
202,171,183303,1,8,0:0:0:0:
230,165,183370,1,0,0:0:0:0:
202,171,183438,1,8,0:0:0:0:
230,165,183505,1,8,0:0:0:0:
202,171,183573,1,0,0:0:0:0:
227,166,183640,1,8,0:0:0:0:
