osu file format v14

[General]
AudioFilename: audio.mp3
AudioLeadIn: 0
PreviewTime: 6741
Countdown: 0
SampleSet: Normal
StackLeniency: 0.7
Mode: 1
LetterboxInBreaks: 0
WidescreenStoryboard: 1

[Editor]
Bookmarks: 35064,90737
DistanceSpacing: 1.3
BeatDivisor: 3
GridSize: 32
TimelineZoom: 3.499998

[Metadata]
Title:3 day observer
TitleUnicode:3 day observer
Artist:Tenchio
ArtistUnicode:Tenchio
Creator:skolodojko
Version:futsuu
Source:
Tags:fa featured artist math rock instrumental mapping to pander: taiko m2p #3 m2p#3 Crosshatching Holographs of a Cityscape (Antiopus) mpg mappers mappers' guild
BeatmapID:3839988
BeatmapSetID:1866570

[Difficulty]
HPDrainRate:7.5
CircleSize:2
OverallDifficulty:4
ApproachRate:10
SliderMultiplier:1.4
SliderTickRate:1

[Events]
//Background and Video events
0,0,"ho_ho_ho.jpg",0,0
//Break Periods
2,33676,34614
2,60467,78845
2,121072,129205
//Storyboard Layer 0 (Background)
//Storyboard Layer 1 (Fail)
//Storyboard Layer 2 (Pass)
//Storyboard Layer 3 (Foreground)
//Storyboard Layer 4 (Overlay)
//Storyboard Sound Samples

[TimingPoints]
478,352.941176470588,4,1,0,100,1,0
478,-100,4,1,0,100,0,0
6125,352.941176470588,4,1,0,100,1,8
6125,-100,4,1,0,100,0,0
6830,352.941176470588,7,1,0,100,1,0
6830,-100,7,1,0,100,0,0
16712,352.941176470588,4,1,0,80,1,0
16712,-100,4,1,0,80,0,0
22447,-100,4,1,0,60,0,0
27984,-100,4,1,0,80,0,0
35064,270.27027027027,7,1,0,90,1,0
35064,-130.588235294118,7,1,0,90,0,0
36955,270.27027027027,4,1,0,90,1,0
36955,-130.588235294118,4,1,0,90,0,0
39117,270.27027027027,7,1,0,90,1,0
39117,-130.588235294118,7,1,0,90,0,0
41008,270.27027027027,4,1,0,90,1,0
41008,-130.588235294118,4,1,0,90,0,0
43102,-130.588235294118,4,1,0,90,0,0
43170,270.27027027027,4,1,0,90,1,0
43170,-130.588235294118,4,1,0,90,0,0
60737,-130.588235294118,4,1,0,70,0,0
61548,-130.588235294118,4,1,0,70,0,0
62629,-130.588235294118,4,1,0,70,0,0
63710,-130.588235294118,4,1,0,70,0,0
64791,-130.588235294118,4,1,0,70,0,0
65872,-130.588235294118,4,1,0,70,0,0
66953,-130.588235294118,4,1,0,70,0,0
68035,-130.588235294118,4,1,0,70,0,0
69116,-130.588235294118,4,1,0,70,0,0
70197,-130.588235294118,4,1,0,70,0,0
71278,-130.588235294118,4,1,0,70,0,0
72359,-130.588235294118,4,1,0,70,0,0
73440,-130.588235294118,4,1,0,70,0,0
74521,-130.588235294118,4,1,0,70,0,0
75602,-130.588235294118,4,1,0,70,0,0
76683,-130.588235294118,4,1,0,70,0,0
77764,-130.588235294118,4,1,0,70,0,0
78845,-130.588235294118,4,1,0,70,0,0
89724,-130.588235294118,4,1,0,70,0,0
89791,-130.588235294118,4,1,0,70,0,0
89859,-130.588235294118,4,1,0,70,0,0
89926,-130.588235294118,4,1,0,70,0,0
89994,-130.588235294118,4,1,0,70,0,0
90062,-130.588235294118,4,1,0,70,0,0
90129,-130.588235294118,4,1,0,70,0,0
90197,-130.588235294118,4,1,0,70,0,0
90264,-130.588235294118,4,1,0,70,0,0
90332,-130.588235294118,4,1,0,70,0,0
90399,-130.588235294118,4,1,0,70,0,0
90467,-130.588235294118,4,1,0,70,0,0
90535,-130.588235294118,4,1,0,70,0,0
90602,-130.588235294118,4,1,0,70,0,0
90670,-130.588235294118,4,1,0,70,0,0
90737,270.27027027027,7,1,0,80,1,0
90737,-130.588235294118,7,1,0,80,0,0
121277,-130.582397492818,7,1,0,60,0,0
122899,-130.588235294118,7,1,0,60,0,0
124791,-130.588235294118,7,1,0,60,0,0
126682,-130.588235294118,7,1,0,60,0,0
128574,540.540540540541,4,1,0,60,1,0
128574,-65.2941176470588,4,1,0,60,0,0
129655,540.540540540541,4,1,0,60,1,0
129655,-65.2941176470588,4,1,0,60,0,1
159655,-65.2941176470588,4,1,0,60,0,1
159925,-65.2941176470588,4,1,0,60,0,1
160195,-65.2941176470588,4,1,0,60,0,1
160465,-65.2941176470588,4,1,0,60,0,1
160736,-65.2941176470588,4,1,0,60,0,1
161006,-65.2941176470588,4,1,0,60,0,1
161276,-65.2941176470588,4,1,0,60,0,1
161546,-65.2941176470588,4,1,0,60,0,1
161817,-65.2941176470588,4,1,0,60,0,1
162087,-65.2941176470588,4,1,0,60,0,1
162357,-65.2941176470588,4,1,0,60,0,1
162628,-65.2941176470588,4,1,0,60,0,1
162898,-65.2941176470588,4,1,0,60,0,1
163168,-65.2941176470588,4,1,0,60,0,1
163438,-65.2941176470588,4,1,0,60,0,1
163709,-65.2941176470588,4,1,0,60,0,1
163979,-65.2941176470588,4,1,0,60,0,1
164114,-65.2941176470588,4,1,0,60,0,1
164249,270.27027027027,4,1,0,60,1,0
164249,-130.588235294118,4,1,0,60,0,0
170732,-130.588235294118,4,1,0,80,0,0
177221,-130.588235294118,4,1,0,80,0,1
183640,-130.588235294118,4,1,0,80,0,0

[HitObjects]
290,210,478,5,8,0:0:0:0:
222,207,654,1,0,0:0:0:0:
222,207,830,1,8,0:0:0:0:
222,207,1007,1,8,0:0:0:0:
222,207,1183,1,0,0:0:0:0:
222,207,1536,1,0,0:0:0:0:
222,207,1889,1,8,0:0:0:0:
222,207,2242,1,8,0:0:0:0:
222,207,2419,1,8,0:0:0:0:
222,207,2595,1,0,0:0:0:0:
223,214,3301,1,8,0:0:0:0:
223,214,3477,1,8,0:0:0:0:
223,214,3654,1,0,0:0:0:0:
223,214,3830,1,8,0:0:0:0:
262,167,4007,1,0,0:0:0:0:
262,167,4360,1,0,0:0:0:0:
262,167,4713,1,8,0:0:0:0:
258,172,5066,1,0,0:0:0:0:
258,172,5242,1,8,0:0:0:0:
258,172,5419,1,0,0:0:0:0:
195,202,5683,1,8,0:0:0:0:
195,202,5948,1,8,0:0:0:0:
234,183,6830,1,8,0:0:0:0:
234,183,7006,1,8,0:0:0:0:
234,183,7182,1,0,0:0:0:0:
234,183,7359,1,8,0:0:0:0:
228,142,7535,1,0,0:0:0:0:
234,183,7888,1,0,0:0:0:0:
239,194,8065,1,8,0:0:0:0:
209,189,8418,1,0,0:0:0:0:
209,189,8594,1,0,0:0:0:0:
209,189,8947,1,8,0:0:0:0:
209,189,9300,1,0,0:0:0:0:
209,189,9477,1,0,0:0:0:0:
209,189,9653,1,8,0:0:0:0:
209,189,9829,1,0,0:0:0:0:
209,189,10182,1,0,0:0:0:0:
209,189,10359,1,8,0:0:0:0:
209,189,10535,1,0,0:0:0:0:
209,189,10888,1,8,0:0:0:0:
209,189,11065,1,8,0:0:0:0:
234,183,11771,1,8,0:0:0:0:
234,183,11947,1,0,0:0:0:0:
234,183,12124,1,8,0:0:0:0:
234,183,12300,1,8,0:0:0:0:
228,142,12477,1,0,0:0:0:0:
234,183,12829,1,0,0:0:0:0:
239,194,13006,1,8,0:0:0:0:
209,189,13359,1,0,0:0:0:0:
209,189,13535,1,0,0:0:0:0:
209,189,13888,1,8,0:0:0:0:
209,189,14241,1,0,0:0:0:0:
209,189,14418,1,8,0:0:0:0:
209,189,14594,1,0,0:0:0:0:
209,189,14771,1,8,0:0:0:0:
209,189,15124,1,0,0:0:0:0:
209,189,15300,1,0,0:0:0:0:
209,189,15477,1,8,0:0:0:0:
209,189,15829,1,0,0:0:0:0:
209,189,16006,1,8,0:0:0:0:
231,163,16359,1,8,0:0:0:0:
231,163,16535,1,0,0:0:0:0:
231,163,16712,1,8,0:0:0:0:
224,193,17417,1,0,0:0:0:0:
224,193,17770,1,0,0:0:0:0:
218,198,18123,1,8,0:0:0:0:
218,201,18476,1,0,0:0:0:0:
218,198,18829,1,0,0:0:0:0:
218,201,19006,1,8,0:0:0:0:
218,201,19182,1,0,0:0:0:0:
218,198,19359,1,8,0:0:0:0:
218,198,19535,1,0,0:0:0:0:
218,201,19888,1,0,0:0:0:0:
218,198,20241,1,0,0:0:0:0:
218,201,20594,1,0,0:0:0:0:
218,206,20947,1,8,0:0:0:0:
210,176,21300,1,0,0:0:0:0:
205,188,21653,1,8,0:0:0:0:
216,166,21829,1,0,0:0:0:0:
206,193,22006,1,8,0:0:0:0:
206,193,22182,1,8,0:0:0:0:
205,188,22359,1,0,0:0:0:0:
200,176,23064,1,8,0:0:0:0:
200,176,23241,1,0,0:0:0:0:
200,176,23594,1,8,0:0:0:0:
200,176,23947,1,0,0:0:0:0:
200,176,24300,1,8,0:0:0:0:
213,145,24829,1,0,0:0:0:0:
213,146,25182,1,8,0:0:0:0:
213,145,25711,1,0,0:0:0:0:
213,146,25888,1,8,0:0:0:0:
213,146,26064,1,0,0:0:0:0:
213,145,26417,1,8,0:0:0:0:
213,146,26770,1,0,0:0:0:0:
208,150,27123,1,8,0:0:0:0:
208,152,27653,1,8,0:0:0:0:
208,150,27829,1,8,0:0:0:0:
208,150,28006,1,0,0:0:0:0:
208,150,28711,1,8,0:0:0:0:
208,150,28888,1,0,0:0:0:0:
208,152,29241,1,8,0:0:0:0:
208,150,29594,1,0,0:0:0:0:
208,152,29947,1,8,0:0:0:0:
208,152,30476,1,8,0:0:0:0:
208,152,30653,1,0,0:0:0:0:
208,152,30829,1,8,0:0:0:0:
208,152,31359,1,0,0:0:0:0:
208,152,31535,1,8,0:0:0:0:
208,152,31711,1,0,0:0:0:0:
208,152,32064,1,0,0:0:0:0:
208,152,32241,1,8,0:0:0:0:
208,152,32417,1,0,0:0:0:0:
208,152,32770,1,0,0:0:0:0:
208,152,32947,1,8,0:0:0:0:
208,152,33123,1,8,0:0:0:0:
208,152,33300,1,0,0:0:0:0:
208,152,33476,1,8,0:0:0:0:
211,159,35064,5,4,0:0:0:0:
211,159,35334,1,8,0:0:0:0:
211,159,35604,1,0,0:0:0:0:
211,159,35739,1,0,0:0:0:0:
211,159,35874,1,8,0:0:0:0:
211,159,36009,1,0,0:0:0:0:
211,159,36280,1,0,0:0:0:0:
211,159,36415,1,8,0:0:0:0:
186,169,36955,1,0,0:0:0:0:
247,246,37225,1,8,0:0:0:0:
247,246,37495,1,8,0:0:0:0:
247,246,37630,1,0,0:0:0:0:
247,246,37765,1,8,0:0:0:0:
247,246,37900,1,8,0:0:0:0:
247,246,38036,1,0,0:0:0:0:
247,246,38306,1,8,0:0:0:0:
247,246,38576,1,0,0:0:0:0:
247,246,39117,1,0,0:0:0:0:
247,246,39387,1,8,0:0:0:0:
247,246,39657,1,8,0:0:0:0:
247,246,39792,1,0,0:0:0:0:
247,246,39927,1,0,0:0:0:0:
247,246,40062,1,8,0:0:0:0:
247,246,40333,1,8,0:0:0:0:
247,246,40468,1,0,0:0:0:0:
247,246,41008,1,0,0:0:0:0:
247,246,41278,1,8,0:0:0:0:
247,246,41548,1,0,0:0:0:0:
247,246,41683,1,8,0:0:0:0:
247,246,41818,1,8,0:0:0:0:
247,246,41953,1,0,0:0:0:0:
247,246,42089,1,8,0:0:0:0:
247,246,42359,1,0,0:0:0:0:
169,224,42629,1,8,0:0:0:0:
169,224,43170,1,0,0:0:0:0:
169,224,43440,1,0,0:0:0:0:
169,224,43710,1,8,0:0:0:0:
169,224,43980,1,0,0:0:0:0:
169,224,44116,1,0,0:0:0:0:
169,224,44251,1,8,0:0:0:0:
169,224,44386,1,8,0:0:0:0:
169,224,44521,1,0,0:0:0:0:
169,224,44791,1,8,0:0:0:0:
169,224,45332,1,0,0:0:0:0:
169,224,45602,1,0,0:0:0:0:
169,224,45872,1,8,0:0:0:0:
169,224,46143,1,0,0:0:0:0:
169,224,46278,1,8,0:0:0:0:
169,224,46413,1,0,0:0:0:0:
169,224,46683,1,8,0:0:0:0:
169,224,46953,1,0,0:0:0:0:
169,224,47494,1,0,0:0:0:0:
169,224,47764,1,0,0:0:0:0:
169,224,48035,1,8,0:0:0:0:
169,224,48305,1,8,0:0:0:0:
169,224,48440,1,0,0:0:0:0:
169,224,48575,1,8,0:0:0:0:
169,224,48710,1,8,0:0:0:0:
169,224,48845,1,0,0:0:0:0:
169,224,49116,1,8,0:0:0:0:
169,224,49656,1,0,0:0:0:0:
169,224,49926,1,0,0:0:0:0:
169,224,50197,1,8,0:0:0:0:
169,224,50467,1,0,0:0:0:0:
169,224,50602,1,0,0:0:0:0:
169,224,50737,1,8,0:0:0:0:
169,224,51007,1,8,0:0:0:0:
169,224,51278,1,0,0:0:0:0:
169,224,51818,1,0,0:0:0:0:
169,224,52089,1,0,0:0:0:0:
169,224,52359,1,8,0:0:0:0:
169,224,52629,1,0,0:0:0:0:
169,224,52764,1,8,0:0:0:0:
169,224,52899,1,8,0:0:0:0:
169,224,53035,1,8,0:0:0:0:
169,224,53170,1,0,0:0:0:0:
169,224,53440,1,8,0:0:0:0:
169,224,53980,1,8,0:0:0:0:
169,224,54251,1,0,0:0:0:0:
169,224,54521,1,8,0:0:0:0:
169,224,54791,1,8,0:0:0:0:
169,224,54926,1,0,0:0:0:0:
169,224,55062,1,0,0:0:0:0:
169,224,55332,1,8,0:0:0:0:
169,224,55602,1,0,0:0:0:0:
169,224,56143,1,0,0:0:0:0:
169,224,56413,1,0,0:0:0:0:
169,224,56683,1,8,0:0:0:0:
169,224,56953,1,0,0:0:0:0:
169,224,57089,1,0,0:0:0:0:
169,224,57224,1,8,0:0:0:0:
169,224,57359,1,0,0:0:0:0:
169,224,57494,1,8,0:0:0:0:
169,224,57764,1,8,0:0:0:0:
169,224,58305,1,0,0:0:0:0:
169,224,58575,1,0,0:0:0:0:
169,224,58845,1,8,0:0:0:0:
169,224,59116,1,0,0:0:0:0:
169,224,59251,1,8,0:0:0:0:
169,224,59386,1,8,0:0:0:0:
169,224,59656,1,0,0:0:0:0:
169,224,59926,1,8,0:0:0:0:
169,224,60197,1,0,0:0:0:0:
236,167,79386,5,8,0:0:0:0:
169,218,80467,1,0,0:0:0:0:
169,218,81007,1,0,0:0:0:0:
169,218,81818,1,8,0:0:0:0:
225,194,82989,1,8,0:0:0:0:
227,181,83305,1,0,0:0:0:0:
226,181,83440,1,0,0:0:0:0:
226,181,83575,1,0,0:0:0:0:
181,185,84116,1,8,0:0:0:0:
151,189,84386,1,0,0:0:0:0:
151,189,84521,1,8,0:0:0:0:
151,189,85332,1,8,0:0:0:0:
206,111,85872,1,8,0:0:0:0:
292,149,86233,1,8,0:0:0:0:
220,186,86818,1,0,0:0:0:0:
175,203,87629,1,0,0:0:0:0:
220,164,88170,1,8,0:0:0:0:
220,164,88305,1,8,0:0:0:0:
220,164,88440,1,8,0:0:0:0:
215,168,89656,1,0,0:0:0:0:
215,168,89791,1,8,0:0:0:0:
215,168,89926,1,0,0:0:0:0:
215,168,90197,1,0,0:0:0:0:
215,168,90332,1,8,0:0:0:0:
215,168,90467,1,0,0:0:0:0:
215,168,90737,1,4,0:0:0:0:
195,165,91277,1,8,0:0:0:0:
195,164,91547,1,0,0:0:0:0:
195,165,91682,1,8,0:0:0:0:
195,165,91818,1,8,0:0:0:0:
195,164,92358,1,0,0:0:0:0:
195,165,92493,1,8,0:0:0:0:
195,165,92628,1,0,0:0:0:0:
195,164,93169,1,0,0:0:0:0:
195,165,93439,1,8,0:0:0:0:
195,164,93709,1,0,0:0:0:0:
195,164,93980,1,8,0:0:0:0:
195,165,94250,1,0,0:0:0:0:
195,164,94520,1,8,0:0:0:0:
189,179,95061,1,0,0:0:0:0:
212,171,95331,1,8,0:0:0:0:
212,171,95466,1,0,0:0:0:0:
212,171,95601,1,8,0:0:0:0:
212,171,96142,1,0,0:0:0:0:
212,171,96277,1,8,0:0:0:0:
212,171,96412,1,0,0:0:0:0:
212,171,96953,1,0,0:0:0:0:
212,171,97223,1,8,0:0:0:0:
212,171,97493,1,0,0:0:0:0:
212,171,97628,1,0,0:0:0:0:
212,171,97764,1,8,0:0:0:0:
212,171,98034,1,8,0:0:0:0:
212,171,98169,1,8,0:0:0:0:
212,171,98304,1,0,0:0:0:0:
212,171,98845,1,8,0:0:0:0:
212,171,99115,1,0,0:0:0:0:
212,171,99385,1,0,0:0:0:0:
212,171,99655,1,8,0:0:0:0:
212,171,99926,1,8,0:0:0:0:
212,171,100061,1,8,0:0:0:0:
212,171,100196,1,0,0:0:0:0:
206,175,100736,1,0,0:0:0:0:
206,175,101007,1,8,0:0:0:0:
206,175,101277,1,8,0:0:0:0:
206,175,101547,1,8,0:0:0:0:
206,175,101818,1,0,0:0:0:0:
206,175,102088,1,8,0:0:0:0:
206,175,102628,1,0,0:0:0:0:
206,175,102764,1,8,0:0:0:0:
206,175,102899,1,0,0:0:0:0:
206,175,103034,1,8,0:0:0:0:
206,175,103169,1,0,0:0:0:0:
206,175,103709,1,0,0:0:0:0:
206,175,103845,1,8,0:0:0:0:
206,175,103980,1,8,0:0:0:0:
206,175,104520,1,0,0:0:0:0:
197,180,104791,1,8,0:0:0:0:
197,181,105061,1,0,0:0:0:0:
211,165,105196,1,0,0:0:0:0:
197,181,105331,1,8,0:0:0:0:
197,180,105601,1,8,0:0:0:0:
214,167,105736,1,8,0:0:0:0:
214,167,105872,1,0,0:0:0:0:
214,167,106142,1,8,0:0:0:0:
215,168,106412,1,0,0:0:0:0:
214,167,106682,1,8,0:0:0:0:
214,167,106818,1,0,0:0:0:0:
214,167,106953,1,8,0:0:0:0:
262,129,107223,1,0,0:0:0:0:
214,167,107493,1,8,0:0:0:0:
214,167,107628,1,8,0:0:0:0:
214,167,107764,1,0,0:0:0:0:
214,167,108304,1,0,0:0:0:0:
214,167,108574,1,8,0:0:0:0:
214,167,108845,1,8,0:0:0:0:
214,167,109115,1,0,0:0:0:0:
214,167,109385,1,8,0:0:0:0:
214,167,109655,1,8,0:0:0:0:
214,167,109926,1,0,0:0:0:0:
214,167,110196,1,8,0:0:0:0:
214,167,110466,1,0,0:0:0:0:
214,167,110601,1,0,0:0:0:0:
214,167,110736,1,8,0:0:0:0:
214,167,111007,1,0,0:0:0:0:
214,167,111277,1,8,0:0:0:0:
214,167,111412,1,8,0:0:0:0:
214,167,111547,1,0,0:0:0:0:
265,177,112088,1,0,0:0:0:0:
265,177,112358,1,8,0:0:0:0:
265,177,112628,1,0,0:0:0:0:
265,177,112764,1,8,0:0:0:0:
265,177,112899,1,8,0:0:0:0:
265,177,113169,1,0,0:0:0:0:
265,177,113304,1,8,0:0:0:0:
265,177,113439,1,0,0:0:0:0:
265,177,113709,1,0,0:0:0:0:
265,177,113980,1,8,0:0:0:0:
265,177,114250,1,0,0:0:0:0:
265,177,114385,1,0,0:0:0:0:
265,177,114520,1,0,0:0:0:0:
265,177,114791,1,8,0:0:0:0:
265,177,115061,1,0,0:0:0:0:
265,177,115196,1,8,0:0:0:0:
265,177,115331,1,0,0:0:0:0:
265,177,115872,1,0,0:0:0:0:
265,177,116142,1,8,0:0:0:0:
265,177,116412,1,8,0:0:0:0:
265,177,116682,1,8,0:0:0:0:
265,177,116953,1,0,0:0:0:0:
265,177,117223,1,8,0:0:0:0:
265,177,117493,1,0,0:0:0:0:
265,177,117764,1,0,0:0:0:0:
265,177,117899,1,8,0:0:0:0:
265,177,118034,1,0,0:0:0:0:
265,177,118169,1,8,0:0:0:0:
265,177,118304,1,0,0:0:0:0:
265,177,118574,1,0,0:0:0:0:
265,177,118845,1,8,0:0:0:0:
265,177,118980,1,8,0:0:0:0:
265,177,119115,1,0,0:0:0:0:
265,177,119655,1,0,0:0:0:0:
265,177,119926,1,8,0:0:0:0:
265,177,120196,1,0,0:0:0:0:
259,182,120331,1,8,0:0:0:0:
265,177,120466,1,0,0:0:0:0:
260,182,120736,1,8,0:0:0:0:
258,184,120872,1,8,0:0:0:0:
226,212,129655,5,4,0:0:0:0:
225,202,130736,1,8,0:0:0:0:
217,203,131817,1,0,0:0:0:0:
217,203,132357,1,8,0:0:0:0:
214,210,132628,1,8,0:0:0:0:
217,203,132898,1,8,0:0:0:0:
212,220,133709,1,0,0:0:0:0:
213,218,133979,1,4,0:0:0:0:
212,220,135060,1,8,0:0:0:0:
212,220,136141,1,0,0:0:0:0:
212,220,136682,1,8,0:0:0:0:
212,220,136952,1,0,0:0:0:0:
212,220,137222,1,8,0:0:0:0:
212,220,137763,1,8,0:0:0:0:
212,220,138033,1,8,0:0:0:0:
212,220,138303,1,4,0:0:0:0:
212,220,139384,1,8,0:0:0:0:
215,226,140465,1,0,0:0:0:0:
215,226,140736,1,8,0:0:0:0:
215,226,141006,1,8,0:0:0:0:
215,226,141276,1,0,0:0:0:0:
215,226,141546,1,8,0:0:0:0:
215,226,142087,1,0,0:0:0:0:
215,226,142357,1,8,0:0:0:0:
215,226,142628,1,0,0:0:0:0:
218,232,143709,1,8,0:0:0:0:
218,232,144790,1,0,0:0:0:0:
218,232,145330,1,0,0:0:0:0:
218,232,145601,1,0,0:0:0:0:
218,232,145871,1,8,0:0:0:0:
218,232,146141,1,0,0:0:0:0:
218,232,146411,1,8,0:0:0:0:
218,232,146682,1,8,0:0:0:0:
218,232,146952,1,0,0:0:0:0:
193,216,147222,1,0,0:0:0:0:
192,207,147492,1,0,0:0:0:0:
193,217,147763,1,0,0:0:0:0:
193,216,148033,1,8,0:0:0:0:
239,182,149114,1,0,0:0:0:0:
239,182,149655,1,0,0:0:0:0:
239,182,149925,1,0,0:0:0:0:
239,182,150195,1,8,0:0:0:0:
239,189,150736,1,0,0:0:0:0:
239,191,151006,1,0,0:0:0:0:
239,189,151276,1,0,0:0:0:0:
239,191,152357,1,8,0:0:0:0:
239,191,153438,1,0,0:0:0:0:
239,191,153979,1,0,0:0:0:0:
239,191,154249,1,0,0:0:0:0:
239,191,154519,1,8,0:0:0:0:
239,191,155060,1,8,0:0:0:0:
239,191,155330,1,8,0:0:0:0:
239,191,155601,1,0,0:0:0:0:
239,191,156682,1,8,0:0:0:0:
239,191,157763,1,0,0:0:0:0:
239,191,158033,1,8,0:0:0:0:
239,191,158303,1,8,0:0:0:0:
239,191,158574,1,0,0:0:0:0:
239,191,158844,1,8,0:0:0:0:
202,176,159384,1,0,0:0:0:0:
202,176,159655,1,8,0:0:0:0:
202,176,159925,1,0,0:0:0:0:
202,176,160195,1,0,0:0:0:0:
202,176,160465,1,0,0:0:0:0:
202,176,160736,1,0,0:0:0:0:
202,176,161006,1,8,0:0:0:0:
202,176,161276,1,8,0:0:0:0:
202,176,161546,1,8,0:0:0:0:
205,182,161817,1,8,0:0:0:0:
205,182,162087,1,0,0:0:0:0:
205,186,162357,1,0,0:0:0:0:
205,182,162628,1,0,0:0:0:0:
205,182,162898,1,0,0:0:0:0:
205,186,163168,1,8,0:0:0:0:
205,182,163438,1,8,0:0:0:0:
205,182,163709,1,8,0:0:0:0:
205,186,163979,1,8,0:0:0:0:
205,182,164249,5,0,0:0:0:0:
205,186,164789,5,0,0:0:0:0:
205,189,165059,1,0,0:0:0:0:
205,189,165330,1,0,0:0:0:0:
205,186,165600,1,0,0:0:0:0:
205,189,165870,1,0,0:0:0:0:
205,189,166140,1,0,0:0:0:0:
205,186,166411,1,0,0:0:0:0:
205,189,166681,1,0,0:0:0:0:
205,189,166951,1,0,0:0:0:0:
205,186,167221,1,0,0:0:0:0:
205,189,167492,1,0,0:0:0:0:
205,189,167762,1,0,0:0:0:0:
205,186,168032,1,0,0:0:0:0:
205,189,168303,1,0,0:0:0:0:
205,189,168573,1,0,0:0:0:0:
205,186,168843,1,0,0:0:0:0:
205,189,169113,1,0,0:0:0:0:
205,189,169384,1,0,0:0:0:0:
205,186,169654,1,0,0:0:0:0:
205,189,169924,1,0,0:0:0:0:
205,189,170194,1,0,0:0:0:0:
205,186,170465,1,0,0:0:0:0:
202,178,170735,1,8,0:0:0:0:
201,178,171005,1,0,0:0:0:0:
200,178,171140,1,8,0:0:0:0:
200,178,171276,1,0,0:0:0:0:
202,178,171546,1,8,0:0:0:0:
201,178,171816,1,0,0:0:0:0:
200,178,171951,1,0,0:0:0:0:
200,178,172086,1,8,0:0:0:0:
202,178,172221,1,8,0:0:0:0:
202,178,172357,1,0,0:0:0:0:
200,178,172897,1,8,0:0:0:0:
202,178,173032,1,0,0:0:0:0:
202,178,173167,1,8,0:0:0:0:
200,178,173303,1,8,0:0:0:0:
200,178,173438,1,0,0:0:0:0:
200,178,173708,1,8,0:0:0:0:
202,178,173978,1,0,0:0:0:0:
200,178,174113,1,0,0:0:0:0:
200,178,174249,1,8,0:0:0:0:
200,178,174519,1,8,0:0:0:0:
200,178,175059,1,0,0:0:0:0:
200,178,175194,1,8,0:0:0:0:
200,178,175330,1,0,0:0:0:0:
200,178,175465,1,8,0:0:0:0:
200,178,175600,1,0,0:0:0:0:
200,178,175870,1,8,0:0:0:0:
200,178,176140,1,0,0:0:0:0:
200,178,176411,1,8,0:0:0:0:
200,178,176546,1,8,0:0:0:0:
200,178,176681,1,0,0:0:0:0:
200,178,177221,1,8,0:0:0:0:
200,178,177357,1,0,0:0:0:0:
200,178,177492,1,8,0:0:0:0:
200,178,177627,1,8,0:0:0:0:
200,178,177762,1,0,0:0:0:0:
200,178,178032,1,8,0:0:0:0:
200,178,178303,1,0,0:0:0:0:
200,178,178438,1,0,0:0:0:0:
200,178,178573,1,8,0:0:0:0:
200,178,178708,1,8,0:0:0:0:
200,178,178843,1,0,0:0:0:0:
200,178,179113,1,8,0:0:0:0:
200,178,179384,1,0,0:0:0:0:
200,178,179654,1,8,0:0:0:0:
200,178,179789,1,0,0:0:0:0:
200,178,179924,1,8,0:0:0:0:
200,178,180465,1,0,0:0:0:0:
159,157,180600,1,8,0:0:0:0:
159,157,180735,1,8,0:0:0:0:
159,157,180870,1,8,0:0:0:0:
159,157,181005,1,0,0:0:0:0:
159,157,181276,1,8,0:0:0:0:
159,157,181546,1,0,0:0:0:0:
159,157,181816,1,8,0:0:0:0:
159,157,181951,1,8,0:0:0:0:
159,157,182086,1,0,0:0:0:0:
159,157,182357,1,8,0:0:0:0:
159,157,182627,1,0,0:0:0:0:
159,157,182762,1,0,0:0:0:0:
159,157,182897,1,8,0:0:0:0:
159,157,183032,1,8,0:0:0:0:
159,157,183167,1,0,0:0:0:0:
159,157,183438,1,8,0:0:0:0:
159,157,183573,1,8,0:0:0:0:
