osu file format v14

[General]
AudioFilename: audio.mp3
AudioLeadIn: 0
PreviewTime: 78754
Countdown: 1
SampleSet: None
StackLeniency: 0.7
Mode: 1
LetterboxInBreaks: 0
WidescreenStoryboard: 1

[Editor]
Bookmarks: 19291,53264,71207,129590
DistanceSpacing: 0.9
BeatDivisor: 8
GridSize: 32
TimelineZoom: 1.54

[Metadata]
Title:Hayaki Koto Kaze no Gotoku
TitleUnicode:Hayaki Koto Kaze no Gotoku
Artist:Tenchigaraku & Suganuma Kouzou
ArtistUnicode:Tenchigaraku & Suganuma Kouzou
Creator:-[ ix Ishida xi ]-
Version:-[ ix Wind xi ]- (SV2.8)
Source:
Tags:Firce777
BeatmapID:2340405
BeatmapSetID:958214

[Difficulty]
HPDrainRate:8
CircleSize:5
OverallDifficulty:10
ApproachRate:5
SliderMultiplier:2.8
SliderTickRate:1

[Events]
//Background and Video events
0,0,"Konachan.com - 240491 sample.jpg",0,0
//Break Periods
//Storyboard Layer 0 (Background)
//Storyboard Layer 1 (Fail)
//Storyboard Layer 2 (Pass)
//Storyboard Layer 3 (Foreground)
//Storyboard Layer 4 (Overlay)
//Storyboard Sound Samples

[TimingPoints]
2237,500,4,1,0,30,1,8
3294,500,4,1,0,30,1,0
5294,500,4,1,0,30,1,0
11245,500,4,1,0,30,1,0
13245,500,4,1,0,30,1,0
14516,500,4,1,0,30,1,8
15236,500,4,1,0,30,1,0
15494,500,4,1,0,30,1,8
15881,500,4,1,0,30,1,8
16638,500,4,1,0,30,1,8
17030,500,4,1,0,30,1,0
17405,500,4,1,0,30,1,8
17784,500,4,1,0,30,1,8
18529,500,4,1,0,30,1,0
18921,500,4,1,0,30,1,8
19291,500,4,1,0,30,1,0
20790,500,4,1,0,30,1,0
23285,500,4,1,0,30,1,0
24782,500,4,1,0,30,1,0
27272,500,4,1,0,30,1,0
28768,500,4,1,0,30,1,0
30266,500,4,1,0,30,1,0
31267,500,6,1,0,30,1,0
33507,500,4,1,0,30,1,0
34683,500,4,1,0,30,1,8
35304,500,4,1,0,30,1,0
37290,500,4,1,0,30,1,0
38278,500,4,1,0,30,1,8
39261,500,4,1,0,30,1,0
40239,500,4,1,0,30,1,8
40734,500,4,1,0,30,1,8
41242,500,4,1,0,30,1,0
41754,500,4,1,0,30,1,8
42275,500,4,1,0,30,1,8
43283,500,4,1,0,30,1,0
45266,500,4,1,0,30,1,0
45757,500,4,1,0,30,1,8
46283,500,4,1,0,30,1,8
46783,500,4,1,0,30,1,8
47255,500,4,1,0,30,1,0
47763,500,4,1,0,30,1,8
48309,500,4,1,0,30,1,8
48792,500,4,1,0,30,1,8
49272,500,4,1,0,30,1,0
50255,500,4,1,0,30,1,8
50759,500,4,1,0,30,1,8
51267,500,4,1,0,30,1,0
51747,500,4,1,0,30,1,8
52738,500,4,1,0,30,1,8
53264,500,4,1,0,30,1,0
53790,500,4,1,0,30,1,8
54298,500,4,1,0,30,1,8
55281,500,4,1,0,30,1,0
57277,500,4,1,0,30,1,0
59270,500,4,1,0,30,1,0
61266,500,4,1,0,30,1,0
63256,500,4,1,0,30,1,0
64249,500,4,1,0,30,1,8
64487,500,4,1,0,30,1,8
64754,500,4,1,0,30,1,8
65254,500,4,1,0,30,1,0
65775,500,4,1,0,30,1,8
67262,500,4,1,0,30,1,0
67749,500,4,1,0,30,1,8
68716,500,4,1,0,30,1,8
69211,500,4,1,0,30,1,0
69715,500,4,1,0,30,1,8
70195,500,4,1,0,30,1,8
70712,500,4,1,0,30,1,8
71207,500,4,1,0,30,1,0
72007,500,4,1,0,30,1,8
72771,500,4,1,0,30,1,8
73530,500,4,1,0,30,1,0
74280,500,4,1,0,30,1,8
75011,500,4,1,0,30,1,8
75388,500,4,1,0,30,1,8
76534,500,4,1,0,30,1,8
77303,500,4,1,0,30,1,0
78754,500,4,1,0,40,1,8
79245,500,4,1,0,40,1,0
80197,500,4,1,0,40,1,8
80457,500,4,1,0,40,1,8
80724,500,4,1,0,40,1,8
81245,500,4,1,0,40,1,0
81728,500,4,1,0,40,1,8
82223,500,4,1,0,40,1,8
83248,500,4,1,0,40,1,0
86248,500,4,1,0,40,1,8
86774,500,4,1,0,40,1,8
87291,500,4,1,0,40,1,0
88235,500,4,1,0,40,1,8
88747,500,4,1,0,40,1,8
89234,500,4,1,0,40,1,0
89959,500,4,1,0,40,1,8
90224,500,4,1,0,40,1,8
91267,500,4,1,0,40,1,0
91747,500,4,1,0,40,1,8
92259,500,4,1,0,40,1,8
92750,500,4,1,0,40,1,8
93267,500,4,1,0,40,1,0
93743,500,4,1,0,40,1,8
94226,500,4,1,0,40,1,8
95242,500,4,1,0,30,1,0
96729,500,4,1,0,30,1,8
97241,500,4,1,0,30,1,0
98257,500,4,1,0,30,1,8
99248,500,4,1,0,30,1,0
100256,500,4,1,0,30,1,8
100751,500,4,1,0,30,1,8
101251,500,4,1,0,40,1,0
102720,500,4,1,0,40,1,8
103228,500,4,1,0,40,1,0
103745,500,4,1,0,40,1,8
104245,500,4,1,0,40,1,8
104757,500,4,1,0,40,1,8
105252,500,4,1,0,40,1,0
106219,500,4,1,0,40,1,8
106933,500,4,1,0,40,1,8
107099,500,4,1,0,40,1,8
107189,500,4,1,0,40,1,0
107715,500,4,1,0,40,1,8
108232,500,4,1,0,40,1,8
108740,500,4,1,0,40,1,8
109252,500,4,1,0,40,1,0
109752,500,4,1,0,40,1,8
110735,500,4,1,0,40,1,8
111247,500,4,1,0,40,1,0
111742,500,4,1,0,40,1,8
113267,500,4,1,0,40,1,0
113718,500,4,1,0,40,1,8
113959,500,4,1,0,40,1,8
114209,500,4,1,0,40,1,8
114709,500,4,1,0,40,1,8
115077,500,4,1,0,40,1,8
115213,500,4,1,0,40,1,0
115734,500,4,1,0,40,1,8
117272,500,4,1,0,40,1,0
118243,500,4,1,0,40,1,8
119226,500,4,1,0,40,1,0
120217,500,4,1,0,20,1,8
121198,500,4,1,0,20,1,0
123198,500,4,1,0,20,1,0
124206,500,4,1,0,20,1,8
125231,500,4,1,0,20,1,0
126247,500,4,1,0,20,1,8
127497,500,4,1,0,20,1,0
127872,500,4,1,0,20,1,8
128243,500,4,1,0,20,1,8
129443,500,4,1,0,20,1,0

[HitObjects]
256,192,3294,5,0,0:0:0:0:
256,192,3419,1,0,0:0:0:0:
256,192,4419,1,0,0:0:0:0:
256,192,4544,1,8,0:0:0:0:
256,192,4794,1,0,0:0:0:0:
256,192,4919,1,8,0:0:0:0:
256,192,5169,1,0,0:0:0:0:
256,192,5294,1,8,0:0:0:0:
256,192,5543,1,0,0:0:0:0:
256,192,5637,1,0,0:0:0:0:
256,192,6043,1,0,0:0:0:0:
256,192,6168,1,0,0:0:0:0:
256,192,6293,1,0,0:0:0:0:
256,192,6418,1,8,0:0:0:0:
256,192,6667,1,0,0:0:0:0:
256,192,6792,1,0,0:0:0:0:
256,192,6917,1,0,0:0:0:0:
256,192,7042,1,0,0:0:0:0:
256,192,7292,1,8,0:0:0:0:
256,192,7667,1,0,0:0:0:0:
256,192,8041,1,0,0:0:0:0:
256,192,8166,1,0,0:0:0:0:
256,192,8291,1,8,0:0:0:0:
256,192,8416,1,8,0:0:0:0:
256,192,8541,1,0,0:0:0:0:
256,192,8666,1,0,0:0:0:0:
256,192,9040,1,0,0:0:0:0:
256,192,9290,1,0,0:0:0:0:
256,192,9415,1,8,0:0:0:0:
256,192,9706,1,0,0:0:0:0:
256,192,9790,1,8,0:0:0:0:
256,192,9998,1,8,0:0:0:0:
256,192,10081,1,0,0:0:0:0:
256,192,10164,1,8,0:0:0:0:
256,192,10248,1,0,0:0:0:0:
256,192,10331,1,0,0:0:0:0:
256,192,10414,1,0,0:0:0:0:
256,192,10706,1,8,0:0:0:0:
256,192,10789,1,8,0:0:0:0:
256,192,10955,1,0,0:0:0:0:
256,192,11039,1,0,0:0:0:0:
256,192,11245,1,12,0:0:0:0:
256,192,12245,1,8,0:0:0:0:
256,192,12370,1,8,0:0:0:0:
256,192,12620,1,8,0:0:0:0:
256,192,12745,1,8,0:0:0:0:
256,192,12870,1,8,0:0:0:0:
256,192,12995,1,8,0:0:0:0:
256,192,13120,1,0,0:0:0:0:
256,192,13372,1,0,0:0:0:0:
256,192,13499,1,8,0:0:0:0:
256,192,13753,1,8,0:0:0:0:
256,192,13880,1,0,0:0:0:0:
256,192,14134,1,8,0:0:0:0:
256,192,14261,1,0,0:0:0:0:
256,192,14389,1,0,0:0:0:0:
256,192,14726,1,0,0:0:0:0:
256,192,14786,1,0,0:0:0:0:
256,192,14996,1,8,0:0:0:0:
256,192,15076,1,0,0:0:0:0:
256,192,15156,1,0,0:0:0:0:
256,192,15236,1,0,0:0:0:0:
256,192,15494,1,4,0:0:0:0:
256,192,15881,1,8,0:0:0:0:
256,192,15928,1,8,0:0:0:0:
256,192,16259,1,8,0:0:0:0:
256,192,16638,1,0,0:0:0:0:
256,192,16899,1,0,0:0:0:0:
256,192,17030,1,0,0:0:0:0:
256,192,17405,1,8,0:0:0:0:
256,192,17452,1,8,0:0:0:0:
256,192,17658,1,0,0:0:0:0:
256,192,17784,1,0,0:0:0:0:
256,192,18156,1,8,0:0:0:0:
256,192,18203,1,8,0:0:0:0:
256,192,18405,1,0,0:0:0:0:
256,192,18529,1,0,0:0:0:0:
256,192,18921,1,8,0:0:0:0:
256,192,18967,1,8,0:0:0:0:
256,192,19167,1,0,0:0:0:0:
256,192,19291,1,0,0:0:0:0:
256,192,19540,1,0,0:0:0:0:
256,192,19665,1,8,0:0:0:0:
256,192,19790,1,0,0:0:0:0:
256,192,19915,1,0,0:0:0:0:
256,192,20040,1,0,0:0:0:0:
256,192,20290,1,0,0:0:0:0:
256,192,20415,1,8,0:0:0:0:
256,192,20665,1,0,0:0:0:0:
256,192,20790,1,0,0:0:0:0:
256,192,21039,1,0,0:0:0:0:
256,192,21164,1,8,0:0:0:0:
256,192,21413,1,0,0:0:0:0:
256,192,21538,1,0,0:0:0:0:
256,192,21788,1,0,0:0:0:0:
256,192,21912,1,8,0:0:0:0:
256,192,22162,1,0,0:0:0:0:
256,192,22287,1,0,0:0:0:0:
256,192,22536,1,0,0:0:0:0:
256,192,22661,1,8,0:0:0:0:
256,192,22911,1,0,0:0:0:0:
256,192,23035,1,0,0:0:0:0:
256,192,23285,1,0,0:0:0:0:
256,192,23659,1,0,0:0:0:0:
256,192,24033,1,8,0:0:0:0:
256,192,24407,1,8,0:0:0:0:
256,192,24532,1,0,0:0:0:0:
256,192,24657,1,0,0:0:0:0:
256,192,24782,1,0,0:0:0:0:
256,192,24906,1,8,0:0:0:0:
256,192,25155,1,8,0:0:0:0:
256,192,25404,1,8,0:0:0:0:
256,192,25529,1,0,0:0:0:0:
256,192,25645,1,0,0:0:0:0:
256,192,25762,1,0,0:0:0:0:
256,192,26027,1,8,0:0:0:0:
256,192,26151,1,8,0:0:0:0:
256,192,26276,1,0,0:0:0:0:
256,192,26400,1,8,0:0:0:0:
256,192,26525,1,0,0:0:0:0:
256,192,26649,1,0,0:0:0:0:
256,192,26774,1,8,0:0:0:0:
256,192,27023,1,8,0:0:0:0:
256,192,27148,1,8,0:0:0:0:
256,192,27272,1,0,0:0:0:0:
256,192,27396,1,8,0:0:0:0:
256,192,27521,1,8,0:0:0:0:
256,192,27646,1,0,0:0:0:0:
256,192,27770,1,0,0:0:0:0:
256,192,27895,1,8,0:0:0:0:
256,192,28144,1,8,0:0:0:0:
256,192,28394,1,8,0:0:0:0:
256,192,28518,1,0,0:0:0:0:
256,192,28643,1,0,0:0:0:0:
256,192,28768,1,8,0:0:0:0:
256,192,29017,1,8,0:0:0:0:
256,192,29142,1,8,0:0:0:0:
256,192,29392,1,8,0:0:0:0:
256,192,29517,1,0,0:0:0:0:
256,192,29641,1,0,0:0:0:0:
256,192,29766,1,8,0:0:0:0:
256,192,30016,1,8,0:0:0:0:
256,192,30266,1,8,0:0:0:0:
256,192,30516,1,8,0:0:0:0:
256,192,30766,1,8,0:0:0:0:
256,192,30892,1,8,0:0:0:0:
256,192,31142,1,8,0:0:0:0:
256,192,31267,1,0,0:0:0:0:
256,192,31391,1,0,0:0:0:0:
256,192,31515,1,8,0:0:0:0:
256,192,31640,1,0,0:0:0:0:
256,192,31764,1,0,0:0:0:0:
256,192,31827,1,8,0:0:0:0:
256,192,31889,1,8,0:0:0:0:
256,192,32013,1,0,0:0:0:0:
256,192,32138,1,0,0:0:0:0:
256,192,32262,1,8,0:0:0:0:
256,192,32387,1,8,0:0:0:0:
256,192,32449,1,8,0:0:0:0:
256,192,32511,1,8,0:0:0:0:
256,192,32573,1,8,0:0:0:0:
256,192,32636,1,0,0:0:0:0:
256,192,32760,1,0,0:0:0:0:
256,192,32884,1,0,0:0:0:0:
256,192,32947,1,0,0:0:0:0:
256,192,33009,1,8,0:0:0:0:
256,192,33133,1,0,0:0:0:0:
256,192,33258,1,0,0:0:0:0:
256,192,33320,1,0,0:0:0:0:
256,192,33382,1,0,0:0:0:0:
256,192,33444,1,0,0:0:0:0:
256,192,33507,1,12,0:0:0:0:
256,192,33899,1,8,0:0:0:0:
256,192,34291,1,8,0:0:0:0:
256,192,34422,1,0,0:0:0:0:
256,192,34552,1,8,0:0:0:0:
256,192,34683,1,0,0:0:0:0:
256,192,34807,1,0,0:0:0:0:
256,192,35055,1,0,0:0:0:0:
256,192,35304,1,4,0:0:0:0:
256,192,35676,1,0,0:0:0:0:
256,192,36049,1,8,0:0:0:0:
256,192,36421,1,0,0:0:0:0:
256,192,36545,1,0,0:0:0:0:
256,192,36669,1,0,0:0:0:0:
256,192,36794,1,8,0:0:0:0:
256,192,37042,1,0,0:0:0:0:
256,192,37166,1,8,0:0:0:0:
256,192,37290,1,0,0:0:0:0:
256,192,37660,1,0,0:0:0:0:
256,192,37907,1,8,0:0:0:0:
256,192,38124,1,8,0:0:0:0:
256,192,38400,1,8,0:0:0:0:
256,192,38523,1,0,0:0:0:0:
256,192,38646,1,0,0:0:0:0:
256,192,38769,1,8,0:0:0:0:
256,192,39015,1,8,0:0:0:0:
256,192,39138,1,8,0:0:0:0:
256,192,39261,1,0,0:0:0:0:
256,192,39383,1,8,0:0:0:0:
256,192,39505,1,0,0:0:0:0:
256,192,39628,1,0,0:0:0:0:
256,192,39750,1,8,0:0:0:0:
256,192,39995,1,0,0:0:0:0:
256,192,40117,1,8,0:0:0:0:
256,192,40362,1,8,0:0:0:0:
256,192,40486,1,0,0:0:0:0:
256,192,40734,1,8,0:0:0:0:
256,192,40797,1,8,0:0:0:0:
256,192,40924,1,0,0:0:0:0:
256,192,40988,1,0,0:0:0:0:
256,192,41072,1,0,0:0:0:0:
256,192,41157,1,8,0:0:0:0:
256,192,41242,1,0,0:0:0:0:
256,192,41626,1,0,0:0:0:0:
256,192,42014,1,8,0:0:0:0:
256,192,42401,1,8,0:0:0:0:
256,192,42527,1,0,0:0:0:0:
256,192,42653,1,0,0:0:0:0:
256,192,42779,1,8,0:0:0:0:
256,192,43031,1,0,0:0:0:0:
256,192,43157,1,8,0:0:0:0:
256,192,43283,1,0,0:0:0:0:
256,192,43530,1,8,0:0:0:0:
256,192,43654,1,0,0:0:0:0:
256,192,43778,1,0,0:0:0:0:
256,192,44026,1,8,0:0:0:0:
256,192,44274,1,8,0:0:0:0:
256,192,44398,1,8,0:0:0:0:
256,192,44522,1,0,0:0:0:0:
256,192,44646,1,0,0:0:0:0:
256,192,44770,1,8,0:0:0:0:
256,192,44894,1,0,0:0:0:0:
256,192,45018,1,0,0:0:0:0:
256,192,45142,1,8,0:0:0:0:
256,192,45266,1,0,0:0:0:0:
256,192,45511,1,0,0:0:0:0:
256,192,45634,1,0,0:0:0:0:
256,192,45757,1,8,0:0:0:0:
256,192,45888,1,0,0:0:0:0:
256,192,46020,1,8,0:0:0:0:
256,192,46408,1,8,0:0:0:0:
256,192,46491,1,0,0:0:0:0:
256,192,46658,1,8,0:0:0:0:
256,192,46783,1,8,0:0:0:0:
256,192,46901,1,8,0:0:0:0:
256,192,46984,1,0,0:0:0:0:
256,192,47137,1,0,0:0:0:0:
256,192,47255,1,0,0:0:0:0:
256,192,47636,1,0,0:0:0:0:
256,192,48036,1,8,0:0:0:0:
256,192,48429,1,8,0:0:0:0:
256,192,48550,1,0,0:0:0:0:
256,192,48671,1,0,0:0:0:0:
256,192,48792,1,8,0:0:0:0:
256,192,49032,1,0,0:0:0:0:
256,192,49152,1,8,0:0:0:0:
256,192,49272,1,0,0:0:0:0:
256,192,49640,1,0,0:0:0:0:
256,192,49886,1,8,0:0:0:0:
256,192,50132,1,8,0:0:0:0:
256,192,50381,1,8,0:0:0:0:
256,192,50507,1,0,0:0:0:0:
256,192,50633,1,0,0:0:0:0:
256,192,50759,1,8,0:0:0:0:
256,192,51013,1,8,0:0:0:0:
256,192,51140,1,8,0:0:0:0:
256,192,51267,1,0,0:0:0:0:
256,192,51387,1,8,0:0:0:0:
256,192,51507,1,8,0:0:0:0:
256,192,51627,1,0,0:0:0:0:
256,192,51747,1,8,0:0:0:0:
256,192,51994,1,8,0:0:0:0:
256,192,52242,1,8,0:0:0:0:
256,192,52366,1,0,0:0:0:0:
256,192,52490,1,8,0:0:0:0:
256,192,52614,1,0,0:0:0:0:
256,192,52738,1,0,0:0:0:0:
256,192,53001,1,0,0:0:0:0:
256,192,53132,1,8,0:0:0:0:
256,192,53264,1,0,0:0:0:0:
256,192,53527,1,8,0:0:0:0:
256,192,53790,1,0,0:0:0:0:
256,192,54044,1,8,0:0:0:0:
256,192,54171,1,8,0:0:0:0:
256,192,54298,1,0,0:0:0:0:
256,192,54420,1,8,0:0:0:0:
256,192,54543,1,8,0:0:0:0:
256,192,54789,1,0,0:0:0:0:
256,192,54912,1,8,0:0:0:0:
256,192,55035,1,8,0:0:0:0:
256,192,55158,1,8,0:0:0:0:
256,192,55281,1,0,0:0:0:0:
256,192,55405,1,8,0:0:0:0:
256,192,55530,1,8,0:0:0:0:
256,192,55780,1,0,0:0:0:0:
256,192,55904,1,8,0:0:0:0:
256,192,56029,1,8,0:0:0:0:
256,192,56154,1,8,0:0:0:0:
256,192,56279,1,0,0:0:0:0:
256,192,56404,1,8,0:0:0:0:
256,192,56528,1,8,0:0:0:0:
256,192,56778,1,0,0:0:0:0:
256,192,56903,1,8,0:0:0:0:
256,192,57028,1,8,0:0:0:0:
256,192,57152,1,8,0:0:0:0:
256,192,57277,1,0,0:0:0:0:
256,192,57401,1,8,0:0:0:0:
256,192,57526,1,8,0:0:0:0:
256,192,57775,1,8,0:0:0:0:
256,192,57899,1,0,0:0:0:0:
256,192,58024,1,0,0:0:0:0:
256,192,58149,1,8,0:0:0:0:
256,192,58273,1,0,0:0:0:0:
256,192,58398,1,8,0:0:0:0:
256,192,58522,1,0,0:0:0:0:
256,192,58647,1,0,0:0:0:0:
256,192,58772,1,8,0:0:0:0:
256,192,58938,1,8,0:0:0:0:
256,192,59021,1,0,0:0:0:0:
256,192,59104,1,0,0:0:0:0:
256,192,59187,1,8,0:0:0:0:
256,192,59270,1,0,0:0:0:0:
256,192,59519,1,8,0:0:0:0:
256,192,59644,1,0,0:0:0:0:
256,192,59769,1,8,0:0:0:0:
256,192,59893,1,0,0:0:0:0:
256,192,60018,1,0,0:0:0:0:
256,192,60143,1,8,0:0:0:0:
256,192,60268,1,0,0:0:0:0:
256,192,60393,1,8,0:0:0:0:
256,192,60517,1,8,0:0:0:0:
256,192,60767,1,8,0:0:0:0:
256,192,60892,1,0,0:0:0:0:
256,192,61017,1,0,0:0:0:0:
256,192,61141,1,8,0:0:0:0:
256,192,61266,1,0,0:0:0:0:
256,192,61390,1,8,0:0:0:0:
256,192,61514,1,8,0:0:0:0:
256,192,61763,1,8,0:0:0:0:
256,192,61887,1,0,0:0:0:0:
256,192,62012,1,0,0:0:0:0:
256,192,62136,1,8,0:0:0:0:
256,192,62261,1,0,0:0:0:0:
256,192,62385,1,8,0:0:0:0:
256,192,62509,1,8,0:0:0:0:
256,192,62758,1,8,0:0:0:0:
256,192,62882,1,0,0:0:0:0:
256,192,63007,1,8,0:0:0:0:
256,192,63131,1,8,0:0:0:0:
256,192,63256,1,0,0:0:0:0:
256,192,63504,1,8,0:0:0:0:
256,192,63628,1,0,0:0:0:0:
256,192,63752,1,8,0:0:0:0:
256,192,63876,1,0,0:0:0:0:
256,192,64001,1,0,0:0:0:0:
256,192,64125,1,8,0:0:0:0:
256,192,64249,1,0,0:0:0:0:
256,192,64368,1,8,0:0:0:0:
256,192,64487,1,0,0:0:0:0:
256,192,64754,1,4,0:0:0:0:
256,192,64879,1,0,0:0:0:0:
256,192,65004,1,4,0:0:0:0:
256,192,65129,1,0,0:0:0:0:
256,192,65254,1,4,0:0:0:0:
256,192,65514,1,8,0:0:0:0:
256,192,65645,1,0,0:0:0:0:
256,192,65775,1,8,0:0:0:0:
256,192,65898,1,0,0:0:0:0:
256,192,66022,1,0,0:0:0:0:
256,192,66146,1,8,0:0:0:0:
256,192,66270,1,0,0:0:0:0:
256,192,66394,1,8,0:0:0:0:
256,192,66518,1,8,0:0:0:0:
256,192,66766,1,8,0:0:0:0:
256,192,66890,1,0,0:0:0:0:
256,192,67014,1,0,0:0:0:0:
256,192,67138,1,8,0:0:0:0:
256,192,67262,1,0,0:0:0:0:
256,192,67383,1,8,0:0:0:0:
256,192,67505,1,8,0:0:0:0:
256,192,67627,1,0,0:0:0:0:
256,192,67749,1,8,0:0:0:0:
256,192,67869,1,0,0:0:0:0:
256,192,67990,1,0,0:0:0:0:
256,192,68111,1,8,0:0:0:0:
256,192,68232,1,0,0:0:0:0:
256,192,68353,1,8,0:0:0:0:
256,192,68474,1,0,0:0:0:0:
256,192,68716,1,8,0:0:0:0:
256,192,68839,1,0,0:0:0:0:
256,192,68963,1,0,0:0:0:0:
256,192,69087,1,8,0:0:0:0:
256,192,69211,1,0,0:0:0:0:
256,192,69337,1,0,0:0:0:0:
256,192,69400,1,0,0:0:0:0:
256,192,69463,1,8,0:0:0:0:
256,192,69589,1,8,0:0:0:0:
256,192,69715,1,0,0:0:0:0:
256,192,69795,1,8,0:0:0:0:
256,192,69875,1,0,0:0:0:0:
256,192,69955,1,8,0:0:0:0:
256,192,70075,1,0,0:0:0:0:
256,192,70195,1,8,0:0:0:0:
256,192,70259,1,8,0:0:0:0:
256,192,70324,1,0,0:0:0:0:
256,192,70453,1,0,0:0:0:0:
256,192,70539,1,0,0:0:0:0:
256,192,70626,1,0,0:0:0:0:
256,192,70712,1,0,0:0:0:0:
256,192,70877,1,8,0:0:0:0:
256,192,71083,1,8,0:0:0:0:
256,192,71207,1,4,0:0:0:0:
256,192,71473,1,0,0:0:0:0:
256,192,71607,1,8,0:0:0:0:
256,192,71873,1,0,0:0:0:0:
256,192,72007,1,0,0:0:0:0:
256,192,72261,1,0,0:0:0:0:
256,192,72389,1,8,0:0:0:0:
256,192,72643,1,0,0:0:0:0:
256,192,72771,1,0,0:0:0:0:
256,192,73024,1,0,0:0:0:0:
256,192,73150,1,8,0:0:0:0:
256,192,73403,1,0,0:0:0:0:
256,192,73530,1,0,0:0:0:0:
256,192,73780,1,0,0:0:0:0:
256,192,73905,1,8,0:0:0:0:
256,192,74030,1,8,0:0:0:0:
256,192,74155,1,8,0:0:0:0:
256,192,74280,1,8,0:0:0:0:
256,192,74401,1,0,0:0:0:0:
256,192,74523,1,0,0:0:0:0:
256,192,74584,1,0,0:0:0:0:
256,192,74645,1,0,0:0:0:0:
256,192,74767,1,0,0:0:0:0:
256,192,74889,1,0,0:0:0:0:
256,192,74950,1,0,0:0:0:0:
256,192,75011,1,0,0:0:0:0:
256,192,75136,1,0,0:0:0:0:
256,192,75262,1,0,0:0:0:0:
256,192,75325,1,0,0:0:0:0:
256,192,75388,1,0,0:0:0:0:
256,192,75515,1,0,0:0:0:0:
256,192,75642,1,0,0:0:0:0:
256,192,75706,1,0,0:0:0:0:
256,192,75770,1,0,0:0:0:0:
256,192,75897,1,0,0:0:0:0:
256,192,76024,1,0,0:0:0:0:
256,192,76088,1,0,0:0:0:0:
256,192,76152,1,0,0:0:0:0:
256,192,76279,1,0,0:0:0:0:
256,192,76407,1,0,0:0:0:0:
256,192,76470,1,0,0:0:0:0:
256,192,76534,1,0,0:0:0:0:
256,192,76630,1,0,0:0:0:0:
256,192,76790,1,0,0:0:0:0:
256,192,76854,1,0,0:0:0:0:
256,192,76918,1,0,0:0:0:0:
256,192,77303,1,4,0:0:0:0:
256,192,78754,1,12,0:0:0:0:
256,192,78876,1,0,0:0:0:0:
256,192,78999,1,0,0:0:0:0:
256,192,79122,1,8,0:0:0:0:
256,192,79245,1,4,0:0:0:0:
256,192,79364,1,0,0:0:0:0:
256,192,79602,1,0,0:0:0:0:
256,192,79721,1,12,0:0:0:0:
256,192,79959,1,0,0:0:0:0:
256,192,80078,1,4,0:0:0:0:
256,192,80327,1,8,0:0:0:0:
256,192,80590,1,0,0:0:0:0:
256,192,80724,1,12,0:0:0:0:
256,192,80854,1,0,0:0:0:0:
256,192,80984,1,0,0:0:0:0:
256,192,81115,1,8,0:0:0:0:
256,192,81245,1,0,0:0:0:0:
256,192,81486,1,8,0:0:0:0:
256,192,81607,1,0,0:0:0:0:
256,192,81728,1,8,0:0:0:0:
256,192,81851,1,0,0:0:0:0:
256,192,81975,1,0,0:0:0:0:
256,192,82099,1,8,0:0:0:0:
256,192,82223,1,0,0:0:0:0:
256,192,82479,1,0,0:0:0:0:
256,192,82735,1,8,0:0:0:0:
256,192,82992,1,0,0:0:0:0:
256,192,83120,1,8,0:0:0:0:
256,192,83248,1,0,0:0:0:0:
256,192,83623,1,0,0:0:0:0:
256,192,83748,1,0,0:0:0:0:
256,192,84123,1,8,0:0:0:0:
256,192,84373,1,8,0:0:0:0:
256,192,84498,1,0,0:0:0:0:
256,192,84623,1,0,0:0:0:0:
256,192,84748,1,8,0:0:0:0:
256,192,84873,1,0,0:0:0:0:
256,192,85123,1,8,0:0:0:0:
256,192,85248,1,0,0:0:0:0:
256,192,85373,1,8,0:0:0:0:
256,192,85498,1,0,0:0:0:0:
256,192,85623,1,0,0:0:0:0:
256,192,85748,1,0,0:0:0:0:
256,192,85998,1,8,0:0:0:0:
256,192,86379,1,8,0:0:0:0:
256,192,86511,1,0,0:0:0:0:
256,192,86642,1,0,0:0:0:0:
256,192,86708,1,0,0:0:0:0:
256,192,86774,1,8,0:0:0:0:
256,192,86903,1,0,0:0:0:0:
256,192,87032,1,8,0:0:0:0:
256,192,87161,1,0,0:0:0:0:
256,192,87291,1,4,0:0:0:0:
256,192,87645,1,0,0:0:0:0:
256,192,87763,1,12,0:0:0:0:
256,192,88117,1,8,0:0:0:0:
256,192,88363,1,8,0:0:0:0:
256,192,88491,1,4,0:0:0:0:
256,192,88747,1,8,0:0:0:0:
256,192,88868,1,4,0:0:0:0:
256,192,89112,1,8,0:0:0:0:
256,192,89234,1,4,0:0:0:0:
256,192,89596,1,0,0:0:0:0:
256,192,89717,1,8,0:0:0:0:
256,192,89838,1,0,0:0:0:0:
256,192,89959,1,0,0:0:0:0:
256,192,90091,1,8,0:0:0:0:
256,192,90224,1,0,0:0:0:0:
256,192,90354,1,8,0:0:0:0:
256,192,90484,1,0,0:0:0:0:
256,192,90745,1,8,0:0:0:0:
256,192,91006,1,8,0:0:0:0:
256,192,91137,1,8,0:0:0:0:
256,192,91267,1,4,0:0:0:0:
256,192,91507,1,8,0:0:0:0:
256,192,91627,1,0,0:0:0:0:
256,192,91747,1,12,0:0:0:0:
256,192,92131,1,8,0:0:0:0:
256,192,92195,1,8,0:0:0:0:
256,192,92259,1,8,0:0:0:0:
256,192,92381,1,8,0:0:0:0:
256,192,92504,1,0,0:0:0:0:
256,192,92566,1,0,0:0:0:0:
256,192,92627,1,0,0:0:0:0:
256,192,92750,1,0,0:0:0:0:
256,192,92879,1,0,0:0:0:0:
256,192,92943,1,0,0:0:0:0:
256,192,93008,1,0,0:0:0:0:
256,192,93137,1,0,0:0:0:0:
256,192,93267,1,4,0:0:0:0:
256,192,93624,1,0,0:0:0:0:
256,192,93743,1,8,0:0:0:0:
256,192,93984,1,0,0:0:0:0:
256,192,94105,1,12,0:0:0:0:
256,192,94353,1,0,0:0:0:0:
256,192,94607,1,0,0:0:0:0:
256,192,94734,1,8,0:0:0:0:
256,192,94988,1,8,0:0:0:0:
256,192,95115,1,8,0:0:0:0:
256,192,95242,1,0,0:0:0:0:
256,192,95365,1,8,0:0:0:0:
256,192,95489,1,8,0:0:0:0:
256,192,95613,1,0,0:0:0:0:
256,192,95737,1,8,0:0:0:0:
256,192,95861,1,0,0:0:0:0:
256,192,95985,1,8,0:0:0:0:
256,192,96109,1,8,0:0:0:0:
256,192,96233,1,0,0:0:0:0:
256,192,96357,1,8,0:0:0:0:
256,192,96481,1,8,0:0:0:0:
256,192,96605,1,0,0:0:0:0:
256,192,96729,1,8,0:0:0:0:
256,192,96857,1,0,0:0:0:0:
256,192,96985,1,8,0:0:0:0:
256,192,97113,1,8,0:0:0:0:
256,192,97241,1,0,0:0:0:0:
256,192,97368,1,8,0:0:0:0:
256,192,97495,1,8,0:0:0:0:
256,192,97622,1,0,0:0:0:0:
256,192,97749,1,8,0:0:0:0:
256,192,97876,1,0,0:0:0:0:
256,192,98003,1,8,0:0:0:0:
256,192,98130,1,8,0:0:0:0:
256,192,98257,1,0,0:0:0:0:
256,192,98380,1,8,0:0:0:0:
256,192,98504,1,8,0:0:0:0:
256,192,98628,1,0,0:0:0:0:
256,192,98752,1,8,0:0:0:0:
256,192,98876,1,0,0:0:0:0:
256,192,99000,1,8,0:0:0:0:
256,192,99124,1,8,0:0:0:0:
256,192,99248,1,0,0:0:0:0:
256,192,99374,1,8,0:0:0:0:
256,192,99500,1,8,0:0:0:0:
256,192,99626,1,0,0:0:0:0:
256,192,99752,1,8,0:0:0:0:
256,192,99878,1,0,0:0:0:0:
256,192,100004,1,8,0:0:0:0:
256,192,100130,1,8,0:0:0:0:
256,192,100256,1,0,0:0:0:0:
256,192,100379,1,8,0:0:0:0:
256,192,100503,1,8,0:0:0:0:
256,192,100627,1,0,0:0:0:0:
256,192,100751,1,8,0:0:0:0:
256,192,100876,1,8,0:0:0:0:
256,192,101001,1,8,0:0:0:0:
256,192,101126,1,8,0:0:0:0:
256,192,101251,1,0,0:0:0:0:
256,192,101495,1,8,0:0:0:0:
256,192,101618,1,0,0:0:0:0:
256,192,101740,1,12,0:0:0:0:
256,192,101985,1,0,0:0:0:0:
256,192,102108,1,8,0:0:0:0:
256,192,102353,1,0,0:0:0:0:
256,192,102475,1,12,0:0:0:0:
256,192,102720,1,0,0:0:0:0:
256,192,102847,1,12,0:0:0:0:
256,192,103101,1,8,0:0:0:0:
256,192,103228,1,4,0:0:0:0:
256,192,103486,1,0,0:0:0:0:
256,192,103745,1,8,0:0:0:0:
256,192,104120,1,8,0:0:0:0:
256,192,104245,1,4,0:0:0:0:
256,192,104501,1,0,0:0:0:0:
256,192,104757,1,12,0:0:0:0:
256,192,105004,1,8,0:0:0:0:
256,192,105252,1,4,0:0:0:0:
256,192,105614,1,0,0:0:0:0:
256,192,105735,1,12,0:0:0:0:
256,192,106219,1,8,0:0:0:0:
256,192,106298,1,8,0:0:0:0:
256,192,106377,1,8,0:0:0:0:
256,192,106457,1,0,0:0:0:0:
256,192,106536,1,0,0:0:0:0:
256,192,106615,1,0,0:0:0:0:
256,192,106695,1,8,0:0:0:0:
256,192,106774,1,8,0:0:0:0:
256,192,106853,1,0,0:0:0:0:
256,192,106933,1,0,0:0:0:0:
256,192,107016,1,0,0:0:0:0:
256,192,107099,1,8,0:0:0:0:
256,192,107189,1,4,0:0:0:0:
256,192,107583,1,0,0:0:0:0:
256,192,107715,1,8,0:0:0:0:
256,192,108102,1,8,0:0:0:0:
256,192,108613,1,0,0:0:0:0:
256,192,108740,1,8,0:0:0:0:
256,192,108868,1,0,0:0:0:0:
256,192,108996,1,0,0:0:0:0:
256,192,109124,1,8,0:0:0:0:
256,192,109252,1,0,0:0:0:0:
256,192,109627,1,0,0:0:0:0:
256,192,109752,1,8,0:0:0:0:
256,192,109874,1,8,0:0:0:0:
256,192,109997,1,8,0:0:0:0:
256,192,110120,1,8,0:0:0:0:
256,192,110243,1,0,0:0:0:0:
256,192,110489,1,8,0:0:0:0:
256,192,110612,1,0,0:0:0:0:
256,192,110735,1,8,0:0:0:0:
256,192,110863,1,0,0:0:0:0:
256,192,110991,1,0,0:0:0:0:
256,192,111119,1,8,0:0:0:0:
256,192,111247,1,0,0:0:0:0:
256,192,111370,1,8,0:0:0:0:
256,192,111494,1,8,0:0:0:0:
256,192,111618,1,0,0:0:0:0:
256,192,111742,1,8,0:0:0:0:
256,192,112123,1,8,0:0:0:0:
256,192,112250,1,0,0:0:0:0:
256,192,112631,1,0,0:0:0:0:
256,192,112758,1,8,0:0:0:0:
256,192,112886,1,8,0:0:0:0:
256,192,113013,1,8,0:0:0:0:
256,192,113140,1,8,0:0:0:0:
256,192,113203,1,0,0:0:0:0:
256,192,113267,1,0,0:0:0:0:
256,192,113379,1,8,0:0:0:0:
256,192,113492,1,0,0:0:0:0:
256,192,113633,1,8,0:0:0:0:
256,192,113718,1,8,0:0:0:0:
256,192,113838,1,8,0:0:0:0:
256,192,113959,1,0,0:0:0:0:
256,192,114021,1,0,0:0:0:0:
256,192,114084,1,8,0:0:0:0:
256,192,114209,1,0,0:0:0:0:
256,192,114334,1,8,0:0:0:0:
256,192,114459,1,0,0:0:0:0:
256,192,114584,1,0,0:0:0:0:
256,192,114709,1,0,0:0:0:0:
256,192,114770,1,0,0:0:0:0:
256,192,114862,1,8,0:0:0:0:
256,192,114954,1,0,0:0:0:0:
256,192,115077,1,0,0:0:0:0:
256,192,115213,1,4,0:0:0:0:
256,192,115473,1,8,0:0:0:0:
256,192,115604,1,0,0:0:0:0:
256,192,115734,1,12,0:0:0:0:
256,192,115990,1,0,0:0:0:0:
256,192,116118,1,12,0:0:0:0:
256,192,116375,1,8,0:0:0:0:
256,192,116503,1,8,0:0:0:0:
256,192,116631,1,0,0:0:0:0:
256,192,116759,1,8,0:0:0:0:
256,192,116887,1,0,0:0:0:0:
256,192,117016,1,0,0:0:0:0:
256,192,117144,1,8,0:0:0:0:
256,192,117272,1,0,0:0:0:0:
256,192,117636,1,0,0:0:0:0:
256,192,117757,1,8,0:0:0:0:
256,192,117838,1,0,0:0:0:0:
256,192,117919,1,0,0:0:0:0:
256,192,118000,1,8,0:0:0:0:
256,192,118122,1,8,0:0:0:0:
256,192,118243,1,0,0:0:0:0:
256,192,118365,1,8,0:0:0:0:
256,192,118488,1,8,0:0:0:0:
256,192,118611,1,0,0:0:0:0:
256,192,118734,1,8,0:0:0:0:
256,192,118980,1,12,0:0:0:0:
256,192,119103,1,8,0:0:0:0:
256,192,119226,1,4,0:0:0:0:
256,192,119473,1,8,0:0:0:0:
256,192,119597,1,0,0:0:0:0:
256,192,119721,1,8,0:0:0:0:
256,192,119969,1,0,0:0:0:0:
256,192,120093,1,8,0:0:0:0:
256,192,120298,1,0,0:0:0:0:
256,192,120380,1,8,0:0:0:0:
256,192,120462,1,8,0:0:0:0:
256,192,120615,1,0,0:0:0:0:
256,192,120707,1,8,0:0:0:0:
256,192,120830,1,8,0:0:0:0:
256,192,120952,1,8,0:0:0:0:
256,192,121075,1,8,0:0:0:0:
256,192,121198,1,8,0:0:0:0:
256,192,121260,1,0,0:0:0:0:
256,192,121323,1,0,0:0:0:0:
256,192,121385,1,8,0:0:0:0:
256,192,121448,1,0,0:0:0:0:
256,192,121510,1,0,0:0:0:0:
256,192,121573,1,0,0:0:0:0:
256,192,121635,1,8,0:0:0:0:
256,192,121698,1,0,0:0:0:0:
256,192,121760,1,0,0:0:0:0:
256,192,121823,1,0,0:0:0:0:
256,192,121885,1,8,0:0:0:0:
256,192,121948,1,0,0:0:0:0:
256,192,122010,1,0,0:0:0:0:
256,192,122073,1,0,0:0:0:0:
256,192,122135,1,8,0:0:0:0:
256,192,122198,1,8,0:0:0:0:
256,192,122260,1,0,0:0:0:0:
256,192,122323,1,0,0:0:0:0:
256,192,122385,1,8,0:0:0:0:
256,192,122448,1,0,0:0:0:0:
256,192,122510,1,0,0:0:0:0:
256,192,122573,1,0,0:0:0:0:
256,192,122635,1,8,0:0:0:0:
256,192,122698,1,0,0:0:0:0:
256,192,122760,1,0,0:0:0:0:
256,192,122823,1,0,0:0:0:0:
256,192,122885,1,8,0:0:0:0:
256,192,122948,1,0,0:0:0:0:
256,192,123010,1,0,0:0:0:0:
256,192,123073,1,0,0:0:0:0:
256,192,123135,1,8,0:0:0:0:
256,192,123198,1,8,0:0:0:0:
256,192,123261,1,0,0:0:0:0:
256,192,123324,1,0,0:0:0:0:
256,192,123387,1,8,0:0:0:0:
256,192,123450,1,0,0:0:0:0:
256,192,123513,1,0,0:0:0:0:
256,192,123576,1,0,0:0:0:0:
256,192,123639,1,8,0:0:0:0:
256,192,123702,1,0,0:0:0:0:
256,192,123765,1,0,0:0:0:0:
256,192,123828,1,0,0:0:0:0:
256,192,123891,1,8,0:0:0:0:
256,192,123954,1,0,0:0:0:0:
256,192,124017,1,0,0:0:0:0:
256,192,124080,1,0,0:0:0:0:
256,192,124143,1,8,0:0:0:0:
256,192,124206,1,8,0:0:0:0:
256,192,124270,1,0,0:0:0:0:
256,192,124334,1,0,0:0:0:0:
256,192,124398,1,8,0:0:0:0:
256,192,124462,1,0,0:0:0:0:
256,192,124526,1,0,0:0:0:0:
256,192,124590,1,0,0:0:0:0:
256,192,124654,1,8,0:0:0:0:
256,192,124718,1,0,0:0:0:0:
256,192,124782,1,0,0:0:0:0:
256,192,124847,1,0,0:0:0:0:
256,192,124911,1,8,0:0:0:0:
256,192,124975,1,0,0:0:0:0:
256,192,125039,1,0,0:0:0:0:
256,192,125103,1,0,0:0:0:0:
256,192,125167,1,8,0:0:0:0:
256,192,125231,1,8,0:0:0:0:
256,192,125294,1,0,0:0:0:0:
256,192,125358,1,0,0:0:0:0:
256,192,125421,1,8,0:0:0:0:
256,192,125485,1,0,0:0:0:0:
256,192,125548,1,0,0:0:0:0:
256,192,125612,1,0,0:0:0:0:
256,192,125675,1,8,0:0:0:0:
256,192,125739,1,0,0:0:0:0:
256,192,125803,1,0,0:0:0:0:
256,192,125866,1,0,0:0:0:0:
256,192,125930,1,8,0:0:0:0:
256,192,125993,1,0,0:0:0:0:
256,192,126057,1,0,0:0:0:0:
256,192,126120,1,0,0:0:0:0:
256,192,126184,1,8,0:0:0:0:
256,192,126247,1,0,0:0:0:0:
256,192,126309,1,0,0:0:0:0:
256,192,126372,1,0,0:0:0:0:
256,192,126434,1,8,0:0:0:0:
256,192,126497,1,0,0:0:0:0:
256,192,126559,1,0,0:0:0:0:
256,192,126622,1,0,0:0:0:0:
256,192,126684,1,8,0:0:0:0:
256,192,126747,1,0,0:0:0:0:
256,192,126809,1,0,0:0:0:0:
256,192,126872,1,0,0:0:0:0:
256,192,126934,1,8,0:0:0:0:
256,192,126997,1,0,0:0:0:0:
256,192,127080,1,0,0:0:0:0:
256,192,127163,1,0,0:0:0:0:
256,192,127247,1,8,0:0:0:0:
256,192,127278,1,8,0:0:0:0:
256,192,127497,1,4,0:0:0:0:
256,192,127872,1,12,0:0:0:0:
256,192,128243,1,4,0:0:0:0:
256,192,128603,1,8,0:0:0:0:
256,192,128723,1,12,0:0:0:0:
256,192,128843,1,8,0:0:0:0:
256,192,128963,1,8,0:0:0:0:
256,192,129083,1,8,0:0:0:0:
256,192,129203,1,8,0:0:0:0:
256,192,129443,1,4,0:0:0:0:
