osu file format v14

[General]
AudioFilename: audio.mp3
AudioLeadIn: 0
PreviewTime: 4965
Countdown: 0
SampleSet: Normal
StackLeniency: 0.7
Mode: 1
LetterboxInBreaks: 0
WidescreenStoryboard: 1

[Editor]
DistanceSpacing: 1
BeatDivisor: 4
GridSize: 4
TimelineZoom: 1.6

[Metadata]
Title:To Be the Best
TitleUnicode:To Be the Best
Artist:Tenacious D
ArtistUnicode:Tenacious D
Creator:Ognjen3800
Version:Muzukashii
Source:
Tags:rize of the fenix rise phoenix hard rock english kyle gass jack black comedy e_s_i_a [-e_s_i_a-] esia [-esia-]
BeatmapID:4215993
BeatmapSetID:2012023

[Difficulty]
HPDrainRate:7
CircleSize:5
OverallDifficulty:5
ApproachRate:5
SliderMultiplier:1.4
SliderTickRate:1

[Events]
//Background and Video events
0,0,"bg.jpg",0,0
//Break Periods
//Storyboard Layer 0 (Background)
//Storyboard Layer 1 (Fail)
//Storyboard Layer 2 (Pass)
//Storyboard Layer 3 (Foreground)
//Storyboard Layer 4 (Overlay)
//Storyboard Sound Samples

[TimingPoints]
222,333.333333333333,4,1,0,100,1,0
222,-100,4,1,0,70,0,0
55215,-100,4,1,0,60,0,0
55549,-100,4,1,0,55,0,0
55882,-100,4,1,0,50,0,0
56215,-100,4,1,0,45,0,0
56549,-100,4,1,0,40,0,0
56882,-100,4,1,0,35,0,0
57215,-100,4,1,0,30,0,0
57549,-100,4,1,0,25,0,0

[HitObjects]
255,194,222,5,12,0:0:0:0:
255,194,555,1,0,0:0:0:0:
255,194,721,1,0,0:0:0:0:
255,194,888,1,8,0:0:0:0:
255,194,1055,1,0,0:0:0:0:
255,194,1221,1,8,0:0:0:0:
255,194,1388,1,8,0:0:0:0:
255,194,1555,1,0,0:0:0:0:
255,194,1888,1,8,0:0:0:0:
255,194,1971,1,8,0:0:0:0:
255,194,2055,1,8,0:0:0:0:
255,194,2221,1,0,0:0:0:0:
255,194,2388,1,8,0:0:0:0:
255,194,2555,1,0,0:0:0:0:
255,194,2638,1,0,0:0:0:0:
255,194,2721,1,0,0:0:0:0:
255,194,2888,1,8,0:0:0:0:
255,194,3221,1,8,0:0:0:0:
255,194,3388,1,8,0:0:0:0:
255,194,3555,1,0,0:0:0:0:
255,194,3721,1,0,0:0:0:0:
255,194,3888,1,8,0:0:0:0:
255,194,4055,1,8,0:0:0:0:
255,194,4221,1,0,0:0:0:0:
255,194,4555,1,8,0:0:0:0:
255,194,4721,1,8,0:0:0:0:
255,194,4888,1,0,0:0:0:0:
255,194,5055,1,8,0:0:0:0:
255,194,5555,1,12,0:0:0:0:
255,194,5888,1,0,0:0:0:0:
255,194,6055,1,8,0:0:0:0:
255,194,6388,1,8,0:0:0:0:
255,194,6554,1,0,0:0:0:0:
255,194,6721,1,0,0:0:0:0:
255,194,6888,1,8,0:0:0:0:
255,194,7221,1,0,0:0:0:0:
255,194,7388,1,8,0:0:0:0:
255,194,7721,1,8,0:0:0:0:
255,194,7888,1,8,0:0:0:0:
255,194,8055,1,0,0:0:0:0:
255,194,8221,1,8,0:0:0:0:
255,194,8555,1,8,0:0:0:0:
255,194,8888,1,0,0:0:0:0:
255,194,9221,1,8,0:0:0:0:
255,194,9388,1,8,0:0:0:0:
255,194,9721,1,0,0:0:0:0:
255,194,9805,1,0,0:0:0:0:
255,194,9888,1,0,0:0:0:0:
255,194,10055,1,8,0:0:0:0:
255,194,10388,1,8,0:0:0:0:
255,194,10555,1,8,0:0:0:0:
255,194,10721,1,0,0:0:0:0:
255,194,10888,1,12,0:0:0:0:
255,194,11221,1,8,0:0:0:0:
255,194,11555,1,0,0:0:0:0:
255,194,11721,1,8,0:0:0:0:
255,194,11805,1,8,0:0:0:0:
255,194,11888,1,8,0:0:0:0:
255,194,12388,1,0,0:0:0:0:
255,194,12471,1,0,0:0:0:0:
255,194,12554,1,0,0:0:0:0:
255,194,12721,1,8,0:0:0:0:
255,194,13055,1,8,0:0:0:0:
255,194,13221,1,0,0:0:0:0:
255,194,13388,1,8,0:0:0:0:
255,194,13555,1,0,0:0:0:0:
255,194,13638,1,0,0:0:0:0:
255,194,13721,1,0,0:0:0:0:
255,194,13888,1,8,0:0:0:0:
255,194,14221,1,0,0:0:0:0:
255,194,14388,1,8,0:0:0:0:
255,194,14721,1,0,0:0:0:0:
255,194,14888,1,8,0:0:0:0:
255,194,14971,1,8,0:0:0:0:
255,194,15055,1,8,0:0:0:0:
255,194,15221,1,0,0:0:0:0:
255,194,15388,1,8,0:0:0:0:
255,194,15555,1,0,0:0:0:0:
255,194,15638,1,0,0:0:0:0:
255,194,15721,1,0,0:0:0:0:
255,194,15888,1,8,0:0:0:0:
255,194,16221,1,12,0:0:0:0:
255,194,16555,1,0,0:0:0:0:
255,194,16721,1,8,0:0:0:0:
255,194,17055,1,8,0:0:0:0:
255,194,17221,1,0,0:0:0:0:
255,194,17388,1,0,0:0:0:0:
255,194,17555,1,8,0:0:0:0:
255,194,17888,1,0,0:0:0:0:
255,194,18055,1,8,0:0:0:0:
255,194,18388,1,8,0:0:0:0:
255,194,18555,1,8,0:0:0:0:
255,194,18721,1,0,0:0:0:0:
255,194,18888,1,8,0:0:0:0:
255,194,19221,1,0,0:0:0:0:
255,194,19555,1,8,0:0:0:0:
255,194,19888,1,0,0:0:0:0:
255,194,20055,1,8,0:0:0:0:
255,194,20388,1,8,0:0:0:0:
255,194,20471,1,8,0:0:0:0:
255,194,20555,1,8,0:0:0:0:
255,194,20721,1,0,0:0:0:0:
255,194,21055,1,0,0:0:0:0:
255,194,21221,1,8,0:0:0:0:
255,194,21388,1,0,0:0:0:0:
255,194,21555,1,12,0:0:0:0:
255,194,21888,1,8,0:0:0:0:
255,194,22221,1,0,0:0:0:0:
255,194,22555,1,8,0:0:0:0:
255,194,22721,1,0,0:0:0:0:
255,194,22888,1,8,0:0:0:0:
255,194,23055,1,0,0:0:0:0:
255,194,23138,1,0,0:0:0:0:
255,194,23221,1,0,0:0:0:0:
255,194,23388,1,8,0:0:0:0:
255,194,23721,1,8,0:0:0:0:
255,194,23888,1,0,0:0:0:0:
255,194,24055,1,8,0:0:0:0:
255,194,24555,1,8,0:0:0:0:
255,194,24888,1,0,0:0:0:0:
255,194,25055,1,8,0:0:0:0:
255,194,25388,1,8,0:0:0:0:
255,194,25721,1,8,0:0:0:0:
255,194,25888,1,0,0:0:0:0:
255,194,25971,1,0,0:0:0:0:
255,194,26055,1,0,0:0:0:0:
255,194,26221,1,8,0:0:0:0:
255,194,26388,1,8,0:0:0:0:
255,194,26555,1,0,0:0:0:0:
255,194,26638,1,0,0:0:0:0:
255,194,26721,1,0,0:0:0:0:
255,194,26888,1,12,0:0:0:0:
255,194,27221,1,8,0:0:0:0:
255,194,27388,1,8,0:0:0:0:
255,194,27721,1,8,0:0:0:0:
255,194,27888,1,0,0:0:0:0:
255,194,28055,1,8,0:0:0:0:
255,194,28221,1,0,0:0:0:0:
255,194,28388,1,0,0:0:0:0:
255,194,28555,1,8,0:0:0:0:
255,194,28888,1,8,0:0:0:0:
255,194,29055,1,0,0:0:0:0:
255,194,29221,1,8,0:0:0:0:
255,194,29388,1,0,0:0:0:0:
255,194,29555,1,8,0:0:0:0:
255,194,29721,1,8,0:0:0:0:
255,194,29888,1,0,0:0:0:0:
255,194,30055,1,8,0:0:0:0:
255,194,30388,1,8,0:0:0:0:
255,194,30555,1,0,0:0:0:0:
255,194,30721,1,8,0:0:0:0:
255,194,31055,1,8,0:0:0:0:
255,194,31221,1,8,0:0:0:0:
255,194,31388,1,0,0:0:0:0:
255,194,31721,1,8,0:0:0:0:
255,194,32221,1,12,0:0:0:0:
255,194,32555,1,8,0:0:0:0:
255,194,32721,1,0,0:0:0:0:
255,194,33055,1,0,0:0:0:0:
255,194,33221,1,8,0:0:0:0:
255,194,33388,1,0,0:0:0:0:
255,194,33721,1,8,0:0:0:0:
255,194,33888,1,0,0:0:0:0:
255,194,34055,1,8,0:0:0:0:
255,194,34388,1,8,0:0:0:0:
255,194,34555,1,8,0:0:0:0:
255,194,34721,1,0,0:0:0:0:
255,194,34888,1,8,0:0:0:0:
255,194,34971,1,8,0:0:0:0:
255,194,35055,1,8,0:0:0:0:
255,194,35221,1,0,0:0:0:0:
255,194,35388,1,8,0:0:0:0:
255,194,35721,1,8,0:0:0:0:
255,194,35805,1,8,0:0:0:0:
255,194,35888,1,8,0:0:0:0:
255,194,36055,1,0,0:0:0:0:
255,194,36221,1,8,0:0:0:0:
255,194,36555,1,8,0:0:0:0:
255,194,36721,1,0,0:0:0:0:
255,194,36888,1,8,0:0:0:0:
255,194,36971,1,8,0:0:0:0:
255,194,37055,1,8,0:0:0:0:
255,194,37221,1,0,0:0:0:0:
255,194,37388,1,0,0:0:0:0:
255,194,37555,1,8,0:0:0:0:
255,194,37888,1,8,0:0:0:0:
255,194,37971,1,8,0:0:0:0:
255,194,38055,1,8,0:0:0:0:
255,194,38221,1,0,0:0:0:0:
255,194,38388,1,8,0:0:0:0:
255,194,38721,1,8,0:0:0:0:
255,194,38888,1,8,0:0:0:0:
255,194,39388,1,0,0:0:0:0:
255,194,39555,1,8,0:0:0:0:
255,194,39638,1,8,0:0:0:0:
255,194,39721,1,8,0:0:0:0:
255,194,39888,1,0,0:0:0:0:
255,194,40055,1,8,0:0:0:0:
255,194,40221,1,0,0:0:0:0:
255,194,40555,1,8,0:0:0:0:
255,194,40721,1,0,0:0:0:0:
255,194,40888,1,0,0:0:0:0:
255,194,41055,1,8,0:0:0:0:
255,194,41388,1,0,0:0:0:0:
255,194,41555,1,8,0:0:0:0:
255,194,42055,1,8,0:0:0:0:
255,194,42221,1,0,0:0:0:0:
255,194,42305,1,0,0:0:0:0:
255,194,42388,1,0,0:0:0:0:
255,194,42555,1,8,0:0:0:0:
255,194,42721,1,8,0:0:0:0:
255,194,42888,1,0,0:0:0:0:
255,194,43221,1,8,0:0:0:0:
255,194,43388,1,0,0:0:0:0:
255,194,43555,1,0,0:0:0:0:
255,194,43721,1,8,0:0:0:0:
255,194,44055,1,8,0:0:0:0:
255,194,44221,1,8,0:0:0:0:
255,194,44721,1,0,0:0:0:0:
255,194,44888,1,8,0:0:0:0:
255,194,44971,1,8,0:0:0:0:
255,194,45055,1,8,0:0:0:0:
255,194,45221,1,0,0:0:0:0:
255,194,45388,1,8,0:0:0:0:
255,194,45555,1,0,0:0:0:0:
255,194,45888,1,8,0:0:0:0:
255,194,46055,1,8,0:0:0:0:
255,194,46221,1,0,0:0:0:0:
255,194,46388,1,8,0:0:0:0:
255,194,46721,1,8,0:0:0:0:
255,194,46888,1,8,0:0:0:0:
255,194,47388,1,8,0:0:0:0:
255,194,47555,1,0,0:0:0:0:
255,194,47638,1,0,0:0:0:0:
255,194,47721,1,0,0:0:0:0:
255,194,47888,1,8,0:0:0:0:
255,194,48054,1,8,0:0:0:0:
255,194,48221,1,0,0:0:0:0:
255,194,48555,1,8,0:0:0:0:
255,194,48722,1,0,0:0:0:0:
255,194,48889,1,0,0:0:0:0:
255,194,49055,1,8,0:0:0:0:
255,194,49388,1,8,0:0:0:0:
255,194,49555,1,0,0:0:0:0:
255,194,50055,1,8,0:0:0:0:
255,194,50221,1,0,0:0:0:0:
255,194,50305,1,0,0:0:0:0:
255,194,50388,1,0,0:0:0:0:
255,194,50555,1,8,0:0:0:0:
255,194,50721,1,8,0:0:0:0:
255,194,50888,1,0,0:0:0:0:
255,194,51221,1,8,0:0:0:0:
255,194,51555,1,0,0:0:0:0:
255,194,51721,1,8,0:0:0:0:
255,194,52055,1,0,0:0:0:0:
255,194,52221,1,8,0:0:0:0:
255,194,52305,1,8,0:0:0:0:
255,194,52388,1,8,0:0:0:0:
255,194,52555,1,8,0:0:0:0:
255,194,52721,1,0,0:0:0:0:
255,194,52805,1,0,0:0:0:0:
255,194,52888,1,0,0:0:0:0:
255,194,53055,1,8,0:0:0:0:
255,194,53221,1,0,0:0:0:0:
255,194,53388,1,8,0:0:0:0:
255,194,53471,1,8,0:0:0:0:
255,194,53555,1,8,0:0:0:0:
255,194,53888,1,8,0:0:0:0:
255,194,54221,1,8,0:0:0:0:
255,194,54388,1,0,0:0:0:0:
255,194,54555,1,8,0:0:0:0:
255,194,54721,1,0,0:0:0:0:
256,192,55055,12,0,58388,0:0:0:0:
