osu file format v14

[General]
AudioFilename: audio.mp3
AudioLeadIn: 0
PreviewTime: 4965
Countdown: 0
SampleSet: Normal
StackLeniency: 0.7
Mode: 1
LetterboxInBreaks: 0
WidescreenStoryboard: 1

[Editor]
Bookmarks: 5549,16215,26882,45549
DistanceSpacing: 1
BeatDivisor: 2
GridSize: 4
TimelineZoom: 0.6999998

[Metadata]
Title:To Be the Best
TitleUnicode:To Be the Best
Artist:Tenacious D
ArtistUnicode:Tenacious D
Creator:Ognjen3800
Version:[-E S I A-]'s Kantan
Source:
Tags:rize of the fenix rise phoenix hard rock english kyle gass jack black comedy e_s_i_a [-e_s_i_a-] esia [-esia-]
BeatmapID:4315139
BeatmapSetID:2012023

[Difficulty]
HPDrainRate:9
CircleSize:2
OverallDifficulty:3
ApproachRate:10
SliderMultiplier:1.4
SliderTickRate:1

[Events]
//Background and Video events
0,0,"bg.jpg",0,0
//Break Periods
//Storyboard Layer 0 (Background)
//Storyboard Layer 1 (Fail)
//Storyboard Layer 2 (Pass)
//Storyboard Layer 3 (Foreground)
//Storyboard Layer 4 (Overlay)
//Storyboard Sound Samples

[TimingPoints]
222,333.333333333333,4,1,0,100,1,0
222,-100,4,1,0,70,0,0
55215,-100,4,1,0,60,0,0
55549,-100,4,1,0,55,0,0
55882,-100,4,1,0,50,0,0
56215,-100,4,1,0,45,0,0
56549,-100,4,1,0,40,0,0
56882,-100,4,1,0,35,0,0
57215,-100,4,1,0,30,0,0
57549,-100,4,1,0,25,0,0

[HitObjects]
319,223,222,5,4,0:0:0:0:
255,194,555,1,8,0:0:0:0:
255,194,1221,1,8,0:0:0:0:
255,194,1555,1,0,0:0:0:0:
255,194,1888,1,8,0:0:0:0:
506,324,2555,1,8,0:0:0:0:
257,203,3221,1,8,0:0:0:0:
255,194,3888,5,8,0:0:0:0:
255,194,4221,1,0,0:0:0:0:
255,194,4555,1,8,0:0:0:0:
255,194,5555,1,4,0:0:0:0:
255,194,6554,1,8,0:0:0:0:
255,194,6888,1,0,0:0:0:0:
255,194,7888,1,0,0:0:0:0:
255,194,8221,1,8,0:0:0:0:
255,194,8888,1,8,0:0:0:0:
255,194,9555,1,0,0:0:0:0:
255,194,10888,1,4,0:0:0:0:
255,194,11221,1,8,0:0:0:0:
255,194,11888,1,8,0:0:0:0:
255,194,12221,1,0,0:0:0:0:
255,194,12721,1,8,0:0:0:0:
255,194,13221,1,8,0:0:0:0:
255,194,13555,1,0,0:0:0:0:
212,130,14221,1,0,0:0:0:0:
255,194,14888,1,8,0:0:0:0:
255,194,16221,1,12,0:0:0:0:
255,194,17221,1,0,0:0:0:0:
255,194,17555,1,8,0:0:0:0:
255,194,18555,1,8,0:0:0:0:
255,194,18888,1,0,0:0:0:0:
255,194,19555,1,0,0:0:0:0:
255,194,20221,1,8,0:0:0:0:
255,194,21555,1,4,0:0:0:0:
255,194,21888,1,8,0:0:0:0:
255,194,22555,1,8,0:0:0:0:
255,194,22888,1,0,0:0:0:0:
255,194,23388,1,8,0:0:0:0:
255,194,23888,1,0,0:0:0:0:
255,194,24221,1,8,0:0:0:0:
255,194,24888,1,8,0:0:0:0:
255,194,25555,1,0,0:0:0:0:
255,194,26888,1,12,0:0:0:0:
255,194,27555,1,0,0:0:0:0:
255,194,28221,1,8,0:0:0:0:
255,194,28555,1,8,0:0:0:0:
255,194,28888,1,0,0:0:0:0:
255,194,29555,1,0,0:0:0:0:
255,194,30221,1,8,0:0:0:0:
276,151,30888,1,0,0:0:0:0:
267,281,31221,1,8,0:0:0:0:
276,151,31555,1,0,0:0:0:0:
255,194,32221,1,12,0:0:0:0:
255,194,32888,1,0,0:0:0:0:
255,194,33555,1,8,0:0:0:0:
255,194,34221,1,0,0:0:0:0:
255,194,34555,1,0,0:0:0:0:
255,194,34888,1,8,0:0:0:0:
305,164,35555,1,0,0:0:0:0:
255,194,36888,1,0,0:0:0:0:
255,194,37555,1,0,0:0:0:0:
255,194,38221,1,8,0:0:0:0:
255,194,39221,1,0,0:0:0:0:
255,194,39555,1,8,0:0:0:0:
255,194,40221,1,0,0:0:0:0:
308,161,40888,1,8,0:0:0:0:
255,194,41888,1,0,0:0:0:0:
255,194,42221,1,8,0:0:0:0:
255,194,42555,1,8,0:0:0:0:
255,194,42888,1,0,0:0:0:0:
255,194,43555,1,8,0:0:0:0:
187,165,44888,1,0,0:0:0:0:
255,194,45555,5,8,0:0:0:0:
255,194,46221,1,0,0:0:0:0:
255,194,47221,1,0,0:0:0:0:
255,194,47555,1,8,0:0:0:0:
255,194,48221,5,8,0:0:0:0:
255,194,48888,1,0,0:0:0:0:
255,194,49888,1,0,0:0:0:0:
255,194,50221,1,8,0:0:0:0:
331,82,50555,1,0,0:0:0:0:
255,194,50888,1,8,0:0:0:0:
406,207,51555,1,8,0:0:0:0:
135,156,52221,1,0,0:0:0:0:
255,194,52888,1,0,0:0:0:0:
255,194,53555,1,8,0:0:0:0:
381,133,53888,1,8,0:0:0:0:
255,194,54221,1,0,0:0:0:0:
255,194,54721,1,8,0:0:0:0:
256,192,55055,12,0,58221,0:0:0:0:
