osu file format v14

[General]
AudioFilename: audio.mp3
AudioLeadIn: 0
PreviewTime: 5480
Countdown: 0
SampleSet: None
StackLeniency: 0.5
Mode: 0
LetterboxInBreaks: 0
WidescreenStoryboard: 1

[Editor]
Bookmarks: 16365,27032,34980,50980,55032
DistanceSpacing: 1
BeatDivisor: 4
GridSize: 4
TimelineZoom: 1

[Metadata]
Title:To Be The Best
TitleUnicode:To Be The Best
Artist:Tenacious D
ArtistUnicode:Tenacious D
Creator:CookieBite
Version:Outstanding
Source:
Tags:Rize Of The Fenix Kyle Gass Jack Black John Spiker Maria Menounos Tim Robbins Val Kilmer Jimmy Kimmel Dave Grohl Yoshiki Josh Groban LowComboFC
BeatmapID:1270538
BeatmapSetID:601419

[Difficulty]
HPDrainRate:6
CircleSize:4
OverallDifficulty:8.5
ApproachRate:9
SliderMultiplier:1.7
SliderTickRate:1

[Events]
//Background and Video events
0,0,"bg.jpg",0,0
Video,-140,"td.flv"
//Break Periods
//Storyboard Layer 0 (Background)
//Storyboard Layer 1 (Fail)
//Storyboard Layer 2 (Pass)
//Storyboard Layer 3 (Foreground)
//Storyboard Sound Samples

[TimingPoints]
314,333.333333333333,4,3,1,60,1,0
11813,-66.6666666666667,4,3,1,60,0,0
12313,-100,4,3,1,60,0,0

[Colours]
Combo1 : 182,112,147
Combo2 : 200,160,43
Combo3 : 236,60,64
Combo4 : 239,135,41

[HitObjects]
102,52,314,6,0,P|88:92|91:136,1,85,4|0,1:0|0:0,0:0:0:0:
213,245,647,1,8,0:0:0:0:
193,151,813,1,0,0:0:0:0:
124,216,980,1,0,0:0:0:0:
223,323,1147,1,0,0:0:0:0:
61,275,1313,1,8,0:0:0:0:
246,329,1480,1,0,0:0:0:0:
36,267,1647,6,0,P|33:233|37:181,1,85,0|0,0:0|0:0,0:0:0:0:
168,58,1980,1,8,0:0:0:0:
187,85,2063,1,0,0:0:0:0:
197,117,2147,1,0,0:0:0:0:
195,151,2230,1,0,0:0:0:0:
174,188,2313,5,0,0:0:0:0:
206,178,2397,1,0,0:0:0:0:
240,180,2480,1,0,0:0:0:0:
271,194,2563,1,0,0:0:0:0:
300,213,2647,5,8,0:0:0:0:
331,226,2730,1,0,0:0:0:0:
365,228,2813,2,0,P|389:225|408:217,1,42.5,0|0,0:0|0:0,0:0:0:0:
361,49,2980,5,0,0:0:0:0:
461,67,3147,1,0,0:0:0:0:
365,228,3313,1,8,0:0:0:0:
302,147,3480,1,0,0:0:0:0:
403,133,3647,1,0,0:0:0:0:
462,217,3813,1,0,0:0:0:0:
344,50,3980,1,8,0:0:0:0:
461,67,4147,1,0,0:0:0:0:
350,259,4313,6,0,P|309:252|268:228,1,85,0|0,0:0|0:0,0:0:0:0:
145,38,4647,2,0,P|187:40|230:60,1,85,8|0,0:0|0:0,0:0:0:0:
148,200,4980,1,0,0:0:0:0:
337,198,5147,5,2,0:0:0:0:
304,208,5230,1,0,0:0:0:0:
270,208,5313,1,0,0:0:0:0:
238,198,5397,1,0,0:0:0:0:
210,179,5480,2,0,P|191:155|182:135,1,42.5,2|0,0:0|0:0,0:0:0:0:
289,17,5647,6,0,L|299:109,1,85,4|0,1:0|0:0,0:0:0:0:
358,215,5980,1,8,0:0:0:0:
464,66,6147,2,0,L|454:158,1,85,0|0,0:0|0:0,0:0:0:0:
268,280,6480,1,0,0:0:0:0:
358,215,6647,1,8,0:0:0:0:
368,326,6813,1,0,0:0:0:0:
225,171,6980,6,0,P|212:134|216:87,1,85,0|0,0:0|0:0,0:0:0:0:
358,215,7313,1,8,0:0:0:0:
336,81,7480,2,0,P|357:48|397:23,1,85,0|0,0:0|0:0,0:0:0:0:
463,255,7813,1,0,0:0:0:0:
358,215,7980,1,8,0:0:0:0:
444,145,8147,1,0,0:0:0:0:
392,331,8313,6,0,L|300:326,1,85,0|0,0:0|0:0,0:0:0:0:
362,130,8647,2,0,L|357:222,1,85,8|0,0:0|0:0,0:0:0:0:
198,310,8980,2,0,P|215:265|247:233,1,85,0|0,0:0|0:0,0:0:0:0:
392,331,9313,1,8,0:0:0:0:
122,359,9480,2,0,P|91:321|79:278,1,85,0|0,0:0|0:0,0:0:0:0:
186,58,9813,5,0,0:0:0:0:
105,133,9980,1,8,0:0:0:0:
204,250,10147,2,0,L|210:165,1,85,0|0,0:0|0:0,0:0:0:0:
392,331,10480,1,0,0:0:0:0:
328,240,10647,1,0,0:0:0:0:
281,340,10813,1,8,0:0:0:0:
275,130,10980,6,0,P|239:116|181:116,1,85,4|0,1:0|0:0,0:0:0:0:
61,333,11313,2,0,P|103:331|142:316,1,85,8|0,0:0|0:0,0:0:0:0:
215,212,11647,1,0,0:0:0:0:
12,147,11813,6,0,P|158:132|34:55,1,382.500014591218,2|0,0:0|0:0,0:0:0:0:
55,272,12480,5,0,0:0:0:0:
84,115,12647,1,8,0:0:0:0:
215,212,12813,2,0,P|222:258|222:301,1,85,0|0,0:0|0:0,0:0:0:0:
240,100,13147,1,0,0:0:0:0:
324,171,13313,1,8,0:0:0:0:
343,62,13480,1,0,0:0:0:0:
446,281,13647,5,0,0:0:0:0:
446,281,13730,1,0,0:0:0:0:
446,281,13813,1,0,0:0:0:0:
291,330,13980,1,10,0:0:0:0:
324,171,14147,1,0,0:0:0:0:
187,254,14313,6,0,P|167:296|158:340,1,85,0|2,0:0|0:0,0:0:0:0:
324,171,14647,1,8,0:0:0:0:
207,109,14813,1,0,0:0:0:0:
313,281,14980,5,0,0:0:0:0:
313,281,15063,1,0,0:0:0:0:
313,281,15147,1,0,0:0:0:0:
448,231,15313,1,10,0:0:0:0:
423,373,15480,5,0,0:0:0:0:
394,366,15563,1,0,0:0:0:0:
367,353,15646,1,0,0:0:0:0:
343,335,15730,1,0,0:0:0:0:
325,312,15813,1,2,0:0:0:0:
311,285,15896,1,0,0:0:0:0:
304,257,15980,2,0,B|303:240|309:225|309:225|305:206|305:206|314:191|312:169,1,85,8|0,0:0|0:0,0:0:0:0:
412,87,16313,6,0,P|424:126|426:179,1,85,4|0,1:0|0:0,0:0:0:0:
304,257,16647,1,8,0:0:0:0:
503,278,16813,2,0,P|469:301|419:319,1,85,0|0,0:0|0:0,0:0:0:0:
175,272,17147,1,0,0:0:0:0:
304,257,17313,1,8,0:0:0:0:
253,375,17480,1,0,0:0:0:0:
243,159,17647,6,0,P|289:141|332:144,1,85,0|0,0:0|0:0,0:0:0:0:
387,255,17980,1,8,0:0:0:0:
202,323,18147,2,0,P|221:277|254:249,1,85,0|0,0:0|0:0,0:0:0:0:
474,356,18480,1,0,0:0:0:0:
345,380,18647,1,8,0:0:0:0:
387,255,18813,1,0,0:0:0:0:
294,72,18980,6,0,L|204:68,1,85,0|0,0:0|0:0,0:0:0:0:
246,253,19313,2,0,L|250:163,1,85,8|0,0:0|0:0,0:0:0:0:
102,101,19647,2,0,P|118:135|154:164,1,85,0|0,0:0|0:0,0:0:0:0:
294,72,19980,1,8,0:0:0:0:
171,287,20147,2,0,P|207:280|245:253,1,85,0|0,0:0|0:0,0:0:0:0:
194,43,20480,5,0,0:0:0:0:
69,70,20647,1,8,0:0:0:0:
154,164,20813,2,0,L|144:247,1,85,0|0,0:0|0:0,0:0:0:0:
353,336,21147,1,0,0:0:0:0:
227,357,21313,1,8,0:0:0:0:
270,237,21480,1,0,0:0:0:0:
142,272,21647,6,0,L|51:265,1,85,4|0,1:0|0:0,0:0:0:0:
18,92,21980,1,8,0:0:0:0:
99,186,22147,1,0,0:0:0:0:
151,60,22313,2,0,P|186:47|232:42,1,85,0|0,0:0|0:0,0:0:0:0:
346,183,22647,2,0,P|303:183|262:174,1,85,8|0,0:0|0:0,0:0:0:0:
414,80,22980,5,0,0:0:0:0:
500,179,23147,1,0,0:0:0:0:
358,262,23313,1,8,0:0:0:0:
458,364,23481,2,0,L|448:279,1,85,0|0,0:0|0:0,0:0:0:0:
294,167,23813,1,0,0:0:0:0:
316,364,23980,1,8,0:0:0:0:
190,263,24147,1,0,0:0:0:0:
294,167,24313,6,0,P|314:206|314:252,1,85
182,348,24647,2,0,L|191:259,1,85,10|0,0:0|0:0,0:0:0:0:
49,346,24980,1,0,0:0:0:0:
61,116,25147,2,0,L|69:200,1,85,2|8,0:0|0:0,0:0:0:0:
220,102,25480,1,0,0:0:0:0:
344,274,25647,5,0,0:0:0:0:
242,364,25813,1,0,0:0:0:0:
214,231,25980,1,10,0:0:0:0:
180,225,26063,1,0,0:0:0:0:
147,231,26147,1,0,0:0:0:0:
117,247,26230,1,0,0:0:0:0:
85,275,26313,5,0,0:0:0:0:
99,245,26397,1,0,0:0:0:0:
102,211,26480,1,2,0:0:0:0:
91,179,26563,1,0,0:0:0:0:
54,157,26647,5,8,0:0:0:0:
43,125,26730,1,0,0:0:0:0:
45,91,26813,2,0,P|63:60|78:44,1,42.5,0|0,0:0|0:0,0:0:0:0:
242,152,26980,6,0,P|194:146|153:124,1,85,4|0,1:0|0:0,0:0:0:0:
295,53,27313,1,8,0:0:0:0:
347,217,27480,2,0,P|307:245|262:257,1,85,0|0,0:0|0:0,0:0:0:0:
101,176,27813,1,0,0:0:0:0:
242,152,27980,1,8,0:0:0:0:
178,313,28147,6,0,P|137:300|95:301,1,85,0|0,0:0|0:0,0:0:0:0:
267,381,28480,1,0,0:0:0:0:
388,297,28647,2,0,P|404:263|409:210,1,85,8|0,0:0|0:0,0:0:0:0:
277,236,28980,2,0,P|261:201|223:163,1,85,0|0,0:0|0:0,0:0:0:0:
178,313,29313,2,0,P|137:300|95:301,1,85,8|0,0:0|0:0,0:0:0:0:
15,170,29647,6,0,P|57:170|97:158,1,85,0|0,0:0|0:0,0:0:0:0:
186,59,29980,1,8,0:0:0:0:
178,313,30147,2,0,P|208:284|229:248,1,85,0|0,0:0|0:0,0:0:0:0:
186,59,30480,1,0,0:0:0:0:
97,157,30647,1,8,0:0:0:0:
298,113,30813,6,0,P|339:108|384:120,1,85,0|0,0:0|0:0,0:0:0:0:
422,233,31147,1,0,0:0:0:0:
506,144,31313,1,8,0:0:0:0:
324,233,31480,2,0,L|318:318,1,85,0|0,0:0|0:0,0:0:0:0:
209,192,31813,2,0,L|203:277,1,85,0|8,0:0|0:0,0:0:0:0:
80,333,32147,1,0,0:0:0:0:
152,125,32313,6,0,P|191:106|236:108,1,85,4|0,1:0|0:0,0:0:0:0:
298,216,32647,1,8,0:0:0:0:
327,27,32813,2,0,P|349:63|352:108,1,85,0|0,0:0|0:0,0:0:0:0:
197,306,33147,1,0,0:0:0:0:
298,216,33313,1,8,0:0:0:0:
169,171,33480,6,0,P|136:187|100:221,1,85,0|0,0:0|0:0,0:0:0:0:
311,345,33813,1,0,0:0:0:0:
197,306,33980,1,8,0:0:0:0:
298,216,34147,2,0,L|390:209,1,85,0|0,0:0|0:0,0:0:0:0:
440,31,34480,1,0,0:0:0:0:
482,142,34647,1,8,0:0:0:0:
365,123,34813,1,0,0:0:0:0:
453,262,34980,6,0,P|468:304|469:348,1,85,4|0,0:0|0:0,0:0:0:0:
261,307,35313,1,8,0:0:0:0:
357,223,35480,1,0,0:0:0:0:
315,373,35647,1,0,0:0:0:0:
206,261,35813,1,0,0:0:0:0:
431,306,35980,1,8,0:0:0:0:
296,175,36147,1,0,0:0:0:0:
217,344,36313,2,0,P|265:336|307:335,1,85,0|0,0:0|0:0,0:0:0:0:
125,273,36647,2,0,P|82:271|40:263,1,85,8|0,0:0|0:0,0:0:0:0:
139,114,36980,5,2,0:0:0:0:
231,245,37147,1,0,0:0:0:0:
125,94,37313,1,2,0:0:0:0:
244,264,37480,1,0,0:0:0:0:
114,76,37647,6,0,L|199:81,1,85,0|0,0:0|0:0,0:0:0:0:
356,41,37980,1,8,0:0:0:0:
288,149,38147,1,0,0:0:0:0:
227,3,38313,1,0,0:0:0:0:
385,128,38480,1,0,0:0:0:0:
197,202,38647,1,8,0:0:0:0:
356,41,38813,1,0,0:0:0:0:
415,259,38980,5,0,0:0:0:0:
298,207,39147,1,0,0:0:0:0:
432,266,39313,1,8,0:0:0:0:
280,199,39480,1,0,0:0:0:0:
414,101,39647,6,0,L|406:200,1,85,2|0,0:0|0:0,0:0:0:0:
309,349,39980,2,0,L|315:264,1,85,10|0,0:0|0:0,0:0:0:0:
209,82,40313,6,0,L|215:166,1,85
157,314,40647,1,8,0:0:0:0:
22,179,40813,1,0,0:0:0:0:
214,244,40980,1,0,0:0:0:0:
51,293,41147,1,0,0:0:0:0:
111,118,41313,1,8,0:0:0:0:
243,327,41480,1,0,0:0:0:0:
299,159,41647,2,0,L|214:166,1,85
158,333,41980,2,0,L|243:326,1,85,8|0,0:0|0:0,0:0:0:0:
238,45,42313,5,2,0:0:0:0:
214,165,42480,1,0,0:0:0:0:
244,9,42647,1,10,0:0:0:0:
205,200,42813,1,0,0:0:0:0:
375,33,42980,6,0,P|425:31|464:55,1,85,0|0,0:0|0:0,0:0:0:0:
477,239,43313,1,8,0:0:0:0:
342,189,43480,1,0,0:0:0:0:
498,107,43647,1,0,0:0:0:0:
388,264,43813,1,0,0:0:0:0:
303,71,43980,1,8,0:0:0:0:
392,291,44147,1,0,0:0:0:0:
236,226,44313,2,0,P|229:267|225:310,1,85,0|0,0:0|0:0,0:0:0:0:
403,375,44647,2,0,P|399:333|392:291,1,85,8|0,0:0|0:0,0:0:0:0:
154,131,44980,5,2,0:0:0:0:
112,257,45147,1,0,0:0:0:0:
280,171,45313,1,10,0:0:0:0:
238,297,45480,1,0,0:0:0:0:
244,74,45647,6,0,L|346:68,1,85
80,167,45980,1,8,0:0:0:0:
160,24,46147,1,0,0:0:0:0:
243,213,46313,1,0,0:0:0:0:
110,92,46480,1,0,0:0:0:0:
281,37,46647,1,8,0:0:0:0:
150,244,46813,1,0,0:0:0:0:
364,45,46980,2,0,P|322:35|280:37,1,85,0|0,0:0|0:0,0:0:0:0:
150,244,47313,2,0,P|192:254|234:252,1,85,8|0,0:0|0:0,0:0:0:0:
364,45,47647,5,2,0:0:0:0:
238,53,47813,1,0,0:0:0:0:
370,171,47980,1,10,0:0:0:0:
245,177,48147,1,0,0:0:0:0:
408,166,48313,6,0,L|399:258,1,85,0|0,0:0|0:0,0:0:0:0:
243,358,48647,1,8,0:0:0:0:
309,216,48813,1,0,0:0:0:0:
398,344,48980,1,0,0:0:0:0:
204,282,49147,1,0,0:0:0:0:
399,250,49313,1,8,0:0:0:0:
274,98,49480,1,0,0:0:0:0:
416,281,49647,2,0,P|375:268|334:273,1,85,0|0,0:0|0:0,0:0:0:0:
156,198,49980,2,0,P|197:202|238:190,1,85,8|0,0:0|0:0,0:0:0:0:
312,381,50313,5,2,0:0:0:0:
333,273,50480,1,0,0:0:0:0:
205,360,50647,1,10,0:0:0:0:
226,253,50813,1,0,0:0:0:0:
404,287,50980,6,0,L|414:374,1,85,4|0,0:0|0:0,0:0:0:0:
108,287,51313,2,0,L|98:374,1,85,8|0,0:0|0:0,0:0:0:0:
410,156,51647,2,0,B|380:185|380:185|337:181,1,85,4|0,0:0|0:0,0:0:0:0:
102,156,51980,2,0,B|132:185|132:185|175:181,1,85,8|0,0:0|0:0,0:0:0:0:
446,66,52313,5,6,0:0:0:0:
252,39,52480,1,2,0:0:0:0:
326,221,52647,1,10,0:0:0:0:
103,183,52813,5,2,0:0:0:0:
290,122,52980,1,6,0:0:0:0:
250,314,53147,1,2,0:0:0:0:
153,73,53313,1,10,0:0:0:0:
410,109,53480,1,0,0:0:0:0:
410,109,53563,1,0,0:0:0:0:
410,109,53647,6,0,L|400:204,1,85,6|0,0:0|0:0,0:0:0:0:
174,361,53980,2,0,L|165:276,1,85,12|0,0:0|0:0,0:0:0:0:
235,48,54313,1,4,0:0:0:0:
343,321,54480,1,6,0:0:0:0:
343,321,54563,1,0,0:0:0:0:
343,321,54647,1,8,0:0:0:0:
52,278,54813,5,4,0:0:0:0:
