osu file format v14

[General]
AudioFilename: audio.mp3
AudioLeadIn: 0
PreviewTime: 5480
Countdown: 0
SampleSet: None
StackLeniency: 0.5
Mode: 0
LetterboxInBreaks: 0
WidescreenStoryboard: 0

[Editor]
Bookmarks: 16365,27032,55032
DistanceSpacing: 1
BeatDivisor: 2
GridSize: 8
TimelineZoom: 1

[Metadata]
Title:To Be The Best
TitleUnicode:To Be The Best
Artist:Tenacious D
ArtistUnicode:Tenacious D
Creator:CookieBite
Version:Normal
Source:
Tags:Rize Of The Fenix Kyle Gass Jack Black John Spiker Maria Menounos Tim Robbins Val Kilmer Jimmy Kimmel Dave Grohl Yoshiki Josh Groban LowComboFC
BeatmapID:1271456
BeatmapSetID:601419

[Difficulty]
HPDrainRate:2
CircleSize:3
OverallDifficulty:3
ApproachRate:4
SliderMultiplier:0.999999999999999
SliderTickRate:1

[Events]
//Background and Video events
0,0,"bg.jpg",0,0
Video,-140,"td.flv"
//Break Periods
//Storyboard Layer 0 (Background)
//Storyboard Layer 1 (Fail)
//Storyboard Layer 2 (Pass)
//Storyboard Layer 3 (Foreground)
//Storyboard Sound Samples

[TimingPoints]
314,333.333333333333,4,3,1,60,1,0

[Colours]
Combo1 : 182,112,147
Combo2 : 200,160,43
Combo3 : 236,60,64
Combo4 : 239,135,41

[HitObjects]
80,98,314,6,0,P|152:159|255:145,1,200,4|0,1:0|0:0,0:0:0:0:
305,63,1313,1,8,0:0:0:0:
355,149,1647,2,0,B|348:212|348:212|310:273|310:273|305:336,1,200,0|0,0:0|0:0,0:0:0:0:
106,355,2980,6,0,L|97:255,1,99.9999999999999,0|8,0:0|0:0,0:0:0:0:
193,227,3647,2,0,L|201:127,1,99.9999999999999,0|8,0:0|0:0,0:0:0:0:
255,43,4313,2,0,P|205:87|77:67,1,200,0|0,0:0|0:0,0:0:0:0:
46,164,5313,1,0,0:0:0:0:
20,261,5647,6,0,P|117:255|189:320,1,200,4|0,1:0|0:0,0:0:0:0:
274,373,6647,1,8,0:0:0:0:
354,314,6980,2,0,L|346:204,1,99.9999999999999,0|8,0:0|0:0,0:0:0:0:
265,157,7647,2,0,L|165:164,1,99.9999999999999,0|8,0:0|0:0,0:0:0:0:
195,68,8313,6,0,L|394:54,1,200,0|0,0:0|0:0,0:0:0:0:
459,130,9313,1,8,0:0:0:0:
484,226,9647,2,0,P|481:279|460:319,1,99.9999999999999,0|8,0:0|0:0,0:0:0:0:
368,360,10313,1,0,0:0:0:0:
305,281,10647,1,0,0:0:0:0:
384,219,10980,6,0,L|499:226,1,99.9999999999999,4|8,1:0|0:0,0:0:0:0:
509,128,11647,2,0,L|502:29,1,99.9999999999999,0|0,0:0|0:0,0:0:0:0:
404,4,12313,1,0,0:0:0:0:
328,69,12647,1,8,0:0:0:0:
409,132,12980,2,0,L|519:127,1,99.9999999999999,0|8,0:0|0:0,0:0:0:0:
503,227,13647,5,0,0:0:0:0:
471,321,13980,2,0,P|419:346|415:242,1,200,10|8,0:0|0:0,0:0:0:0:
503,227,14980,2,0,L|492:116,1,99.9999999999999,0|10,0:0|0:0,0:0:0:0:
419,59,15647,2,0,L|319:68,1,99.9999999999999,0|8,0:0|0:0,0:0:0:0:
231,21,16313,6,0,P|197:91|197:220,1,200,4|0,1:0|0:0,0:0:0:0:
242,299,17313,1,8,0:0:0:0:
308,223,17647,2,0,L|411:216,1,99.9999999999999,0|8,0:0|0:0,0:0:0:0:
487,276,18313,1,0,0:0:0:0:
429,357,18647,1,8,0:0:0:0:
331,335,18980,6,0,L|231:341,1,99.9999999999999,0|8,0:0|0:0,0:0:0:0:
165,265,19647,2,0,L|65:258,1,99.9999999999999,0|8,0:0|0:0,0:0:0:0:
9,175,20313,1,0,0:0:0:0:
56,86,20647,1,8,0:0:0:0:
144,40,20980,2,0,P|194:38|243:62,1,99.9999999999999,0|8,0:0|0:0,0:0:0:0:
297,139,21647,6,0,B|274:188|274:188|288:340,1,200,4|0,1:0|0:0,0:0:0:0:
383,361,22647,1,8,0:0:0:0:
466,305,22980,2,0,L|474:205,1,99.9999999999999,0|8,0:0|0:0,0:0:0:0:
385,158,23647,2,0,L|377:58,1,99.9999999999999,0|8,0:0|0:0,0:0:0:0:
279,36,24313,5,0,0:0:0:0:
277,136,24647,2,0,P|183:148|90:84,1,200,10|8,0:0|0:0,0:0:0:0:
22,160,25647,2,0,L|25:268,1,99.9999999999999,0|10,0:0|0:0,0:0:0:0:
100,325,26313,2,0,L|208:322,1,99.9999999999999,0|8,0:0|0:0,0:0:0:0:
281,264,26980,6,0,P|299:211|202:112,1,200,4|0,1:0|0:0,0:0:0:0:
117,141,27980,1,8,0:0:0:0:
53,218,28313,2,0,P|40:278|56:336,1,99.9999999999999,0|8,0:0|0:0,0:0:0:0:
135,361,28980,2,0,L|242:353,1,99.9999999999999,0|8,0:0|0:0,0:0:0:0:
284,266,29647,6,0,L|483:281,1,200,0|0,0:0|0:0,0:0:0:0:
464,182,30647,1,8,0:0:0:0:
444,83,30980,2,0,L|344:90,1,99.9999999999999,0|8,0:0|0:0,0:0:0:0:
277,165,31647,2,0,L|177:158,1,99.9999999999999,0|8,0:0|0:0,0:0:0:0:
123,242,32313,6,0,P|79:152|131:70,1,200,4|0,1:0|0:0,0:0:0:0:
223,95,33313,1,8,0:0:0:0:
269,183,33647,2,0,L|256:291,1,99.9999999999999,0|8,0:0|0:0,0:0:0:0:
178,343,34313,2,0,L|78:331,1,99.9999999999999,0|8,0:0|0:0,0:0:0:0:
30,244,34980,6,0,B|14:180|46:148|46:148|78:116|62:52,2,200,4|0|0,0:0|0:0|0:0,0:0:0:0:
111,302,36647,1,8,0:0:0:0:
173,224,36980,2,0,P|222:209|273:208,1,99.9999999999999,2|2,0:0|0:0,0:0:0:0:
340,279,37647,6,0,B|372:295|404:279|404:279|436:263|500:279|500:343,2,200,0|0|0,0:0|0:0|0:0,0:0:0:0:
270,207,39313,1,8,0:0:0:0:
367,182,39647,2,0,P|378:139|368:83,1,99.9999999999999,2|10,0:0|0:0,0:0:0:0:
284,31,40313,6,0,B|244:63|188:47|188:47|132:31|92:63,2,200,0|0|0,0:0|0:0|0:0,0:0:0:0:
368,84,41980,1,8,0:0:0:0:
290,147,42313,2,0,P|278:187|288:255,1,99.9999999999999,2|10,0:0|0:0,0:0:0:0:
359,310,42980,6,0,B|314:285|261:310|261:310|209:336|164:311,2,200,0|0|0,0:0|0:0|0:0,0:0:0:0:
415,226,44647,1,8,0:0:0:0:
453,318,44980,1,2,0:0:0:0:
512,237,45313,1,10,0:0:0:0:
465,148,45647,6,0,P|387:137|324:233,2,200,0|0|0,0:0|0:0|0:0,0:0:0:0:
512,237,47313,1,8,0:0:0:0:
453,318,47647,1,2,0:0:0:0:
415,226,47980,1,10,0:0:0:0:
359,309,48313,6,0,P|284:305|243:193,2,200,0|0|0,0:0|0:0|0:0,0:0:0:0:
415,226,49980,1,8,0:0:0:0:
366,138,50313,1,2,0:0:0:0:
323,227,50647,1,10,0:0:0:0:
268,143,50980,6,0,L|164:137,1,99.9999999999999,4|8,0:0|0:0,0:0:0:0:
124,46,51647,2,0,L|223:51,1,99.9999999999999,4|8,0:0|0:0,0:0:0:0:
323,50,52313,2,0,L|422:45,1,99.9999999999999,6|10,0:0|0:0,0:0:0:0:
465,132,52980,2,0,L|366:137,1,99.9999999999999,6|10,0:0|0:0,0:0:0:0:
283,195,53647,5,6,0:0:0:0:
231,109,53980,2,0,P|149:97|187:211,1,250,12|4,0:0|0:0,0:0:0:0:
