osu file format v14

[General]
AudioFilename: audio.mp3
AudioLeadIn: 0
PreviewTime: 5480
Countdown: 0
SampleSet: None
StackLeniency: 0.5
Mode: 0
LetterboxInBreaks: 0
WidescreenStoryboard: 1

[Editor]
DistanceSpacing: 1.1
BeatDivisor: 2
GridSize: 32
TimelineZoom: 1

[Metadata]
Title:To Be The Best
TitleUnicode:To Be The Best
Artist:Tenacious D
ArtistUnicode:Tenacious D
Creator:CookieBite
Version:LCFC's Advanced
Source:
Tags:Rize Of The Fenix Kyle Gass Jack Black John Spiker Maria Menounos Tim Robbins Val Kilmer Jimmy Kimmel Dave Grohl Yoshiki Josh Groban LowComboFC
BeatmapID:1272069
BeatmapSetID:601419

[Difficulty]
HPDrainRate:4
CircleSize:3.8
OverallDifficulty:6
ApproachRate:7.5
SliderMultiplier:1.4
SliderTickRate:1

[Events]
//Background and Video events
0,0,"bg.jpg",0,0
Video,-140,"td.flv"
//Break Periods
//Storyboard Layer 0 (Background)
//Storyboard Layer 1 (Fail)
//Storyboard Layer 2 (Pass)
//Storyboard Layer 3 (Foreground)
//Storyboard Sound Samples

[TimingPoints]
314,333.333333333333,4,3,1,60,1,0

[Colours]
Combo1 : 182,112,147
Combo2 : 200,160,43
Combo3 : 236,60,64
Combo4 : 239,135,41

[HitObjects]
72,42,314,6,0,L|94:180,1,140,4|8,1:0|0:0,0:0:0:0:
60,249,813,1,0,0:0:0:0:
95,315,980,2,0,P|129:327|163:332,1,70,0|0,0:0|0:0,0:0:0:0:
219,279,1313,2,0,L|292:272,1,70,8|0,0:0|0:0,0:0:0:0:
315,345,1647,6,0,L|337:206,1,140,0|8,0:0|0:0,0:0:0:0:
312,133,2147,1,0,0:0:0:0:
287,60,2313,2,0,L|211:69,2,70,0|0|8,0:0|0:0|0:0,0:0:0:0:
361,38,2813,1,0,0:0:0:0:
426,79,2980,6,0,B|416:131|416:131|433:164|433:164|421:212,1,140,0|8,0:0|0:0,0:0:0:0:
448,285,3480,1,0,0:0:0:0:
408,351,3647,2,0,P|374:362|340:367,1,70,0|0,0:0|0:0,0:0:0:0:
287,310,3980,2,0,L|217:303,1,70,8|0,0:0|0:0,0:0:0:0:
160,355,4313,6,0,P|199:299|185:233,1,140,0|8,0:0|0:0,0:0:0:0:
125,184,4813,1,0,0:0:0:0:
54,214,4980,1,0,0:0:0:0:
62,137,5147,1,2,0:0:0:0:
62,137,5313,2,0,L|70:64,1,70,0|2,0:0|0:0,0:0:0:0:
132,21,5647,6,0,B|208:9|194:58|265:47,1,140,4|8,1:0|0:0,0:0:0:0:
319,102,6147,2,0,P|338:166|296:219,1,140,0|0,0:0|0:0,0:0:0:0:
221,235,6647,1,8,0:0:0:0:
221,235,6813,1,0,0:0:0:0:
152,199,6980,6,0,L|0:218,1,140,0|8,0:0|0:0,0:0:0:0:
14,293,7480,2,0,L|152:275,1,140,0|0,0:0|0:0,0:0:0:0:
211,332,7980,1,8,0:0:0:0:
211,332,8147,1,0,0:0:0:0:
284,315,8313,6,0,B|395:325|395:325|417:355,1,140,0|8,0:0|0:0,0:0:0:0:
479,311,8813,1,0,0:0:0:0:
496,235,8980,2,0,P|494:165|488:95,1,140,0|8,0:0|0:0,0:0:0:0:
430,44,9480,2,0,L|352:55,1,70,0|0,0:0|0:0,0:0:0:0:
286,31,9813,5,0,0:0:0:0:
286,31,9980,1,8,0:0:0:0:
303,106,10147,2,0,L|283:264,1,140,0|0,0:0|0:0,0:0:0:0:
325,310,10647,1,0,0:0:0:0:
258,348,10813,1,8,0:0:0:0:
217,282,10980,6,0,P|190:245|94:240,1,140,4|8,1:0|0:0,0:0:0:0:
32,269,11480,2,0,L|20:199,1,70,0|0,0:0|0:0,0:0:0:0:
25,122,11813,1,2,0:0:0:0:
49,48,11980,2,0,B|101:60|101:60|130:46|130:46|184:55,1,140,0|0,0:0|0:0,0:0:0:0:
244,108,12480,5,0,0:0:0:0:
244,108,12647,1,8,0:0:0:0:
251,181,12813,2,0,P|246:250|232:319,1,140,0|0,0:0|0:0,0:0:0:0:
165,358,13313,2,0,L|93:346,1,70,8|0,0:0|0:0,0:0:0:0:
34,298,13647,5,0,0:0:0:0:
34,298,13813,1,0,0:0:0:0:
3,227,13980,2,0,P|8:192|18:159,1,70,10|0,0:0|0:0,0:0:0:0:
93,138,14313,1,0,0:0:0:0:
124,67,14480,2,0,P|118:32|108:0,1,70,2|8,0:0|0:0,0:0:0:0:
31,6,14813,6,0,P|36:40|46:73,1,70,0|0,0:0|0:0,0:0:0:0:
93,138,15147,1,0,0:0:0:0:
140,198,15313,2,0,L|215:208,1,70,10|0,0:0|0:0,0:0:0:0:
256,144,15647,1,0,0:0:0:0:
302,207,15813,2,0,L|372:198,1,70,2|8,0:0|0:0,0:0:0:0:
419,138,16147,1,0,0:0:0:0:
447,209,16313,6,0,P|438:278|421:346,1,140,4|8,1:0|0:0,0:0:0:0:
349,320,16813,2,0,L|203:338,1,140,0|0,0:0|0:0,0:0:0:0:
146,381,17313,1,8,0:0:0:0:
146,381,17480,1,0,0:0:0:0:
73,353,17647,6,0,B|45:288|45:288|78:228,1,140,0|8,0:0|0:0,0:0:0:0:
151,201,18147,2,0,L|5:183,1,140,0|0,0:0|0:0,0:0:0:0:
3,107,18647,1,8,0:0:0:0:
3,107,18813,1,0,0:0:0:0:
68,66,18980,6,0,P|144:62|185:109,1,140,0|8,0:0|0:0,0:0:0:0:
198,181,19480,1,0,0:0:0:0:
266,217,19647,2,0,B|342:229|328:180|399:191,1,140,0|8,0:0|0:0,0:0:0:0:
458,241,20147,2,0,P|452:275|441:308,1,70,0|0,0:0|0:0,0:0:0:0:
379,354,20480,5,0,0:0:0:0:
379,354,20647,1,8,0:0:0:0:
308,323,20813,2,0,P|238:330|169:339,1,140,0|0,0:0|0:0,0:0:0:0:
94,318,21313,1,8,0:0:0:0:
19,296,21480,1,0,0:0:0:0:
19,296,21647,6,0,B|44:264|44:264|30:158,1,140,4|8,1:0|0:0,0:0:0:0:
68,98,22147,2,0,L|139:107,1,70,0|0,0:0|0:0,0:0:0:0:
170,37,22480,1,0,0:0:0:0:
170,37,22647,2,0,L|188:184,1,140,8|0,0:0|0:0,0:0:0:0:
156,246,23147,5,0,0:0:0:0:
156,246,23313,1,8,0:0:0:0:
200,309,23480,2,0,B|252:299|252:299|285:316|285:316|333:304,1,140,0|0,0:0|0:0,0:0:0:0:
404,332,23980,2,0,L|475:346,1,70,8|0,0:0|0:0,0:0:0:0:
498,272,24313,5,0,0:0:0:0:
498,272,24480,1,0,0:0:0:0:
451,210,24647,2,0,P|416:215|383:225,1,70,10|0,0:0|0:0,0:0:0:0:
336,286,24980,1,0,0:0:0:0:
289,348,25147,2,0,P|254:343|221:333,1,70,2|8,0:0|0:0,0:0:0:0:
172,272,25480,6,0,P|137:277|104:287,1,70,0|0,0:0|0:0,0:0:0:0:
50,342,25813,1,0,0:0:0:0:
30,267,25980,2,0,L|41:185,1,70,10|0,0:0|0:0,0:0:0:0:
114,179,26313,1,0,0:0:0:0:
134,104,26480,2,0,L|123:22,1,70,2|8,0:0|0:0,0:0:0:0:
196,6,26813,1,0,0:0:0:0:
237,71,26980,6,0,P|300:79|368:40,1,140,4|8,1:0|0:0,0:0:0:0:
435,75,27480,2,0,P|427:138|466:206,1,140,0|0,0:0|0:0,0:0:0:0:
443,277,27980,1,8,0:0:0:0:
423,351,28147,6,0,P|354:353|285:367,1,140,0|0,0:0|0:0,0:0:0:0:
249,298,28647,2,0,P|179:295|110:281,1,140,8|0,0:0|0:0,0:0:0:0:
44,321,29147,1,0,0:0:0:0:
46,244,29313,2,0,L|33:168,1,70,8|0,0:0|0:0,0:0:0:0:
84,115,29647,6,0,B|127:103|127:103|165:133|217:124,1,140,0|8,0:0|0:0,0:0:0:0:
294,124,30147,2,0,B|347:133|385:103|385:103|428:115,1,140,0|0,0:0|0:0,0:0:0:0:
489,161,30647,1,8,0:0:0:0:
420,194,30813,6,0,B|407:263|407:263|453:315,1,140,0|0,0:0|0:0,0:0:0:0:
393,364,31313,2,0,L|312:355,1,70,8|0,0:0|0:0,0:0:0:0:
256,320,31647,1,0,0:0:0:0:
188,356,31813,1,0,0:0:0:0:
136,299,31980,2,0,L|55:308,1,70,8|0,0:0|0:0,0:0:0:0:
22,242,32313,6,0,P|33:173|40:104,1,140,4|8,1:0|0:0,0:0:0:0:
18,30,32813,2,0,P|87:18|156:11,1,140,0|0,0:0|0:0,0:0:0:0:
224,49,33313,1,8,0:0:0:0:
300,38,33480,6,0,L|281:188,1,140,0|0,0:0|0:0,0:0:0:0:
356,199,33980,1,8,0:0:0:0:
356,199,34147,2,0,L|206:218,1,140,0|0,0:0|0:0,0:0:0:0:
155,170,34647,2,0,L|84:165,1,70,8|0,0:0|0:0,0:0:0:0:
32,221,34980,6,0,P|19:298|66:346,1,140,4|8,0:0|0:0,0:0:0:0:
125,308,35480,2,0,P|202:295|250:342,1,140,0|0,0:0|0:0,0:0:0:0:
319,355,35980,1,8,0:0:0:0:
319,355,36147,1,0,0:0:0:0:
387,321,36313,6,0,P|398:251|403:182,1,140,0|8,0:0|0:0,0:0:0:0:
381,108,36813,1,0,0:0:0:0:
381,108,36980,1,2,0:0:0:0:
329,165,37147,2,0,L|259:172,1,70,0|2,0:0|0:0,0:0:0:0:
199,123,37480,1,0,0:0:0:0:
150,182,37647,6,0,L|177:44,1,140,0|8,0:0|0:0,0:0:0:0:
100,42,38147,2,0,L|72:179,1,140,0|0,0:0|0:0,0:0:0:0:
105,248,38647,1,8,0:0:0:0:
105,248,38813,1,0,0:0:0:0:
150,309,38980,6,0,B|202:299|202:299|235:316|235:316|283:304,1,140,0|8,0:0|0:0,0:0:0:0:
350,342,39480,1,0,0:0:0:0:
350,342,39647,1,2,0:0:0:0:
416,304,39813,2,0,P|427:270|432:236,1,70,0|10,0:0|0:0,0:0:0:0:
404,163,40147,1,0,0:0:0:0:
459,110,40313,6,0,B|383:98|397:147|326:136,1,140,0|8,0:0|0:0,0:0:0:0:
298,63,40813,2,0,B|309:134|260:120|272:196,1,140,0|0,0:0|0:0,0:0:0:0:
302,267,41313,1,8,0:0:0:0:
302,267,41480,1,0,0:0:0:0:
225,259,41647,6,0,B|117:280|117:280|94:312,1,140,0|8,0:0|0:0,0:0:0:0:
30,269,42147,1,0,0:0:0:0:
30,269,42313,1,2,0:0:0:0:
49,194,42480,2,0,L|64:121,1,70,0|10,0:0|0:0,0:0:0:0:
25,58,42813,1,0,0:0:0:0:
88,14,42980,6,0,P|159:12|200:70,1,140,0|8,0:0|0:0,0:0:0:0:
236,129,43480,1,0,0:0:0:0:
236,129,43647,2,0,P|165:131|124:73,1,140,0|8,0:0|0:0,0:0:0:0:
198,62,44147,1,0,0:0:0:0:
272,43,44313,6,0,P|340:54|410:61,1,140,0|8,0:0|0:0,0:0:0:0:
486,48,44813,1,0,0:0:0:0:
486,48,44980,1,2,0:0:0:0:
505,122,45147,2,0,P|499:156|489:189,1,70,0|10,0:0|0:0,0:0:0:0:
437,247,45480,1,0,0:0:0:0:
509,273,45647,6,0,L|355:292,1,140,0|8,0:0|0:0,0:0:0:0:
339,219,46147,2,0,L|185:200,1,140,0|0,0:0|0:0,0:0:0:0:
145,255,46647,1,8,0:0:0:0:
145,255,46813,1,0,0:0:0:0:
80,212,46980,6,0,P|47:152|71:88,1,140,0|8,0:0|0:0,0:0:0:0:
140,54,47480,1,0,0:0:0:0:
140,54,47647,1,2,0:0:0:0:
205,93,47813,2,0,P|238:103|272:109,1,70,0|10,0:0|0:0,0:0:0:0:
346,83,48147,1,0,0:0:0:0:
403,134,48313,6,0,B|418:180|418:180|396:269,1,140,0|8,0:0|0:0,0:0:0:0:
334,315,48813,2,0,B|288:301|288:301|198:322,1,140,0|0,0:0|0:0,0:0:0:0:
146,264,49313,1,8,0:0:0:0:
146,264,49480,1,0,0:0:0:0:
212,225,49647,6,0,L|231:61,1,140,0|8,0:0|0:0,0:0:0:0:
171,33,50147,1,0,0:0:0:0:
171,33,50313,1,2,0:0:0:0:
116,88,50480,2,0,L|103:164,1,70,0|10,0:0|0:0,0:0:0:0:
60,220,50813,1,0,0:0:0:0:
130,252,50980,6,0,B|193:285|251:245|263:166|252:117|208:99|208:99|219:143|284:186|339:139|339:139|334:93|375:60,1,490,4|0,0:0|0:0,0:0:0:0:
414,128,52313,5,6,0:0:0:0:
471,179,52480,1,2,0:0:0:0:
398,206,52647,2,0,L|386:276,1,70,10|2,0:0|0:0,0:0:0:0:
324,320,52980,2,0,L|254:308,1,70,6|2,0:0|0:0,0:0:0:0:
192,262,53313,1,10,0:0:0:0:
232,196,53480,1,0,0:0:0:0:
239,119,53647,6,0,P|205:107|171:102,1,70,6|0,0:0|0:0,0:0:0:0:
126,164,53980,2,0,P|93:176|58:181,1,70,12|0,0:0|0:0,0:0:0:0:
10,120,54313,1,4,0:0:0:0:
33,46,54480,2,0,P|66:35|100:29,1,70,6|8,0:0|0:0,0:0:0:0:
177,26,54813,1,4,0:0:0:0:
