osu file format v14

[General]
AudioFilename: audio.mp3
AudioLeadIn: 0
PreviewTime: 5480
Countdown: 0
SampleSet: None
StackLeniency: 0.5
Mode: 0
LetterboxInBreaks: 0
WidescreenStoryboard: 1

[Editor]
Bookmarks: 16313,26980,34980,54813
DistanceSpacing: 1.4
BeatDivisor: 4
GridSize: 4
TimelineZoom: 1

[Metadata]
Title:To Be The Best
TitleUnicode:To Be The Best
Artist:Tenacious D
ArtistUnicode:Tenacious D
Creator:CookieBite
Version:Hard
Source:
Tags:Rize Of The Fenix Kyle Gass Jack Black John Spiker Maria Menounos Tim Robbins Val Kilmer Jimmy Kimmel Dave Grohl Yoshiki Josh Groban LowComboFC
BeatmapID:1389204
BeatmapSetID:601419

[Difficulty]
HPDrainRate:5
CircleSize:4
OverallDifficulty:7
ApproachRate:8
SliderMultiplier:1.5
SliderTickRate:1

[Events]
//Background and Video events
0,0,"bg.jpg",0,0
Video,-140,"td.flv"
//Break Periods
//Storyboard Layer 0 (Background)
//Storyboard Layer 1 (Fail)
//Storyboard Layer 2 (Pass)
//Storyboard Layer 3 (Foreground)
//Storyboard Sound Samples

[TimingPoints]
314,333.333333333333,4,3,1,60,1,0
11813,-83.3333333333333,4,3,1,60,0,0
12313,-100,4,3,1,60,0,0

[Colours]
Combo1 : 182,112,147
Combo2 : 200,160,43
Combo3 : 236,60,64
Combo4 : 239,135,41

[HitObjects]
128,54,314,6,0,P|106:120|101:207,1,150,4|8,1:0|0:0,0:0:0:0:
161,284,813,1,0,0:0:0:0:
233,207,980,2,0,L|311:213,1,75,0|0,0:0|0:0,0:0:0:0:
335,314,1313,2,0,L|260:308,1,75,8|0,0:0|0:0,0:0:0:0:
171,366,1647,1,0,0:0:0:0:
171,366,1813,1,0,0:0:0:0:
81,310,1980,6,0,L|76:269,3,37.5,8|0|0|0,0:0|0:0|0:0|0:0,0:0:0:0:
110,232,2313,2,0,L|115:191,3,37.5,0|0|0|0,0:0|0:0|0:0|0:0,0:0:0:0:
70,164,2647,2,0,L|65:123,3,37.5,8|0|0|0,0:0|0:0|0:0|0:0,0:0:0:0:
87,78,2980,6,0,P|125:95|166:90,1,75,0|0,0:0|0:0,0:0:0:0:
236,23,3313,1,8,0:0:0:0:
236,23,3480,1,0,0:0:0:0:
314,93,3647,2,0,L|306:176,1,75,0|0,0:0|0:0,0:0:0:0:
404,205,3980,2,0,L|411:130,1,75,8|0,0:0|0:0,0:0:0:0:
481,52,4313,5,0,0:0:0:0:
481,52,4480,1,0,0:0:0:0:
511,152,4647,1,8,0:0:0:0:
511,152,4813,1,0,0:0:0:0:
460,244,4980,1,0,0:0:0:0:
382,173,5147,6,0,L|338:176,4,37.5,2|0|0|0|2,0:0|0:0|0:0|0:0|0:0,0:0:0:0:
302,288,5647,6,0,P|245:250|159:273,1,150,4|8,1:0|0:0,0:0:0:0:
137,365,6147,2,0,P|66:381|4:342,1,150,0|0,0:0|0:0,0:0:0:0:
23,238,6647,1,8,0:0:0:0:
23,238,6813,1,0,0:0:0:0:
96,162,6980,6,0,L|245:173,1,150,0|8,0:0|0:0,0:0:0:0:
306,258,7480,2,0,L|456:247,1,150,0|0,0:0|0:0,0:0:0:0:
493,148,7980,1,8,0:0:0:0:
493,148,8147,1,0,0:0:0:0:
412,81,8313,6,0,L|329:92,1,75,0|0,0:0|0:0,0:0:0:0:
256,22,8647,2,0,L|194:78,1,75,8|0,0:0|0:0,0:0:0:0:
98,44,8980,2,0,L|101:127,1,75,0|0,0:0|0:0,0:0:0:0:
168,199,9313,1,8,0:0:0:0:
26,275,9480,2,0,L|109:271,1,75,0|0,0:0|0:0,0:0:0:0:
183,336,9813,5,0,0:0:0:0:
183,336,9980,1,8,0:0:0:0:
252,256,10147,2,0,P|324:243|383:304,1,150,0|0,0:0|0:0,0:0:0:0:
448,368,10647,1,0,0:0:0:0:
500,277,10813,2,0,L|489:121,1,150,8|0,0:0|0:0,0:0:0:0:
399,72,11313,2,0,L|388:221,1,150,8|0,0:0|0:0,0:0:0:0:
271,270,11813,6,0,P|334:255|260:312,1,269.999991760254,2|0,0:0|0:0,0:0:0:0:
190,255,12480,5,0,0:0:0:0:
190,255,12647,1,8,0:0:0:0:
135,343,12813,2,0,L|47:335,1,75,0|0,0:0|0:0,0:0:0:0:
4,246,13147,1,0,0:0:0:0:
80,175,13313,2,0,L|73:100,1,75,8|0,0:0|0:0,0:0:0:0:
151,29,13647,5,0,0:0:0:0:
151,29,13730,1,0,0:0:0:0:
151,29,13813,1,0,0:0:0:0:
224,104,13980,2,0,L|301:95,1,75,10|0,0:0|0:0,0:0:0:0:
381,30,14313,1,0,0:0:0:0:
461,97,14480,2,0,L|452:171,1,75,2|8,0:0|0:0,0:0:0:0:
389,256,14813,1,0,0:0:0:0:
334,165,14980,5,0,0:0:0:0:
334,165,15063,1,0,0:0:0:0:
334,165,15147,1,0,0:0:0:0:
246,222,15313,1,10,0:0:0:0:
181,138,15480,1,0,0:0:0:0:
181,138,15563,1,0,0:0:0:0:
181,138,15647,6,0,L|184:99,4,37.5,0|0|2|0|8,0:0|0:0|0:0|0:0|0:0,0:0:0:0:
71,206,16147,1,0,0:0:0:0:
132,290,16313,6,0,P|205:302|273:261,1,150,4|8,1:0|0:0,0:0:0:0:
328,179,16813,2,0,P|401:167|469:208,1,150,0|0,0:0|0:0,0:0:0:0:
488,305,17313,1,8,0:0:0:0:
488,305,17480,1,0,0:0:0:0:
398,360,17647,6,0,L|238:344,1,150,0|8,0:0|0:0,0:0:0:0:
190,257,18147,2,0,L|40:271,1,150,0|0,0:0|0:0,0:0:0:0:
4,171,18647,1,8,0:0:0:0:
4,171,18813,1,0,0:0:0:0:
62,83,18980,6,0,L|147:90,1,75,0|0,0:0|0:0,0:0:0:0:
220,24,19313,2,0,L|269:93,1,75,8|0,0:0|0:0,0:0:0:0:
368,73,19647,2,0,L|346:155,1,75,0|0,0:0|0:0,0:0:0:0:
264,208,19980,1,8,0:0:0:0:
390,299,20147,2,0,L|307:277,1,75,0|0,0:0|0:0,0:0:0:0:
231,340,20480,5,0,0:0:0:0:
231,340,20647,1,8,0:0:0:0:
193,242,20813,2,0,P|139:199|52:219,1,150,0|0,0:0|0:0,0:0:0:0:
9,119,21313,1,8,0:0:0:0:
90,52,21480,6,0,P|161:64|219:20,1,150,0|0,0:0|0:0,0:0:0:0:
303,81,21980,2,0,L|289:243,1,150,8|0,0:0|0:0,0:0:0:0:
345,319,22480,1,0,0:0:0:0:
345,319,22647,2,0,L|429:312,1,75,8|0,0:0|0:0,0:0:0:0:
488,233,22980,5,0,0:0:0:0:
408,163,23147,2,0,L|417:77,1,75,0|8,0:0|0:0,0:0:0:0:
331,25,23480,2,0,P|274:75|185:60,1,150,0|0,0:0|0:0,0:0:0:0:
108,25,23980,1,8,0:0:0:0:
108,25,24147,2,0,P|124:90|121:184,1,150,0|0,0:0|0:0,0:0:0:0:
47,286,24647,6,0,L|135:276,1,75,10|0,0:0|0:0,0:0:0:0:
197,205,24980,1,0,0:0:0:0:
241,300,25147,2,0,L|232:374,1,75,2|8,0:0|0:0,0:0:0:0:
335,354,25480,1,0,0:0:0:0:
437,330,25647,2,0,L|429:255,1,75
382,161,25980,6,0,L|345:158,3,37.5,10|0|0|0,0:0|0:0|0:0|0:0,0:0:0:0:
304,191,26313,2,0,L|267:195,3,37.5,0|0|2|0,0:0|0:0|0:0|0:0,0:0:0:0:
228,157,26647,2,0,L|191:154,3,37.5,8|0|0|0,0:0|0:0|0:0|0:0,0:0:0:0:
146,126,26980,6,0,P|154:168|156:223,1,75,4|0,1:0|0:0,0:0:0:0:
111,295,27313,1,8,0:0:0:0:
186,365,27480,2,0,P|225:363|262:355,1,75
330,276,27813,1,0,0:0:0:0:
330,276,27980,1,8,0:0:0:0:
182,291,28147,6,0,L|187:368,1,75
84,348,28480,1,0,0:0:0:0:
84,348,28647,2,0,L|88:273,1,75,8|0,0:0|0:0,0:0:0:0:
5,208,28980,2,0,L|65:163,1,75,0|0,0:0|0:0,0:0:0:0:
57,58,29313,2,0,L|129:75,1,75,8|0,0:0|0:0,0:0:0:0:
201,163,29647,6,0,L|273:145,1,75,0|0,0:0|0:0,0:0:0:0:
333,58,29980,1,8,0:0:0:0:
403,136,30147,2,0,L|385:208,1,75,0|0,0:0|0:0,0:0:0:0:
436,300,30480,1,0,0:0:0:0:
436,300,30647,1,8,0:0:0:0:
349,358,30813,6,0,P|309:345|270:343,1,75,0|0,0:0|0:0,0:0:0:0:
190,280,31147,1,0,0:0:0:0:
190,280,31313,1,8,0:0:0:0:
250,194,31480,2,0,L|243:113,1,75,0|0,0:0|0:0,0:0:0:0:
346,141,31813,2,0,L|352:215,1,75,0|8,0:0|0:0,0:0:0:0:
434,282,32147,1,0,0:0:0:0:
355,350,32313,6,0,L|280:343,1,75,4|0,1:0|0:0,0:0:0:0:
180,380,32647,1,8,0:0:0:0:
112,300,32813,2,0,L|118:225,1,75,0|0,0:0|0:0,0:0:0:0:
195,152,33147,1,0,0:0:0:0:
195,152,33313,1,8,0:0:0:0:
109,90,33480,6,0,L|34:96,1,75,0|0,0:0|0:0,0:0:0:0:
2,196,33813,1,0,0:0:0:0:
2,196,33980,1,8,0:0:0:0:
87,257,34147,2,0,L|80:331,1,75,0|0,0:0|0:0,0:0:0:0:
173,380,34480,1,0,0:0:0:0:
249,308,34647,2,0,L|323:314,1,75,8|0,0:0|0:0,0:0:0:0:
420,274,34980,6,0,P|438:193|432:122,1,150,4|8,0:0|0:0,0:0:0:0:
359,51,35480,1,0,0:0:0:0:
265,147,35647,2,0,L|347:142,1,75,0|0,0:0|0:0,0:0:0:0:
320,245,35980,2,0,L|245:249,1,75,8|0,0:0|0:0,0:0:0:0:
166,179,36313,5,0,0:0:0:0:
166,179,36480,1,0,0:0:0:0:
95,256,36647,2,0,L|99:330,1,75,8|0,0:0|0:0,0:0:0:0:
190,383,36980,1,2,0:0:0:0:
248,295,37147,2,0,L|322:299,1,75,0|2,0:0|0:0,0:0:0:0:
409,359,37480,1,0,0:0:0:0:
472,275,37647,6,0,P|484:196|481:121,1,150,0|8,0:0|0:0,0:0:0:0:
412,46,38147,1,0,0:0:0:0:
343,125,38313,2,0,L|268:117,1,75,0|0,0:0|0:0,0:0:0:0:
201,34,38647,2,0,L|126:42,1,75,8|0,0:0|0:0,0:0:0:0:
49,113,38980,5,0,0:0:0:0:
49,113,39147,1,0,0:0:0:0:
128,181,39313,2,0,L|120:256,1,75,8|0,0:0|0:0,0:0:0:0:
21,292,39647,1,2,0:0:0:0:
99,360,39813,2,0,L|174:352,1,75,0|10,0:0|0:0,0:0:0:0:
244,273,40147,1,0,0:0:0:0:
331,329,40313,6,0,P|406:335|468:293,1,150,0|8,0:0|0:0,0:0:0:0:
486,192,40813,1,0,0:0:0:0:
415,114,40980,2,0,L|330:120,1,75,0|0,0:0|0:0,0:0:0:0:
271,197,41313,2,0,L|277:282,1,75,8|0,0:0|0:0,0:0:0:0:
211,355,41647,5,0,0:0:0:0:
211,355,41813,1,0,0:0:0:0:
110,323,41980,2,0,P|101:287|108:249,1,75,8|0,0:0|0:0,0:0:0:0:
196,191,42313,2,0,L|270:196,2,75,2|0|10,0:0|0:0|0:0,0:0:0:0:
124,114,42813,1,0,0:0:0:0:
203,45,42980,6,0,P|280:35|355:65,1,150,0|8,0:0|0:0,0:0:0:0:
415,138,43480,1,0,0:0:0:0:
338,210,43647,2,0,L|341:296,1,75,0|0,0:0|0:0,0:0:0:0:
239,312,43980,2,0,L|236:237,1,75,8|0,0:0|0:0,0:0:0:0:
161,163,44313,5,0,0:0:0:0:
161,163,44480,1,0,0:0:0:0:
97,246,44647,2,0,P|60:243|24:227,1,75,8|0,0:0|0:0,0:0:0:0:
6,124,44980,1,2,0:0:0:0:
86,56,45147,2,0,L|161:61,1,75,0|10,0:0|0:0,0:0:0:0:
249,3,45480,1,0,0:0:0:0:
334,64,45647,6,0,P|350:130|348:215,1,150,0|8,0:0|0:0,0:0:0:0:
275,286,46147,1,0,0:0:0:0:
353,355,46313,2,0,L|430:350,1,75,0|0,0:0|0:0,0:0:0:0:
457,248,46647,2,0,L|380:243,1,75,8|0,0:0|0:0,0:0:0:0:
318,159,46980,5,0,0:0:0:0:
318,159,47147,1,0,0:0:0:0:
236,223,47313,2,0,L|161:218,1,75,8|0,0:0|0:0,0:0:0:0:
118,121,47647,1,2,0:0:0:0:
53,203,47813,2,0,L|57:288,1,75,0|10,0:0|0:0,0:0:0:0:
141,341,48147,1,0,0:0:0:0:
225,278,48313,6,0,P|302:271|369:312,1,150,0|8,0:0|0:0,0:0:0:0:
453,359,48813,1,0,0:0:0:0:
509,270,48980,2,0,L|502:189,1,75,0|0,0:0|0:0,0:0:0:0:
423,126,49313,2,0,L|430:45,1,75,8|0,0:0|0:0,0:0:0:0:
331,10,49647,5,0,0:0:0:0:
331,10,49813,1,0,0:0:0:0:
261,89,49980,2,0,L|186:83,1,75,8|0,0:0|0:0,0:0:0:0:
101,22,50313,2,0,L|14:28,2,75,2|0|10,0:0|0:0|0:0,0:0:0:0:
186,83,50813,1,0,0:0:0:0:
102,146,50980,6,0,L|107:220,1,75,4|0,0:0|0:0,0:0:0:0:
172,303,51313,2,0,L|247:297,1,75,8|0,0:0|0:0,0:0:0:0:
313,215,51647,2,0,L|307:141,1,75,4|0,0:0|0:0,0:0:0:0:
235,63,51980,2,0,L|160:69,1,75,8|0,0:0|0:0,0:0:0:0:
72,127,52313,5,6,0:0:0:0:
164,177,52480,1,2,0:0:0:0:
164,177,52647,1,10,0:0:0:0:
260,135,52813,5,2,0:0:0:0:
280,237,52980,1,6,0:0:0:0:
280,237,53147,1,2,0:0:0:0:
378,270,53313,5,10,0:0:0:0:
312,351,53480,1,0,0:0:0:0:
312,351,53563,1,0,0:0:0:0:
312,351,53647,2,0,L|230:346,1,75,6|0,0:0|0:0,0:0:0:0:
205,232,53980,2,0,L|279:236,1,75,12|0,0:0|0:0,0:0:0:0:
366,153,54313,1,4,0:0:0:0:
437,249,54480,1,6,0:0:0:0:
437,249,54563,1,0,0:0:0:0:
437,249,54647,1,8,0:0:0:0:
400,362,54813,5,4,0:0:0:0:
