osu file format v14

[General]
AudioFilename: audio.mp3
AudioLeadIn: 0
PreviewTime: 66164
Countdown: 1
SampleSet: None
StackLeniency: 0.7
Mode: 0
LetterboxInBreaks: 0
WidescreenStoryboard: 0

[Editor]
Bookmarks: 10349,18920,27358,36063,44635,48786,64188,64322,64456,64590,64724,64858,64992,65126,65260,65394,65527,65661,65795,65929,66063,66197,81867,82001,82135,82269,82402,82536,82670,82804,82938,83072,83206,91777,100349,108920,117492,134640,151781,159951
DistanceSpacing: 0.2
BeatDivisor: 8
GridSize: 4
TimelineZoom: 2.700005

[Metadata]
Title:The Metal
TitleUnicode:The Metal
Artist:Tenacious D
ArtistUnicode:Tenacious D
Creator:Ancelysia
Version:Defeated Extreme
Source:Tenacious D in The Pick of Destiny
Tags:jack black kyle gass john konesky
BeatmapID:1730234
BeatmapSetID:825520

[Difficulty]
HPDrainRate:4
CircleSize:3
OverallDifficulty:8
ApproachRate:9.7
SliderMultiplier:1.8
SliderTickRate:1

[Events]
//Background and Video events
0,0,"BG.jpg",0,0
//Break Periods
2,66197,81907
2,126432,130023
2,131253,133600
//Storyboard Layer 0 (Background)
//Storyboard Layer 1 (Fail)
//Storyboard Layer 2 (Pass)
//Storyboard Layer 3 (Foreground)
//Storyboard Sound Samples

[TimingPoints]
1912,535.714285714286,4,3,1,36,1,0
1912,-250,4,3,1,36,0,0
2179,-125,4,3,1,36,0,0
4054,-250,4,3,1,36,0,0
4322,-125,4,3,1,36,0,0
5662,-125,4,3,1,72,0,0
5728,-125,4,3,1,36,0,0
6197,-250,4,3,1,36,0,0
6465,-125,4,3,1,36,0,0
8340,-50,4,3,1,68,0,0
10449,535.714285714286,4,3,1,68,1,0
10449,-83.3333333333333,4,3,1,68,0,0
14769,535.714285714286,4,3,1,68,1,0
14769,-83.3333333333333,4,3,1,68,0,0
26822,-83.3333333333333,4,3,0,68,0,0
27090,-83.3333333333333,4,3,1,68,0,0
43965,-83.3333333333333,4,3,0,68,0,0
44233,-83.3333333333333,4,3,1,68,0,0
49054,-33.3333333333333,4,3,1,90,0,1
53340,-16.6666666666667,4,3,1,100,0,0
53373,-100,4,3,1,68,0,0
53608,-100,4,3,0,5,0,0
53742,-100,4,3,1,68,0,0
57224,-50,4,3,1,90,0,0
57626,-33.3333333333333,4,3,1,90,0,1
61911,-16.6666666666667,4,3,1,100,0,0
61945,-100,4,3,1,68,0,0
64054,1071.42857142857,4,3,1,68,1,0
83206,-74.074074074074,4,3,0,5,0,0
83339,535.714285714286,4,3,1,68,1,1
83339,-55.5555555555556,4,3,1,68,0,1
83373,-55.5555555555556,4,3,1,68,0,0
110929,-55.5555555555556,4,3,0,68,0,0
110963,-55.5555555555556,4,3,1,68,0,0
115215,-55.5555555555556,4,3,0,68,0,0
115248,-55.5555555555556,4,3,1,68,0,0
116956,-55.5555555555556,4,3,1,75,0,0
117090,-55.5555555555556,4,3,1,82,0,0
117224,-55.5555555555556,4,3,1,89,0,0
117358,-55.5555555555556,4,3,1,96,0,0
117492,-55.5555555555556,4,3,1,100,0,0
117626,-66.6666666666667,4,3,1,100,0,1
118027,-100,4,3,1,100,0,1
119769,-66.6666666666667,4,3,0,100,0,1
119802,-66.6666666666667,4,3,1,100,0,1
120304,-100,4,3,1,100,0,1
121108,-200,4,3,1,100,0,1
121911,-66.6666666666667,4,3,1,100,0,1
122447,-100,4,3,1,100,0,1
124054,-66.6666666666667,4,3,0,100,0,1
124088,-66.6666666666667,4,3,1,100,0,1
125126,571.428571428571,4,3,1,100,1,1
125697,535.714285714286,4,3,1,100,1,1
126232,-100,4,3,1,68,0,0
127259,500,4,3,1,36,1,0
127759,512.820512820513,4,3,1,68,1,0
128271,576.923076923077,4,3,1,68,1,0
129352,576.923076923077,4,3,1,68,1,0
130518,535.714285714286,4,3,1,68,1,0
131053,504.201680672269,4,3,1,68,1,0
132565,576.923076923077,4,3,1,68,1,0
133686,545.454545454546,4,3,1,68,1,0
133686,-133.333333333333,4,3,1,68,0,0
134640,-133.333333333333,4,2,1,5,0,0
134743,588.235294117647,4,3,1,68,1,0
135572,526.315789473684,4,3,1,68,1,0
136887,545.454545454546,4,3,1,68,1,0
137736,517.241379310345,4,3,1,68,1,0
138511,535.714285714286,4,3,1,68,1,0
139046,600,4,3,1,68,1,0
139046,-50,4,3,1,68,0,0
142008,504.201680672269,4,3,1,68,1,0
142008,-55.5555555555556,4,3,1,68,0,0
142543,504.201680672269,4,3,1,68,1,0
143344,535.714285714286,4,3,0,68,1,0
143433,-100,4,3,1,68,0,0
143879,-50,4,3,1,68,0,0
144415,-100,4,3,0,68,0,0
144504,-100,4,3,1,68,0,0
144951,-50,4,3,1,68,0,0
145219,-100,4,3,0,68,0,0
145308,-100,4,3,1,68,0,0
145486,-100,4,3,0,68,0,0
145576,-100,4,3,1,68,0,0
146022,-50,4,3,1,68,0,0
146089,-100,4,3,1,68,0,0
147629,-100,4,3,0,68,0,0
147719,-100,4,3,1,68,0,0
148701,-100,4,3,0,68,0,0
148790,-100,4,3,1,68,0,0
149504,-100,4,3,0,68,0,0
149594,-100,4,3,1,68,0,0
149772,-100,4,3,0,68,0,0
149861,-100,4,3,1,68,0,0

[Colours]
Combo1 : 64,128,128
Combo2 : 230,191,77
Combo3 : 202,142,53
Combo4 : 228,54,3
Combo5 : 215,97,40
Combo6 : 64,128,128

[HitObjects]
80,272,1912,70,0,L|140:264,1,36,0|0,0:0|0:0,2:0:0:0:
224,64,2447,5,0,0:0:0:0:
288,144,2581,1,0,0:0:0:0:
192,160,2715,1,0,0:0:0:0:
268,245,2849,69,2,0:0:0:0:
288,144,2983,1,0,0:0:0:0:
362,207,3117,1,0,0:0:0:0:
384,112,3251,6,0,L|368:64,1,36,2|0,0:0|0:0,0:0:0:0:
472,168,3519,2,0,L|488:120,3,36,2|2|2|0,0:0|0:0|0:0|0:0,0:0:0:0:
432,332,4054,70,0,L|372:324,1,36,0|0,0:0|0:0,2:0:0:0:
248,200,4590,5,0,0:0:0:0:
312,280,4724,1,0,0:0:0:0:
216,296,4858,1,0,0:0:0:0:
152,224,4992,70,0,L|104:232,2,36,2|0|0,0:0|0:0|0:0,0:0:0:0:
184,136,5394,1,2,0:0:0:0:
48,48,5662,5,12,0:0:0:0:
448,56,6197,70,0,L|388:48,1,36,0|0,0:0|0:0,2:0:0:0:
264,160,6733,5,0,0:0:0:0:
328,80,6867,1,0,0:0:0:0:
232,64,7001,1,0,0:0:0:0:
202,240,7135,69,2,0:3:0:0:
169,142,7269,1,0,0:3:0:0:
264,160,7403,1,0,0:3:0:0:
297,258,7537,6,0,L|352:248,1,36,2|0,0:0|0:0,0:0:0:0:
472,232,7804,2,0,L|447:205,3,36,2|2|2|0,0:0|0:0|0:0|0:0,0:0:0:0:
364,108,8340,69,4,0:0:0:0:
364,124,8608,1,4,0:0:0:0:
364,140,8876,2,0,L|196:108,2,90,8|8|0,0:0|0:0|0:0,2:0:0:0:
204,228,9278,2,0,L|324:212,2,90,8|0|0,0:0|0:0|0:0,2:0:0:0:
380,332,9679,2,0,L|276:308,1,90,8|0,0:0|0:0,2:0:0:0:
388,228,9947,5,8,0:0:0:0:
108,316,10081,1,0,0:0:0:0:
108,316,10215,1,4,0:0:0:0:
156,188,10349,1,0,0:0:0:0:
328,331,10449,6,0,L|312:267,1,53.9999983520508,4|0,2:0|0:0,0:0:0:0:
416,312,10716,2,0,L|402:259,1,53.9999983520508
360,80,10984,5,8,0:0:0:0:
344,192,11118,1,0,0:0:0:0:
448,152,11252,1,0,0:0:0:0:
256,120,11386,5,2,0:0:0:0:
344,192,11520,1,0,0:0:0:0:
360,80,11654,1,0,0:0:0:0:
240,248,11788,5,2,0:0:0:0:
344,192,11922,1,0,0:0:0:0:
424,264,12056,37,2,2:0:0:0:
360,80,12190,1,0,0:0:0:0:
320,320,12324,1,0,0:0:0:0:
440,152,12457,1,0,0:0:0:0:
152,48,12591,6,0,L|168:112,1,53.9999983520508,4|0,1:0|0:0,0:0:0:0:
64,67,12859,2,0,L|77:119,1,53.9999983520508
112,336,13127,5,8,0:0:0:0:
208,256,13261,1,0,0:0:0:0:
96,208,13395,1,0,0:0:0:0:
304,176,13529,5,2,0:0:0:0:
208,256,13663,1,0,0:0:0:0:
320,304,13797,1,0,0:0:0:0:
192,144,13931,1,6,0:0:0:0:
160,328,14769,38,0,L|176:264,1,53.9999983520508,4|0,2:0|0:0,0:0:0:0:
72,309,15036,2,0,L|85:256,1,53.9999983520508
176,72,15304,5,8,0:0:0:0:
160,184,15438,1,0,0:0:0:0:
256,136,15572,1,0,0:0:0:0:
256,240,15706,5,2,0:0:0:0:
160,184,15840,1,0,0:0:0:0:
256,136,15974,1,0,0:0:0:0:
344,192,16108,5,2,0:0:0:0:
360,96,16242,1,0,0:0:0:0:
440,160,16376,37,4,0:0:0:0:
256,136,16510,1,0,0:0:0:0:
376,288,16644,1,4,0:0:0:0:
336,48,16777,1,0,0:0:0:0:
232,312,16911,6,0,L|160:296,1,53.9999983520508,4|0,1:0|0:0,0:0:0:0:
249,231,17179,2,0,L|196:220,1,53.9999983520508,0|0,0:0|0:0,0:0:0:0:
48,64,17447,5,8,0:0:0:0:
128,144,17581,1,0,0:0:0:0:
168,40,17715,1,0,0:0:0:0:
240,120,17849,5,2,0:0:0:0:
320,200,17983,1,0,0:0:0:0:
360,96,18117,1,0,0:0:0:0:
432,344,18251,5,2,0:0:0:0:
392,333,18317,1,0,0:0:0:0:
353,323,18384,1,0,0:0:0:0:
176,272,18519,5,6,0:0:0:0:
448,224,18652,1,4,0:0:0:0:
200,80,18786,1,6,0:0:0:0:
353,323,18920,1,4,0:0:0:0:
424,48,19054,6,0,L|352:64,1,53.9999983520508,4|0,2:0|0:0,0:0:0:0:
392,144,19322,2,0,L|464:128,1,53.9999983520508
424,248,19590,5,8,0:0:0:0:
328,328,19724,1,0,0:0:0:0:
296,208,19858,1,0,0:0:0:0:
424,352,19992,5,2,0:0:0:0:
376,152,20126,1,0,0:0:0:0:
232,288,20260,1,0,0:0:0:0:
456,248,20394,5,10,0:0:0:0:
264,184,20527,1,0,0:0:0:0:
328,352,20661,37,6,0:0:0:0:
136,176,20795,1,0,0:0:0:0:
224,360,20929,1,0,0:0:0:0:
296,96,21063,1,0,0:0:0:0:
456,288,21197,6,0,L|440:360,1,53.9999983520508,4|0,1:0|0:0,0:0:0:0:
360,320,21465,2,0,L|378:249,1,53.9999983520508
432,48,21733,5,8,0:0:0:0:
336,136,21867,1,0,0:0:0:0:
304,16,22001,1,0,0:0:0:0:
448,176,22135,5,2,0:0:0:0:
216,96,22269,1,0,0:0:0:0:
280,272,22402,1,0,0:0:0:0:
336,136,22536,1,6,0:0:0:0:
48,88,23340,38,0,L|64:16,1,53.9999983520508,4|0,2:0|0:0,0:0:0:0:
144,64,23608,2,0,L|126:135,1,53.9999983520508
240,320,23876,5,8,0:0:0:0:
360,248,24010,1,0,0:0:0:0:
248,160,24144,1,0,0:0:0:0:
328,336,24277,5,2,0:0:0:0:
352,144,24411,1,0,0:0:0:0:
160,240,24545,1,0,0:0:0:0:
408,264,24679,5,10,0:0:0:0:
248,160,24813,1,0,0:0:0:0:
200,344,24947,37,2,0:0:0:0:
288,80,25081,1,0,0:0:0:0:
328,336,25215,1,0,0:0:0:0:
160,152,25349,1,0,0:0:0:0:
416,312,25483,6,0,L|488:296,1,53.9999983520508,4|0,1:0|0:0,0:0:0:0:
448,216,25751,2,0,L|377:234,1,53.9999983520508
192,304,26019,5,8,0:0:0:0:
192,168,26152,1,0,0:0:0:0:
80,232,26286,1,0,0:0:0:0:
304,240,26420,5,10,0:0:0:0:
304,104,26553,1,0,0:0:0:0:
192,168,26687,1,0,0:0:0:0:
392,264,26822,5,8,0:0:0:0:
433,240,26911,1,8,0:0:0:0:
475,216,27000,1,8,0:0:0:0:
508,193,27089,5,4,0:0:0:0:
468,166,27179,1,4,0:0:0:0:
428,139,27268,1,4,0:0:0:0:
392,118,27357,69,4,0:0:0:0:
392,166,27446,1,4,0:0:0:0:
392,214,27536,1,4,0:0:0:0:
392,264,27626,22,0,L|328:256,1,53.9999983520508,4|0,2:0|0:0,0:0:0:0:
424,352,27894,2,0,L|488:344,1,53.9999983520508
320,168,28161,5,10,0:0:0:0:
416,136,28295,1,0,0:0:0:0:
336,72,28429,1,0,0:0:0:0:
224,152,28563,5,10,0:0:0:0:
256,248,28697,1,0,0:0:0:0:
320,168,28831,1,0,0:0:0:0:
240,56,28965,5,10,0:0:0:0:
144,88,29099,1,0,0:0:0:0:
224,152,29233,37,4,0:0:0:0:
192,360,29367,1,0,0:0:0:0:
32,224,29501,1,0,0:0:0:0:
256,248,29635,1,0,0:0:0:0:
56,104,29769,6,0,L|49:50,1,53.9999983520508,4|0,1:0|0:0,0:0:0:0:
144,136,30037,2,0,L|137:189,1,53.9999983520508
240,64,30304,5,10,0:0:0:0:
336,184,30438,1,0,0:0:0:0:
416,56,30572,1,0,0:0:0:0:
216,184,30706,5,10,0:0:0:0:
448,168,30840,1,0,0:0:0:0:
320,0,30974,1,2,0:0:0:0:
344,312,31108,1,6,0:0:0:0:
456,104,31911,38,0,L|462:50,1,53.9999983520508,4|0,2:0|0:0,0:0:0:0:
368,136,32179,2,0,L|374:189,1,53.9999983520508
264,80,32447,5,10,0:0:0:0:
224,176,32581,1,0,0:0:0:0:
144,104,32715,1,0,0:0:0:0:
280,48,32849,5,10,0:0:0:0:
240,208,32983,1,0,0:0:0:0:
120,80,33117,1,0,0:0:0:0:
336,144,33251,5,10,0:0:0:0:
104,192,33385,1,0,0:0:0:0:
264,352,33519,37,10,0:0:0:0:
336,144,33652,1,0,0:0:0:0:
128,320,33786,1,0,0:0:0:0:
416,264,33920,1,0,0:0:0:0:
448,80,34054,6,0,L|455:26,1,53.9999983520508,4|0,1:0|0:0,0:0:0:0:
368,120,34322,2,0,L|375:173,1,53.9999983520508
408,360,34590,5,10,0:0:0:0:
288,224,34724,1,0,0:0:0:0:
120,296,34858,1,0,0:0:0:0:
384,352,34992,5,10,0:0:0:0:
288,240,35126,1,0,0:0:0:0:
153,300,35260,1,0,0:0:0:0:
280,384,35394,5,0,0:0:0:0:
280,384,35483,1,0,0:0:0:0:
280,384,35572,1,0,0:0:0:0:
280,384,35661,5,0,0:0:0:0:
440,184,35795,1,0,0:0:0:0:
192,256,35929,1,0,0:0:0:0:
424,336,36063,1,0,0:0:0:0:
280,120,36197,6,0,L|208:136,1,53.9999983520508,4|0,2:0|0:0,0:0:0:0:
160,32,36465,2,0,L|232:48,1,53.9999983520508
448,128,36733,5,8,0:0:0:0:
376,200,36867,1,0,0:0:0:0:
424,296,37001,1,0,0:0:0:0:
504,224,37135,5,10,0:1:0:0:
320,120,37269,1,2,0:1:0:0:
320,336,37402,1,0,0:0:0:0:
488,216,37536,5,10,0:1:0:0:
328,136,37670,1,0,0:0:0:0:
328,320,37804,37,4,2:0:0:0:
448,104,37938,1,0,0:0:0:0:
224,216,38072,1,0,0:0:0:0:
464,328,38206,1,0,0:0:0:0:
312,96,38340,6,0,L|328:168,1,53.9999983520508,4|0,1:0|0:0,0:0:0:0:
224,216,38608,2,0,L|240:144,1,53.9999983520508
64,80,38876,5,8,0:0:0:0:
136,152,39010,1,0,0:0:0:0:
88,248,39144,1,0,0:0:0:0:
8,176,39277,5,10,0:1:0:0:
248,120,39411,1,2,0:1:0:0:
176,312,39545,1,0,0:0:0:0:
152,64,39679,1,10,0:1:0:0:
152,344,39947,5,0,0:0:0:0:
184,32,40081,1,0,0:0:0:0:
184,32,40349,5,0,0:0:0:0:
320,160,40483,6,0,L|392:176,1,53.9999983520508,4|0,1:0|0:0,0:0:0:0:
440,72,40751,2,0,L|368:88,1,53.9999983520508
176,112,41019,5,10,0:1:0:0:
232,288,41152,1,0,0:0:0:0:
40,240,41286,1,0,0:0:0:0:
264,192,41420,5,10,0:1:0:0:
64,128,41554,1,2,0:1:0:0:
120,328,41688,1,0,0:0:0:0:
184,96,41822,5,10,0:1:0:0:
112,344,41956,1,0,0:0:0:0:
304,280,42090,37,4,2:0:0:0:
16,216,42224,1,0,0:0:0:0:
320,128,42358,1,0,0:0:0:0:
120,328,42492,1,2,0:0:0:0:
176,32,42626,6,0,L|160:104,1,53.9999983520508,4|0,2:0|0:0,0:0:0:0:
264,152,42894,2,0,L|248:80,1,53.9999983520508
112,192,43161,5,10,0:1:0:0:
304,256,43295,1,2,0:1:0:0:
120,312,43429,1,2,0:1:0:0:
264,152,43563,5,10,0:1:0:0:
240,360,43697,1,2,0:1:0:0:
112,192,43831,1,2,0:1:0:0:
336,264,43965,5,8,0:0:0:0:
360,252,44054,1,8,0:0:0:0:
380,234,44143,1,8,0:0:0:0:
395,212,44232,1,4,0:0:0:0:
403,186,44322,1,4,0:0:0:0:
403,159,44411,1,4,0:0:0:0:
396,133,44500,1,4,0:0:0:0:
382,110,44590,1,4,0:0:0:0:
362,92,44679,1,4,0:0:0:0:
336,80,44769,22,0,L|256:64,1,53.9999983520508,4|0,3:2|0:0,0:0:0:0:
296,160,45036,2,0,L|216:144,1,53.9999983520508,2|0,0:1|0:0,0:0:0:0:
88,112,45304,5,0,0:0:0:0:
88,112,45438,2,0,L|168:128,1,53.9999983520508,2|0,0:1|0:0,0:0:0:0:
132,210,45706,2,0,L|80:200,1,53.9999983520508,2|0,0:1|0:0,0:0:0:0:
288,248,46108,37,0,0:0:0:0:
288,248,46242,1,0,0:0:0:0:
288,248,46376,1,4,2:0:0:0:
464,112,46911,54,0,L|456:32,1,53.9999983520508,4|0,1:0|0:0,0:0:0:0:
376,128,47179,2,0,L|368:48,1,53.9999983520508,2|0,0:1|0:0,0:0:0:0:
192,208,47447,5,0,0:0:0:0:
192,208,47581,2,0,L|200:128,1,53.9999983520508,2|0,0:1|0:0,0:0:0:0:
285,170,47849,2,0,L|280:224,1,53.9999983520508,2|0,0:1|0:0,0:0:0:0:
448,328,48251,5,8,0:0:0:0:
448,328,48519,1,8,0:0:0:0:
448,328,48697,1,0,0:0:0:0:
48,48,49054,22,0,L|64:248,2,135.000005149842,4|2|2,1:0|0:1|0:1,0:0:0:0:
464,80,49456,2,0,L|448:280,2,135.000005149842,4|2|2,1:0|0:1|0:1,0:0:0:0:
24,80,49858,6,0,L|43:320,2,135.000005149842,4|2|2,1:2|0:1|0:1,0:0:0:0:
488,112,50260,2,0,L|468:352,2,135.000005149842,4|2|2,1:2|0:1|0:1,0:0:0:0:
112,320,50661,5,6,1:2:0:0:
368,64,50795,1,2,0:1:0:0:
400,288,50929,5,6,1:2:0:0:
108,95,51063,1,2,0:1:0:0:
480,320,51197,38,0,L|346:331,2,135.000005149842,4|2|2,1:0|0:1|0:1,0:0:0:0:
32,337,51599,2,0,L|167:348,2,135.000005149842,4|2|2,1:0|0:1|0:1,0:0:0:0:
512,343,52001,6,0,L|378:355,2,135.000005149842,4|2|2,1:2|0:1|0:1,0:0:0:0:
0,360,52403,2,0,L|135:372,2,135.000005149842,4|2|0,1:2|0:1|0:0,0:0:0:0:
377,37,52804,5,6,1:0:0:0:
125,277,52938,1,0,0:0:0:0:
412,256,53072,5,6,1:2:0:0:
136,52,53206,1,2,0:1:0:0:
335,317,53340,6,2,B|380:376|471:378|536:328|540:233|492:180|455:167|406:163|406:163|383:162|383:162|375:157|375:157|367:161|367:161|360:157|360:157|351:161|351:161|343:158|343:158|335:162|335:162|327:157|327:157|320:162|320:162|311:157|311:157|204:156,1,540.000020599366,2|0,1:0|2:0,0:1:0:0:
192,216,53742,2,0,L|200:280,1,45,4|0,0:0|0:0,0:0:0:0:
112,328,54010,5,0,0:0:0:0:
112,328,54144,2,0,L|104:256,1,45,4|0,0:0|0:0,0:0:0:0:
200,200,54411,69,0,0:0:0:0:
200,200,54545,2,0,L|209:286,1,45,4|4,0:0|0:0,0:0:0:0:
104,324,54813,5,0,0:0:0:0:
104,324,54947,2,0,L|94:237,1,45,4|0,0:0|0:0,0:0:0:0:
192,192,55215,2,0,L|200:264,1,45,4|0,0:0|0:0,0:0:0:0:
92,336,55483,69,0,0:0:0:0:
92,336,55550,1,4,0:0:0:0:
92,336,55617,2,0,L|84:256,1,45,0|4,0:0|0:0,0:0:0:0:
197,177,55885,5,4,0:0:0:0:
197,177,56019,2,0,L|206:263,1,45
84,352,56286,69,4,0:0:0:0:
84,352,56420,2,0,L|76:268,1,45
210,161,56688,5,0,0:0:0:0:
210,161,56822,2,0,L|220:248,1,45
68,380,57090,69,4,0:0:0:0:
68,380,57224,2,0,L|60:300,1,45
44,144,57358,1,8,0:0:0:0:
480,208,57626,22,0,P|464:336|424:368,2,135.000005149842,4|2|2,1:0|0:1|0:1,0:0:0:0:
32,224,58027,2,0,P|48:352|88:384,2,135.000005149842,4|2|2,1:0|0:1|0:1,0:0:0:0:
504,224,58429,6,0,P|488:352|448:384,2,135.000005149842,4|2|2,1:2|0:1|0:1,0:0:0:0:
8,240,58831,2,0,P|24:368|64:400,2,135.000005149842,4|2|2,1:2|0:1|0:1,0:0:0:0:
352,80,59233,5,6,1:2:0:0:
144,288,59367,1,2,0:1:0:0:
144,80,59501,5,6,1:2:0:0:
363,276,59635,1,2,0:1:0:0:
48,48,59769,38,2,B|104:88|104:88|168:48,2,135.000005149842,4|2|2,1:0|0:1|0:1,0:1:0:0:
464,32,60170,2,2,B|408:72|408:72|344:32,2,135.000005149842,4|2|2,1:0|0:1|0:1,0:1:0:0:
24,28,60572,6,2,B|80:68|80:68|144:28,2,135.000005149842,4|2|2,1:2|0:1|0:1,0:1:0:0:
488,12,60973,2,2,B|432:52|432:52|368:12,2,135.000005149842,4|2|2,1:2|0:1|0:1,0:1:0:0:
256,336,61376,5,6,1:2:0:0:
256,48,61510,1,2,0:1:0:0:
80,192,61644,5,6,1:2:0:0:
432,192,61778,1,2,0:1:0:0:
64,104,61911,6,2,B|0:112|-64:188|-16:288|24:296|76:308|132:308|157:282|179:237|191:183|197:144|260:146|316:160|340:196|339:217|339:217|336:224|340:232|340:232|336:240|340:248|340:248|336:256|340:264|340:264|336:271|338:280|338:280|335:287|336:296|336:296|336:304|324:328|324:328|303:359|248:384|160:300,1,810.000030899049,2|4,1:0|0:0,0:1:0:0:
148,252,62447,6,0,L|152:200,2,45,4|0|4,0:0|0:0|0:0,0:0:0:0:
60,112,62849,2,0,L|64:164,1,45
168,264,63117,70,0,L|172:201,2,45,4|0|0,0:0|0:0|0:0,0:0:0:0:
39,92,63519,2,0,L|43:154,1,45,4|0,0:0|0:0,0:0:0:0:
60,304,63786,5,8,0:0:0:0:
149,294,63876,1,0,0:0:0:0:
239,285,63965,1,0,0:0:0:0:
244,308,64054,1,0,0:0:0:0:
256,192,82402,12,0,83206,2:0:0:0:
48,64,83340,6,0,L|192:52,1,80.9999975280763,4|0,2:0|0:0,0:0:0:0:
180,164,83608,2,0,L|36:152,1,80.9999975280763
32,332,83876,5,10,0:0:0:0:
168,356,84010,1,0,0:0:0:0:
120,240,84144,1,0,0:0:0:0:
32,332,84277,5,10,0:0:0:0:
268,292,84411,1,2,0:1:0:0:
120,240,84545,1,2,0:1:0:0:
168,356,84679,5,10,0:1:0:0:
272,136,84813,1,0,0:0:0:0:
120,240,84947,37,4,2:0:0:0:
408,220,85081,1,2,0:1:0:0:
160,104,85215,1,2,0:1:0:0:
372,324,85349,1,2,0:1:0:0:
464,44,85483,6,0,L|320:32,1,80.9999975280763,6|0,1:2|0:0,0:0:0:0:
332,144,85751,2,0,L|476:132,1,80.9999975280763
476,252,86019,5,8,0:0:0:0:
312,232,86152,1,0,0:0:0:0:
388,360,86286,1,0,0:0:0:0:
412,137,86420,5,2,0:1:0:0:
240,316,86554,1,2,0:1:0:0:
508,360,86688,1,2,0:1:0:0:
256,144,86822,1,10,0:1:0:0:
188,344,87626,38,0,L|44:356,1,80.9999975280763,4|0,2:0|0:0,0:0:0:0:
56,244,87894,2,0,L|200:256,1,80.9999975280763
256,136,88161,5,10,0:0:0:0:
120,160,88295,1,0,0:0:0:0:
168,44,88429,1,0,0:0:0:0:
256,136,88563,5,10,0:0:0:0:
392,160,88697,1,2,0:1:0:0:
344,44,88831,1,2,0:1:0:0:
296,284,88965,5,10,0:1:0:0:
120,160,89099,1,0,0:0:0:0:
152,352,89233,37,2,0:1:0:0:
256,136,89367,1,2,0:1:0:0:
48,260,89501,1,2,0:1:0:0:
296,284,89635,1,2,0:1:0:0:
68,164,89769,6,0,L|56:20,1,80.9999975280763,4|0,1:2|0:0,0:0:0:0:
168,32,90037,2,0,L|156:176,1,80.9999975280763
216,240,90304,5,10,0:0:0:0:
512,200,90438,1,0,0:0:0:0:
256,64,90572,1,0,0:0:0:0:
464,308,90706,5,10,0:0:0:0:
376,76,90840,1,0,0:0:0:0:
284,312,90974,1,0,0:0:0:0:
468,92,91108,37,4,0:0:0:0:
408,160,91197,1,0,0:0:0:0:
376,76,91286,1,0,0:0:0:0:
436,8,91376,5,10,0:1:0:0:
472,280,91510,1,2,0:1:0:0:
240,96,91644,5,2,0:1:0:0:
496,184,91777,1,2,0:1:0:0:
196,328,91911,6,0,B|152:320|152:320|52:340,1,80.9999975280763,4|0,2:0|0:0,0:0:0:0:
52,228,92179,2,0,B|96:236|96:236|196:216,1,80.9999975280763
312,120,92447,37,10,0:0:0:0:
366,263,92581,1,0,0:0:0:0:
232,238,92715,1,0,0:0:0:0:
400,168,92849,5,10,0:0:0:0:
280,336,92983,1,2,0:1:0:0:
216,144,93117,1,2,0:1:0:0:
472,244,93251,5,10,0:1:0:0:
176,316,93385,1,2,0:1:0:0:
348,56,93519,5,4,2:0:0:0:
404,352,93652,1,2,0:1:0:0:
216,144,93786,1,2,0:1:0:0:
472,244,93920,1,2,0:1:0:0:
136,184,94054,38,0,B|128:140|128:140|148:40,1,80.9999975280763,4|0,1:2|0:0,0:0:0:0:
36,40,94322,2,0,B|44:84|44:84|24:184,1,80.9999975280763
0,320,94590,5,10,0:0:0:0:
236,316,94724,1,0,0:0:0:0:
80,120,94858,1,0,0:0:0:0:
140,318,94992,1,0,0:0:0:0:
232,112,95126,5,8,1:0:0:0:
136,334,95260,1,0,0:0:0:0:
132,348,95527,1,0,0:0:0:0:
236,96,95661,69,8,1:0:0:0:
368,328,95795,1,0,0:0:0:0:
376,344,96063,1,0,0:0:0:0:
452,180,96197,6,0,B|444:136|444:136|464:36,1,80.9999975280763,4|0,2:0|0:0,0:0:0:0:
352,36,96465,2,0,B|360:80|360:80|340:180,1,80.9999975280763
180,284,96733,5,10,0:0:0:0:
236,108,96867,1,0,0:0:0:0:
356,248,97001,1,0,0:0:0:0:
112,180,97135,37,2,0:1:0:0:
284,352,97269,1,2,0:1:0:0:
356,136,97402,1,2,0:1:0:0:
80,272,97536,5,2,0:1:0:0:
444,180,97670,1,2,0:1:0:0:
256,208,97804,5,4,1:2:0:0:
396,336,97938,1,2,0:1:0:0:
356,136,98072,1,2,0:1:0:0:
176,336,98206,1,2,0:1:0:0:
216,120,98340,6,0,B|172:112|172:112|72:132,1,80.9999975280763,4|0,1:2|0:0,0:0:0:0:
72,20,98608,2,0,B|116:28|116:28|216:8,1,80.9999975280763
356,4,98876,37,10,0:0:0:0:
452,124,99010,1,2,0:1:0:0:
304,152,99144,1,2,0:1:0:0:
408,24,99277,5,2,0:1:0:0:
428,159,99411,1,2,0:1:0:0:
300,115,99545,1,2,0:1:0:0:
428,64,99679,5,4,0:0:0:0:
336,324,99813,1,4,0:0:0:0:
168,120,99947,5,10,0:1:0:0:
480,244,100081,1,2,0:1:0:0:
176,316,100215,37,2,0:1:0:0:
296,48,100349,1,2,0:1:0:0:
416,304,100483,6,0,P|392:340|336:344,1,80.9999975280763,4|0,2:0|0:0,0:0:0:0:
300,276,100751,2,0,P|324:240|380:236,1,80.9999975280763
464,280,101019,5,10,0:0:0:0:
424,128,101152,1,2,0:0:0:0:
312,224,101286,1,2,3:2:0:0:
504,180,101420,5,10,0:0:0:0:
364,312,101554,1,2,0:1:0:0:
320,112,101688,1,2,0:1:0:0:
364,340,101822,37,8,0:0:0:0:
468,40,101956,1,2,0:1:0:0:
224,304,102089,5,6,1:1:0:0:
504,220,102224,1,2,0:1:0:0:
220,188,102358,1,2,0:1:0:0:
488,328,102492,1,2,0:1:0:0:
320,112,102626,6,0,P|315:68|355:29,1,80.9999975280763,4|0,1:0|0:0,0:0:0:0:
426,58,102894,2,0,P|430:101|390:140,1,80.9999975280763
184,164,103161,5,10,0:0:0:0:
76,68,103295,1,2,0:0:0:0:
228,24,103429,1,2,3:2:0:0:
248,312,103563,37,2,0:1:0:0:
304,108,103697,1,2,0:1:0:0:
72,212,103831,1,2,0:1:0:0:
380,224,103965,1,10,0:1:0:0:
128,332,104144,53,4,0:0:0:0:
128,332,104233,1,4,0:0:0:0:
128,332,104769,38,0,P|84:336|45:296,1,80.9999975280763,4|0,2:0|0:0,0:0:0:0:
74,226,105037,2,0,P|117:221|156:261,1,80.9999975280763
260,356,105304,5,10,0:0:0:0:
412,256,105438,1,2,0:0:0:0:
264,132,105572,1,2,3:2:0:0:
384,352,105706,5,2,0:1:0:0:
384,120,105840,1,2,0:1:0:0:
192,244,105974,1,2,0:1:0:0:
452,272,106108,37,2,0:1:0:0:
244,108,106242,1,0,0:0:0:0:
392,372,106376,5,4,1:1:0:0:
384,120,106510,1,2,0:1:0:0:
184,360,106644,1,2,0:1:0:0:
496,236,106777,1,2,0:1:0:0:
116,120,106911,6,0,P|112:76|152:37,1,80.9999975280763,4|0,1:0|0:0,0:0:0:0:
222,66,107179,2,0,P|227:109|187:148,1,80.9999975280763
56,308,107447,5,10,0:0:0:0:
164,292,107581,1,2,0:0:0:0:
96,208,107715,1,2,3:2:0:0:
240,348,107849,37,8,0:0:0:0:
348,332,107983,1,2,0:1:0:0:
280,248,108117,1,2,0:1:0:0:
452,372,108251,5,0,0:0:0:0:
452,372,108340,1,0,0:0:0:0:
452,372,108429,1,0,0:0:0:0:
452,372,108519,5,8,0:0:0:0:
484,152,108652,1,2,0:1:0:0:
348,332,108786,5,2,0:1:0:0:
320,100,108920,1,2,0:1:0:0:
156,340,109054,38,0,B|132:308|132:308|160:279,1,80.9999975280763,4|0,2:0|0:0,0:0:0:0:
72,176,109322,2,0,B|96:208|96:208|67:236,1,80.9999975280763
256,80,109590,5,10,0:0:0:0:
344,212,109724,1,2,0:0:0:0:
184,196,109858,1,2,3:2:0:0:
360,92,109992,5,2,0:1:0:0:
256,304,110126,1,2,0:1:0:0:
144,88,110260,1,2,0:1:0:0:
416,272,110394,5,2,0:1:0:0:
120,304,110527,1,2,0:1:0:0:
360,92,110661,37,4,1:0:0:0:
280,336,110795,1,0,0:0:0:0:
472,168,110929,1,2,3:0:0:0:
216,200,111063,1,0,0:0:0:0:
280,336,111197,6,0,B|312:312|312:312|341:340,1,80.9999975280763,4|0,1:0|0:0,0:0:0:0:
444,252,111465,2,0,B|412:276|412:276|384:247,1,80.9999975280763
316,76,111733,5,10,0:0:0:0:
240,200,111867,1,2,0:0:0:0:
156,88,112001,1,2,3:2:0:0:
364,200,112135,5,2,0:1:0:0:
162,229,112269,1,2,0:1:0:0:
224,40,112403,1,2,0:1:0:0:
280,296,112536,1,10,0:1:0:0:
212,48,113340,38,0,B|180:72|180:72|151:44,1,80.9999975280763,4|0,2:0|0:0,0:0:0:0:
48,132,113608,2,0,B|80:108|80:108|108:137,1,80.9999975280763
160,332,113876,5,10,0:0:0:0:
208,195,114010,1,2,0:0:0:0:
71,235,114144,1,2,3:2:0:0:
296,304,114277,5,10,0:0:0:0:
48,360,114411,1,2,0:1:0:0:
108,128,114545,1,2,0:1:0:0:
188,376,114679,5,2,0:1:0:0:
104,112,114813,1,0,0:0:0:0:
296,304,114947,37,4,1:0:0:0:
32,236,115081,1,0,0:0:0:0:
228,184,115215,1,2,0:0:0:0:
48,360,115349,1,0,0:0:0:0:
320,208,115483,6,0,B|344:176|344:176|316:147,1,80.9999975280763,4|0,1:0|0:0,0:0:0:0:
404,44,115751,2,0,B|380:76|380:76|409:104,1,80.9999975280763
512,188,116019,5,10,0:0:0:0:
432,296,116152,1,2,0:0:0:0:
332,196,116286,1,2,3:2:0:0:
224,304,116420,5,2,0:0:0:0:
336,160,116554,1,0,0:0:0:0:
444,324,116688,1,0,0:0:0:0:
188,180,116822,5,4,0:0:0:0:
484,148,116956,1,4,0:0:0:0:
328,356,117090,1,4,0:0:0:0:
244,76,117224,5,4,0:0:0:0:
512,268,117358,1,4,0:0:0:0:
152,344,117492,1,4,0:0:0:0:
416,116,117626,6,0,L|400:28,1,67.5000025749208,4|0,2:0|0:0,0:0:0:0:
296,176,117894,2,0,L|312:88,1,67.5000025749208
228,32,118161,5,8,0:0:0:0:
188,116,118295,1,0,0:0:0:0:
136,44,118429,1,0,0:0:0:0:
0,164,118563,5,2,0:0:0:0:
76,216,118697,1,2,0:0:0:0:
85,128,118831,1,2,0:0:0:0:
164,192,118965,1,2,0:0:0:0:
144,280,119099,1,0,0:0:0:0:
232,312,119233,6,0,L|240:228,1,45,10|2,0:0|0:0,0:0:0:0:
344,236,119501,2,0,L|340:280,1,45,2|2,0:0|0:0,0:0:0:0:
444,232,119769,38,0,L|428:144,1,67.5000025749208,4|0,2:0|0:0,0:0:0:0:
356,104,120037,2,0,L|372:16,1,67.5000025749208
260,72,120304,5,8,0:0:0:0:
272,172,120438,1,0,0:0:0:0:
188,132,120572,1,0,0:0:0:0:
24,240,120706,5,2,0:0:0:0:
36,140,120840,1,2,0:0:0:0:
108,200,120974,1,2,0:0:0:0:
100,292,121108,5,6,0:0:0:0:
448,56,121911,38,0,L|440:152,1,67.5000025749208
328,116,122179,2,0,L|336:212,1,67.5000025749208
480,316,122447,5,8,0:0:0:0:
440,232,122581,1,0,0:0:0:0:
388,304,122715,1,0,0:0:0:0:
304,264,122849,5,2,0:0:0:0:
264,348,122983,1,2,0:0:0:0:
208,276,123117,1,2,0:0:0:0:
252,192,123251,1,2,0:0:0:0:
160,196,123385,1,0,0:0:0:0:
116,276,123519,6,0,L|124:324,1,45,10|2,0:0|0:0,0:0:0:0:
40,204,123786,2,0,L|47:159,1,45,2|2,0:0|0:0,0:0:0:0:
104,64,124054,38,0,L|208:48,1,67.5000025749208,4|0,2:0|0:0,0:0:0:0:
248,108,124322,2,0,L|328:92,1,67.5000025749208
472,176,124590,5,10,0:0:0:0:
424,88,124724,1,0,0:0:0:0:
368,184,124858,1,0,0:0:0:0:
192,284,124992,5,10,0:0:0:0:
252,176,125126,1,0,0:0:0:0:
320,320,125221,5,0,0:0:0:0:
297,337,125316,1,0,0:0:0:0:
271,349,125411,1,0,0:0:0:0:
243,355,125506,1,0,0:0:0:0:
215,355,125602,1,0,0:0:0:0:
187,348,125697,1,0,0:0:0:0:
161,335,125786,1,0,0:0:0:0:
139,317,125875,1,0,0:0:0:0:
121,295,125964,1,0,0:0:0:0:
109,269,126054,1,0,0:0:0:0:
104,240,126143,1,0,0:0:0:0:
160,140,126232,5,4,1:0:0:0:
160,184,130518,5,8,1:0:0:0:
156,213,130696,1,0,0:0:0:0:
153,243,130875,1,0,0:0:0:0:
150,273,131053,1,0,0:0:0:0:
456,104,134095,69,0,0:0:0:0:
422,145,134163,1,0,0:0:0:0:
379,153,134231,2,0,P|316:140|288:112,1,101.250003862381
208,32,134743,21,4,2:0:0:0:
176,144,135037,1,0,0:0:0:0:
96,76,135572,1,0,0:0:0:0:
87,77,135659,1,0,0:0:0:0:
76,80,135747,1,0,0:0:0:0:
64,84,135835,5,8,1:0:0:0:
28,192,136098,1,0,0:0:0:0:
120,260,136624,5,0,0:0:0:0:
212,192,137159,1,0,0:0:0:0:
192,84,137736,5,0,0:0:0:0:
177,87,137822,1,0,0:0:0:0:
162,90,137908,1,0,0:0:0:0:
148,92,137994,2,0,L|136:40,1,45,8|0,1:0|0:0,0:0:0:0:
256,184,138253,37,0,0:0:0:0:
271,181,138339,1,0,0:0:0:0:
286,179,138425,1,0,0:0:0:0:
300,176,138511,2,0,L|293:123,1,45,8|0,1:0|0:0,0:0:0:0:
280,40,138778,1,0,0:0:0:0:
392,248,139046,5,4,2:0:0:0:
492,232,139346,1,0,0:0:0:0:
492,232,139896,2,0,L|480:176,2,45
316,320,140146,5,8,1:0:0:0:
224,272,140396,1,0,0:0:0:0:
80,80,140946,53,0,0:0:0:0:
128,172,141446,1,0,0:0:0:0:
128,172,142008,5,0,0:0:0:0:
143,177,142092,1,0,0:0:0:0:
157,182,142176,1,0,0:0:0:0:
172,188,142260,1,8,1:0:0:0:
276,272,142543,5,0,0:0:0:0:
291,267,142627,1,0,0:0:0:0:
305,262,142711,1,0,0:0:0:0:
320,256,142795,5,8,1:0:0:0:
400,212,142921,1,0,0:0:0:0:
324,164,143047,1,0,0:0:0:0:
84,336,143344,37,4,2:0:0:0:
84,300,143433,1,0,0:0:0:0:
124,300,143522,1,0,0:0:0:0:
124,336,143611,1,0,0:0:0:0:
116,324,143701,1,0,0:0:0:0:
116,324,143790,1,0,0:0:0:0:
116,324,143879,6,0,P|156:260|124:160,1,180,8|0,1:0|0:0,0:0:0:0:
428,336,144415,5,4,2:0:0:0:
428,300,144504,1,0,0:0:0:0:
388,300,144594,1,0,0:0:0:0:
388,336,144683,1,0,0:0:0:0:
412,324,144772,1,0,0:0:0:0:
412,324,144861,1,0,0:0:0:0:
412,324,144951,6,0,P|372:260|404:160,1,180,8|4,1:0|2:0,0:0:0:0:
212,80,145486,37,4,2:0:0:0:
212,116,145575,1,0,0:0:0:0:
252,116,145665,1,0,0:0:0:0:
252,80,145754,1,0,0:0:0:0:
240,108,145843,1,0,0:0:0:0:
240,108,145932,1,0,0:0:0:0:
240,108,146022,6,0,P|280:172|248:272,1,180,8|0,1:0|0:0,0:0:0:0:
128,312,146558,5,8,0:0:0:0:
228,112,146826,1,0,0:0:0:0:
244,356,147094,5,0,0:0:0:0:
96,144,147361,1,0,0:0:0:0:
352,352,147629,37,4,2:0:0:0:
367,326,147718,1,0,0:0:0:0:
375,297,147807,1,0,0:0:0:0:
373,267,147896,1,0,0:0:0:0:
363,240,147986,1,0,0:0:0:0:
344,216,148075,1,0,0:0:0:0:
324,192,148165,6,0,P|300:148|308:92,1,90,8|0,1:0|0:0,0:0:0:0:
160,352,148701,5,4,2:0:0:0:
144,326,148790,1,0,0:0:0:0:
136,297,148879,1,0,0:0:0:0:
138,267,148968,1,0,0:0:0:0:
148,240,149058,1,0,0:0:0:0:
167,216,149147,1,0,0:0:0:0:
188,192,149237,6,0,P|212:148|204:92,1,90,8|4,1:0|2:0,0:0:0:0:
124,272,149772,37,4,2:0:0:0:
149,287,149861,1,0,0:0:0:0:
178,295,149950,1,0,0:0:0:0:
208,293,150039,1,0,0:0:0:0:
235,283,150129,1,0,0:0:0:0:
259,264,150218,1,0,0:0:0:0:
284,244,150308,6,0,P|328:220|384:228,1,90,8|0,1:0|0:0,0:0:0:0:
480,296,150844,5,8,1:0:0:0:
280,84,151111,1,0,0:0:0:0:
360,352,151379,5,0,0:0:0:0:
432,40,151647,1,0,0:0:0:0:
176,320,151915,37,4,2:0:0:0:
120,164,152049,1,0,0:0:0:0:
272,236,152183,1,4,3:0:0:0:
44,240,152317,1,0,0:0:0:0:
228,112,152451,5,8,1:0:0:0:
176,320,152585,1,0,0:0:0:0:
36,108,152719,1,0,0:0:0:0:
272,236,152852,1,2,0:0:0:0:
68,280,152986,5,0,0:0:0:0:
228,112,153120,1,2,0:0:0:0:
208,352,153254,5,0,0:0:0:0:
100,152,153388,1,0,0:0:0:0:
344,304,153522,1,4,2:0:0:0:
344,304,154058,37,0,0:0:0:0:
176,336,154192,1,8,0:0:0:0:
296,160,154326,1,0,3:0:0:0:
264,380,154460,1,0,0:0:0:0:
164,192,154594,5,8,1:0:0:0:
376,284,154727,1,0,0:0:0:0:
132,328,154861,1,0,0:0:0:0:
308,180,154995,1,2,0:0:0:0:
240,348,155129,5,0,0:0:0:0:
200,128,155263,1,2,0:0:0:0:
92,272,155397,5,0,0:0:0:0:
312,240,155531,1,0,0:0:0:0:
60,144,155665,1,4,2:0:0:0:
60,144,156201,37,2,0:0:0:0:
128,304,156335,1,0,0:0:0:0:
256,136,156469,1,4,3:0:0:0:
144,192,156602,1,0,0:0:0:0:
336,352,156736,5,8,1:0:0:0:
232,256,156870,1,0,0:0:0:0:
388,136,157004,1,0,0:0:0:0:
332,244,157138,1,2,0:0:0:0:
172,60,157272,5,0,0:0:0:0:
348,266,157406,1,2,0:0:0:0:
314,41,157540,5,0,0:0:0:0:
163,253,157674,1,0,0:0:0:0:
426,144,157808,1,4,2:0:0:0:
426,144,158344,37,0,0:0:0:0:
223,253,158477,1,8,0:0:0:0:
468,255,158611,1,4,3:0:0:0:
254,100,158745,1,0,0:0:0:0:
304,320,158879,5,10,1:0:0:0:
352,48,159013,1,0,0:0:0:0:
480,272,159147,1,0,0:0:0:0:
160,176,159281,1,2,0:0:0:0:
496,96,159415,5,0,0:0:0:0:
288,336,159549,1,2,0:0:0:0:
176,192,159683,5,0,0:0:0:0:
174,177,159749,1,0,0:0:0:0:
172,162,159816,1,0,0:0:0:0:
170,147,159883,1,0,0:0:0:0:
220,68,159951,37,4,2:0:0:0:
