osu file format v14

[General]
AudioFilename: audio.mp3
AudioLeadIn: 0
PreviewTime: 25270
Countdown: 0
SampleSet: Soft
StackLeniency: 0.7
Mode: 2
LetterboxInBreaks: 0
WidescreenStoryboard: 0

[Editor]
Bookmarks: 30034,39438,54950
DistanceSpacing: 1.9
BeatDivisor: 4
GridSize: 4
TimelineZoom: 2.699999

[Metadata]
Title:Classico
TitleUnicode:Classico
Artist:Tenacious D
ArtistUnicode:Tenacious D
Creator:Ponchiwi
Version:Rain
Source:Tenacious D in The Pick of Destiny
Tags:jack black english rock Blue Dragon iDu5t Mismagius idust
BeatmapID:1867546
BeatmapSetID:893630

[Difficulty]
HPDrainRate:6
CircleSize:4
OverallDifficulty:9
ApproachRate:9
SliderMultiplier:1.92
SliderTickRate:2

[Events]
//Background and Video events
0,0,"6de67daba0ede8b2ea45c9a919ffd73a.jpg",0,0
//Break Periods
//Storyboard Layer 0 (Background)
//Storyboard Layer 1 (Fail)
//Storyboard Layer 2 (Pass)
//Storyboard Layer 3 (Foreground)
//Storyboard Sound Samples

[TimingPoints]
536,352.941176470588,4,2,0,60,1,0
6215,352.941176470588,4,2,0,60,1,0
7626,352.941176470588,3,2,0,60,1,0
10449,352.941176470588,4,2,0,60,1,0
11860,352.941176470588,3,2,0,60,1,0
18918,352.941176470588,3,2,0,60,1,0
21035,352.941176470588,4,2,0,60,1,0
25093,-100,4,2,0,60,0,0
25270,-100,4,2,0,60,0,0
30927,352.941176470588,4,2,0,60,1,0
46441,352.941176470588,4,2,0,60,1,0
50715,352.941176470588,4,2,0,60,1,0
56185,-100,4,2,0,20,0,0
56362,-100,4,2,0,10,0,0

[Colours]
Combo1 : 168,204,244
Combo2 : 235,214,205
Combo3 : 238,202,166
Combo4 : 228,228,228

[HitObjects]
232,336,183,6,0,P|192:308|192:264,1,96,8|0,0:0|0:0,0:0:0:0:
476,188,536,6,0,P|468:124|388:104,1,144,4|0,0:0|0:0,0:0:0:0:
324,100,888,2,0,B|424:100,1,96,2|0,0:0|0:0,0:0:0:0:
180,240,1241,2,0,L|345:242,1,144,4|0,0:0|0:0,0:0:0:0:
401,241,1594,2,0,P|396:197|328:169,1,96,2|0,0:0|0:0,0:0:0:0:
104,168,1947,6,4,P|36:184|28:264,1,144,4|0,0:0|0:0,0:0:0:0:
98,248,2300,2,0,L|202:248,1,96,2|0,0:0|0:0,0:0:0:0:
436,184,2653,2,0,L|269:182,1,144,4|0,0:0|0:0,0:0:0:0:
208,176,3006,2,0,B|160:176|160:176|208:176,1,96,2|0,0:0|0:0,0:0:0:0:
472,224,3359,6,8,P|468:160|376:148,1,144,4|0,0:0|0:0,0:0:0:0:
324,132,3712,2,0,B|324:88|324:88|392:88,1,96,2|0,0:0|0:0,0:0:0:0:
140,64,4065,2,0,P|73:63|52:128,1,144,4|0,0:0|0:0,0:0:0:0:
128,134,4418,2,0,B|128:178|128:178|76:178,1,96,2|0,0:0|0:0,0:0:0:0:
340,182,4771,6,8,B|442:182,1,96,4|0,0:0|0:0,0:0:0:0:
190,77,5124,2,0,L|92:76,1,96,2|0,0:0|0:0,0:0:0:0:
408,284,5477,1,12,0:0:0:0:
152,256,6215,6,0,B|252:256,1,96,2|0,0:0|0:0,0:0:0:0:
76,256,6567,2,0,B|172:256,1,96,2|0,0:0|0:0,0:0:0:0:
348,256,6920,2,0,B|348:152,1,96,2|0,0:0|0:0,0:0:0:0:
172,160,7273,2,0,B|64:160,1,96,2|0,0:0|0:0,0:0:0:0:
376,132,7627,6,4,P|456:156|468:264,1,192,4|2,0:0|0:0,0:0:0:0:
321,162,8156,2,0,L|321:258,1,96,0|8,0:0|0:0,0:0:0:0:
473,253,8509,1,0,0:0:0:0:
192,208,8685,6,4,P|124:260|200:280,1,192,4|2,0:0|0:0,0:0:0:0:
344,288,9215,2,0,L|228:288,2,96,0|8|0,0:0|0:0|0:0,0:0:0:0:
100,252,9744,6,4,B|76:172|76:172|204:168,1,192,4|2,0:0|0:0,0:0:0:0:
340,168,10273,1,0,0:0:0:0:
76,116,10449,6,0,B|76:216,1,96,2|0,0:0|0:0,0:0:0:0:
244,212,10801,2,0,B|352:212,1,96,2|0,0:0|0:0,0:0:0:0:
168,212,11154,2,0,B|272:212,1,96,2|0,0:0|0:0,0:0:0:0:
432,216,11507,2,0,B|328:216,1,96,2|0,0:0|0:0,0:0:0:0:
28,100,11860,6,8,L|233:101,1,192,4|2,0:0|0:0,0:0:0:0:
64,100,12389,2,0,L|64:196,1,96,0|8,0:0|0:0,0:0:0:0:
216,192,12742,1,0,0:0:0:0:
480,324,12918,6,8,P|476:264|352:208,1,192,4|2,0:0|0:0,0:0:0:0:
218,199,13448,1,0,0:0:0:0:
370,203,13624,1,8,0:0:0:0:
218,199,13800,1,0,0:0:0:0:
472,316,13977,6,0,L|300:216,1,192,4|2,0:0|0:0,0:0:0:0:
472,316,14506,2,0,L|472:216,1,96
320,220,14859,1,0,0:0:0:0:
72,136,15036,6,2,P|4:180|80:208,1,192,6|2,0:0|0:0,0:0:0:0:
228,212,15565,1,0,0:0:0:0:
73,213,15742,1,2,0:0:0:0:
228,212,15918,1,0,0:0:0:0:
484,112,16095,6,2,B|288:112,1,192,8|2,0:0|0:0,0:0:0:0:
436,112,16624,1,0,0:0:0:0:
292,112,16800,1,0,0:0:0:0:
148,112,16977,1,0,0:0:0:0:
384,208,17154,6,2,L|187:208,1,192,8|2,0:0|0:0,0:0:0:0:
36,208,17683,2,0,L|36:104,1,96,0|2,0:0|0:0,0:0:0:0:
192,112,18036,1,0,0:0:0:0:
472,128,18212,6,0,B|472:328,1,192,8|0,0:0|0:0,0:0:0:0:
316,316,18742,1,0,0:0:0:0:
40,112,18918,5,2,0:0:0:0:
192,112,19094,1,0,0:0:0:0:
40,112,19270,1,2,0:0:0:0:
192,112,19447,1,0,0:0:0:0:
464,104,19623,2,0,L|464:208,1,96,8|0,0:0|0:0,0:0:0:0:
200,308,19976,5,2,0:0:0:0:
48,300,20153,1,0,0:0:0:0:
200,308,20329,1,2,0:0:0:0:
48,300,20506,1,0,0:0:0:0:
324,248,20682,2,0,L|428:248,1,96,8|0,0:0|0:0,0:0:0:0:
168,192,21035,6,0,L|68:192,1,96,2|0,0:0|0:0,0:0:0:0:
340,200,21387,2,0,L|340:296,1,96,2|0,0:0|0:0,0:0:0:0:
168,112,21740,2,0,L|276:112,1,96,8|0,0:0|0:0,0:0:0:0:
436,112,22093,2,0,L|324:112,1,96,2|0,0:0|0:0,0:0:0:0:
36,112,22446,5,12,0:0:0:0:
256,192,22623,12,0,25093,0:0:0:0:
403,204,25270,5,6,0:0:0:0:
121,199,25799,1,0,0:0:0:0:
402,203,25976,2,0,P|397:157|357:135,1,96,6|0,0:0|0:0,0:0:0:0:
118,197,26505,1,0,0:0:0:0:
398,339,26681,6,0,P|427:304|377:284,1,96,6|0,0:0|0:0,0:0:0:0:
99,122,27034,2,0,P|69:85|104:68,1,96,6|0,0:0|0:0,0:0:0:0:
395,277,27387,1,12,0:0:0:0:
35,79,28093,5,12,0:0:0:0:
226,75,28622,1,0,0:0:0:0:
478,76,28799,1,6,0:0:0:0:
416,76,29329,1,0,0:0:0:0:
161,62,29505,6,0,L|59:62,1,96,6|0,0:0|0:0,0:0:0:0:
324,207,29858,2,0,L|423:208,1,96,6|0,0:0|0:0,0:0:0:0:
144,143,30211,2,0,P|65:153|42:256,1,192,12|0,0:0|0:0,0:0:0:0:
470,197,30927,6,8,B|357:197,1,96,8|0,0:0|0:0,0:0:0:0:
220,184,31279,2,2,P|144:200|120:304,1,192
252,287,31809,2,0,L|251:179,1,96,0|0,0:0|0:0,0:0:0:0:
100,192,32162,1,0,0:0:0:0:
344,192,32338,6,0,P|424:204|430:308,1,192,8|2,0:0|0:0,0:0:0:0:
280,292,32868,2,8,B|160:292,1,96,0|8,0:0|0:0,0:0:0:0:
338,292,33220,1,0,0:0:0:0:
184,292,33397,1,2,0:0:0:0:
338,292,33573,1,0,0:0:0:0:
88,296,33750,6,0,B|89:204|89:204|188:204,1,192,8|2,0:0|0:0,0:0:0:0:
36,204,34279,1,0,0:0:0:0:
188,204,34456,2,0,B|321:205,1,96,2|0,0:0|0:0,0:0:0:0:
128,204,34809,2,0,B|128:100,1,96,2|0,0:0|0:0,0:0:0:0:
368,96,35162,6,0,B|176:96,2,192,8|2|8,0:0|0:0|0:0,0:0:0:0:
213,95,36044,1,0,0:0:0:0:
488,208,36221,2,0,L|376:208,1,96,2|0,0:0|0:0,0:0:0:0:
88,84,36573,6,2,B|192:84,1,96,4|0,0:0|0:0,0:0:0:0:
328,84,36926,2,0,B|392:84,2,48,2|0|0,0:0|0:0|0:0,0:0:0:0:
152,80,37279,2,2,B|152:200,1,96,2|0,0:0|0:0,0:0:0:0:
296,176,37632,1,2,0:0:0:0:
356,176,37720,1,0,0:0:0:0:
420,176,37809,1,0,0:0:0:0:
184,116,37985,6,2,B|80:116,1,96,2|0,0:0|0:0,0:0:0:0:
368,120,38338,2,0,B|420:120,2,48,2|0|0,0:0|0:0|0:0,0:0:0:0:
76,232,38691,2,2,P|8:276|84:320,1,192
488,312,39397,6,0,L|380:312,1,96,4|0,0:0|0:0,0:0:0:0:
236,312,39750,2,0,L|344:312,1,96,8|0,0:0|0:0,0:0:0:0:
60,176,40103,6,0,L|60:280,1,96,4|0,0:0|0:0,0:0:0:0:
216,276,40456,2,0,L|120:276,1,96,8|0,0:0|0:0,0:0:0:0:
368,64,40809,6,0,L|368:176,1,96,4|0,0:0|0:0,0:0:0:0:
212,160,41162,2,0,L|108:160,1,96,8|0,0:0|0:0,0:0:0:0:
352,200,41514,6,0,L|464:200,1,96,4|0,0:0|0:0,0:0:0:0:
164,320,41867,2,0,L|56:320,1,96,8|0,0:0|0:0,0:0:0:0:
316,232,42220,5,4,0:0:0:0:
160,300,42573,2,2,P|168:228|276:188,1,192
428,192,43103,1,0,0:0:0:0:
168,208,43279,1,2,0:0:0:0:
100,208,43367,1,0,0:0:0:0:
168,208,43456,1,0,0:0:0:0:
456,168,43632,6,2,P|440:80|312:80,1,192,4|2,0:0|0:0,0:0:0:0:
116,328,44338,2,0,L|116:224,1,96,2|0,0:0|0:0,0:0:0:0:
376,296,44691,1,2,0:0:0:0:
400,248,44779,1,0,0:0:0:0:
380,200,44867,1,0,0:0:0:0:
328,180,44955,1,0,0:0:0:0:
80,172,45044,6,2,P|12:216|80:260,1,192,4|2,0:0|0:0,0:0:0:0:
496,312,45750,2,2,P|496:240|368:216,1,192,4|2,0:0|0:0,0:0:0:0:
256,196,46279,1,0,0:0:0:0:
96,196,46441,6,8,B|200:196,1,96,8|0,0:0|0:0,0:0:0:0:
372,196,46793,2,8,B|256:196,1,96,8|0,0:0|0:0,0:0:0:0:
96,196,47146,2,8,B|228:196,1,96,8|0,0:0|0:0,0:0:0:0:
372,196,47499,2,8,B|260:196,1,96,8|0,0:0|0:0,0:0:0:0:
16,232,47852,5,12,0:0:0:0:
216,40,48381,1,0,0:0:0:0:
476,128,48558,2,0,L|376:128,1,96,8|0,0:0|0:0,0:0:0:0:
140,224,48911,2,0,L|32:224,1,96,8|0,0:0|0:0,0:0:0:0:
324,224,49264,5,12,0:0:0:0:
88,320,49793,1,0,0:0:0:0:
356,316,49970,2,0,L|460:316,1,96,8|0,0:0|0:0,0:0:0:0:
152,160,50323,2,0,L|44:160,1,96,8|0,0:0|0:0,0:0:0:0:
412,148,50891,5,2,0:0:0:0:
168,148,51244,1,2,0:0:0:0:
408,148,51597,1,2,0:0:0:0:
72,148,51950,1,2,0:0:0:0:
412,148,52303,5,2,0:0:0:0:
72,148,52655,1,2,0:0:0:0:
304,148,53008,1,2,0:0:0:0:
72,140,53361,1,2,0:0:0:0:
408,148,53714,5,2,0:0:0:0:
72,140,54067,1,2,0:0:0:0:
408,148,54420,1,2,0:0:0:0:
164,140,54773,2,0,L|164:192,1,48,2|0,0:0|0:0,0:0:0:0:
384,80,54950,6,0,P|472:160|308:80,1,768,6|0,0:0|0:0,0:0:0:0:
