osu file format v14

[General]
AudioFilename: audio.mp3
AudioLeadIn: 0
PreviewTime: 239591
Countdown: 0
SampleSet: Normal
StackLeniency: 0.7
Mode: 1
LetterboxInBreaks: 0
WidescreenStoryboard: 1

[Editor]
Bookmarks: 20443,27771,35100,42428,49756,68077,85147,99645,109338,118544,123171,130499,137827,145155,148819,163476,227849,246429,258816,265397,294981,303476
DistanceSpacing: 1.1
BeatDivisor: 16
GridSize: 32
TimelineZoom: 3.15

[Metadata]
Title:Beelzeboss (The Final Showdown)
TitleUnicode:Beelzeboss (The Final Showdown)
Artist:Tenacious D
ArtistUnicode:Tenacious D
Creator:Blackener
Version:The Tooth of Satan
Source:Tenacious D in The Pick of Destiny
Tags:english rock off battle demon Thomas Jacob Jack Black JB Kyle Richard Gass KG Dave Grohl Liam Lynch
BeatmapID:2416879
BeatmapSetID:1158094

[Difficulty]
HPDrainRate:5
CircleSize:6.9
OverallDifficulty:6
ApproachRate:6.9
SliderMultiplier:1.4
SliderTickRate:1

[Events]
//Background and Video events
0,0,"BG.jpg",0,85
//Break Periods
2,111825,117630
//Storyboard Layer 0 (Background)
//Storyboard Layer 1 (Fail)
//Storyboard Layer 2 (Pass)
//Storyboard Layer 3 (Foreground)
//Storyboard Layer 4 (Overlay)
//Storyboard Sound Samples

[TimingPoints]
301,458.015267175573,4,1,0,70,1,8
13049,-95.2380952380952,4,1,0,70,0,0
13125,-95.2380952380952,4,1,0,75,0,0
14342,458.015267175573,4,1,0,75,1,8
14342,-95.2380952380952,4,1,0,75,0,8
14492,458.015267175573,4,1,0,75,1,8
14492,-95.2380952380952,4,1,0,75,0,8
14950,458.015267175573,4,1,0,75,1,0
14950,-95.2380952380952,4,1,0,75,0,8
18757,-92.436974789916,4,1,0,75,0,0
18833,-89.7959183673469,4,1,0,75,0,0
18909,-87.3015873015873,4,1,0,75,0,0
19062,-82.7067669172932,4,1,0,75,0,0
19215,-78.5714285714286,4,1,0,75,0,0
19367,-74.8299319727891,4,1,0,75,0,0
19520,-71.4285714285714,4,1,0,75,0,0
19673,-68.3229813664596,4,1,0,75,0,0
19749,-66.8693009118541,4,1,0,75,0,0
19825,-65.4761904761905,4,1,0,75,0,0
19978,-62.8571428571429,4,1,0,75,0,0
20131,-60.4395604395604,4,1,0,75,0,0
20283,-58.2010582010582,4,1,0,75,0,0
20408,-55.5555555555556,4,1,0,75,0,0
20446,-55.5555555555556,4,1,0,80,0,0
20675,-83.3333333333333,4,1,0,80,0,0
40920,476.190476190477,4,1,0,80,1,8
40920,-67.7346521879368,4,1,0,80,0,0
41217,-56.9131397082072,4,1,0,80,0,0
41522,-48.0916030534351,4,1,0,80,0,0
42467,458.015267175573,4,1,0,70,1,0
42467,-111.111111111111,4,1,0,70,0,0
46120,458.015267175573,4,1,0,70,1,0
46120,-111.111111111111,4,1,0,70,0,0
49297,458.015267175573,4,1,0,70,1,8
49297,-60.0917431194314,4,1,0,70,0,0
49774,458.015267175573,4,1,0,70,1,0
64392,465.116279069768,4,1,0,70,1,0
64392,-50,4,1,0,70,0,0
66223,-48.0916030534351,4,1,0,70,0,0
68087,458.015267175573,4,1,0,80,1,0
68087,-44.4444444444445,4,1,0,80,0,0
68316,-83.3333333333333,4,1,0,80,0,0
80882,-55.5555555555556,4,1,0,80,0,0
82714,-80,4,1,0,78,0,0
84575,458.015267175573,4,1,0,78,1,8
84575,-84.516129032258,4,1,0,78,0,0
84848,603.015075376884,4,1,0,75,1,8
84848,-80.5668016194332,4,1,0,75,0,0
85157,631.578947368421,4,1,0,70,1,0
85157,-76.9230769230769,4,1,0,70,0,0
85788,594.059405940594,4,1,0,70,1,8
85788,-81.7813765182186,4,1,0,70,0,0
86233,594.059405940594,4,1,0,70,1,8
86233,-81.7813765182186,4,1,0,70,0,0
86381,594.059405940594,4,1,0,70,1,8
86381,-81.7813765182186,4,1,0,70,0,0
87569,631.578947368421,4,1,0,70,1,0
87569,-76.9230769230769,4,1,0,70,0,0
87884,618.556701030928,4,1,0,70,1,8
87884,-78.5425101214575,4,1,0,70,0,0
88502,550.45871559633,4,1,0,70,1,8
88502,-88.2591093117409,4,1,0,70,0,0
88639,618.556701030928,4,1,0,70,1,8
88639,-78.5425101214575,4,1,0,70,0,0
88793,560.747663551402,4,1,0,70,1,8
88793,-86.6396761133603,4,1,0,70,0,0
89073,606.060606060606,4,1,0,70,1,8
89073,-80.1619433198381,4,1,0,70,0,0
89679,585.365853658537,4,1,0,70,1,8
89679,-82.9959514170041,4,1,0,70,0,0
89973,618.556701030928,4,1,0,70,1,0
89973,-78.5425101214575,4,1,0,70,0,0
90591,600,4,1,0,70,1,8
90591,-80.9716599190283,4,1,0,70,0,0
92391,618.556701030928,4,1,0,70,1,0
92391,-78.5425101214575,4,1,0,70,0,0
93628,540.540540540541,4,1,0,70,1,8
93628,-89.8785425101214,4,1,0,70,0,0
93897,582.52427184466,4,1,0,70,1,8
93897,-83.4008097165992,4,1,0,70,0,0
94188,600,4,1,0,70,1,8
94188,-80.9716599190283,4,1,0,70,0,0
94488,618.556701030928,4,1,0,70,1,8
94488,-78.5425101214575,4,1,0,70,0,0
94797,625,4,1,0,70,1,0
94797,-77.7327935222672,4,1,0,70,0,0
96047,540.540540540541,4,1,0,70,1,8
96047,-89.8785425101214,4,1,0,70,0,0
96317,571.428571428571,4,1,0,70,1,8
96317,-85.0202429149798,4,1,0,70,0,0
96602,618.556701030928,4,1,0,70,1,8
96602,-78.5425101214575,4,1,0,70,0,0
96911,618.556701030928,4,1,0,70,1,8
96911,-78.5425101214575,4,1,0,70,0,0
97220,618.556701030928,4,1,0,70,1,0
97220,-71.4285714285714,4,1,0,70,0,0
98148,540.540540540541,4,1,0,70,1,8
98148,-81.7378497739708,4,1,0,70,0,0
98418,618.556701030928,4,1,0,70,1,8
98418,-71.4285714285714,4,1,0,70,0,0
99655,618.556701030928,4,1,0,70,1,0
99655,-71.4285714285714,4,1,0,70,0,0
101685,697.674418604651,4,1,0,65,1,8
101685,-75.7575757575758,4,1,0,65,0,0
101815,-78.7401574803149,4,1,0,65,0,0
102033,697.674418604651,4,1,0,65,1,0
102033,-82.2966507177033,4,1,0,65,0,0
104290,618.556701030928,4,1,0,65,1,8
104290,-92.5069380203515,4,1,0,65,0,0
104444,618.556701030928,4,1,0,65,1,0
104444,-92.5069380203515,4,1,0,65,0,0
106589,540.540540540541,4,1,0,65,1,8
106589,-105.820105820106,4,1,0,65,0,0
106859,549.450549450549,4,1,0,65,1,0
106859,-104.166666666667,4,1,0,65,0,0
108519,315.789473684211,4,1,0,65,1,8
108519,-173.992686739391,4,1,0,65,0,0
108834,389.61038961039,4,1,0,65,1,8
108834,-141.025641025822,4,1,0,65,0,0
109211,508.474576271186,4,1,0,65,1,8
109211,-108.05861142307,4,1,0,65,0,0
109338,508.474576271186,4,1,0,65,1,0
109338,-108.05861142307,4,1,0,65,0,0
109592,-108.05861142307,4,1,0,60,0,0
109719,416.666666666667,4,1,0,60,1,8
109719,-92.9032258064515,4,1,0,60,0,0
110138,375,4,1,0,60,1,8
110138,-103.225806451613,4,1,0,60,0,0
110513,472.44094488189,4,1,0,60,1,8
110513,-81.9354838709677,4,1,0,60,0,0
111352,350.877192982456,4,1,0,60,1,8
111352,-155.822854034351,4,1,0,60,0,0
111625,350.877192982456,4,1,0,60,1,0
111625,-155.822854034351,4,1,0,60,0,0
111704,569.259962049336,4,1,0,60,1,8
111704,-116.72203765227,4,1,0,60,0,0
116258,-125,4,1,0,60,0,0
118535,569.259962049336,4,1,0,60,1,8
118544,603.015075376884,4,1,0,60,1,8
118544,-115.802260691733,4,1,0,60,0,0
118921,603.015075376884,4,1,0,60,1,0
118921,-115.802260691733,4,1,0,60,0,0
119486,-116.279069767442,4,1,0,60,0,0
120121,603.015075376884,4,1,0,65,1,8
120121,-116.279069767442,4,1,0,65,0,0
121341,608.210846426761,4,1,0,70,1,0
121341,-115.285730980484,4,1,0,70,0,0
121342,-33.3333333333333,4,1,0,70,0,0
123171,458.015267175573,4,1,0,75,1,0
123171,-83.3333333333333,4,1,0,75,0,0
126796,-71.4285714285714,4,1,0,70,0,0
130470,-71.4285714285714,4,1,0,80,0,0
134124,-66.6666666666667,4,1,0,70,0,0
138056,-76.9230769230769,4,1,0,80,0,0
141453,-66.6666666666667,4,1,0,80,0,0
148877,-86.9565217391304,4,1,0,75,0,0
163399,-80,4,1,0,75,0,0
178094,-50,4,1,0,75,0,0
178285,-50,4,1,0,70,0,0
179964,-66.6666666666667,4,1,0,70,0,0
181796,458.015267175573,4,1,0,75,1,8
182418,666.666666666667,4,1,0,70,1,8
183449,648.648648648649,4,1,0,70,1,0
183449,-102.777777777778,4,1,0,70,0,0
184097,684.931506849315,4,1,0,70,1,8
184097,-97.3333333333333,4,1,0,70,0,0
185467,680.272108843537,4,1,0,70,1,8
185467,-98,4,1,0,70,0,0
186148,666.666666666667,4,1,0,70,1,0
186814,681.818181818183,4,1,0,70,1,8
186814,-97.7777777777778,4,1,0,70,0,0
187496,639.658848614073,4,1,0,70,1,8
187496,-104.222222222222,4,1,0,70,0,0
188135,630.252100840336,4,1,0,70,1,8
188135,-105.777777777778,4,1,0,70,0,0
188767,668.896321070234,4,1,0,70,1,0
188767,-99.6666666666667,4,1,0,70,0,0
194118,634.920634920635,4,1,0,70,1,0
194118,-105,4,1,0,70,0,0
194764,722.89156626506,4,1,0,70,1,8
194764,-92.2222222222222,4,1,0,70,0,0
195429,714.285714285714,4,1,0,70,1,8
195429,-93.3333333333333,4,1,0,70,0,0
196857,612.244897959184,4,1,0,70,1,0
196857,-108.888888888889,4,1,0,70,0,0
197469,674.157303370787,4,1,0,70,1,8
197469,-98.8888888888889,4,1,0,70,0,0
199491,638.297872340426,4,1,0,70,1,0
199491,-104.444444444444,4,1,0,70,0,0
200129,689.655172413793,4,1,0,70,1,8
200129,-96.6666666666667,4,1,0,70,0,0
200818,652.173913043478,4,1,0,70,1,8
200818,-102.222222222222,4,1,0,70,0,0
201470,674.157303370787,5,1,0,70,1,8
201470,-98.8888888888889,5,1,0,70,0,0
201807,718.562874251497,4,1,0,70,1,8
201807,-92.7777777777778,4,1,0,70,0,0
202168,648.648648648649,4,1,0,70,1,0
202168,-102.777777777778,4,1,0,70,0,0
202818,673.400673400673,4,1,0,70,1,8
202818,-99,4,1,0,70,0,0
204838,673.400673400673,4,1,0,70,1,8
204840,674.157303370787,4,1,0,70,1,0
204840,-98.8888888888889,4,1,0,70,0,0
207536,638.297872340426,4,1,0,70,1,0
207536,-104.444444444444,4,1,0,70,0,0
210089,666.666666666667,4,1,0,70,1,0
212755,666.666666666667,4,1,0,70,1,8
212789,697.674418604651,4,1,0,70,1,0
212789,-95.5555555555556,4,1,0,70,0,0
214157,652.173913043478,4,1,0,70,1,8
214157,-102.222222222222,4,1,0,70,0,0
215461,652.173913043478,4,1,0,70,1,8
215462,387.096774193548,4,1,0,75,1,0
215462,-111.111111111111,4,1,0,75,0,0
227849,-100,4,1,0,80,0,0
239824,-98.1123189827715,4,1,0,80,0,0
240018,-94.4431844921422,4,1,0,80,0,0
240115,-92.6603984264179,4,1,0,80,0,0
240211,-90.9090909090909,4,1,0,80,0,0
240236,-90.9090909090909,4,1,0,85,0,0
258768,-83.3333333333333,4,1,0,80,0,0
265010,-71.4285714285714,4,1,0,90,0,1
270599,-70.7070707070707,4,1,0,90,0,1
270695,-70,4,1,0,90,0,1
270792,-69.3069306930693,4,1,0,90,0,1
270889,-68.6274509803922,4,1,0,90,0,1
270986,-67.9611650485437,4,1,0,90,0,1
271082,-67.3076923076923,4,1,0,90,0,1
271179,-55.5555555555556,4,1,0,90,0,1
271203,-55.5555555555556,4,1,0,80,0,0
271591,-90.9090909090909,4,1,0,80,0,0
273502,-86.8182165454684,4,1,0,70,0,0
273631,-82.9114299654943,4,1,0,70,0,0
273760,-79.180447289226,4,1,0,70,0,0
273889,-75.6173574081538,4,1,0,70,0,0
274018,-72.214605210629,4,1,0,70,0,0
274147,-68.9655172413793,4,1,0,70,0,0
274272,558.139534883721,3,1,0,80,1,0
274272,-33.3333333333333,3,1,0,80,0,0
274365,-33.3333333333333,3,1,0,60,0,0
275946,497.512437810945,3,1,0,80,1,8
275946,-77.8064516129033,3,1,0,80,0,0
277438,550.45871559633,4,1,0,80,1,8
277438,-50,4,1,0,80,0,0
277988,550.45871559633,4,1,0,75,1,8
277990,530.973451327434,4,1,0,75,1,0
277990,-90.9090909090909,4,1,0,75,0,0
291761,-83.3333333333333,4,1,0,70,0,8
292823,-71.4285714285714,4,1,0,70,0,8
293885,-60.6060606060606,4,1,0,70,0,8
294981,-50,4,1,0,80,0,1
311972,-50,4,1,0,90,0,1
314328,-47.8801640349289,4,1,0,90,0,1
314593,-45.8502021602339,4,1,0,90,0,1
314858,-43.906304009333,4,1,0,90,0,1
315124,-42.0448207626863,4,1,0,90,0,1
315389,-40.2622582987321,4,1,0,90,0,1
315655,-38.5552706351994,4,1,0,90,0,1
315920,-36.9206536484884,4,1,0,90,0,1
316186,-35.3553390593284,4,1,0,90,0,1
316452,-33.8563886734234,4,1,0,90,0,1
316717,-32.4209888662764,4,1,0,90,0,1
316983,-31.0464453018384,4,1,0,90,0,1
317248,-29.7301778750693,4,1,0,90,0,1
317514,-28.4697158689187,4,1,0,90,0,1
317779,-27.2626933166328,4,1,0,90,0,1
318045,-26.1068445606868,4,1,0,90,0,1
318343,-20,4,1,0,100,0,0
318476,-20,4,1,0,95,0,0
318609,-20,4,1,0,97,0,0
318874,-20,4,1,0,93,0,0
319140,-20,4,1,0,90,0,0
319405,-20,4,1,0,85,0,0
319671,-20,4,1,0,80,0,0
319936,-20,4,1,0,75,0,0
320202,-20,4,1,0,70,0,0
320467,-62.5,4,1,0,65,0,0
320733,-62.5,4,1,0,60,0,0
320998,-62.5,4,1,0,55,0,0
321264,-62.5,4,1,0,50,0,0
321529,-62.5,4,1,0,45,0,0
321795,-62.5,4,1,0,40,0,0
322060,-62.5,4,1,0,40,0,0
322289,656.455142231947,4,1,0,60,1,8
322289,-71.4285714285714,4,1,0,60,0,0
322412,-74.0740740740741,4,1,0,60,0,0
322617,692.04064665127,4,1,0,60,1,0
322617,-72.9675138865511,4,1,0,60,0,0
322790,-72.9675138865511,4,1,0,55,0,0
322963,-72.9675138865511,4,1,0,50,0,0
323309,-72.9675138865511,4,1,0,45,0,0
323655,-72.9675138865511,4,1,0,40,0,0
324001,-72.9675138865511,4,1,0,35,0,0
324347,-72.9675138865511,4,1,0,30,0,0
324693,-72.9675138865511,4,1,0,28,0,0
325039,-72.9675138865511,4,1,0,26,0,0
325385,-86.9565217391304,4,1,0,24,0,0
325731,-86.9565217391304,4,1,0,22,0,0
326077,-86.9565217391304,4,1,0,20,0,0
326423,-86.9565217391304,4,1,0,19,0,0
326769,-86.9565217391304,4,1,0,17,0,0
327115,-86.9565217391304,4,1,0,16,0,0
327461,-86.9565217391304,4,1,0,14,0,0
327807,-86.9565217391304,4,1,0,13,0,0
328153,-93.4579439252336,4,1,0,12,0,0
328499,-93.4579439252336,4,1,0,11,0,0
328845,-93.4579439252336,4,1,0,10,0,0
329191,-93.4579439252336,4,1,0,9,0,0
329537,-93.4579439252336,4,1,0,8,0,0
329883,-93.4579439252336,4,1,0,7,0,0
330229,-93.4579439252336,4,1,0,6,0,0
330575,-93.4579439252336,4,1,0,5,0,0
330921,-100,4,1,0,5,0,0

[HitObjects]
256,192,301,5,0,0:0:0:0:
256,192,759,5,8,0:0:0:0:
256,192,911,5,0,0:0:0:0:
256,192,1064,5,0,0:0:0:0:
256,192,1217,5,8,0:0:0:0:
256,192,1522,5,0,0:0:0:0:
256,192,1675,5,8,0:0:0:0:
256,192,1827,5,0,0:0:0:0:
256,192,2133,5,8,0:0:0:0:
256,192,2591,5,8,0:0:0:0:
256,192,2743,5,0,0:0:0:0:
256,192,2896,5,0,0:0:0:0:
256,192,3049,5,8,0:0:0:0:
256,192,3354,5,0,0:0:0:0:
256,192,3507,5,8,0:0:0:0:
256,192,3659,5,0,0:0:0:0:
256,192,3965,5,8,0:0:0:0:
256,192,4423,5,8,0:0:0:0:
256,192,4575,5,0,0:0:0:0:
256,192,4728,5,0,0:0:0:0:
256,192,4881,5,8,0:0:0:0:
256,192,5186,5,0,0:0:0:0:
256,192,5339,5,8,0:0:0:0:
256,192,5491,5,0,0:0:0:0:
256,192,5797,5,8,0:0:0:0:
256,192,6255,5,8,0:0:0:0:
256,192,6407,5,0,0:0:0:0:
256,192,6560,5,0,0:0:0:0:
256,192,6713,5,8,0:0:0:0:
256,192,7018,5,0,0:0:0:0:
256,192,7171,5,8,0:0:0:0:
256,192,7323,5,0,0:0:0:0:
256,192,7629,5,8,0:0:0:0:
256,192,8087,5,8,0:0:0:0:
256,192,8239,5,8,0:0:0:0:
256,192,8392,5,0,0:0:0:0:
256,192,8545,5,8,0:0:0:0:
288,192,8850,5,0,0:0:0:0:
256,192,9003,5,8,0:0:0:0:
256,192,9155,5,0,0:0:0:0:
256,192,9461,5,8,0:0:0:0:
256,192,9919,5,8,0:0:0:0:
256,192,10071,5,8,0:0:0:0:
256,192,10224,5,0,0:0:0:0:
256,192,10377,5,8,0:0:0:0:
256,192,10682,5,0,0:0:0:0:
256,192,10835,5,8,0:0:0:0:
256,192,10988,5,0,0:0:0:0:
256,192,11293,5,8,0:0:0:0:
256,192,11751,5,8,0:0:0:0:
256,192,11904,5,8,0:0:0:0:
256,192,12056,5,0,0:0:0:0:
256,192,12209,5,8,0:0:0:0:
256,192,12514,5,0,0:0:0:0:
256,192,12667,5,8,0:0:0:0:
256,192,12820,5,0,0:0:0:0:
256,192,13125,5,8,0:0:0:0:
256,192,13430,5,0,0:0:0:0:
288,192,13583,5,8,0:0:0:0:
256,192,13736,5,0,0:0:0:0:
256,192,13888,5,0,0:0:0:0:
256,192,14041,5,0,0:0:0:0:
256,192,14342,5,0,0:0:0:0:
256,192,14492,5,8,0:0:0:0:
256,192,14644,5,0,0:0:0:0:
256,192,14797,5,0,0:0:0:0:
256,192,14950,5,0,0:0:0:0:
256,192,15255,5,0,0:0:0:0:
256,192,15408,5,8,0:0:0:0:
256,192,15560,5,0,0:0:0:0:
256,192,15713,5,0,0:0:0:0:
256,192,15866,5,0,0:0:0:0:
256,192,16171,5,0,0:0:0:0:
256,192,16324,5,8,0:0:0:0:
256,192,16476,5,0,0:0:0:0:
256,192,16629,5,0,0:0:0:0:
256,192,16782,5,0,0:0:0:0:
256,192,16934,5,0,0:0:0:0:
256,192,17011,5,0,0:0:0:0:
256,192,17087,5,0,0:0:0:0:
256,192,17240,5,8,0:0:0:0:
256,192,17392,5,8,0:0:0:0:
256,192,17545,5,0,0:0:0:0:
256,192,17698,5,0,0:0:0:0:
256,192,17850,5,0,0:0:0:0:
256,192,17927,5,0,0:0:0:0:
256,192,18003,5,0,0:0:0:0:
256,192,18156,5,8,0:0:0:0:
256,192,18308,5,8,0:0:0:0:
256,192,18461,5,0,0:0:0:0:
256,192,18614,5,0,0:0:0:0:
256,192,18766,5,0,0:0:0:0:
256,192,18843,5,0,0:0:0:0:
256,192,18919,5,0,0:0:0:0:
256,192,19072,5,8,0:0:0:0:
256,192,19224,5,8,0:0:0:0:
256,192,19377,5,0,0:0:0:0:
256,192,19530,5,0,0:0:0:0:
256,192,19682,5,0,0:0:0:0:
256,192,19759,5,0,0:0:0:0:
256,192,19835,5,0,0:0:0:0:
256,192,19988,5,8,0:0:0:0:
256,192,20140,5,8,0:0:0:0:
256,192,20293,5,8,0:0:0:0:
256,192,20446,5,4,0:0:0:0:
256,192,20751,5,0,0:0:0:0:
256,192,20904,5,8,0:0:0:0:
256,192,21056,5,0,0:0:0:0:
256,192,21209,5,0,0:0:0:0:
256,192,21362,5,8,0:0:0:0:
256,192,21667,5,0,0:0:0:0:
256,192,21820,5,8,0:0:0:0:
256,192,21972,5,0,0:0:0:0:
256,192,22125,5,8,0:0:0:0:
256,192,22278,5,4,0:0:0:0:
256,192,22583,5,0,0:0:0:0:
256,192,22736,5,8,0:0:0:0:
256,192,22888,5,8,0:0:0:0:
256,192,23041,5,0,0:0:0:0:
256,192,23194,5,8,0:0:0:0:
256,192,23499,5,0,0:0:0:0:
256,192,23652,5,8,0:0:0:0:
256,192,23804,5,0,0:0:0:0:
256,192,23957,5,0,0:0:0:0:
256,192,24110,5,12,0:0:0:0:
256,192,24415,5,0,0:0:0:0:
256,192,24568,5,8,0:0:0:0:
256,192,24720,5,0,0:0:0:0:
288,192,24873,5,0,0:0:0:0:
256,192,25026,5,12,0:0:0:0:
288,192,25331,5,0,0:0:0:0:
256,192,25484,5,8,0:0:0:0:
256,192,25637,5,8,0:0:0:0:
256,192,25789,5,0,0:0:0:0:
256,192,25942,5,12,0:0:0:0:
256,192,26247,5,0,0:0:0:0:
256,192,26400,5,8,0:0:0:0:
256,192,26553,5,0,0:0:0:0:
256,192,26705,5,0,0:0:0:0:
256,192,26858,5,8,0:0:0:0:
256,192,27011,5,0,0:0:0:0:
256,192,27163,5,0,0:0:0:0:
256,192,27316,5,8,0:0:0:0:
256,192,27373,5,8,0:0:0:0:
256,192,27469,5,8,0:0:0:0:
256,192,27621,5,8,0:0:0:0:
256,192,27774,5,4,0:0:0:0:
256,192,28079,5,0,0:0:0:0:
256,192,28232,5,8,0:0:0:0:
256,192,28385,5,0,0:0:0:0:
256,192,28537,5,0,0:0:0:0:
256,192,28690,5,8,0:0:0:0:
256,192,28995,5,0,0:0:0:0:
256,192,29148,5,8,0:0:0:0:
256,192,29301,5,8,0:0:0:0:
256,192,29453,5,0,0:0:0:0:
256,192,29606,5,4,0:0:0:0:
256,192,29911,5,0,0:0:0:0:
256,192,30064,5,8,0:0:0:0:
256,192,30217,5,8,0:0:0:0:
256,192,30369,5,0,0:0:0:0:
256,192,30522,5,8,0:0:0:0:
256,192,30827,5,8,0:0:0:0:
256,192,30980,5,8,0:0:0:0:
256,192,31133,5,0,0:0:0:0:
256,192,31285,5,0,0:0:0:0:
256,192,31438,5,12,0:0:0:0:
256,192,31743,5,0,0:0:0:0:
256,192,31896,5,8,0:0:0:0:
256,192,32049,5,0,0:0:0:0:
256,192,32201,5,0,0:0:0:0:
256,192,32354,5,12,0:0:0:0:
256,192,32659,5,0,0:0:0:0:
256,192,32812,5,8,0:0:0:0:
256,192,32965,5,8,0:0:0:0:
256,192,33117,5,0,0:0:0:0:
256,192,33270,5,12,0:0:0:0:
256,192,33575,5,0,0:0:0:0:
256,192,33728,5,8,0:0:0:0:
256,192,33881,5,0,0:0:0:0:
256,192,34033,5,0,0:0:0:0:
256,192,34186,5,8,0:0:0:0:
256,192,34339,5,8,0:0:0:0:
256,192,34491,5,0,0:0:0:0:
256,224,34644,5,8,0:0:0:0:
256,224,34701,5,8,0:0:0:0:
256,192,34797,5,8,0:0:0:0:
256,192,34950,5,8,0:0:0:0:
256,192,35102,5,4,0:0:0:0:
256,192,35408,5,0,0:0:0:0:
256,192,35560,5,8,0:0:0:0:
256,192,35713,5,8,0:0:0:0:
256,192,35866,5,0,0:0:0:0:
256,192,36018,5,8,0:0:0:0:
256,192,36324,5,0,0:0:0:0:
256,192,36476,5,8,0:0:0:0:
256,192,36629,5,8,0:0:0:0:
256,192,36782,5,8,0:0:0:0:
256,192,36934,5,4,0:0:0:0:
256,192,37240,5,0,0:0:0:0:
256,192,37392,5,8,0:0:0:0:
256,192,37545,5,0,0:0:0:0:
256,192,37698,5,0,0:0:0:0:
256,192,37850,5,8,0:0:0:0:
256,192,38156,5,0,0:0:0:0:
256,192,38308,5,8,0:0:0:0:
256,192,38461,5,8,0:0:0:0:
256,192,38614,5,0,0:0:0:0:
256,192,38766,5,12,0:0:0:0:
256,192,39072,5,0,0:0:0:0:
256,192,39224,5,8,0:0:0:0:
256,192,39377,5,0,0:0:0:0:
256,192,39530,5,0,0:0:0:0:
256,192,39682,5,12,0:0:0:0:
256,192,39988,5,0,0:0:0:0:
256,192,40140,5,8,0:0:0:0:
256,192,40198,5,8,0:0:0:0:
256,192,40293,5,8,0:0:0:0:
256,192,40446,5,8,0:0:0:0:
256,192,40598,5,4,0:0:0:0:
256,192,40920,5,4,0:0:0:0:
256,192,41237,5,4,0:0:0:0:
256,192,41554,5,12,0:0:0:0:
256,192,42467,5,4,0:0:0:0:
256,192,43841,5,0,0:0:0:0:
256,192,44299,5,12,0:0:0:0:
256,192,45673,5,8,0:0:0:0:
256,192,46120,5,4,0:0:0:0:
256,192,47494,5,0,0:0:0:0:
256,192,47952,5,12,0:0:0:0:
256,192,49297,5,8,0:0:0:0:
256,192,49354,5,8,0:0:0:0:
256,192,49774,5,4,0:0:0:0:
256,192,50232,5,0,0:0:0:0:
256,192,50690,5,8,0:0:0:0:
256,192,51148,5,8,0:0:0:0:
256,192,51606,5,0,0:0:0:0:
256,192,52064,5,0,0:0:0:0:
256,192,52522,5,8,0:0:0:0:
256,192,52980,5,8,0:0:0:0:
256,192,53438,5,4,0:0:0:0:
256,192,53896,5,0,0:0:0:0:
256,192,54354,5,8,0:0:0:0:
256,192,54812,5,0,0:0:0:0:
256,192,55041,5,8,0:0:0:0:
256,192,55270,5,0,0:0:0:0:
256,192,55499,5,0,0:0:0:0:
256,192,55575,5,0,0:0:0:0:
256,192,55651,5,0,0:0:0:0:
256,192,55728,5,8,0:0:0:0:
256,192,55957,5,8,0:0:0:0:
256,192,56186,5,8,0:0:0:0:
256,192,56415,5,0,0:0:0:0:
256,192,56644,5,8,0:0:0:0:
256,192,56873,5,0,0:0:0:0:
256,192,57102,5,4,0:0:0:0:
224,192,57560,5,0,0:0:0:0:
256,192,58018,5,8,0:0:0:0:
256,192,58476,5,0,0:0:0:0:
256,192,58705,5,8,0:0:0:0:
256,192,58934,5,0,0:0:0:0:
256,192,59392,5,0,0:0:0:0:
256,192,59621,5,0,0:0:0:0:
256,192,59850,5,8,0:0:0:0:
256,192,60308,5,8,0:0:0:0:
256,192,60766,5,4,0:0:0:0:
256,192,62140,5,12,0:0:0:0:
256,192,62598,5,4,0:0:0:0:
256,192,64392,5,12,0:0:0:0:
256,192,66252,5,12,0:0:0:0:
256,192,68087,5,4,0:0:0:0:
256,192,68392,5,0,0:0:0:0:
256,192,68545,5,8,0:0:0:0:
256,192,68697,5,0,0:0:0:0:
256,192,68850,5,0,0:0:0:0:
256,192,69003,5,8,0:0:0:0:
256,192,69155,5,8,0:0:0:0:
256,192,69308,5,0,0:0:0:0:
256,192,69461,5,8,0:0:0:0:
256,192,69613,5,0,0:0:0:0:
256,192,69766,5,0,0:0:0:0:
256,192,69919,5,12,0:0:0:0:
256,192,70224,5,0,0:0:0:0:
256,192,70377,5,8,0:0:0:0:
256,192,70529,5,0,0:0:0:0:
256,192,70682,5,0,0:0:0:0:
256,192,70835,5,12,0:0:0:0:
256,192,71140,5,0,0:0:0:0:
256,192,71293,5,8,0:0:0:0:
256,192,71445,5,8,0:0:0:0:
256,192,71598,5,8,0:0:0:0:
256,192,71751,5,4,0:0:0:0:
224,192,72056,5,0,0:0:0:0:
256,192,72209,5,8,0:0:0:0:
256,192,72361,5,8,0:0:0:0:
256,192,72514,5,0,0:0:0:0:
256,192,72667,5,8,0:0:0:0:
256,192,72819,5,0,0:0:0:0:
224,192,72972,5,0,0:0:0:0:
256,192,73125,5,8,0:0:0:0:
256,192,73277,5,0,0:0:0:0:
256,192,73430,5,0,0:0:0:0:
256,192,73583,5,12,0:0:0:0:
256,192,73888,5,0,0:0:0:0:
256,192,74041,5,8,0:0:0:0:
256,192,74193,5,8,0:0:0:0:
256,192,74346,5,0,0:0:0:0:
256,192,74499,5,12,0:0:0:0:
256,192,74804,5,0,0:0:0:0:
256,192,74957,5,8,0:0:0:0:
256,192,75109,5,8,0:0:0:0:
256,192,75262,5,8,0:0:0:0:
256,192,75415,5,4,0:0:0:0:
256,192,75720,5,0,0:0:0:0:
256,192,75873,5,8,0:0:0:0:
256,192,76025,5,0,0:0:0:0:
256,192,76178,5,0,0:0:0:0:
256,192,76331,5,8,0:0:0:0:
256,192,76483,5,8,0:0:0:0:
256,192,76636,5,0,0:0:0:0:
256,192,76789,5,8,0:0:0:0:
256,192,76941,5,0,0:0:0:0:
256,192,77094,5,0,0:0:0:0:
256,192,77247,5,12,0:0:0:0:
256,192,77552,5,0,0:0:0:0:
256,192,77705,5,8,0:0:0:0:
256,192,77857,5,0,0:0:0:0:
256,192,78010,5,0,0:0:0:0:
256,192,78163,5,12,0:0:0:0:
256,192,78468,5,0,0:0:0:0:
256,192,78621,5,8,0:0:0:0:
256,192,78774,5,8,0:0:0:0:
256,192,78926,5,8,0:0:0:0:
256,192,79079,5,4,0:0:0:0:
256,192,79384,5,0,0:0:0:0:
256,192,79537,5,8,0:0:0:0:
256,192,79690,5,8,0:0:0:0:
256,192,79842,5,0,0:0:0:0:
256,192,79995,5,8,0:0:0:0:
256,192,80148,5,0,0:0:0:0:
256,192,80300,5,0,0:0:0:0:
256,192,80453,5,8,0:0:0:0:
256,224,80510,5,8,0:0:0:0:
256,192,80606,5,0,0:0:0:0:
256,192,80758,5,0,0:0:0:0:
256,192,80911,5,12,0:0:0:0:
256,192,81064,12,0,84575,0:0:0:0:
256,192,84848,5,8,0:0:0:0:
256,192,84998,5,8,0:0:0:0:
256,192,85157,5,4,0:0:0:0:
256,192,85472,5,0,0:0:0:0:
256,192,85788,5,8,0:0:0:0:
256,192,86233,5,8,0:0:0:0:
256,192,86381,5,0,0:0:0:0:
256,192,86678,5,0,0:0:0:0:
256,192,86975,5,8,0:0:0:0:
224,192,87272,5,0,0:0:0:0:
256,192,87420,5,8,0:0:0:0:
256,192,87569,5,0,0:0:0:0:
256,192,87884,5,0,0:0:0:0:
256,192,88193,5,8,0:0:0:0:
256,192,88502,5,8,0:0:0:0:
256,192,88639,5,8,0:0:0:0:
256,192,88793,5,0,0:0:0:0:
256,192,88933,5,8,0:0:0:0:
256,192,89073,5,0,0:0:0:0:
256,192,89376,5,8,0:0:0:0:
256,192,89679,5,0,0:0:0:0:
256,192,89825,5,8,0:0:0:0:
256,192,89973,5,0,0:0:0:0:
256,192,90282,5,0,0:0:0:0:
256,192,90436,5,0,0:0:0:0:
256,192,90591,5,8,0:0:0:0:
256,192,90891,5,8,0:0:0:0:
256,192,91191,5,0,0:0:0:0:
256,192,91491,5,0,0:0:0:0:
256,192,91641,5,0,0:0:0:0:
256,192,91791,5,8,0:0:0:0:
256,192,91941,5,0,0:0:0:0:
256,192,92091,5,8,0:0:0:0:
256,192,92241,5,8,0:0:0:0:
256,192,92391,5,0,0:0:0:0:
256,192,92700,5,0,0:0:0:0:
256,192,93009,5,8,0:0:0:0:
256,192,93318,5,0,0:0:0:0:
256,192,93473,5,8,0:0:0:0:
256,192,93628,5,0,0:0:0:0:
256,192,93763,5,8,0:0:0:0:
256,192,93897,5,0,0:0:0:0:
256,192,94188,5,8,0:0:0:0:
256,192,94488,5,8,0:0:0:0:
256,192,94642,5,8,0:0:0:0:
256,192,94797,5,4,0:0:0:0:
256,192,95109,5,0,0:0:0:0:
256,192,95422,5,8,0:0:0:0:
256,192,95890,5,8,0:0:0:0:
256,192,96047,5,0,0:0:0:0:
256,192,96317,5,0,0:0:0:0:
256,192,96602,5,8,0:0:0:0:
256,192,96756,5,0,0:0:0:0:
256,192,96911,5,8,0:0:0:0:
256,192,97065,5,8,0:0:0:0:
256,192,97220,5,4,0:0:0:0:
256,192,97529,5,8,0:0:0:0:
256,224,97683,5,8,0:0:0:0:
256,192,97838,5,4,0:0:0:0:
256,192,98148,5,0,0:0:0:0:
256,192,98283,5,0,0:0:0:0:
256,192,98418,5,12,0:0:0:0:
256,192,98727,5,0,0:0:0:0:
256,192,98881,5,0,0:0:0:0:
256,192,99036,5,12,0:0:0:0:
256,192,99345,5,8,0:0:0:0:
256,192,99500,5,8,0:0:0:0:
256,192,99655,5,4,0:0:0:0:
256,192,101685,5,8,0:0:0:0:
256,192,101859,5,8,0:0:0:0:
256,192,102033,5,4,0:0:0:0:
256,192,104126,5,0,0:0:0:0:
256,192,104290,5,0,0:0:0:0:
256,192,104444,5,12,0:0:0:0:
256,192,106589,5,8,0:0:0:0:
256,192,106724,5,8,0:0:0:0:
256,192,106859,5,4,0:0:0:0:
256,192,108519,5,8,0:0:0:0:
256,192,108834,5,0,0:0:0:0:
256,192,109211,5,0,0:0:0:0:
256,192,109274,5,0,0:0:0:0:
256,192,109338,5,8,0:0:0:0:
256,192,111352,5,0,0:0:0:0:
256,192,111625,5,0,0:0:0:0:
256,192,118544,5,8,0:0:0:0:
256,192,118921,5,0,0:0:0:0:
256,192,119524,5,0,0:0:0:0:
256,192,120121,5,8,0:0:0:0:
256,192,120724,5,8,0:0:0:0:
256,192,121342,5,4,0:0:0:0:
256,192,123171,5,8,0:0:0:0:
256,192,123629,5,0,0:0:0:0:
256,192,123781,5,0,0:0:0:0:
256,192,123934,5,0,0:0:0:0:
256,192,124087,5,8,0:0:0:0:
256,192,124392,5,8,0:0:0:0:
224,192,124545,5,0,0:0:0:0:
256,192,124697,5,0,0:0:0:0:
256,192,124850,5,0,0:0:0:0:
256,192,125003,5,8,0:0:0:0:
256,192,125461,5,0,0:0:0:0:
256,192,125613,5,0,0:0:0:0:
256,192,125766,5,0,0:0:0:0:
256,192,125919,5,8,0:0:0:0:
256,192,126224,5,8,0:0:0:0:
256,192,126377,5,0,0:0:0:0:
256,192,126529,5,0,0:0:0:0:
256,192,126682,5,0,0:0:0:0:
256,192,126835,5,12,0:0:0:0:
256,192,127293,5,4,0:0:0:0:
256,192,127751,5,12,0:0:0:0:
256,192,128209,5,12,0:0:0:0:
256,192,128667,5,4,0:0:0:0:
256,192,129125,5,4,0:0:0:0:
256,192,129583,5,12,0:0:0:0:
256,192,130041,5,12,0:0:0:0:
256,192,130499,5,8,0:0:0:0:
256,192,130575,5,8,0:0:0:0:
256,192,130651,5,0,0:0:0:0:
256,192,130804,5,0,0:0:0:0:
256,192,130880,5,0,0:0:0:0:
256,192,130957,5,8,0:0:0:0:
256,192,131109,5,0,0:0:0:0:
256,192,131262,5,0,0:0:0:0:
256,192,131415,5,8,0:0:0:0:
256,192,131491,5,8,0:0:0:0:
256,192,131567,5,0,0:0:0:0:
256,192,131720,5,0,0:0:0:0:
256,192,131796,5,0,0:0:0:0:
256,192,131873,5,8,0:0:0:0:
256,192,132025,5,0,0:0:0:0:
256,192,132178,5,0,0:0:0:0:
256,192,132331,5,8,0:0:0:0:
256,192,132407,5,8,0:0:0:0:
256,192,132483,5,0,0:0:0:0:
256,192,132636,5,0,0:0:0:0:
256,192,132712,5,0,0:0:0:0:
256,192,132789,5,8,0:0:0:0:
256,192,132941,5,0,0:0:0:0:
256,192,133094,5,0,0:0:0:0:
256,192,133247,5,8,0:0:0:0:
256,192,133323,5,8,0:0:0:0:
256,192,133400,5,0,0:0:0:0:
256,192,133552,5,0,0:0:0:0:
256,192,133629,5,0,0:0:0:0:
256,192,133705,5,8,0:0:0:0:
256,192,133858,5,0,0:0:0:0:
256,192,134010,5,0,0:0:0:0:
256,192,134163,5,12,0:0:0:0:
256,192,134468,5,8,0:0:0:0:
256,192,134621,5,4,0:0:0:0:
256,192,134926,5,0,0:0:0:0:
256,192,135079,5,12,0:0:0:0:
256,192,135384,5,0,0:0:0:0:
256,192,135537,5,12,0:0:0:0:
256,192,135842,5,8,0:0:0:0:
256,192,135995,5,4,0:0:0:0:
256,192,136300,5,8,0:0:0:0:
256,192,136453,5,4,0:0:0:0:
256,192,136758,5,0,0:0:0:0:
256,192,136911,5,12,0:0:0:0:
256,192,137216,5,0,0:0:0:0:
256,192,137369,5,12,0:0:0:0:
256,192,137674,5,8,0:0:0:0:
256,192,137827,5,4,0:0:0:0:
256,192,138132,5,0,0:0:0:0:
256,192,138285,5,8,0:0:0:0:
256,192,138438,5,0,0:0:0:0:
256,192,138590,5,0,0:0:0:0:
256,192,138743,5,12,0:0:0:0:
256,192,139048,5,0,0:0:0:0:
256,192,139201,5,8,0:0:0:0:
256,192,139354,5,8,0:0:0:0:
256,192,139506,5,0,0:0:0:0:
256,192,139659,5,4,0:0:0:0:
256,192,139964,5,0,0:0:0:0:
256,192,140117,5,8,0:0:0:0:
256,192,140270,5,8,0:0:0:0:
256,192,140422,5,0,0:0:0:0:
256,192,140575,5,12,0:0:0:0:
256,192,140880,5,0,0:0:0:0:
256,192,141033,5,8,0:0:0:0:
256,192,141186,5,8,0:0:0:0:
256,192,141338,5,8,0:0:0:0:
256,192,141491,5,4,0:0:0:0:
256,192,141796,5,8,0:0:0:0:
256,192,141949,5,4,0:0:0:0:
256,192,142254,5,0,0:0:0:0:
256,192,142407,5,12,0:0:0:0:
256,192,142712,5,0,0:0:0:0:
256,192,142865,5,12,0:0:0:0:
256,192,143171,5,8,0:0:0:0:
256,192,143323,5,4,0:0:0:0:
256,192,143629,5,8,0:0:0:0:
256,192,143781,5,4,0:0:0:0:
256,192,144087,5,0,0:0:0:0:
256,192,144239,5,12,0:0:0:0:
256,192,144545,5,0,0:0:0:0:
256,192,144697,5,8,0:0:0:0:
256,192,144754,5,8,0:0:0:0:
256,192,144850,5,8,0:0:0:0:
256,192,145003,5,8,0:0:0:0:
256,192,145155,5,4,0:0:0:0:
256,192,145461,5,0,0:0:0:0:
256,192,145613,5,8,0:0:0:0:
256,192,145690,5,0,0:0:0:0:
256,192,145766,5,8,0:0:0:0:
256,192,145842,5,8,0:0:0:0:
256,192,145919,5,0,0:0:0:0:
256,192,146071,5,12,0:0:0:0:
256,192,146224,5,0,0:0:0:0:
256,192,146377,5,0,0:0:0:0:
256,192,146453,5,0,0:0:0:0:
256,192,146529,5,8,0:0:0:0:
256,192,146682,5,0,0:0:0:0:
256,192,146835,5,8,0:0:0:0:
256,192,146987,5,4,0:0:0:0:
256,192,147140,5,8,0:0:0:0:
256,192,147216,5,8,0:0:0:0:
256,192,147293,5,0,0:0:0:0:
256,192,147369,5,0,0:0:0:0:
256,192,147445,5,8,0:0:0:0:
256,192,147598,5,8,0:0:0:0:
256,192,147751,5,0,0:0:0:0:
256,192,147903,5,12,0:0:0:0:
256,192,148209,5,0,0:0:0:0:
256,192,148361,5,8,0:0:0:0:
256,192,148419,5,8,0:0:0:0:
256,192,148514,5,8,0:0:0:0:
256,192,148667,5,8,0:0:0:0:
256,192,148819,5,4,0:0:0:0:
256,192,149277,5,8,0:0:0:0:
256,192,149735,5,0,0:0:0:0:
256,192,150193,5,8,0:0:0:0:
256,192,150499,5,0,0:0:0:0:
256,192,150651,5,0,0:0:0:0:
256,192,151109,5,8,0:0:0:0:
256,192,151567,5,0,0:0:0:0:
256,192,151720,5,0,0:0:0:0:
256,192,151873,5,0,0:0:0:0:
256,192,152025,5,8,0:0:0:0:
256,192,152178,5,0,0:0:0:0:
256,192,152331,5,0,0:0:0:0:
256,192,152483,5,12,0:0:0:0:
256,192,152941,5,8,0:0:0:0:
256,192,153400,5,0,0:0:0:0:
256,192,153858,5,8,0:0:0:0:
256,192,154163,5,0,0:0:0:0:
256,192,154316,5,0,0:0:0:0:
256,192,154774,5,8,0:0:0:0:
256,192,155232,5,0,0:0:0:0:
256,192,155384,5,0,0:0:0:0:
256,192,155537,5,0,0:0:0:0:
256,192,155690,5,8,0:0:0:0:
256,192,155842,5,8,0:0:0:0:
256,192,155995,5,0,0:0:0:0:
256,192,156148,5,4,0:0:0:0:
256,192,156606,5,8,0:0:0:0:
256,192,157064,5,0,0:0:0:0:
256,192,157522,5,8,0:0:0:0:
256,192,157827,5,0,0:0:0:0:
256,192,157980,5,0,0:0:0:0:
256,192,158438,5,8,0:0:0:0:
256,192,158896,5,0,0:0:0:0:
256,192,159048,5,0,0:0:0:0:
256,192,159201,5,0,0:0:0:0:
256,192,159354,5,8,0:0:0:0:
256,192,159506,5,8,0:0:0:0:
256,192,159659,5,8,0:0:0:0:
256,192,159812,5,4,0:0:0:0:
256,192,160117,5,0,0:0:0:0:
256,192,160270,5,8,0:0:0:0:
256,192,160422,5,8,0:0:0:0:
256,192,160575,5,0,0:0:0:0:
256,192,160728,5,12,0:0:0:0:
256,192,161033,5,0,0:0:0:0:
256,192,161186,5,8,0:0:0:0:
256,192,161338,5,8,0:0:0:0:
256,192,161491,5,0,0:0:0:0:
256,192,161644,5,4,0:0:0:0:
256,192,161949,5,0,0:0:0:0:
256,192,162102,5,8,0:0:0:0:
256,192,162254,5,0,0:0:0:0:
256,192,162407,5,0,0:0:0:0:
256,192,162560,5,12,0:0:0:0:
256,192,162865,5,0,0:0:0:0:
256,192,163018,5,8,0:0:0:0:
256,192,163171,5,8,0:0:0:0:
256,192,163323,5,8,0:0:0:0:
256,192,163476,5,4,0:0:0:0:
256,192,163781,5,0,0:0:0:0:
256,192,163934,5,8,0:0:0:0:
256,192,164392,5,0,0:0:0:0:
256,192,164697,5,0,0:0:0:0:
256,192,164850,5,8,0:0:0:0:
256,192,165155,5,0,0:0:0:0:
256,192,165308,5,0,0:0:0:0:
224,192,165613,5,0,0:0:0:0:
256,192,165766,5,8,0:0:0:0:
256,192,166071,5,8,0:0:0:0:
256,192,166224,5,0,0:0:0:0:
256,192,166529,5,0,0:0:0:0:
256,192,166682,5,8,0:0:0:0:
256,192,166835,5,0,0:0:0:0:
256,192,166987,5,0,0:0:0:0:
256,192,167140,5,12,0:0:0:0:
256,192,167445,5,0,0:0:0:0:
256,192,167598,5,8,0:0:0:0:
256,192,167903,5,8,0:0:0:0:
256,192,168056,5,0,0:0:0:0:
256,192,168361,5,0,0:0:0:0:
256,192,168514,5,8,0:0:0:0:
256,192,168819,5,0,0:0:0:0:
256,192,168972,5,0,0:0:0:0:
256,192,169277,5,0,0:0:0:0:
256,192,169430,5,8,0:0:0:0:
256,192,169735,5,8,0:0:0:0:
256,192,169888,5,0,0:0:0:0:
256,192,170193,5,0,0:0:0:0:
256,192,170346,5,8,0:0:0:0:
256,192,170499,5,8,0:0:0:0:
256,192,170651,5,0,0:0:0:0:
256,192,170804,5,4,0:0:0:0:
256,192,171109,5,0,0:0:0:0:
256,192,171262,5,8,0:0:0:0:
256,192,171567,5,8,0:0:0:0:
256,192,171720,5,0,0:0:0:0:
256,192,172025,5,0,0:0:0:0:
256,192,172178,5,8,0:0:0:0:
256,192,172483,5,0,0:0:0:0:
256,192,172636,5,0,0:0:0:0:
256,192,172941,5,0,0:0:0:0:
256,192,173094,5,8,0:0:0:0:
256,192,173400,5,8,0:0:0:0:
256,192,173552,5,0,0:0:0:0:
256,192,173858,5,0,0:0:0:0:
256,192,174010,5,8,0:0:0:0:
256,192,174163,5,8,0:0:0:0:
256,192,174316,5,8,0:0:0:0:
256,192,174468,5,4,0:0:0:0:
256,192,174774,5,0,0:0:0:0:
256,192,174926,5,8,0:0:0:0:
256,192,175079,5,0,0:0:0:0:
256,192,175232,5,0,0:0:0:0:
256,192,175384,5,12,0:0:0:0:
256,192,175690,5,0,0:0:0:0:
256,192,175842,5,8,0:0:0:0:
256,192,175995,5,8,0:0:0:0:
256,192,176148,5,0,0:0:0:0:
256,192,176300,5,4,0:0:0:0:
256,192,176606,5,0,0:0:0:0:
256,192,176758,5,8,0:0:0:0:
256,192,176911,5,8,0:0:0:0:
256,192,177064,5,0,0:0:0:0:
256,192,177216,5,12,0:0:0:0:
256,192,177522,5,0,0:0:0:0:
256,192,177674,5,8,0:0:0:0:
256,192,177732,5,8,0:0:0:0:
256,192,177827,5,8,0:0:0:0:
256,192,177980,5,0,0:0:0:0:
256,192,178132,5,12,0:0:0:0:
256,192,178285,12,0,179964,0:0:0:0:
256,192,183449,5,0,0:0:0:0:
256,192,183773,5,0,0:0:0:0:
256,192,184097,5,8,0:0:0:0:
256,192,184439,5,0,0:0:0:0:
256,192,184781,5,8,0:0:0:0:
256,192,185124,5,8,0:0:0:0:
256,192,185467,5,0,0:0:0:0:
256,192,185807,5,0,0:0:0:0:
256,192,185920,5,0,0:0:0:0:
256,192,186033,5,0,0:0:0:0:
256,192,186148,5,8,0:0:0:0:
256,192,186481,5,0,0:0:0:0:
256,192,186814,5,8,0:0:0:0:
256,192,187154,5,0,0:0:0:0:
256,192,187496,5,8,0:0:0:0:
256,192,187815,5,8,0:0:0:0:
256,192,188135,5,0,0:0:0:0:
256,192,188450,5,8,0:0:0:0:
256,192,188607,5,8,0:0:0:0:
256,192,188767,5,0,0:0:0:0:
256,192,189101,5,8,0:0:0:0:
256,192,189435,5,0,0:0:0:0:
256,192,189770,5,0,0:0:0:0:
256,192,190104,5,8,0:0:0:0:
256,192,190439,5,8,0:0:0:0:
256,192,190773,5,0,0:0:0:0:
256,192,191108,5,8,0:0:0:0:
256,192,191442,5,0,0:0:0:0:
256,192,191777,5,0,0:0:0:0:
256,192,192111,5,8,0:0:0:0:
256,192,192445,5,0,0:0:0:0:
256,192,192780,5,8,0:0:0:0:
256,192,194118,5,0,0:0:0:0:
256,192,194435,5,0,0:0:0:0:
256,192,194764,5,8,0:0:0:0:
256,192,195125,5,0,0:0:0:0:
256,192,195429,5,8,0:0:0:0:
256,192,195786,5,8,0:0:0:0:
256,192,196143,5,0,0:0:0:0:
256,192,196500,5,0,0:0:0:0:
256,192,196619,5,0,0:0:0:0:
256,192,196738,5,0,0:0:0:0:
256,192,196857,5,8,0:0:0:0:
256,192,197163,5,0,0:0:0:0:
256,192,197469,5,8,0:0:0:0:
256,192,197806,5,0,0:0:0:0:
256,192,198143,5,8,0:0:0:0:
256,192,198480,5,8,0:0:0:0:
256,192,198817,5,0,0:0:0:0:
256,192,199154,5,8,0:0:0:0:
256,192,199322,5,8,0:0:0:0:
256,192,199491,5,0,0:0:0:0:
256,192,199810,5,8,0:0:0:0:
256,192,200129,5,0,0:0:0:0:
256,192,200473,5,0,0:0:0:0:
256,192,200818,5,8,0:0:0:0:
256,192,201144,5,8,0:0:0:0:
256,192,201470,5,0,0:0:0:0:
256,192,201807,5,8,0:0:0:0:
256,192,202168,5,0,0:0:0:0:
256,192,202492,5,0,0:0:0:0:
256,192,202818,5,8,0:0:0:0:
256,192,203154,5,0,0:0:0:0:
256,192,203491,5,8,0:0:0:0:
256,192,204840,5,0,0:0:0:0:
256,192,205177,5,0,0:0:0:0:
256,192,205514,5,8,0:0:0:0:
256,192,205851,5,0,0:0:0:0:
256,192,206188,5,8,0:0:0:0:
256,192,206525,5,8,0:0:0:0:
256,192,206862,5,0,0:0:0:0:
256,192,207199,5,0,0:0:0:0:
256,192,207311,5,0,0:0:0:0:
256,192,207424,5,0,0:0:0:0:
256,192,207536,5,8,0:0:0:0:
256,192,207855,5,0,0:0:0:0:
256,192,208174,5,8,0:0:0:0:
256,192,208493,5,0,0:0:0:0:
256,192,208812,5,8,0:0:0:0:
256,192,209131,5,8,0:0:0:0:
256,192,209450,5,0,0:0:0:0:
256,192,209770,5,8,0:0:0:0:
256,192,210089,5,0,0:0:0:0:
256,192,210422,5,0,0:0:0:0:
256,192,210755,5,8,0:0:0:0:
256,192,211089,5,0,0:0:0:0:
256,192,211422,5,8,0:0:0:0:
256,192,211755,5,8,0:0:0:0:
256,192,212089,5,0,0:0:0:0:
256,192,212422,5,8,0:0:0:0:
256,192,212789,5,0,0:0:0:0:
256,192,213137,5,0,0:0:0:0:
256,192,213486,5,8,0:0:0:0:
256,192,213835,5,0,0:0:0:0:
256,192,214157,5,8,0:0:0:0:
256,192,215462,5,0,0:0:0:0:
256,192,215849,5,0,0:0:0:0:
256,192,216236,5,0,0:0:0:0:
256,192,216429,5,0,0:0:0:0:
256,192,216623,5,8,0:0:0:0:
256,192,216816,5,0,0:0:0:0:
256,192,217010,5,8,0:0:0:0:
256,192,217203,5,8,0:0:0:0:
256,192,217397,5,0,0:0:0:0:
256,192,217591,5,8,0:0:0:0:
256,192,217978,5,0,0:0:0:0:
256,192,218171,5,8,0:0:0:0:
256,192,218365,5,8,0:0:0:0:
256,192,218558,5,0,0:0:0:0:
256,192,218945,5,0,0:0:0:0:
256,192,219332,5,8,0:0:0:0:
256,192,219720,5,8,0:0:0:0:
256,192,219913,5,0,0:0:0:0:
256,192,220107,5,8,0:0:0:0:
256,192,220300,5,8,0:0:0:0:
256,192,220494,5,0,0:0:0:0:
256,192,220687,5,8,0:0:0:0:
256,192,221074,5,0,0:0:0:0:
256,192,221268,5,8,0:0:0:0:
256,192,221462,5,0,0:0:0:0:
256,192,221655,5,0,0:0:0:0:
256,192,222042,5,8,0:0:0:0:
256,192,222429,5,0,0:0:0:0:
256,192,222623,5,0,0:0:0:0:
256,192,222816,5,8,0:0:0:0:
256,192,223010,5,0,0:0:0:0:
256,192,223203,5,8,0:0:0:0:
256,192,223397,5,0,0:0:0:0:
256,192,223591,5,0,0:0:0:0:
256,192,223784,5,8,0:0:0:0:
256,192,224171,5,0,0:0:0:0:
256,192,224365,5,8,0:0:0:0:
256,192,224558,5,8,0:0:0:0:
256,192,224752,5,0,0:0:0:0:
256,192,225139,5,0,0:0:0:0:
256,192,225526,5,8,0:0:0:0:
256,192,225913,5,8,0:0:0:0:
256,192,226107,5,0,0:0:0:0:
256,192,226300,5,0,0:0:0:0:
256,192,226494,5,8,0:0:0:0:
256,192,226687,5,0,0:0:0:0:
256,192,226881,5,8,0:0:0:0:
256,192,227268,5,0,0:0:0:0:
256,192,227462,5,8,0:0:0:0:
256,192,227510,5,8,0:0:0:0:
256,192,227655,5,0,0:0:0:0:
256,192,227849,5,4,0:0:0:0:
256,192,228236,5,8,0:0:0:0:
256,192,228623,5,0,0:0:0:0:
256,192,228816,5,0,0:0:0:0:
256,192,229010,5,8,0:0:0:0:
256,192,229203,5,8,0:0:0:0:
256,192,229300,5,8,0:0:0:0:
256,192,229397,5,0,0:0:0:0:
256,192,229591,5,0,0:0:0:0:
256,192,229784,5,8,0:0:0:0:
256,192,229978,5,0,0:0:0:0:
256,192,230365,5,0,0:0:0:0:
256,192,230558,5,8,0:0:0:0:
256,192,230752,5,8,0:0:0:0:
256,192,230945,5,0,0:0:0:0:
256,192,231332,5,8,0:0:0:0:
256,192,231720,5,0,0:0:0:0:
256,192,231913,5,0,0:0:0:0:
256,192,232107,5,8,0:0:0:0:
256,192,232300,5,0,0:0:0:0:
256,192,232397,5,0,0:0:0:0:
256,192,232494,5,0,0:0:0:0:
256,192,232687,5,0,0:0:0:0:
256,192,232881,5,8,0:0:0:0:
256,192,233074,5,0,0:0:0:0:
256,192,233461,5,0,0:0:0:0:
256,192,233655,5,8,0:0:0:0:
256,192,233849,5,0,0:0:0:0:
256,192,234042,5,4,0:0:0:0:
256,192,234429,5,8,0:0:0:0:
256,192,234816,5,0,0:0:0:0:
256,192,235010,5,0,0:0:0:0:
256,192,235203,5,8,0:0:0:0:
256,192,235397,5,8,0:0:0:0:
256,192,235494,5,8,0:0:0:0:
256,192,235591,5,0,0:0:0:0:
256,192,235784,5,0,0:0:0:0:
256,192,235978,5,8,0:0:0:0:
256,192,236171,5,0,0:0:0:0:
256,192,236558,5,0,0:0:0:0:
256,192,236752,5,8,0:0:0:0:
256,192,236945,5,8,0:0:0:0:
256,192,237139,5,4,0:0:0:0:
256,192,237526,5,8,0:0:0:0:
256,192,237913,5,0,0:0:0:0:
256,192,238107,5,0,0:0:0:0:
256,192,238300,5,8,0:0:0:0:
256,192,238494,5,0,0:0:0:0:
256,192,238591,5,8,0:0:0:0:
256,192,238687,5,0,0:0:0:0:
256,192,238881,5,0,0:0:0:0:
256,192,239074,5,8,0:0:0:0:
256,192,239268,5,0,0:0:0:0:
256,192,239655,5,0,0:0:0:0:
256,192,239849,5,8,0:0:0:0:
256,192,240042,5,8,0:0:0:0:
256,192,240139,5,8,0:0:0:0:
256,192,240236,5,4,0:0:0:0:
256,192,240429,5,0,0:0:0:0:
256,192,240623,5,0,0:0:0:0:
288,192,240720,5,0,0:0:0:0:
256,192,240816,5,8,0:0:0:0:
256,192,241010,5,0,0:0:0:0:
256,192,241203,5,0,0:0:0:0:
256,192,241397,5,8,0:0:0:0:
256,192,241494,5,0,0:0:0:0:
256,192,241591,5,8,0:0:0:0:
256,192,241687,5,8,0:0:0:0:
256,192,241784,5,4,0:0:0:0:
256,192,241978,5,0,0:0:0:0:
256,192,242171,5,0,0:0:0:0:
256,192,242268,5,0,0:0:0:0:
256,192,242365,5,8,0:0:0:0:
256,192,242558,5,0,0:0:0:0:
256,192,242752,5,0,0:0:0:0:
256,192,242849,5,0,0:0:0:0:
256,192,242945,5,8,0:0:0:0:
256,192,243042,5,0,0:0:0:0:
256,192,243139,5,8,0:0:0:0:
256,192,243236,5,8,0:0:0:0:
256,192,243332,5,4,0:0:0:0:
256,192,243526,5,0,0:0:0:0:
256,192,243720,5,0,0:0:0:0:
288,192,243816,5,0,0:0:0:0:
256,192,243913,5,8,0:0:0:0:
256,192,244107,5,0,0:0:0:0:
256,192,244300,5,0,0:0:0:0:
256,192,244494,5,8,0:0:0:0:
256,192,244591,5,0,0:0:0:0:
256,192,244687,5,8,0:0:0:0:
256,192,244784,5,8,0:0:0:0:
256,192,244881,5,4,0:0:0:0:
256,192,245074,5,0,0:0:0:0:
256,192,245268,5,0,0:0:0:0:
256,192,245365,5,0,0:0:0:0:
256,192,245461,5,8,0:0:0:0:
256,192,245655,5,0,0:0:0:0:
256,192,245849,5,8,0:0:0:0:
256,192,245945,5,0,0:0:0:0:
256,192,246042,5,8,0:0:0:0:
256,192,246139,5,8,0:0:0:0:
256,192,246236,5,8,0:0:0:0:
256,192,246332,5,8,0:0:0:0:
256,192,246429,5,4,0:0:0:0:
256,192,246623,5,0,0:0:0:0:
256,192,246816,5,0,0:0:0:0:
288,192,246913,5,0,0:0:0:0:
256,192,247010,5,8,0:0:0:0:
256,192,247203,5,0,0:0:0:0:
256,192,247397,5,0,0:0:0:0:
256,192,247591,5,8,0:0:0:0:
256,192,247687,5,0,0:0:0:0:
256,192,247784,5,8,0:0:0:0:
256,192,247881,5,8,0:0:0:0:
256,192,247978,5,4,0:0:0:0:
256,192,248171,5,0,0:0:0:0:
256,192,248365,5,0,0:0:0:0:
256,192,248461,5,0,0:0:0:0:
256,192,248558,5,8,0:0:0:0:
256,192,248752,5,0,0:0:0:0:
256,192,248945,5,0,0:0:0:0:
256,192,249042,5,8,0:0:0:0:
256,192,249139,5,8,0:0:0:0:
256,192,249236,5,0,0:0:0:0:
256,192,249332,5,8,0:0:0:0:
256,192,249429,5,8,0:0:0:0:
256,192,249526,5,4,0:0:0:0:
256,192,249720,5,0,0:0:0:0:
256,192,249913,5,0,0:0:0:0:
288,192,250010,5,0,0:0:0:0:
256,192,250107,5,8,0:0:0:0:
256,192,250300,5,0,0:0:0:0:
256,192,250494,5,0,0:0:0:0:
256,192,250687,5,8,0:0:0:0:
256,192,250784,5,0,0:0:0:0:
256,192,250881,5,8,0:0:0:0:
256,192,250978,5,8,0:0:0:0:
256,192,251074,5,4,0:0:0:0:
256,192,251268,5,0,0:0:0:0:
256,192,251365,5,0,0:0:0:0:
256,192,251461,5,0,0:0:0:0:
256,192,251558,5,0,0:0:0:0:
256,192,251655,5,8,0:0:0:0:
256,192,251752,5,8,0:0:0:0:
256,192,251849,5,0,0:0:0:0:
256,192,251945,5,8,0:0:0:0:
256,192,252042,5,0,0:0:0:0:
256,192,252139,5,0,0:0:0:0:
256,192,252236,5,8,0:0:0:0:
256,192,252332,5,8,0:0:0:0:
256,192,252429,5,8,0:0:0:0:
256,192,252526,5,8,0:0:0:0:
256,192,252623,5,4,0:0:0:0:
256,192,252816,5,0,0:0:0:0:
256,192,253010,5,0,0:0:0:0:
288,192,253107,5,0,0:0:0:0:
256,192,253203,5,8,0:0:0:0:
256,192,253397,5,0,0:0:0:0:
256,192,253591,5,0,0:0:0:0:
256,192,253784,5,8,0:0:0:0:
256,192,253881,5,0,0:0:0:0:
256,192,253978,5,8,0:0:0:0:
256,192,254074,5,8,0:0:0:0:
256,192,254171,5,4,0:0:0:0:
256,192,254365,5,0,0:0:0:0:
256,192,254558,5,0,0:0:0:0:
256,192,254655,5,0,0:0:0:0:
256,192,254752,5,8,0:0:0:0:
256,192,254945,5,0,0:0:0:0:
256,192,255139,5,0,0:0:0:0:
256,192,255236,5,0,0:0:0:0:
256,192,255332,5,8,0:0:0:0:
256,192,255429,5,0,0:0:0:0:
256,192,255526,5,8,0:0:0:0:
256,192,255623,5,8,0:0:0:0:
256,192,255720,5,4,0:0:0:0:
256,192,255913,5,0,0:0:0:0:
256,192,256107,5,0,0:0:0:0:
288,192,256203,5,0,0:0:0:0:
256,192,256300,5,8,0:0:0:0:
256,192,256494,5,0,0:0:0:0:
256,192,256687,5,0,0:0:0:0:
256,192,256881,5,8,0:0:0:0:
256,192,256978,5,8,0:0:0:0:
256,192,257074,5,0,0:0:0:0:
256,192,257171,5,0,0:0:0:0:
256,192,257268,5,8,0:0:0:0:
256,192,257365,5,0,0:0:0:0:
256,192,257461,5,0,0:0:0:0:
256,192,257558,5,0,0:0:0:0:
256,192,257655,5,8,0:0:0:0:
256,192,257752,5,0,0:0:0:0:
256,192,257849,5,8,0:0:0:0:
256,192,257945,5,8,0:0:0:0:
256,192,258042,5,0,0:0:0:0:
256,192,258139,5,0,0:0:0:0:
256,192,258236,5,8,0:0:0:0:
256,192,258332,5,0,0:0:0:0:
256,192,258429,5,8,0:0:0:0:
256,192,258526,5,0,0:0:0:0:
256,192,258623,5,8,0:0:0:0:
256,192,258720,5,8,0:0:0:0:
256,192,258816,5,4,0:0:0:0:
256,192,259010,5,8,0:0:0:0:
256,192,259203,5,4,0:0:0:0:
256,192,259397,5,8,0:0:0:0:
256,192,259494,5,8,0:0:0:0:
256,192,259591,5,4,0:0:0:0:
256,192,259784,5,8,0:0:0:0:
256,192,259978,5,4,0:0:0:0:
256,192,260171,5,8,0:0:0:0:
256,192,260268,5,8,0:0:0:0:
256,192,260365,5,4,0:0:0:0:
256,192,260558,5,8,0:0:0:0:
256,192,260752,5,4,0:0:0:0:
256,192,260945,5,8,0:0:0:0:
256,192,261042,5,8,0:0:0:0:
256,192,261139,5,4,0:0:0:0:
256,192,261332,5,8,0:0:0:0:
256,192,261526,5,4,0:0:0:0:
256,192,261720,5,8,0:0:0:0:
256,192,261816,5,8,0:0:0:0:
256,192,261913,5,4,0:0:0:0:
256,192,262107,5,8,0:0:0:0:
256,192,262300,5,4,0:0:0:0:
256,192,262494,5,8,0:0:0:0:
256,192,262591,5,8,0:0:0:0:
256,192,262687,5,4,0:0:0:0:
256,192,262881,5,8,0:0:0:0:
256,192,263074,5,4,0:0:0:0:
256,192,263268,5,8,0:0:0:0:
256,192,263365,5,8,0:0:0:0:
256,192,263461,5,4,0:0:0:0:
256,192,263655,5,8,0:0:0:0:
256,192,263849,5,4,0:0:0:0:
256,192,264042,5,8,0:0:0:0:
256,192,264139,5,8,0:0:0:0:
256,192,264236,5,4,0:0:0:0:
256,192,264429,5,8,0:0:0:0:
256,192,264623,5,4,0:0:0:0:
256,192,264816,5,8,0:0:0:0:
256,192,264913,5,8,0:0:0:0:
256,192,265010,5,4,0:0:0:0:
256,192,265203,5,0,0:0:0:0:
224,192,265300,5,0,0:0:0:0:
256,192,265397,5,8,0:0:0:0:
256,192,265494,5,8,0:0:0:0:
224,192,265591,5,0,0:0:0:0:
256,192,265687,5,8,0:0:0:0:
224,192,265784,5,0,0:0:0:0:
256,192,265881,5,0,0:0:0:0:
256,192,265978,5,8,0:0:0:0:
256,192,266074,5,0,0:0:0:0:
256,192,266171,5,8,0:0:0:0:
256,192,266268,5,8,0:0:0:0:
256,192,266365,5,0,0:0:0:0:
256,192,266461,5,8,0:0:0:0:
256,192,266558,5,0,0:0:0:0:
256,192,266655,5,0,0:0:0:0:
256,192,266752,5,8,0:0:0:0:
256,192,266849,5,0,0:0:0:0:
256,192,266945,5,8,0:0:0:0:
256,192,267042,5,8,0:0:0:0:
256,192,267139,5,0,0:0:0:0:
256,192,267236,5,8,0:0:0:0:
256,192,267332,5,0,0:0:0:0:
256,192,267429,5,0,0:0:0:0:
256,192,267526,5,8,0:0:0:0:
256,192,267623,5,0,0:0:0:0:
256,192,267720,5,8,0:0:0:0:
256,192,267816,5,0,0:0:0:0:
256,192,267913,5,8,0:0:0:0:
256,192,268010,5,8,0:0:0:0:
256,192,268107,5,0,0:0:0:0:
256,192,268203,5,0,0:0:0:0:
256,192,268300,5,8,0:0:0:0:
256,192,268397,5,0,0:0:0:0:
256,192,268494,5,8,0:0:0:0:
256,192,268591,5,8,0:0:0:0:
256,192,268687,5,0,0:0:0:0:
256,192,268784,5,8,0:0:0:0:
256,192,268881,5,0,0:0:0:0:
256,192,268978,5,0,0:0:0:0:
256,192,269074,5,8,0:0:0:0:
256,192,269171,5,0,0:0:0:0:
256,192,269268,5,8,0:0:0:0:
256,192,269365,5,8,0:0:0:0:
256,192,269461,5,0,0:0:0:0:
256,192,269558,5,8,0:0:0:0:
256,192,269655,5,0,0:0:0:0:
256,192,269752,5,0,0:0:0:0:
256,192,269849,5,8,0:0:0:0:
256,192,269945,5,0,0:0:0:0:
256,192,270042,5,8,0:0:0:0:
256,192,270139,5,8,0:0:0:0:
256,192,270236,5,0,0:0:0:0:
256,192,270332,5,8,0:0:0:0:
256,192,270429,5,0,0:0:0:0:
256,192,270526,5,0,0:0:0:0:
256,192,270623,5,8,0:0:0:0:
256,192,270720,5,0,0:0:0:0:
256,192,270816,5,8,0:0:0:0:
256,192,270913,5,8,0:0:0:0:
256,192,271010,5,0,0:0:0:0:
256,192,271107,5,0,0:0:0:0:
256,192,271203,5,12,0:0:0:0:
256,192,271591,5,8,0:0:0:0:
256,192,271720,5,0,0:0:0:0:
256,192,271849,5,0,0:0:0:0:
256,192,271978,5,8,0:0:0:0:
256,192,272365,5,8,0:0:0:0:
256,192,272494,5,0,0:0:0:0:
256,192,272623,5,0,0:0:0:0:
256,192,272752,5,8,0:0:0:0:
256,192,273139,5,8,0:0:0:0:
256,192,273268,5,8,0:0:0:0:
256,192,273397,5,0,0:0:0:0:
256,192,273526,5,8,0:0:0:0:
256,192,273655,5,0,0:0:0:0:
256,192,273784,5,0,0:0:0:0:
256,192,273913,5,0,0:0:0:0:
256,192,274042,5,0,0:0:0:0:
256,192,274171,5,0,0:0:0:0:
256,192,274272,5,12,0:0:0:0:
256,192,277438,5,8,0:0:0:0:
256,192,277506,5,8,0:0:0:0:
256,192,277990,5,4,0:0:0:0:
256,192,278255,5,0,0:0:0:0:
256,192,278520,5,8,0:0:0:0:
256,192,278786,5,0,0:0:0:0:
256,192,278919,5,0,0:0:0:0:
256,192,279184,5,8,0:0:0:0:
256,192,279317,5,0,0:0:0:0:
256,192,279582,5,8,0:0:0:0:
256,192,279848,5,0,0:0:0:0:
256,192,279981,5,0,0:0:0:0:
256,192,280113,5,0,0:0:0:0:
256,192,280246,5,8,0:0:0:0:
256,192,280379,5,0,0:0:0:0:
256,192,280644,5,8,0:0:0:0:
256,192,280910,5,0,0:0:0:0:
256,192,281043,5,0,0:0:0:0:
256,192,281308,5,8,0:0:0:0:
256,192,281441,5,0,0:0:0:0:
256,192,281706,5,8,0:0:0:0:
256,192,281972,5,8,0:0:0:0:
256,192,282105,5,8,0:0:0:0:
256,192,282237,5,0,0:0:0:0:
256,192,282370,5,0,0:0:0:0:
256,192,282503,5,0,0:0:0:0:
256,192,282768,5,8,0:0:0:0:
256,192,283034,5,0,0:0:0:0:
256,192,283166,5,8,0:0:0:0:
256,192,283432,5,8,0:0:0:0:
256,192,283565,5,0,0:0:0:0:
256,192,283830,5,8,0:0:0:0:
256,192,284096,5,0,0:0:0:0:
256,192,284228,5,8,0:0:0:0:
256,192,284361,5,0,0:0:0:0:
256,192,284494,5,8,0:0:0:0:
256,192,284627,5,0,0:0:0:0:
256,192,284892,5,8,0:0:0:0:
256,192,285158,5,0,0:0:0:0:
256,192,285290,5,8,0:0:0:0:
256,192,285556,5,8,0:0:0:0:
288,192,285689,5,0,0:0:0:0:
256,192,285954,5,8,0:0:0:0:
256,192,286220,5,8,0:0:0:0:
256,192,286352,5,8,0:0:0:0:
256,192,286485,5,0,0:0:0:0:
256,192,286618,5,0,0:0:0:0:
256,192,286751,5,0,0:0:0:0:
256,192,287016,5,8,0:0:0:0:
256,192,287282,5,8,0:0:0:0:
256,192,287414,5,0,0:0:0:0:
256,192,287680,5,8,0:0:0:0:
256,192,287813,5,0,0:0:0:0:
256,192,288078,5,8,0:0:0:0:
256,192,288343,5,8,0:0:0:0:
256,192,288476,5,0,0:0:0:0:
256,192,288609,5,0,0:0:0:0:
256,192,288742,5,8,0:0:0:0:
256,192,288874,5,0,0:0:0:0:
256,192,289140,5,8,0:0:0:0:
256,192,289405,5,8,0:0:0:0:
256,192,289538,5,0,0:0:0:0:
256,192,289804,5,8,0:0:0:0:
256,192,289936,5,0,0:0:0:0:
256,192,290202,5,8,0:0:0:0:
256,192,290467,5,0,0:0:0:0:
256,192,290733,5,12,0:0:0:0:
256,192,290998,5,0,0:0:0:0:
256,192,291264,5,8,0:0:0:0:
256,192,291529,5,0,0:0:0:0:
256,192,291795,5,12,0:0:0:0:
256,192,292060,5,0,0:0:0:0:
256,192,292326,5,8,0:0:0:0:
256,192,292591,5,0,0:0:0:0:
256,192,292857,5,12,0:0:0:0:
256,192,293122,5,0,0:0:0:0:
256,192,293388,5,8,0:0:0:0:
256,192,293653,5,0,0:0:0:0:
256,192,293919,5,12,0:0:0:0:
256,192,294184,5,0,0:0:0:0:
256,192,294450,5,8,0:0:0:0:
256,192,294715,5,0,0:0:0:0:
256,192,294981,5,12,0:0:0:0:
256,192,295246,5,8,0:0:0:0:
256,192,295379,5,8,0:0:0:0:
256,192,295512,5,0,0:0:0:0:
256,192,295644,5,8,0:0:0:0:
256,192,295777,5,0,0:0:0:0:
256,192,295910,5,0,0:0:0:0:
256,192,296043,5,12,0:0:0:0:
256,192,296175,5,0,0:0:0:0:
256,192,296308,5,8,0:0:0:0:
256,192,296441,5,8,0:0:0:0:
256,192,296574,5,0,0:0:0:0:
256,192,296706,5,8,0:0:0:0:
256,192,296839,5,0,0:0:0:0:
224,192,296972,5,0,0:0:0:0:
256,192,297105,5,12,0:0:0:0:
256,192,297370,5,8,0:0:0:0:
256,192,297503,5,8,0:0:0:0:
256,192,297636,5,0,0:0:0:0:
256,192,297768,5,8,0:0:0:0:
256,192,297901,5,0,0:0:0:0:
256,192,298034,5,0,0:0:0:0:
256,192,298166,5,12,0:0:0:0:
256,192,298299,5,0,0:0:0:0:
256,192,298432,5,8,0:0:0:0:
256,192,298565,5,8,0:0:0:0:
256,192,298697,5,0,0:0:0:0:
256,192,298830,5,8,0:0:0:0:
256,192,298963,5,0,0:0:0:0:
256,192,299096,5,0,0:0:0:0:
256,192,299228,5,12,0:0:0:0:
256,192,299494,5,8,0:0:0:0:
256,192,299627,5,8,0:0:0:0:
256,192,299759,5,0,0:0:0:0:
256,192,299892,5,8,0:0:0:0:
256,192,300025,5,8,0:0:0:0:
256,192,300158,5,0,0:0:0:0:
256,192,300290,5,12,0:0:0:0:
256,192,300423,5,0,0:0:0:0:
256,192,300556,5,8,0:0:0:0:
256,192,300689,5,8,0:0:0:0:
256,192,300821,5,0,0:0:0:0:
256,192,300954,5,8,0:0:0:0:
256,192,301087,5,0,0:0:0:0:
256,192,301220,5,0,0:0:0:0:
256,192,301352,5,12,0:0:0:0:
256,192,301618,5,8,0:0:0:0:
256,192,301751,5,8,0:0:0:0:
256,192,301883,5,0,0:0:0:0:
256,192,302016,5,8,0:0:0:0:
256,192,302149,5,8,0:0:0:0:
288,192,302282,5,0,0:0:0:0:
256,192,302414,5,12,0:0:0:0:
256,192,302547,5,0,0:0:0:0:
256,192,302680,5,8,0:0:0:0:
256,192,302813,5,8,0:0:0:0:
256,192,302945,5,0,0:0:0:0:
256,192,303078,5,8,0:0:0:0:
256,192,303211,5,0,0:0:0:0:
256,192,303343,5,0,0:0:0:0:
256,192,303476,5,12,0:0:0:0:
256,192,303742,5,8,0:0:0:0:
256,192,303874,5,8,0:0:0:0:
256,192,304007,5,0,0:0:0:0:
256,192,304140,5,8,0:0:0:0:
256,192,304273,5,0,0:0:0:0:
256,192,304405,5,0,0:0:0:0:
256,192,304538,5,12,0:0:0:0:
256,192,304671,5,0,0:0:0:0:
256,192,304804,5,8,0:0:0:0:
256,192,304936,5,8,0:0:0:0:
256,192,305069,5,0,0:0:0:0:
256,192,305202,5,8,0:0:0:0:
256,192,305335,5,0,0:0:0:0:
224,192,305467,5,0,0:0:0:0:
256,192,305600,5,12,0:0:0:0:
256,192,305866,5,8,0:0:0:0:
256,192,305998,5,8,0:0:0:0:
256,192,306131,5,0,0:0:0:0:
256,192,306264,5,8,0:0:0:0:
256,192,306397,5,0,0:0:0:0:
256,192,306529,5,0,0:0:0:0:
256,192,306662,5,12,0:0:0:0:
256,192,306795,5,0,0:0:0:0:
256,192,306928,5,8,0:0:0:0:
256,192,307060,5,8,0:0:0:0:
256,192,307193,5,0,0:0:0:0:
256,192,307326,5,8,0:0:0:0:
256,192,307459,5,0,0:0:0:0:
256,192,307591,5,0,0:0:0:0:
256,192,307724,5,12,0:0:0:0:
256,192,307990,5,8,0:0:0:0:
256,192,308122,5,8,0:0:0:0:
256,192,308255,5,0,0:0:0:0:
256,192,308388,5,8,0:0:0:0:
256,192,308520,5,0,0:0:0:0:
256,192,308653,5,0,0:0:0:0:
256,192,308786,5,12,0:0:0:0:
256,192,308919,5,0,0:0:0:0:
256,192,309051,5,8,0:0:0:0:
256,192,309184,5,8,0:0:0:0:
256,192,309317,5,0,0:0:0:0:
256,192,309450,5,8,0:0:0:0:
256,192,309582,5,8,0:0:0:0:
256,192,309715,5,0,0:0:0:0:
256,192,309848,5,12,0:0:0:0:
256,192,310113,5,8,0:0:0:0:
256,192,310246,5,8,0:0:0:0:
256,192,310379,5,0,0:0:0:0:
256,192,310512,5,8,0:0:0:0:
256,192,310644,5,0,0:0:0:0:
288,192,310777,5,0,0:0:0:0:
256,192,310910,5,12,0:0:0:0:
256,192,311043,5,0,0:0:0:0:
256,192,311175,5,8,0:0:0:0:
256,192,311308,5,8,0:0:0:0:
256,192,311441,5,0,0:0:0:0:
256,192,311574,5,8,0:0:0:0:
256,192,311706,5,8,0:0:0:0:
256,192,311839,5,0,0:0:0:0:
256,192,311972,5,12,0:0:0:0:
256,192,312237,5,0,0:0:0:0:
256,224,312370,5,0,0:0:0:0:
256,224,312436,5,0,0:0:0:0:
256,192,312503,5,8,0:0:0:0:
256,192,312636,5,0,0:0:0:0:
256,224,312768,5,8,0:0:0:0:
256,224,312901,5,8,0:0:0:0:
256,192,313034,5,0,0:0:0:0:
256,224,313166,5,0,0:0:0:0:
256,192,313299,5,8,0:0:0:0:
256,192,313432,5,0,0:0:0:0:
256,192,313565,5,8,0:0:0:0:
256,192,313697,5,8,0:0:0:0:
256,192,313830,5,0,0:0:0:0:
256,192,313963,5,0,0:0:0:0:
256,192,314096,5,12,0:0:0:0:
256,192,314361,5,4,0:0:0:0:
256,192,314627,5,12,0:0:0:0:
256,192,314892,5,4,0:0:0:0:
256,192,315158,5,12,0:0:0:0:
256,192,315423,5,4,0:0:0:0:
256,192,315689,5,12,0:0:0:0:
256,192,315954,5,4,0:0:0:0:
256,192,316220,5,12,0:0:0:0:
256,192,316485,5,4,0:0:0:0:
256,192,316751,5,12,0:0:0:0:
256,192,317016,5,4,0:0:0:0:
256,192,317282,5,12,0:0:0:0:
256,192,317547,5,4,0:0:0:0:
256,192,317813,5,12,0:0:0:0:
256,192,318078,5,4,0:0:0:0:
256,192,318343,5,12,0:0:0:0:
256,192,318476,12,0,322060,0:0:0:0:
256,192,322289,5,8,0:0:0:0:
256,192,322453,5,8,0:0:0:0:
256,192,322617,5,0,0:0:0:0:
256,192,322790,12,0,327807,0:0:0:0:
256,192,328153,12,0,332997,0:0:0:0:
