osu file format v14

[General]
AudioFilename: audio.mp3
AudioLeadIn: 0
PreviewTime: 18325
Countdown: 0
SampleSet: Soft
StackLeniency: 0.4
Mode: 0
LetterboxInBreaks: 0
WidescreenStoryboard: 1

[Editor]
Bookmarks: 18325,35780,40143,57598,75052,92507
DistanceSpacing: 1.3
BeatDivisor: 4
GridSize: 32
TimelineZoom: 0.5999998

[Metadata]
Title:Everytime I Look into the Sky
TitleUnicode:Everytime I Look into the Sky
Artist:Teminite feat. Jonah Hitchens
ArtistUnicode:Teminite feat. Jonah Hitchens
Creator:hypercyte
Version:Normal
Source:osu!
Tags:hypercute noffy dorothy3242 fa featured artist mpg mg mappers' guild cut ver jazz funk groovy english man playing saxaphone at sunset
BeatmapID:2402506
BeatmapSetID:1122012

[Difficulty]
HPDrainRate:4
CircleSize:3.5
OverallDifficulty:5
ApproachRate:6
SliderMultiplier:1.3
SliderTickRate:1

[Events]
//Background and Video events
Video,0,"look_sky.mp4"
0,0,"silhouette-of-a-man-playing-saxophone-during-sunset-733767.jpg",0,0
//Break Periods
2,35780,39113
//Storyboard Layer 0 (Background)
//Storyboard Layer 1 (Fail)
//Storyboard Layer 2 (Pass)
//Storyboard Layer 3 (Foreground)
//Storyboard Layer 4 (Overlay)
//Storyboard Sound Samples

[TimingPoints]
891,545.454545454546,4,2,44,50,1,0
891,-100,4,2,44,50,0,0
18345,-100,4,2,44,64,0,0
38527,-100,4,2,44,44,0,0
40163,-100,4,2,44,60,0,0
56800,-100,4,2,44,64,0,0
57072,-100,4,2,44,64,0,0
57618,-100,4,2,44,66,0,0
75072,-100,4,2,44,74,0,0
92391,-100,4,2,44,54,0,0
92527,-100,4,2,44,54,0,0

[Colours]
Combo1 : 182,219,241
Combo2 : 244,204,241
Combo3 : 200,204,247

[HitObjects]
324,97,891,6,0,P|395:82|441:112,2,130,2|0|0,0:0|0:0|0:0,0:0:0:0:
244,199,2527,2,0,P|207:192|186:171,1,65,0|0,0:0|0:0,0:0:0:0:
165,92,3072,2,0,P|84:75|51:111,2,130,2|0|0,0:0|0:0|0:0,0:0:0:0:
307,184,4709,1,0,0:0:0:0:
307,184,4981,2,0,B|362:157|362:157|388:149|388:149|433:124,1,130,2|0,0:0|0:0,0:0:0:0:
350,11,6072,6,0,L|276:38,1,65,0|0,0:0|0:0,0:0:0:0:
229,93,6618,2,0,B|174:84|174:84|141:86|141:86|94:78,1,130,2|2,0:0|0:0,0:0:0:0:
17,97,7436,1,2,0:0:0:0:
77,254,7981,2,0,P|121:268|133:285,1,65,0|0,0:0|0:0,0:0:0:0:
193,339,8527,1,0,0:0:0:0:
193,339,8800,2,0,B|236:349|265:329|249:320|282:296|330:303,1,130,0|2,0:0|0:0,0:0:0:0:
379,353,9618,5,2,0:0:0:0:
483,220,10163,2,0,L|468:152,1,65,2|0,0:0|0:0,0:0:0:0:
389,126,10709,2,0,B|334:142|334:142|309:156|309:156|248:172,2,130,2|0|2,0:0|0:0|0:0,0:0:0:0:
420,43,12072,1,0,0:0:0:0:
251,29,12618,2,0,B|196:45|196:45|171:59|171:59|110:75,2,130,2|0|2,0:0|0:0|0:0,0:0:0:0:
330,57,13981,5,2,0:0:0:0:
249,206,14527,2,0,P|237:260|231:320,2,97.5,2|0|0,0:0|0:0|0:0,0:0:0:0:
308,146,15618,1,0,0:0:0:0:
447,240,16163,1,2,0:0:0:0:
482,163,16436,2,0,P|475:100|419:68,1,130,0|2,0:0|0:0,0:0:0:0:
295,180,17527,1,8,0:3:0:0:
221,138,17800,2,0,L|223:103,2,32.5,8|8|4,0:1|0:1|0:3,0:0:0:0:
150,185,18345,6,0,B|122:241|122:241|160:314,1,130,14|8,0:0|0:0,0:0:0:0:
314,351,19436,1,10,0:0:0:0:
355,277,19709,1,0,0:0:0:0:
311,204,19981,2,0,B|300:158|300:158|305:128|305:128|292:68,1,130,8|10,0:1|0:0,0:0:0:0:
134,21,21072,2,0,P|98:33|87:62,1,65,8|0,0:0|0:0,0:0:0:0:
42,127,21618,2,0,P|63:192|77:274,1,130,10|10,0:0|0:1,0:0:0:0:
63,336,22436,1,2,0:0:0:0:
136,378,22709,1,8,0:0:0:0:
277,285,23254,6,0,P|320:281|348:292,1,65,8|0,0:0|0:0,0:0:0:0:
403,343,23800,1,8,0:0:0:0:
468,289,24072,2,0,B|461:230|461:230|465:210|465:210|460:153,1,130,2|2,0:0|0:0,0:0:0:0:
455,75,24891,1,8,0:0:0:0:
290,112,25436,1,10,0:0:0:0:
212,77,25709,1,0,0:0:0:0:
158,142,25981,2,0,B|126:128|126:128|90:136,2,65,10|2|8,0:0|0:0|0:1,0:0:0:0:
196,217,26800,1,2,0:0:0:0:
153,289,27072,1,12,0:0:0:0:
304,363,27618,6,0,L|368:350,1,65,8|0,0:0|0:0,0:0:0:0:
450,369,28163,2,0,P|476:300|428:247,1,130,10|8,0:0|0:1,0:0:0:0:
293,188,29254,2,0,P|286:150|301:122,1,65,10|0,0:0|0:0,0:0:0:0:
372,89,29800,1,8,0:0:0:0:
449,122,30072,2,0,P|462:203|429:244,1,130,2|0,0:0|0:0,0:0:0:0:
297,335,31163,1,0,0:0:0:0:
218,304,31436,6,0,P|173:302|155:312,1,65,10|0,0:0|0:0,0:0:0:0:
85,356,31981,2,0,B|50:321|50:321|79:271,2,97.5,10|0|0,0:0|0:0|0:0,0:0:0:0:
156,310,33072,1,8,0:1:0:0:
319,353,33618,2,0,P|351:327|374:323,1,65,10|0,0:0|0:0,0:0:0:0:
453,350,34163,1,8,0:0:0:0:
502,281,34436,2,0,B|496:227|496:227|500:202|500:202|489:140,1,130,2|8,0:0|0:1,0:0:0:0:
468,70,35254,1,8,0:1:0:0:
295,162,40163,6,0,B|249:164|232:189|248:201|218:233|176:232,1,130,14|8,0:0|0:0,0:0:0:0:
117,189,40981,1,0,0:0:0:0:
46,235,41254,2,0,P|30:276|64:327,2,97.5,10|0|0,0:0|0:0|0:0,0:0:0:0:
126,274,42345,1,10,0:0:0:0:
126,274,42618,2,0,P|183:259|222:254,1,97.5,2|2,0:0|0:0,0:0:0:0:
343,286,43436,1,8,0:0:0:0:
398,222,43709,1,0,0:0:0:0:
364,144,43981,2,0,P|372:78|371:58,1,65,8|0,0:1|0:0,0:0:0:0:
432,20,44527,6,0,P|502:39|492:92,2,130,10|8|10,0:0|0:0|0:0,0:0:0:0:
307,134,46163,2,0,P|274:148|245:141,1,65,8|0,0:1|0:0,0:0:0:0:
172,100,46709,2,0,P|121:114|101:190,1,130,10|8,0:0|0:0,0:0:0:0:
225,293,47800,1,10,0:0:0:0:
300,254,48072,1,2,0:0:0:0:
379,282,48345,1,10,0:1:0:0:
398,364,48618,1,2,0:0:0:0:
479,342,48891,6,0,P|486:274|465:204,1,130,14|8,0:0|0:0,0:0:0:0:
343,103,49981,2,0,P|333:50|378:16,2,97.5,10|0|0,0:0|0:0|0:0,0:0:0:0:
411,152,51072,1,10,0:0:0:0:
356,216,51345,2,0,P|294:196|261:195,1,97.5,0|2,0:0|0:0,0:0:0:0:
152,258,52163,2,0,P|128:226|132:199,2,65,10|0|8,0:0|0:0|0:1,0:0:0:0:
235,270,52981,1,0,0:0:0:0:
297,326,53254,6,0,P|363:310|452:310,2,130,10|8|10,0:0|0:1|0:0,0:0:0:0:
133,368,54891,2,0,P|116:340|120:306,1,65,8|2,0:1|0:0,0:0:0:0:
191,265,55436,2,0,P|207:186|159:149,1,130,8|8,0:0|0:1,0:0:0:0:
22,87,56527,1,10,0:0:0:0:
100,56,56800,1,10,0:1:0:0:
183,70,57072,1,8,0:1:0:0:
261,38,57345,1,8,0:1:0:0:
338,71,57618,6,0,B|332:122|332:122|333:146|333:146|322:222,1,130,14|8,0:0|0:0,0:0:0:0:
245,349,58709,2,0,P|197:316|157:331,1,97.5,10|2,0:0|0:0,0:0:0:0:
138,360,59254,1,8,0:0:0:0:
1,259,59800,1,10,0:0:0:0:
63,202,60072,1,2,0:0:0:0:
15,132,60345,2,0,P|34:61|39:-1,2,130,10|10|10,0:1|0:0|0:1,0:0:0:0:
154,227,61981,6,0,B|214:198|214:198|273:230,1,130,8|10,0:0|0:1,0:0:0:0:
344,267,62800,1,0,0:0:0:0:
418,227,63072,2,0,P|444:163|417:128,1,97.5,8|2,0:0|0:0,0:0:0:0:
393,128,63618,1,8,0:1:0:0:
235,67,64163,2,0,P|198:86|149:91,1,65,10|0,0:0|0:0,0:0:0:0:
95,61,64709,1,10,0:1:0:0:
35,218,65254,1,10,0:0:0:0:
68,295,65527,1,2,0:0:0:0:
103,371,65800,2,0,B|137:362|137:362|148:355|148:355|186:344,1,65,10|2,0:1|0:0,0:0:0:0:
206,277,66345,6,0,P|288:271|320:320,1,130,14|8,0:0|0:1,0:0:0:0:
483,321,67436,2,0,P|501:262|468:220,1,97.5,10|0,0:0|0:0,0:0:0:0:
446,218,67981,1,8,0:0:0:0:
294,142,68527,2,0,P|281:102|291:78,1,65,10|2,0:0|0:0,0:0:0:0:
347,21,69072,2,0,B|385:14|412:36|405:41|440:65|477:57,2,130,10|10|10,0:1|0:0|0:1,0:0:0:0:
192,91,70709,6,0,P|134:97|94:28,1,130,10|10,0:0|0:1,0:0:0:0:
23,198,71800,2,0,P|48:268|56:297,1,97.5,8|0,0:0|0:0,0:0:0:0:
69,329,72345,2,0,P|109:335|134:317,1,65,10|2,0:1|0:0,0:0:0:0:
183,258,72891,2,0,P|244:240|306:293,1,130,10|8,0:0|0:1,0:0:0:0:
461,312,73981,1,10,0:0:0:0:
495,234,74254,1,8,0:3:0:0:
431,178,74527,2,0,P|410:136|410:113,1,65,10|10,0:0|0:1,0:0:0:0:
445,42,75072,6,0,P|480:51|507:144,2,130,14|10|10,0:0|0:1|0:0,0:0:0:0:
360,52,76436,1,2,0:0:0:0:
292,103,76709,2,0,P|255:109|224:98,1,65,10|0,0:1|0:0,0:0:0:0:
148,77,77254,2,0,P|124:125|136:228,2,130,10|10|10,0:0|0:1|0:0,0:0:0:0:
253,209,78891,2,0,P|287:223|321:213,1,65,10|2,0:1|0:0,0:0:0:0:
388,177,79436,2,0,P|428:244|408:294,1,130,10|8,0:0|0:1,0:0:0:0:
248,328,80527,5,10,0:0:0:0:
200,258,80800,2,0,L|72:310,1,130,2|2,0:0|0:0,0:0:0:0:
17,249,81618,1,10,0:0:0:0:
118,113,82163,1,10,0:1:0:0:
193,150,82436,1,0,0:0:0:0:
266,108,82709,2,0,B|294:102|294:102|313:101|313:101|336:96,2,65,10|2|8,0:0|0:0|0:1,0:0:0:0:
202,164,83527,1,2,0:0:0:0:
261,224,83800,2,0,P|283:281|268:357,1,130,12|8,0:0|0:1,0:0:0:0:
105,370,84891,6,0,P|83:313|98:237,1,130,10|10,0:0|0:1,0:0:0:0:
175,225,85709,1,0,0:0:0:0:
235,166,85981,2,0,P|237:123|223:106,2,65,10|2|8,0:0|0:0|0:1,0:0:0:0:
201,244,86800,2,0,P|230:306|297:303,1,130,2|0,0:0|0:0,0:0:0:0:
336,242,87618,2,0,P|328:215|324:175,1,65,8|2,0:1|0:0,0:0:0:0:
326,93,88163,1,10,0:0:0:0:
167,34,88709,6,0,P|114:60|99:106,2,97.5,10|0|2,0:1|0:0|0:0,0:0:0:0:
238,78,89800,2,0,P|275:100|301:98,1,65,10|0,0:1|0:0,0:0:0:0:
363,48,90345,1,8,0:0:0:0:
446,73,90618,2,0,P|469:126|439:204,1,130,2|2,0:0|0:0,0:0:0:0:
364,197,91436,1,8,0:0:0:0:
305,257,91709,1,10,0:1:0:0:
335,335,91981,2,0,L|413:316,1,65,10|0,0:1|0:0,0:0:0:0:
