osu file format v14

[General]
AudioFilename: audio.mp3
AudioLeadIn: 0
PreviewTime: 18325
Countdown: 0
SampleSet: Soft
StackLeniency: 0.4
Mode: 0
LetterboxInBreaks: 0
WidescreenStoryboard: 1

[Editor]
Bookmarks: 18325,35780,40143,57598,75052,92507
DistanceSpacing: 1.7
BeatDivisor: 4
GridSize: 4
TimelineZoom: 0.5999998

[Metadata]
Title:Everytime I Look into the Sky
TitleUnicode:Everytime I Look into the Sky
Artist:Teminite feat. Jonah Hitchens
ArtistUnicode:Teminite feat. Jonah Hitchens
Creator:hypercyte
Version:Noffy's Hard
Source:osu!
Tags:hypercute noffy dorothy3242 fa featured artist mpg mg mappers' guild cut ver jazz funk groovy english man playing saxaphone at sunset
BeatmapID:2497537
BeatmapSetID:1122012

[Difficulty]
HPDrainRate:4.4
CircleSize:4
OverallDifficulty:6.4
ApproachRate:7
SliderMultiplier:1.7
SliderTickRate:1

[Events]
//Background and Video events
Video,0,"look_sky.mp4"
0,0,"silhouette-of-a-man-playing-saxophone-during-sunset-733767.jpg",0,0
//Break Periods
2,35780,38718
//Storyboard Layer 0 (Background)
//Storyboard Layer 1 (Fail)
//Storyboard Layer 2 (Pass)
//Storyboard Layer 3 (Foreground)
//Storyboard Layer 4 (Overlay)
//Storyboard Sound Samples

[TimingPoints]
891,545.454545454546,4,2,44,50,1,0
891,-133.333333333333,4,2,44,50,0,0
18345,-100,4,2,44,64,0,0
38527,-100,4,2,44,44,0,0
40163,-100,4,2,44,60,0,0
56800,-100,4,2,44,64,0,0
57618,-100,4,2,44,66,0,0
75072,-100,4,2,44,74,0,0
92391,-100,4,2,44,54,0,0

[Colours]
Combo1 : 182,219,241
Combo2 : 244,204,241
Combo3 : 200,204,247

[HitObjects]
114,151,891,6,0,B|42:146|75:205|-7:190,2,127.500004863739,2|0|0,0:0|0:0|0:0,0:0:0:0:
137,309,2527,2,0,P|125:275|137:229,1,63.7500024318696,0|0,0:0|0:0,0:0:0:0:
182,185,3072,2,0,P|175:137|106:126,2,127.500004863739,2|0|0,0:0|0:0|0:0,0:0:0:0:
143,346,4709,1,2,0:0:0:0:
143,346,4981,2,0,B|256:366|206:278|314:286,1,191.250007295609,2|0,0:0|0:0,0:0:0:0:
423,292,6072,6,0,P|429:252|445:231,1,63.7500024318696
476,157,6618,2,0,P|419:142|419:79,1,127.500004863739,2|0,0:0|0:0,0:0:0:0:
499,72,7436,1,2,0:0:0:0:
335,44,7981,2,0,P|314:85|306:121,1,63.7500024318696,0|0,0:0|0:0,0:0:0:0:
360,168,8527,1,0,0:0:0:0:
437,138,8800,2,0,P|426:107|411:79,1,63.7500024318696,0|0,0:0|0:0,0:0:0:0:
360,168,9345,2,0,P|350:231|281:287,1,127.500004863739,2|0,0:0|0:0,0:0:0:0:
227,298,10163,1,2,0:0:0:0:
177,215,10436,5,0,0:0:0:0:
177,215,10709,2,0,P|118:189|55:226,2,127.500004863739,2|0|2,0:0|0:0|0:0,0:0:0:0:
222,284,12072,2,0,P|258:295|285:315,1,63.7500024318696,0|0,0:0|0:0,0:0:0:0:
332,245,12618,2,0,B|389:260|361:312|447:325,2,127.500004863739,2|0|2,0:0|0:0|0:0,0:0:0:0:
261,257,13981,5,2,0:0:0:0:
95,273,14527,2,0,P|143:235|122:165,1,127.500004863739,2|0,0:0|0:0,0:0:0:0:
93,102,15345,1,0,0:0:0:0:
164,60,15618,2,0,P|211:57|251:70,1,63.7500024318696
300,100,16163,1,2,0:0:0:0:
323,179,16436,1,0,0:0:0:0:
189,275,16981,2,0,P|198:245|221:216,1,63.7500024318696,0|0,0:0|0:0,0:0:0:0:
292,183,17527,5,8,0:3:0:0:
388,188,17800,1,8,0:1:0:0:
422,216,17936,1,8,0:1:0:0:
442,255,18072,1,4,0:3:0:0:
320,326,18345,6,0,B|323:269|265:283|270:213,1,127.5,14|0,0:0|0:0,0:0:0:0:
276,138,18891,2,0,P|211:114|179:181,1,127.5,8|0,0:0|0:0,0:0:0:0:
148,221,19436,2,0,P|142:183|110:130,1,85,10|0,0:0|0:0,0:0:0:0:
37,227,19981,2,0,P|23:267|23:309,1,85,8|0,0:1|0:0,0:0:0:0:
156,368,20527,6,0,P|179:305|167:240,1,127.5,10|0,0:0|0:0,0:0:0:0:
140,175,21072,2,0,B|186:163|186:163|217:171|217:171|278:153,1,127.5,8|0,0:0|0:0,0:0:0:0:
346,122,21618,2,0,L|334:207,1,85,10|0,0:0|0:0,0:0:0:0:
314,324,22163,1,10,0:1:0:0:
409,270,22436,2,0,B|388:218|348:197|280:191|240:262|158:198,1,255,2|8,0:0|0:0,0:0:0:0:
202,70,23527,5,0,0:0:0:0:
153,184,23800,1,8,0:0:0:0:
64,105,24072,2,0,P|57:198|-19:242,1,170,2|2,0:0|0:0,0:0:0:0:
135,344,24891,2,0,P|123:294|131:256,1,85,8|0,0:0|0:0,0:0:0:0:
177,128,25436,5,10,0:0:0:0:
177,128,25709,1,0,0:0:0:0:
279,196,25981,1,10,0:0:0:0:
279,196,26254,2,0,P|335:190|371:171,1,85,2|8,0:0|0:1,0:0:0:0:
409,69,26800,1,2,0:0:0:0:
281,37,27072,2,0,P|247:105|324:134,1,170,12|8,0:0|0:0,0:0:0:0:
432,47,27891,5,0,0:0:0:0:
404,162,28163,2,0,P|405:223|426:290,1,127.5,10|0,0:0|0:0,0:0:0:0:
363,343,28709,2,0,P|381:282|383:218,1,127.5,8|0,0:1|0:0,0:0:0:0:
351,104,29254,1,10,0:0:0:0:
261,154,29527,2,0,P|272:214|286:242,1,85,0|8,0:0|0:0,0:0:0:0:
273,64,30072,2,0,P|216:50|166:115,1,127.5,2|0,0:0|0:0,0:0:0:0:
101,62,30618,2,0,P|103:124|149:166,1,127.5,2|0,0:0|0:0,0:0:0:0:
225,178,31163,1,2,0:0:0:0:
196,293,31436,2,0,P|267:256|327:309,2,170,10|10|8,0:0|0:0|0:0,0:0:0:0:
83,275,32800,5,2,0:0:0:0:
117,180,33072,1,10,0:1:0:0:
201,107,33345,1,2,0:0:0:0:
318,90,33618,1,10,0:0:0:0:
431,125,33891,2,0,P|474:171|491:202,1,85,2|8,0:0|0:0,0:0:0:0:
398,272,34436,2,0,P|403:225|441:170,1,85,2|8,0:0|0:0,0:0:0:0:
495,99,34981,1,8,0:1:0:0:
507,217,35254,1,8,0:1:0:0:
352,137,39618,5,2,0:0:0:0:
373,161,39754,1,2,0:0:0:0:
404,175,39891,1,2,0:0:0:0:
463,181,40027,1,2,0:0:0:0:
477,268,40163,6,0,B|420:265|434:323|364:318,1,127.5,14|0,0:0|0:0,0:0:0:0:
296,290,40709,1,8,0:0:0:0:
342,159,40981,1,0,0:0:0:0:
242,57,41254,2,0,P|234:115|212:156,1,85,10|0,0:0|0:0,0:0:0:0:
281,245,41663,2,0,P|276:225|278:204,1,42.5,2|8,0:0|0:1,0:0:0:0:
483,181,42072,2,0,L|371:166,1,85,0|10,0:0|0:0,0:0:0:0:
251,102,42618,5,2,0:0:0:0:
321,57,42754,1,2,0:0:0:0:
402,85,42891,2,0,P|406:129|393:184,1,85,8|0,0:0|0:0,0:0:0:0:
280,249,43436,2,0,B|329:227|371:290|442:253,1,127.5,8|0,0:0|0:0,0:0:0:0:
466,214,43981,1,8,0:1:0:0:
428,100,44254,1,0,0:0:0:0:
231,109,44527,6,0,P|295:93|331:146,1,127.5,10|0,0:0|0:0,0:0:0:0:
331,211,45072,1,8,0:0:0:0:
177,228,45345,2,0,P|162:160|199:59,1,170,2|0,0:0|0:0,0:0:0:0:
243,7,46163,1,8,0:1:0:0:
124,19,46436,2,0,P|142:62|143:125,1,85,2|10,0:0|0:0,0:0:0:0:
64,187,46981,5,2,0:0:0:0:
171,295,47254,1,8,0:0:0:0:
163,214,47391,2,0,P|164:190|167:167,1,42.5,2|0,0:0|0:0,0:0:0:0:
255,92,47800,1,8,0:0:0:0:
347,166,48072,1,0,0:0:0:0:
456,120,48345,2,0,P|462:98|460:77,1,42.5,10|0,0:1|0:0,0:0:0:0:
392,32,48618,2,0,P|386:52|387:73,1,42.5,2|0,0:0|0:0,0:0:0:0:
338,151,48891,6,0,B|395:148|381:206|451:201,1,127.5,14|0,0:0|0:0,0:0:0:0:
512,158,49436,1,8,0:0:0:0:
466,295,49709,1,0,0:0:0:0:
324,241,49981,2,0,P|283:248|242:266,1,85,10|0,0:0|0:0,0:0:0:0:
227,345,50391,2,0,P|256:346|272:342,1,42.5,2|8,0:0|0:1,0:0:0:0:
162,268,50800,2,0,B|127:261|127:261|119:267|119:267|74:256,1,85,0|10,0:0|0:0,0:0:0:0:
0,169,51345,6,0,P|-1:140|3:124,1,42.5,2|2,0:0|0:0,0:0:0:0:
105,68,51754,2,0,P|106:97|102:113,1,42.5,2|0,0:0|0:0,0:0:0:0:
203,217,52163,5,10,0:0:0:0:
246,159,52300,1,2,0:0:0:0:
365,166,52572,2,0,P|406:173|438:201,1,85,2|2,0:0|0:0,0:0:0:0:
368,336,53118,2,0,P|329:291|366:246,1,127.5,2|0,0:0|0:0,0:0:0:0:
438,293,53663,2,0,P|474:338|435:382,1,127.5,2|0,0:0|0:0,0:0:0:0:
250,340,54345,6,0,B|235:283|235:283|240:270|240:270|227:213,1,127.5,10|0,0:0|0:0,0:0:0:0:
193,145,54891,2,0,P|162:167|91:155,1,85,8|2,0:1|0:0,0:0:0:0:
23,245,55436,2,0,B|32:186|32:186|26:174|26:174|34:116,1,127.5,8|0,0:0|0:0,0:0:0:0:
62,45,55981,2,0,P|93:64|163:46,1,85,8|0,0:1|3:0,0:0:0:0:
252,22,56527,5,8,0:0:0:0:
221,137,56800,1,8,0:1:0:0:
232,255,57072,1,8,0:1:0:0:
211,231,57209,1,8,0:1:0:0:
180,217,57345,1,8,0:1:0:0:
121,211,57481,1,8,0:1:0:0:
70,287,57618,6,0,B|127:284|113:342|183:337,1,127.5,14|0,0:0|0:0,0:0:0:0:
264,283,58163,2,0,P|270:358|328:367,1,127.5,8|0,0:0|0:0,0:0:0:0:
348,299,58709,1,10,0:0:0:0:
443,369,58981,1,2,0:0:0:0:
499,263,59254,2,0,P|446:297|383:298,1,127.5,8|0,0:0|0:0,0:0:0:0:
325,246,59800,5,10,0:0:0:0:
222,305,60072,1,2,0:0:0:0:
119,244,60345,2,0,P|72:277|34:279,1,85,10|0,0:1|0:0,0:0:0:0:
63,133,60891,2,0,P|66:185|18:199,1,85,10|0,0:0|0:0,0:0:0:0:
119,59,61436,2,0,B|173:68|138:163|223:163,1,127.5,10|0,0:1|0:0,0:0:0:0:
265,132,61981,5,8,0:0:0:0:
265,132,62118,2,0,B|275:174|275:174|269:188|269:188|275:215,1,85,2|0,0:0|0:0,0:0:0:0:
302,287,62527,2,0,P|318:247|359:232,1,85,10|0,0:1|0:0,0:0:0:0:
465,300,63072,6,0,L|363:316,1,85,10|0,0:0|0:0,0:0:0:0:
312,225,63481,2,0,L|354:232,1,42.5,2|8,0:0|0:1,0:0:0:0:
424,136,63891,1,0,0:0:0:0:
307,112,64163,2,0,B|253:119|253:119|241:113|241:113|182:122,1,127.5,10|0,0:0|0:0,0:0:0:0:
109,142,64709,2,0,P|88:109|47:151,1,85,10|0,0:1|0:0,0:0:0:0:
45,240,65254,5,10,0:0:0:0:
93,348,65527,1,2,0:0:0:0:
192,263,65800,2,0,P|176:247|172:220,1,42.5,10|0,0:1|0:0,0:0:0:0:
224,163,66072,2,0,P|240:179|243:205,1,42.5,2|0,0:0|0:0,0:0:0:0:
273,273,66345,6,0,B|341:277|327:219|384:222,1,127.5,14|0,0:0|0:0,0:0:0:0:
468,217,66891,2,0,P|427:187|457:122,1,127.5,8|0,0:1|0:0,0:0:0:0:
512,74,67436,1,10,0:0:0:0:
386,123,67709,1,2,0:0:0:0:
288,192,67981,2,0,P|309:127|297:60,1,127.5,8|0,0:1|0:0,0:0:0:0:
263,4,68527,5,10,0:0:0:0:
214,112,68800,1,2,0:0:0:0:
150,213,69072,2,0,P|154:270|177:300,1,85,10|0,0:1|0:0,0:0:0:0:
287,286,69618,2,0,P|245:317|265:362,1,85,10|0,0:0|0:0,0:0:0:0:
368,259,70163,2,0,P|334:213|339:139,1,127.5,10|0,0:1|0:0,0:0:0:0:
270,110,70709,6,0,P|335:121|320:37,2,170,10|10|8,0:0|0:1|0:0,0:0:0:0:
210,62,71936,2,0,P|164:69|114:58,1,85,2|0,0:0|0:0,0:0:0:0:
112,149,72345,2,0,P|153:142|195:149,1,85,10|2,0:1|0:0,0:0:0:0:
246,256,72891,6,0,P|236:298|182:348,1,85,10|0,0:0|0:0,0:0:0:0:
60,286,73436,2,0,P|100:296|137:277,1,85,8|0,0:1|0:0,0:0:0:0:
93,166,73981,5,10,0:0:0:0:
152,62,74254,1,10,0:3:0:0:
228,153,74527,2,0,P|240:171|240:198,1,42.5,10|10,0:0|0:1,0:0:0:0:
179,246,74800,2,0,P|166:227|167:201,1,42.5,10|0,0:1|0:0,0:0:0:0:
155,125,75072,6,0,B|86:120|100:178|43:175,1,127.5,14|0,0:0|0:0,0:0:0:0:
8,110,75618,2,0,P|71:119|73:58,1,127.5,10|0,0:1|0:0,0:0:0:0:
58,0,76163,2,0,P|94:41|101:83,1,85,10|2,0:0|0:0,0:0:0:0:
69,202,76709,2,0,P|55:242|55:284,1,85,10|0,0:1|0:0,0:0:0:0:
149,255,77254,6,0,P|210:221|271:237,1,127.5,10|0,0:0|0:0,0:0:0:0:
310,168,77800,2,0,P|344:229|327:290,1,127.5,10|0,0:1|0:0,0:0:0:0:
384,341,78345,2,0,P|349:358|289:357,1,85,10|0,0:0|0:0,0:0:0:0:
221,251,78891,1,10,0:1:0:0:
76,303,79163,2,0,B|97:355|137:376|205:382|245:311|327:375,1,255,2|8,0:0|0:1,0:0:0:0:
430,312,80254,5,2,0:0:0:0:
474,183,80527,1,10,0:0:0:0:
340,159,80800,2,0,P|379:89|458:101,1,170,2|2,0:0|0:0,0:0:0:0:
421,245,81618,2,0,P|409:195|417:157,1,85,10|0,0:0|0:0,0:0:0:0:
478,42,82163,5,10,0:1:0:0:
478,42,82436,1,2,0:0:0:0:
347,27,82709,1,10,0:0:0:0:
347,27,82981,2,0,P|352:68|340:109,1,85,2|8,0:0|0:1,0:0:0:0:
272,227,83527,1,2,0:0:0:0:
409,333,83800,2,0,P|340:299|308:368,1,170,12|8,0:0|0:1,0:0:0:0:
486,372,84618,5,0,0:0:0:0:
431,238,84891,2,0,P|370:219|306:217,1,127.5,10|0,0:0|0:0,0:0:0:0:
235,248,85436,2,0,P|171:246|110:227,1,127.5,10|0,0:1|0:0,0:0:0:0:
49,189,85981,1,10,0:0:0:0:
103,55,86254,2,0,P|114:115|128:143,1,85,2|8,0:0|0:1,0:0:0:0:
285,46,86800,2,0,P|228:32|178:97,1,127.5,2|0,0:0|0:0,0:0:0:0:
247,111,87345,2,0,P|304:125|354:60,1,127.5,2|0,0:0|0:0,0:0:0:0:
285,46,87891,1,2,0:0:0:0:
247,111,88163,2,0,B|259:185|172:170|183:260,2,170,10|10|8,0:0|0:1|0:0,0:0:0:0:
111,58,89527,5,2,0:0:0:0:
46,135,89800,1,10,0:1:0:0:
24,244,90072,1,2,0:0:0:0:
68,354,90345,1,10,0:0:0:0:
210,377,90618,2,0,P|270:358|300:340,1,85,2|8,0:0|0:1,0:0:0:0:
241,211,91163,2,0,P|221:254|227:320,1,85,2|8,0:0|0:0,0:0:0:0:
348,225,91709,1,10,0:1:0:0:
309,85,91981,2,0,P|263:98|194:159,1,127.5,10|0,0:1|0:0,0:0:0:0:
