osu file format v14

[General]
AudioFilename: audio.mp3
AudioLeadIn: 0
PreviewTime: 18325
Countdown: 0
SampleSet: Soft
StackLeniency: 0.4
Mode: 0
LetterboxInBreaks: 0
WidescreenStoryboard: 0

[Editor]
Bookmarks: 18325,35780,40143,57598,75052,92507
DistanceSpacing: 0.8
BeatDivisor: 8
GridSize: 4
TimelineZoom: 1

[Metadata]
Title:Everytime I Look into the Sky
TitleUnicode:Everytime I Look into the Sky
Artist:Teminite feat. Jonah Hitchens
ArtistUnicode:Teminite feat. Jonah Hitchens
Creator:hypercyte
Version:Insane
Source:osu!
Tags:hypercute noffy dorothy3242 fa featured artist mpg mg mappers' guild cut ver jazz funk groovy english man playing saxaphone at sunset
BeatmapID:2344625
BeatmapSetID:1122012

[Difficulty]
HPDrainRate:5.4
CircleSize:4.4
OverallDifficulty:7.4
ApproachRate:8.5
SliderMultiplier:2.4
SliderTickRate:1

[Events]
//Background and Video events
Video,0,"look_sky.mp4"
0,0,"silhouette-of-a-man-playing-saxophone-during-sunset-733767.jpg",0,0
//Break Periods
2,35780,37852
//Storyboard Layer 0 (Background)
//Storyboard Layer 1 (Fail)
//Storyboard Layer 2 (Pass)
//Storyboard Layer 3 (Foreground)
//Storyboard Layer 4 (Overlay)
//Storyboard Sound Samples

[TimingPoints]
891,545.454545454546,4,2,44,50,1,0
891,-200,4,2,44,50,0,0
18345,-100,4,2,44,64,0,0
38527,-100,4,2,44,44,0,0
40163,-111.111111111111,4,2,44,60,0,0
56800,-99.9999999999999,4,2,44,64,0,0
57072,-90.9090909090909,4,2,44,64,0,0
57618,-111.111111111111,4,2,44,66,0,0
75072,-100,4,2,44,74,0,0
92254,-227.272727272727,4,2,44,74,0,0
92391,-227.272727272727,4,2,44,54,0,0

[Colours]
Combo1 : 182,219,241
Combo2 : 244,204,241
Combo3 : 200,204,247

[HitObjects]
249,208,891,6,0,B|211:201|188:222|204:233|172:261|137:248,2,120,2|0|0,0:0|0:0|0:0,0:0:0:0:
341,290,2527,1,0,0:0:0:0:
355,255,2800,2,0,L|348:285,1,30
336,169,3072,6,0,P|377:144|441:180,1,120,2|0,0:0|0:0,0:0:0:0:
217,146,3891,2,0,L|152:128,1,60,2|0,0:0|0:0,0:0:0:0:
93,237,4709,1,0,0:0:0:0:
127,223,4981,2,0,L|75:237,1,30
221,244,5254,6,0,P|240:286|177:334,1,120,2|0,0:0|0:0,0:0:0:0:
339,341,6072,2,0,P|360:305|386:290,1,60
458,130,6618,2,0,B|418:130|396:148|414:171|386:190|345:185,1,120
219,79,7436,6,0,P|238:118|246:151,1,60,2|0,0:0|0:0,0:0:0:0:
122,262,7981,2,0,P|127:220|144:196,2,60
238,300,8800,2,0,P|210:311|189:332,1,60
417,275,9345,5,2,0:0:0:0:
417,275,9481,1,2,0:0:0:0:
417,275,9618,2,0,L|483:287,1,60,2|0,0:0|0:0,0:0:0:0:
317,169,10163,1,2,0:0:0:0:
309,203,10436,2,0,L|315:165,1,30
282,61,10709,6,0,P|204:39|178:70,2,120,2|0|2,0:0|0:0|0:0,0:0:0:0:
328,140,12072,2,0,P|317:167|311:197,1,60
221,322,12618,2,0,P|187:266|135:258,1,120,2|0,0:0|0:0,0:0:0:0:
39,355,13436,1,0,0:0:0:0:
75,349,13709,2,0,P|46:349|36:352,1,30,2|0,0:0|0:0,0:0:0:0:
137,257,13981,5,2,0:0:0:0:
137,257,14527,2,0,P|152:201|121:173,2,90,2|0|0,0:0|0:0|0:0,0:0:0:0:
73,118,15618,2,0,P|83:79|100:60,1,60
194,44,16163,5,2,0:0:0:0:
194,44,16436,2,0,L|265:60,1,60
358,120,16981,2,0,P|322:129|317:192,1,90
307,175,17527,6,0,L|292:131,1,30,8|0,0:3|0:0,0:0:0:0:
278,258,17800,1,8,0:1:0:0:
345,313,17936,1,8,0:1:0:0:
376,235,18072,1,4,0:3:0:0:
376,235,18345,6,0,B|325:232|297:266|324:293|295:334|241:332,1,180,14|0,0:0|0:0,0:0:0:0:
242,332,18891,2,0,P|210:294|228:231,1,120,8|0,0:0|0:0,0:0:0:0:
351,74,19436,1,10,0:0:0:0:
446,132,19709,1,0,0:0:0:0:
331,94,19981,2,0,B|289:110|289:110|270:139|270:139|218:159,1,120,8|0,0:1|0:0,0:0:0:0:
58,195,20391,1,0,0:0:0:0:
96,99,20527,6,0,P|81:166|27:178,1,120,10|0,0:0|0:0,0:0:0:0:
116,358,21072,2,0,L|146:223,1,120,8|0,0:0|0:0,0:0:0:0:
402,234,21618,1,10,0:0:0:0:
275,315,21891,1,0,0:0:0:0:
148,219,22163,1,10,0:1:0:0:
287,134,22436,1,2,0:0:0:0:
258,215,22572,1,2,0:0:0:0:
300,121,22709,6,0,P|264:68|196:77,1,120,8|0,0:0|0:0,0:0:0:0:
380,222,23254,2,0,B|416:223|438:193|425:183|437:156|476:155,1,120,8|0,0:0|0:0,0:0:0:0:
131,184,23800,2,0,L|148:244,1,60,8|0,0:0|0:0,0:0:0:0:
126,359,24072,2,0,L|152:211,1,120,2|8,0:0|0:1,0:0:0:0:
175,83,24618,1,2,0:0:0:0:
272,210,24891,6,0,P|285:160|332:93,1,120,8|0,0:0|0:0,0:0:0:0:
408,80,25300,1,0,0:0:0:0:
495,206,25436,2,0,P|451:167|393:169,1,120,10|0,0:0|0:0,0:0:0:0:
163,335,25981,1,10,0:0:0:0:
163,335,26254,2,0,L|148:267,1,60,2|0,0:0|0:0,0:0:0:0:
106,155,26527,2,0,L|91:223,1,60,8|0,0:1|0:0,0:0:0:0:
66,296,26800,1,2,0:0:0:0:
64,75,27072,6,0,P|134:70|178:111,1,120,12|0,0:0|0:0,0:0:0:0:
163,335,27481,1,0,0:0:0:0:
66,296,27618,2,0,P|136:291|180:332,1,120,8|0,0:0|0:0,0:0:0:0:
347,185,28163,2,0,L|212:208,1,120,10|0,0:0|0:0,0:0:0:0:
64,75,28709,2,0,L|182:95,1,120,8|0,0:1|0:0,0:0:0:0:
269,112,29118,1,0,0:0:0:0:
358,7,29254,6,0,L|239:27,1,120,10|0,0:0|0:0,0:0:0:0:
93,214,29800,1,8,0:0:0:0:
93,214,30072,2,0,P|137:224|155:260,1,60,2|0,0:0|0:0,0:0:0:0:
104,345,30345,2,0,P|151:285|116:247,1,120,8|0,0:0|0:0,0:0:0:0:
23,123,30891,1,8,0:1:0:0:
86,105,31163,2,0,L|27:116,1,60
234,63,31436,6,0,B|280:74|280:74|306:94|306:94|355:104,1,120,10|0,0:0|0:0,0:0:0:0:
401,43,31845,1,0,0:0:0:0:
210,70,31981,2,0,P|175:116|257:203,1,180,10|0,0:0|0:0,0:0:0:0:
304,260,32527,2,0,P|355:223|389:222,1,60,10|0,0:0|0:0,0:0:0:0:
434,239,32800,1,0,0:0:0:0:
193,309,33072,2,0,L|54:288,1,120,8|0,0:1|0:0,0:0:0:0:
0,175,33481,1,0,0:0:0:0:
79,176,33618,6,0,P|98:250|42:282,1,120,10|0,0:0|0:0,0:0:0:0:
262,369,34163,1,8,0:0:0:0:
262,369,34436,2,0,P|249:290|247:249,1,120,2|8,0:0|0:0,0:0:0:0:
357,92,34981,6,0,P|353:129|332:142,1,60,8|0,0:1|0:0,0:0:0:0:
265,109,35254,2,0,P|269:72|290:59,1,60,8|0,0:1|0:0,0:0:0:0:
445,93,35527,1,0,0:0:0:0:
256,192,38527,12,0,39618,0:0:0:0:
289,68,40163,6,0,B|240:53|218:97|239:112|211:158|168:144,1,161.999995056153,14|0,0:0|0:0,0:0:0:0:
362,114,40709,2,0,B|382:63|382:63|347:14,1,107.999996704102,8|0,0:0|0:0,0:0:0:0:
266,266,41254,2,0,P|324:232|377:220,1,107.999996704102,10|0,0:0|0:0,0:0:0:0:
453,257,41663,1,0,0:0:0:0:
244,276,41800,2,0,P|206:234|225:178,1,107.999996704102,8|0,0:1|0:0,0:0:0:0:
92,80,42345,5,10,0:0:0:0:
74,119,42481,1,2,0:0:0:0:
55,158,42618,2,0,L|26:28,1,107.999996704102,2|8,0:0|0:0,0:0:0:0:
188,93,43027,2,0,P|253:50|305:72,1,107.999996704102,2|0,0:0|0:0,0:0:0:0:
373,119,43436,6,0,P|355:136|348:181,1,53.9999983520508,8|0,0:0|0:0,0:0:0:0:
419,205,43709,2,0,P|437:188|444:143,1,53.9999983520508
495,36,43981,2,0,B|470:48|470:48|384:31,1,107.999996704102,8|0,0:1|0:0,0:0:0:0:
234,208,44527,6,0,P|172:260|83:248,1,161.999995056153,10|0,0:0|0:0,0:0:0:0:
258,196,45072,2,0,P|289:209|286:298,1,107.999996704102,8|0,0:0|0:0,0:0:0:0:
63,368,45618,2,0,B|79:344|79:344|53:245,1,107.999996704102,10|0,0:0|0:0,0:0:0:0:
33,193,46027,1,0,0:0:0:0:
70,68,46163,2,0,L|52:185,1,107.999996704102,8|0,0:1|0:0,0:0:0:0:
225,316,46709,6,0,P|260:307|270:288,1,53.9999983520508,10|0,0:0|0:0,0:0:0:0:
401,246,46981,2,0,P|387:180|339:174,1,107.999996704102,2|8,0:0|0:0,0:0:0:0:
245,60,47391,2,0,P|222:130|261:158,1,107.999996704102,2|0,0:0|0:0,0:0:0:0:
59,234,47800,6,0,B|85:220|85:220|125:234,1,53.9999983520508,8|0,0:0|0:0,0:0:0:0:
122,311,48072,2,0,B|96:325|96:325|56:311,1,53.9999983520508
6,133,48345,2,0,P|16:104|21:73,1,53.9999983520508,10|0,0:1|0:0,0:0:0:0:
129,236,48618,2,0,P|119:207|114:176,1,53.9999983520508,2|0,0:0|0:0,0:0:0:0:
211,43,48891,6,0,B|260:28|282:72|261:87|289:133|332:119,1,161.999995056153,14|0,0:0|0:0,0:0:0:0:
145,130,49436,2,0,P|176:113|180:45,1,107.999996704102,8|0,0:0|0:0,0:0:0:0:
124,306,49981,2,0,P|110:238|82:205,1,107.999996704102,10|0,0:0|0:0,0:0:0:0:
3,202,50391,1,0,0:0:0:0:
75,384,50527,2,0,P|112:326|160:328,1,107.999996704102,8|0,0:1|0:0,0:0:0:0:
326,228,51072,6,0,P|358:239|382:244,2,53.9999983520508,10|0|0,0:0|0:0|0:0,0:0:0:0:
309,146,51481,2,0,P|289:113|293:81,1,53.9999983520508,2|8,0:0|0:0,0:0:0:0:
362,62,51754,2,0,P|376:42|404:49,1,53.9999983520508,2|0,0:0|0:0,0:0:0:0:
406,135,52027,1,0,0:0:0:0:
196,127,52163,5,10,0:0:0:0:
196,127,52300,2,0,P|136:138|108:183,1,107.999996704102,2|0,0:0|0:0,0:0:0:0:
233,305,52709,2,0,P|180:301|182:237,1,107.999996704102,8|0,0:1|0:0,0:0:0:0:
383,142,53254,2,0,B|366:210|366:210|369:234|369:234|352:302,1,161.999995056153,10|0,0:0|0:0,0:0:0:0:
400,130,53800,2,0,L|383:17,1,107.999996704102,8|0,0:1|0:0,0:0:0:0:
313,79,54209,1,0,0:0:0:0:
379,242,54345,6,0,B|428:257|450:213|429:198|457:152|500:166,1,161.999995056153,10|0,0:0|0:0,0:0:0:0:
358,237,54891,1,8,0:1:0:0:
342,218,55163,6,0,P|297:219|277:236,1,53.9999983520508,2|0,0:0|0:0,0:0:0:0:
146,332,55436,1,8,0:0:0:0:
146,332,55572,2,0,P|133:254|152:214,1,107.999996704102
200,148,55981,5,8,0:1:0:0:
226,182,56118,1,0,3:0:0:0:
268,184,56254,1,0,3:0:0:0:
314,122,56391,1,8,0:0:0:0:
392,144,56527,6,0,P|410:188|400:202,1,53.9999983520508,8|0,0:0|0:0,0:0:0:0:
296,101,56800,2,0,P|297:58|311:42,1,60,8|0,0:1|0:0,0:0:0:0:
296,197,57072,2,0,P|261:230|228:226,1,66.0000020141602,8|0,0:1|0:0,0:0:0:0:
153,167,57345,1,8,0:1:0:0:
214,235,57481,1,8,0:1:0:0:
162,337,57618,6,0,B|113:352|91:308|112:293|84:247|41:261,1,161.999995056153,14|0,0:0|0:0,0:0:0:0:
214,235,58163,2,0,B|203:286|203:286|205:301|205:301|196:344,1,107.999996704102,8|0,0:0|0:0,0:0:0:0:
263,384,58572,1,0,0:0:0:0:
343,234,58709,2,0,B|365:227|396:237|386:254|419:263|446:253,1,107.999996704102,10|0,0:0|0:0,0:0:0:0:
478,127,59118,2,0,P|476:150|428:181,1,53.9999983520508,2|8,0:0|0:0,0:0:0:0:
255,219,59527,2,0,P|257:196|305:165,1,53.9999983520508,2|0,0:0|0:0,0:0:0:0:
346,138,59800,6,0,P|267:125|258:93,1,107.999996704102,10|0,0:0|0:0,0:0:0:0:
262,28,60209,1,2,0:0:0:0:
178,144,60345,1,10,0:1:0:0:
178,144,60481,2,0,P|157:78|109:65,1,107.999996704102,2|0,0:0|0:0,0:0:0:0:
29,196,60891,2,0,P|63:132|100:145,1,107.999996704102,10|0,0:0|0:0,0:0:0:0:
152,302,61300,1,2,0:0:0:0:
259,218,61436,2,0,B|226:221|205:243|220:253|196:281|159:278,1,107.999996704102,10|0,0:1|0:0,0:0:0:0:
298,90,61981,5,8,0:0:0:0:
298,90,62118,2,0,L|413:100,1,107.999996704102,2|0,0:0|0:0,0:0:0:0:
200,61,62527,2,0,B|151:83|151:83|201:108,1,107.999996704102,10|0,0:1|0:0,0:0:0:0:
386,233,63072,6,0,B|358:234|340:258|357:277|336:308|306:308,1,107.999996704102,8|0,0:0|0:0,0:0:0:0:
485,243,63481,2,0,B|503:225|503:225|478:209,1,53.9999983520508,2|8,0:0|0:1,0:0:0:0:
196,144,63891,1,0,0:0:0:0:
200,211,64163,6,0,L|189:157,1,53.9999983520508,10|0,0:0|0:0,0:0:0:0:
256,77,64436,2,0,L|266:23,1,53.9999983520508
415,137,64709,2,0,P|358:176|383:216,1,107.999996704102,10|0,0:1|0:0,0:0:0:0:
447,233,65118,1,0,0:0:0:0:
277,281,65254,6,0,L|211:295,1,53.9999983520508,8|0,0:0|0:0,0:0:0:0:
147,222,65527,2,0,L|199:210,1,53.9999983520508
336,25,65800,6,0,B|354:49|354:49|339:75,1,53.9999983520508,10|0,0:1|0:0,0:0:0:0:
256,77,66072,2,0,B|238:53|238:53|253:27,1,53.9999983520508,2|0,0:0|0:0,0:0:0:0:
457,143,66345,6,0,B|408:128|386:172|407:187|379:233|336:219,1,161.999995056153,14|0,0:0|0:0,0:0:0:0:
485,150,66891,2,0,P|474:98|478:27,1,107.999996704102,8|0,0:1|0:0,0:0:0:0:
217,76,67436,6,0,P|275:84|278:157,1,107.999996704102,10|0,0:0|0:0,0:0:0:0:
236,185,67845,1,0,0:0:0:0:
110,100,67981,2,0,P|180:86|219:47,1,107.999996704102,8|0,0:1|0:0,0:0:0:0:
426,188,68527,6,0,P|438:217|424:244,1,53.9999983520508,10|0,0:0|0:0,0:0:0:0:
348,240,68800,2,0,P|336:211|350:184,1,53.9999983520508,2|0,0:0|0:0,0:0:0:0:
449,68,69072,1,10,0:1:0:0:
471,0,69209,2,0,P|483:29|469:56,2,53.9999983520508,2|0|0,0:0|0:0|0:0,0:0:0:0:
318,118,69618,6,0,B|280:113|268:99|274:87|258:69|229:64,1,107.999996704102,10|0,0:0|0:0,0:0:0:0:
139,173,70027,1,2,0:0:0:0:
60,114,70163,2,0,P|65:76|86:59,1,53.9999983520508,10|0,0:1|0:0,0:0:0:0:
148,89,70436,2,0,P|143:127|122:144,1,53.9999983520508
71,290,70709,6,0,B|109:282|109:282|148:257|148:257|187:251,1,107.999996704102,10|0,0:0|0:0,0:0:0:0:
368,168,71254,2,0,P|337:228|328:274,1,107.999996704102,10|0,0:1|0:0,0:0:0:0:
177,54,71800,6,0,P|100:84|116:154,1,161.999995056153,8|0,0:0|0:0,0:0:0:0:
265,73,72345,2,0,B|281:53|281:53|257:37,1,53.9999983520508,10|0,0:1|0:0,0:0:0:0:
177,54,72618,2,0,B|161:74|161:74|185:90,1,53.9999983520508,2|0,0:0|0:0,0:0:0:0:
329,217,72891,6,0,P|373:179|439:158,1,107.999996704102,10|0,0:0|0:0,0:0:0:0:
225,317,73436,2,0,B|179:306|179:306|156:297|156:297|105:287,1,107.999996704102,8|0,0:1|0:0,0:0:0:0:
34,271,73845,1,0,0:0:0:0:
250,306,73981,6,0,B|260:280|260:280|250:256,1,53.9999983520508,8|0,0:0|0:0,0:0:0:0:
145,162,74254,2,0,P|166:197|179:199,1,53.9999983520508,8|0,0:3|0:0,0:0:0:0:
347,143,74527,1,10,0:0:0:0:
280,89,74663,1,10,0:1:0:0:
266,169,74800,1,10,0:1:0:0:
399,71,75072,6,0,B|348:68|320:102|347:129|318:170|264:168,1,180,14|0,0:0|0:0,0:0:0:0:
416,86,75618,2,0,P|448:124|430:187,1,120,10|0,0:1|0:0,0:0:0:0:
224,271,76163,1,10,0:0:0:0:
122,179,76436,1,2,0:0:0:0:
338,202,76709,2,0,B|296:218|296:218|277:247|277:247|225:267,1,120,10|0,0:1|0:0,0:0:0:0:
147,304,77118,1,0,0:0:0:0:
371,200,77254,6,0,P|409:249|385:297,1,120,10|0,0:0|0:0,0:0:0:0:
147,304,77800,2,0,L|177:169,1,120,10|0,0:1|0:0,0:0:0:0:
386,295,78345,1,10,0:0:0:0:
461,119,78618,1,0,0:0:0:0:
286,54,78891,1,10,0:1:0:0:
212,227,79163,1,2,0:0:0:0:
330,171,79300,1,2,0:0:0:0:
192,241,79436,6,0,L|60:221,1,120,10|0,0:0|0:0,0:0:0:0:
347,184,79981,2,0,B|382:178|399:145|384:137|391:109|429:101,1,120,8|0,0:1|0:0,0:0:0:0:
207,314,80527,2,0,P|159:300|145:278,1,60,10|0,0:0|0:0,0:0:0:0:
151,98,80800,2,0,B|165:124|165:124|134:215,1,120,2|8,0:0|0:1,0:0:0:0:
70,273,81345,1,2,0:0:0:0:
254,81,81618,6,0,P|316:85|371:141,1,120,10|0,0:0|0:0,0:0:0:0:
263,306,82027,1,0,0:0:0:0:
318,367,82163,2,0,L|291:251,1,120,10|0,0:1|0:0,0:0:0:0:
254,81,82709,1,10,0:0:0:0:
119,228,82981,6,0,B|150:233|150:233|176:214,1,60,2|0,0:0|0:0,0:0:0:0:
158,137,83254,2,0,B|127:132|127:132|101:151,1,60,8|0,0:1|0:0,0:0:0:0:
34,220,83527,1,2,0:0:0:0:
171,312,83800,6,0,P|254:291|298:283,1,120,12|0,0:0|0:0,0:0:0:0:
372,262,84209,1,0,0:0:0:0:
489,384,84345,2,0,P|470:336|506:278,1,120,8|0,0:1|0:0,0:0:0:0:
301,74,84891,2,0,B|279:86|279:111|279:111|302:193,1,120,10|0,0:0|0:0,0:0:0:0:
400,340,85436,2,0,P|365:293|302:309,1,120,10|0,0:1|0:0,0:0:0:0:
289,384,85845,1,0,0:0:0:0:
440,228,85981,6,0,P|407:295|400:363,1,120,10|2,0:0|0:0,0:0:0:0:
489,384,86527,1,8,0:1:0:0:
332,342,86800,2,0,P|376:362|406:347,1,60,2|0,0:0|0:0,0:0:0:0:
489,384,87072,2,0,P|465:331|403:353,1,120,8|0,0:0|0:0,0:0:0:0:
444,187,87618,1,8,0:1:0:0:
481,126,87891,2,0,P|459:174|456:202,1,60,2|0,0:0|0:0,0:0:0:0:
288,220,88163,6,0,B|334:231|334:231|360:251|360:251|409:261,1,120,10|0,0:0|0:0,0:0:0:0:
412,339,88572,1,0,0:0:0:0:
278,204,88709,2,0,B|221:214|201:252|232:267|201:320|146:316,1,180,10|0,0:1|0:0,0:0:0:0:
45,336,89254,2,0,P|39:308|55:273,1,60,8|0,0:0|0:0,0:0:0:0:
134,196,89527,1,2,0:0:0:0:
319,339,89800,2,0,L|439:354,1,120,10|0,0:1|0:0,0:0:0:0:
509,304,90209,1,0,0:0:0:0:
482,168,90345,6,0,B|472:210|472:210|502:293,1,120,8|2,0:0|0:0,0:0:0:0:
390,51,90891,1,8,0:1:0:0:
390,51,91163,2,0,P|388:129|375:171,1,120,2|8,0:0|0:0,0:0:0:0:
360,349,91709,6,0,P|356:312|335:299,1,60,10|0,0:1|0:0,0:0:0:0:
268,332,91981,2,0,P|272:369|293:382,1,60,10|0,0:1|0:0,0:0:0:0:
448,348,92254,2,0,B|462:341|462:341|466:338|466:338|480:332,1,26.4000008056641
