osu file format v14

[General]
AudioFilename: audio.mp3
AudioLeadIn: 0
PreviewTime: 18325
Countdown: 0
SampleSet: Soft
StackLeniency: 0.4
Mode: 0
LetterboxInBreaks: 0
WidescreenStoryboard: 1

[Editor]
Bookmarks: 18325,35780,40143,57598,75052,92507
DistanceSpacing: 1
BeatDivisor: 4
GridSize: 32
TimelineZoom: 0.5999998

[Metadata]
Title:Everytime I Look into the Sky
TitleUnicode:Everytime I Look into the Sky
Artist:Teminite feat. Jonah Hitchens
ArtistUnicode:Teminite feat. Jonah Hitchens
Creator:hypercyte
Version:Easy
Source:osu!
Tags:hypercute noffy dorothy3242 fa featured artist mpg mg mappers' guild cut ver jazz funk groovy english man playing saxaphone at sunset
BeatmapID:2413794
BeatmapSetID:1122012

[Difficulty]
HPDrainRate:4
CircleSize:3.5
OverallDifficulty:5
ApproachRate:6
SliderMultiplier:1.1
SliderTickRate:1

[Events]
//Background and Video events
Video,0,"look_sky.mp4"
0,0,"silhouette-of-a-man-playing-saxophone-during-sunset-733767.jpg",0,0
//Break Periods
2,35780,39113
//Storyboard Layer 0 (Background)
//Storyboard Layer 1 (Fail)
//Storyboard Layer 2 (Pass)
//Storyboard Layer 3 (Foreground)
//Storyboard Layer 4 (Overlay)
//Storyboard Sound Samples

[TimingPoints]
891,545.454545454546,4,2,44,50,1,0
891,-100,4,2,44,50,0,0
18345,-100,4,2,44,64,0,0
38527,-100,4,2,44,44,0,0
40163,-100,4,2,44,60,0,0
56800,-100,4,2,44,64,0,0
57072,-100,4,2,44,64,0,0
57618,-100,4,2,44,66,0,0
75072,-100,4,2,44,74,0,0
92391,-100,4,2,44,54,0,0
92527,-100,4,2,44,54,0,0

[Colours]
Combo1 : 182,219,241
Combo2 : 244,204,241
Combo3 : 200,204,247

[HitObjects]
188,107,18345,6,0,P|141:129|128:186,1,110,14|8,0:0|0:0,0:0:0:0:
220,240,19436,1,10,0:0:0:0:
313,182,19981,1,8,0:1:0:0:
419,209,20527,2,0,P|441:252|409:306,2,110,10|8|10,0:0|0:0|0:0,0:0:0:0:
311,187,22163,1,10,0:1:0:0:
224,254,22709,2,0,P|154:239|102:242,1,110,8|8,0:0|0:0,0:0:0:0:
41,158,23800,6,0,P|43:101|89:75,1,110,8|8,0:0|0:1,0:0:0:0:
186,115,24891,1,8,0:0:0:0:
292,141,25436,2,0,P|374:111|405:105,2,110,10|10|8,0:0|0:0|0:1,0:0:0:0:
212,217,27072,1,12,0:0:0:0:
284,299,27618,1,8,0:0:0:0:
363,223,28163,6,0,B|411:234|411:234|429:243|429:243|483:254,1,110,10|8,0:0|0:1,0:0:0:0:
472,141,29254,1,10,0:0:0:0:
372,89,29800,1,8,0:0:0:0:
283,154,30345,2,0,P|200:142|154:143,1,110,8|8,0:0|0:1,0:0:0:0:
106,228,31436,5,10,0:0:0:0:
186,302,31981,2,0,B|236:296|236:296|250:291|250:291|296:285,1,110,10|8,0:0|0:0,0:0:0:0:
404,286,33072,1,8,0:1:0:0:
474,201,33618,2,0,P|493:132|408:75,2,165,10|2|8,0:0|0:0|0:1,0:0:0:0:
127,146,40163,6,0,B|227:98|227:98|334:157,1,220,14|10,0:0|0:0,0:0:0:0:
384,241,41800,1,8,0:1:0:0:
475,179,42345,2,0,P|481:120|432:74,2,110,10|8|8,0:0|0:1|0:0,0:0:0:0:
384,241,43981,1,8,0:1:0:0:
283,195,44527,6,0,B|216:196|190:248|212:272|164:318|90:306,1,220,10|10,0:0|0:0,0:0:0:0:
53,213,46163,1,8,0:1:0:0:
135,140,46709,2,0,P|133:92|188:40,1,110,10|8,0:0|0:0,0:0:0:0:
264,104,47800,1,10,0:0:0:0:
365,62,48345,1,10,0:1:0:0:
441,141,48891,6,0,B|424:233|424:233|429:260|429:260|408:369,1,220,14|10,0:0|0:0,0:0:0:0:
310,311,50527,1,8,0:1:0:0:
203,337,51072,2,0,P|153:357|98:349,2,110,10|8|10,0:0|0:1|0:0,0:0:0:0:
204,226,52709,1,8,0:1:0:0:
244,124,53254,6,0,P|316:128|334:168,1,110,10|8,0:0|0:1,0:0:0:0:
351,263,54345,2,0,P|398:282|454:242,1,110,10|8,0:0|0:1,0:0:0:0:
427,146,55436,2,0,P|418:86|432:27,1,110,8|8,0:0|0:1,0:0:0:0:
322,6,56527,1,10,0:0:0:0:
235,73,57072,1,8,0:1:0:0:
129,42,57618,6,0,B|101:92|101:92|125:138,1,110,14|8,0:0|0:0,0:0:0:0:
194,224,58709,2,0,P|256:182|307:196,1,110,10|8,0:0|0:0,0:0:0:0:
357,271,59800,1,10,0:0:0:0:
442,202,60345,2,0,P|456:146|439:92,2,110,10|10|10,0:1|0:0|0:1,0:0:0:0:
342,249,61981,6,0,B|296:244|296:244|270:248|270:248|223:242,1,110,8|10,0:0|0:1,0:0:0:0:
129,280,63072,2,0,P|100:254|117:177,1,110,8|8,0:0|0:1,0:0:0:0:
187,114,64163,1,10,0:0:0:0:
278,177,64709,1,10,0:1:0:0:
377,130,65254,1,10,0:0:0:0:
470,188,65800,1,10,0:1:0:0:
391,264,66345,6,0,B|354:263|354:263|315:295|315:295|281:295,1,110,14|8,0:0|0:1,0:0:0:0:
190,336,67436,2,0,P|144:306|156:244,1,110,10|8,0:0|0:1,0:0:0:0:
238,194,68527,1,10,0:0:0:0:
175,103,69072,2,0,B|140:96|116:116|123:120|91:142|58:135,2,110,10|10|10,0:1|0:0|0:1,0:0:0:0:
238,194,70709,5,10,0:0:0:0:
336,142,71254,1,10,0:1:0:0:
440,176,71800,2,0,P|451:217|408:280,1,110,8|10,0:0|0:1,0:0:0:0:
310,285,72891,2,0,B|268:273|268:273|229:277|229:277|188:267,1,110,10|8,0:0|0:1,0:0:0:0:
112,207,73981,1,10,0:0:0:0:
24,274,74527,1,10,0:1:0:0:
98,354,75072,6,0,P|169:345|217:343,1,110,14|10,0:0|0:1,0:0:0:0:
314,369,76163,1,10,0:0:0:0:
406,309,76709,1,10,0:1:0:0:
324,234,77254,2,0,P|302:191|334:137,2,110,10|10|10,0:0|0:1|0:0,0:0:0:0:
429,264,78891,1,10,0:1:0:0:
499,179,79436,2,0,P|501:119|451:83,1,110,10|8,0:0|0:1,0:0:0:0:
366,42,80527,6,0,P|318:67|262:87,1,110,10|8,0:0|0:1,0:0:0:0:
155,76,81618,1,10,0:0:0:0:
63,136,82163,2,0,P|49:185|85:232,2,110,10|10|8,0:1|0:0|0:1,0:0:0:0:
166,98,83800,1,12,0:0:0:0:
248,171,84345,1,8,0:1:0:0:
341,114,84891,6,0,B|466:123,2,110,10|10|10,0:0|0:1|0:0,0:0:0:0:
284,208,86527,2,0,P|277:260|326:302,1,110,8|8,0:1|0:0,0:0:0:0:
409,243,87618,1,8,0:1:0:0:
486,321,88163,5,10,0:0:0:0:
387,370,88709,2,0,P|298:361|266:360,1,110,10|8,0:1|0:0,0:0:0:0:
167,365,89800,1,10,0:1:0:0:
93,282,90345,2,0,P|145:209|224:227,2,165,8|2|10,0:0|0:0|0:1,0:0:0:0:
