osu file format v14

[General]
AudioFilename: audio.mp3
AudioLeadIn: 0
PreviewTime: 81392
Countdown: 0
SampleSet: Soft
StackLeniency: 0.4
Mode: 0
LetterboxInBreaks: 0
WidescreenStoryboard: 1

[Editor]
Bookmarks: 3574,12301,28664,29755,47210,64664,82119,99574,117028,134483,151937,169392,186846
DistanceSpacing: 1
BeatDivisor: 12
GridSize: 16
TimelineZoom: 2.299999

[Metadata]
Title:Step Into The Light (feat. Jonah Hitchens)
TitleUnicode:Step Into The Light (feat. Jonah Hitchens)
Artist:Teminite
ArtistUnicode:Teminite
Creator:hypercyte
Version:Insane
Source:
Tags:hypercute noffy inception english vocal swing low bpm 1/3 edm electronic dance music
BeatmapID:2276963
BeatmapSetID:1089017

[Difficulty]
HPDrainRate:5.4
CircleSize:4.4
OverallDifficulty:7.4
ApproachRate:9
SliderMultiplier:2
SliderTickRate:1

[Events]
//Background and Video events
0,0,"pexels-photo-2301177.jpg",0,0
//Break Periods
//Storyboard Layer 0 (Background)
//Storyboard Layer 1 (Fail)
//Storyboard Layer 2 (Pass)
//Storyboard Layer 3 (Foreground)
//Storyboard Layer 4 (Overlay)
//Storyboard Sound Samples

[TimingPoints]
3574,545.454545454546,4,2,4,44,1,0
3574,-200,4,2,4,44,0,0
11210,-100,4,2,4,24,0,0
11755,-100,4,2,4,44,0,0
12301,-100,4,2,4,44,0,0
18210,-100,4,2,4,5,0,0
18301,-100,4,2,4,44,0,0
27574,-100,4,2,4,33,0,0
28119,-100,4,2,4,44,0,0
28664,-100,4,2,4,54,0,0
29210,-100,4,2,4,64,0,0
29755,-200,4,2,44,74,0,0
30210,-200,4,2,44,5,0,0
30301,-62.5,4,2,44,74,0,1
30846,-71.4285714285714,4,2,44,74,0,0
32483,-200,4,2,44,74,0,0
33028,-71.4285714285714,4,2,44,74,0,0
36846,-71.4285714285714,4,2,44,74,0,0
38483,-200,4,2,44,74,0,0
38937,-200,4,2,44,5,0,0
39028,-62.5,4,2,44,74,0,1
39574,-71.4285714285714,4,2,44,74,0,0
41210,-200,4,2,44,74,0,0
41755,-71.4285714285714,4,2,44,74,0,0
47210,-200,4,2,44,74,0,0
47664,-200,4,2,44,5,0,0
47755,-62.5,4,2,44,74,0,0
48301,-71.4285714285714,4,2,44,74,0,0
49301,-71.4285714285714,4,2,44,5,0,0
49392,-71.4285714285714,4,2,44,74,0,0
54574,-71.4285714285714,4,2,44,5,0,0
54664,-71.4285714285714,4,2,44,74,0,0
55937,-200,4,2,44,74,0,0
56392,-200,4,2,44,5,0,0
56483,-71.4285714285714,4,2,44,74,0,0
63301,-71.4285714285714,4,2,44,5,0,0
63392,-71.4285714285714,4,2,44,74,0,0
63846,-71.4285714285714,4,2,44,5,0,0
63937,-71.4285714285714,4,2,44,74,0,0
64664,-100,4,2,4,44,0,0
79937,-100,4,2,4,34,0,0
80483,-100,4,2,4,44,0,0
81028,-100,4,2,4,54,0,0
81574,-100,4,2,44,64,0,0
81755,-100,4,2,4,64,0,0
82119,-200,4,2,44,74,0,0
82574,-200,4,2,44,5,0,0
82664,-62.5,4,2,44,74,0,1
83210,-71.4285714285714,4,2,44,74,0,0
84846,-200,4,2,44,74,0,0
85392,-71.4285714285714,4,2,44,74,0,0
90846,-200,4,2,44,74,0,0
91301,-200,4,2,44,5,0,0
91392,-62.5,4,2,44,74,0,1
91937,-71.4285714285714,4,2,44,74,0,0
93574,-200,4,2,44,74,0,0
94119,-71.4285714285714,4,2,44,74,0,0
99574,-133.333333333333,4,2,4,54,0,0
112574,-133.333333333333,4,2,4,5,0,0
112664,-133.333333333333,4,2,4,54,0,0
116392,-133.333333333333,4,2,4,5,0,0
116483,-133.333333333333,4,2,44,64,0,0
117028,-200,4,2,44,64,0,0
117483,-200,4,2,44,5,0,0
117574,-76.9230769230769,4,2,44,64,0,0
118119,-100,4,2,44,64,0,0
130028,-100,4,2,44,5,0,0
130119,-100,4,2,44,64,0,0
132301,-100,4,2,44,34,0,0
132483,-100,4,2,4,34,0,0
132846,-100,4,2,44,44,0,0
133028,-100,4,2,4,44,0,0
133392,-100,4,2,44,54,0,0
133574,-100,4,2,4,54,0,0
133937,-100,4,2,44,64,0,0
134119,-100,4,2,4,64,0,0
134483,-200,4,2,44,74,0,0
134937,-200,4,2,44,5,0,0
135028,-62.5,4,2,44,74,0,1
135574,-71.4285714285714,4,2,44,74,0,1
143210,-200,4,2,44,74,0,0
143664,-200,4,2,44,5,0,0
143755,-62.5,4,2,44,74,0,1
144301,-71.4285714285714,4,2,44,74,0,1
149664,-71.4285714285714,4,2,44,5,0,1
149755,-71.4285714285714,4,2,44,34,0,1
149937,-71.4285714285714,4,2,4,34,0,1
150301,-71.4285714285714,4,2,44,44,0,1
150483,-71.4285714285714,4,2,4,44,0,1
150846,-71.4285714285714,4,2,44,54,0,1
151028,-71.4285714285714,4,2,4,54,0,1
151392,-71.4285714285714,4,2,44,64,0,1
151574,-71.4285714285714,4,2,4,64,0,1
151937,-200,4,2,44,74,0,0
152392,-200,4,2,44,5,0,0
152483,-62.5,4,2,44,74,0,1
153028,-71.4285714285714,4,2,44,74,0,0
154664,-200,4,2,44,74,0,0
155210,-71.4285714285714,4,2,44,74,0,0
160664,-200,4,2,44,74,0,0
161119,-200,4,2,44,5,0,0
161210,-62.5,4,2,44,74,0,1
161755,-71.4285714285714,4,2,44,74,0,0
163392,-200,4,2,44,74,0,0
163937,-71.4285714285714,4,2,44,74,0,0
169392,-200,4,2,44,74,0,0
169846,-200,4,2,44,5,0,0
169937,-62.5,4,2,44,74,0,1
170483,-71.4285714285714,4,2,44,74,0,0
171483,-71.4285714285714,4,2,44,5,0,0
171574,-71.4285714285714,4,2,44,74,0,0
173483,-71.4285714285714,4,2,44,5,0,0
173574,-71.4285714285714,4,2,44,74,0,0
173664,-71.4285714285714,4,2,44,5,0,0
173755,-71.4285714285714,4,2,44,74,0,0
178119,-200,4,2,44,74,0,0
178574,-200,4,2,44,5,0,0
178664,-62.5,4,2,44,74,0,0
179210,-71.4285714285714,4,2,44,74,0,0
184664,-71.4285714285714,4,2,44,34,0,0
184846,-71.4285714285714,4,2,4,34,0,0
185209,-71.4285714285714,4,2,44,44,0,0
185391,-71.4285714285714,4,2,4,44,0,0
185755,-71.4285714285714,4,2,44,54,0,0
185937,-71.4285714285714,4,2,4,54,0,0
186300,-71.4285714285714,4,2,44,64,0,0
186482,-71.4285714285714,4,2,4,64,0,0
186846,-71.4285714285714,4,2,44,74,0,0

[Colours]
Combo1 : 254,194,196
Combo2 : 252,201,150
Combo3 : 252,240,154
Combo4 : 222,251,136
Combo5 : 167,250,165
Combo6 : 169,236,250
Combo7 : 206,197,252
Combo8 : 252,197,247

[HitObjects]
256,192,10119,12,0,12119,0:0:0:0:
329,268,12301,6,0,P|351:227|344:179,1,66.6666666666667,10|0,0:0|0:0,0:0:0:0:
282,156,12664,1,0,0:0:0:0:
144,159,12846,2,0,P|223:148|290:104,1,133.333333333333,10|0,0:1|0:0,0:0:0:0:
340,31,13392,5,2,0:0:0:0:
471,188,13755,1,8,0:0:0:0:
471,188,13937,2,0,L|458:34,1,133.333333333333,2|0,0:3|0:0,0:0:0:0:
473,208,14483,1,8,0:0:0:0:
295,169,14846,5,2,0:0:0:0:
295,169,15028,2,0,P|256:193|250:225,1,66.6666666666667,2|0,0:3|0:0,0:0:0:0:
268,331,15392,2,0,P|241:247|155:152,1,200,2|8,0:0|0:0,0:0:0:0:
290,344,16119,2,0,P|305:285|324:257,1,66.6666666666667,2|0,0:3|0:0,0:0:0:0:
453,184,16483,5,8,0:0:0:0:
383,113,16664,2,0,P|331:114|282:188,1,133.333333333333,10|2,0:0|0:0,0:0:0:0:
401,114,17210,2,0,P|418:73|406:37,1,66.6666666666667,2|0,0:3|0:0,0:0:0:0:
189,115,17574,5,0,0:0:0:0:
114,44,17755,2,0,B|192:18|192:18|275:54,1,166.666666666667,8|0,0:0|0:0,0:0:0:0:
269,51,18301,2,0,P|297:35|310:-4,1,66.6666666666667,2|0,0:3|0:0,0:0:0:0:
92,166,18664,6,0,B|150:171|178:214|155:245|191:284|250:289,1,200,8|0,0:0|0:0,0:0:0:0:
364,208,19392,1,2,0:3:0:0:
364,208,19755,6,0,P|382:111|457:4,1,200,8|8,0:0|0:0,0:0:0:0:
380,224,20483,1,2,0:3:0:0:
352,112,20664,1,8,0:0:0:0:
443,65,20846,1,8,0:0:0:0:
380,224,21028,6,0,L|418:368,1,133.333333333333,10|0,0:0|0:0,0:0:0:0:
372,205,21574,2,0,P|301:193|260:241,1,133.333333333333,0|0,0:3|0:0,0:0:0:0:
118,312,22119,6,0,P|134:283|135:249,1,66.6666666666667,2|0,0:0|0:0,0:0:0:0:
72,187,22483,1,8,0:0:0:0:
118,312,22664,2,0,P|160:297|247:331,1,133.333333333333,2|0,0:3|0:0,0:0:0:0:
65,374,23210,1,8,0:0:0:0:
323,329,23574,5,2,0:0:0:0:
323,329,23755,2,0,P|346:287|343:251,1,66.6666666666667,2|0,0:3|0:0,0:0:0:0:
418,210,24119,2,0,P|385:148|310:124,1,133.333333333333,2|0,0:0|0:0,0:0:0:0:
251,186,24664,1,8,0:0:0:0:
345,94,24846,2,0,P|304:71|282:30,1,66.6666666666667,2|0,0:3|0:0,0:0:0:0:
367,93,25210,1,10,0:0:0:0:
251,186,25392,6,0,L|120:205,1,133.333333333333,8|0,0:0|0:0,0:0:0:0:
35,216,25937,1,2,0:3:0:0:
113,60,26301,5,0,0:0:0:0:
113,60,26483,2,0,B|176:85|176:85|240:68,1,133.333333333333,8|0,0:0|0:0,0:0:0:0:
92,79,27028,2,0,P|88:137|128:214,1,133.333333333333,2|8,0:3|0:0,0:0:0:0:
240,198,27574,5,8,0:1:0:0:
248,187,27755,1,8,0:1:0:0:
244,174,27937,1,8,0:1:0:0:
337,192,28119,5,8,0:1:0:0:
295,158,28301,1,8,0:1:0:0:
244,174,28483,1,8,0:1:0:0:
264,22,28664,5,8,0:1:0:0:
201,91,28846,1,8,0:1:0:0:
244,174,29028,1,8,0:1:0:0:
0,143,29210,5,8,0:1:0:0:
107,232,29392,1,8,0:1:0:0:
244,174,29574,1,8,0:1:0:0:
306,248,29755,6,0,P|342:218|333:175,1,83.3333333333333,10|0,0:0|0:0,0:0:0:0:
325,175,30301,6,0,P|274:224|358:326,1,213.333333333333,12|0,0:1|0:0,0:0:0:0:
215,143,30846,6,0,P|147:141|120:159,1,93.3333304850261,10|0,0:0|0:0,0:0:0:0:
103,234,31210,1,2,0:0:0:0:
193,60,31392,2,0,P|188:105|214:142,1,93.3333304850261,10|0,0:1|0:0,0:0:0:0:
325,175,31755,1,2,0:0:0:0:
492,54,31937,6,0,B|484:83|458:92|458:92|304:80,1,186.666660970052,10|0,0:0|0:0,0:0:0:0:
324,81,32483,6,0,P|304:108|311:153,1,66.6666666666667,8|2,0:1|0:0,0:0:0:0:
333,339,33028,6,0,B|286:338|258:298|274:268|250:224|198:220,1,186.666660970052,10|2,0:0|0:0,0:0:0:0:
359,349,33574,2,0,P|394:328|413:276,1,93.3333304850261,10|0,0:1|0:0,0:0:0:0:
253,95,33937,1,10,0:0:0:0:
360,38,34119,6,0,B|338:103|338:103|344:153|344:153|313:252,1,186.666660970052,10|0,0:0|0:0,0:0:0:0:
367,16,34664,2,0,P|397:11|453:51,1,93.3333304850261,10|0,0:1|0:0,0:0:0:0:
456,137,35028,1,0,0:0:0:0:
253,95,35210,2,0,P|160:167|184:266,1,186.666660970052,10|0,0:0|0:0,0:0:0:0:
392,233,35755,2,0,P|430:260|438:311,1,93.3333304850261,10|0,0:1|0:0,0:0:0:0:
360,367,36119,1,2,0:0:0:0:
258,202,36301,1,10,0:0:0:0:
258,202,36846,6,0,B|209:209|189:256|209:280|179:320|123:332,1,186.666660970052,10|0,0:1|0:0,0:0:0:0:
285,199,37392,2,0,P|306:163|274:109,1,93.3333304850261,10|0,0:0|0:0,0:0:0:0:
215,71,37755,5,8,0:0:0:0:
89,173,37937,1,8,0:1:0:0:
261,197,38119,1,8,0:0:0:0:
402,84,38301,1,8,0:0:0:0:
461,153,38483,6,0,P|461:190|432:225,1,83.3333333333333,10|0,0:0|0:0,0:0:0:0:
434,225,39028,6,0,B|371:230|341:184|371:151|332:103|274:101,1,213.333333333333,8|0,0:1|0:0,0:0:0:0:
62,75,39574,6,0,L|165:48,1,93.3333304850261,10|0,0:0|0:0,0:0:0:0:
243,24,39937,1,2,0:0:0:0:
461,152,40119,2,0,L|358:125,1,93.3333304850261,10|0,0:1|0:0,0:0:0:0:
280,101,40483,1,2,0:0:0:0:
55,260,40664,6,0,B|119:237|119:237|170:196|170:196|235:174,1,186.666660970052,10|0,0:0|0:0,0:0:0:0:
237,177,41210,6,0,P|261:216|254:244,1,66.6666666666667,8|0,0:1|0:0,0:0:0:0:
319,362,41755,6,0,P|346:265|393:159,1,186.666660970052,10|2,0:0|0:0,0:0:0:0:
312,371,42301,2,0,P|289:305|248:258,1,93.3333304850261,10|0,0:1|0:0,0:0:0:0:
193,248,42664,1,10,0:0:0:0:
379,185,42846,6,0,B|362:212|337:212|337:212|192:157,1,186.666660970052,10|0,0:0|0:0,0:0:0:0:
397,169,43392,2,0,P|442:197|456:241,1,93.3333304850261,10|0,0:1|0:0,0:0:0:0:
408,308,43755,1,0,0:0:0:0:
194,156,43937,2,0,P|152:198|174:330,1,186.666660970052,10|0,0:0|0:0,0:0:0:0:
248,347,44483,1,10,0:1:0:0:
248,347,44846,1,2,0:0:0:0:
419,300,45028,2,0,P|443:338|430:381,1,93.3333304850261,8|0,0:0|0:0,0:0:0:0:
429,381,45574,5,10,0:1:0:0:
334,286,45755,1,2,0:0:0:0:
475,181,45937,2,0,B|422:188|400:230|418:250|381:294|321:284,1,186.666660970052,2|0,0:0|0:0,0:0:0:0:
203,196,46483,5,8,0:0:0:0:
61,302,46664,1,8,0:1:0:0:
232,373,46846,1,8,0:0:0:0:
232,373,47028,1,8,0:0:0:0:
475,181,47210,6,0,P|500:223|493:264,1,83.3333333333333,10|0,0:0|0:0,0:0:0:0:
466,169,47755,6,0,B|431:151|400:163|400:163|331:212|331:212|297:220|266:208,1,213.333333333333,12|0,0:1|0:0,0:0:0:0:
48,115,48301,2,0,P|92:118|126:168,1,93.3333304850261,10|0,0:0|0:0,0:0:0:0:
83,287,48664,1,0,0:0:0:0:
154,360,48846,2,0,L|174:245,1,93.3333304850261,10|0,0:1|0:0,0:0:0:0:
269,136,49210,2,0,L|278:194,1,46.6666652425131,2|0,0:0|0:0,0:0:0:0:
292,274,49392,6,0,L|276:182,1,93.3333304850261,10|0,0:0|0:0,0:0:0:0:
243,27,49755,1,2,0:0:0:0:
326,44,49937,2,0,P|289:100|175:78,1,186.666660970052,8|2,0:1|0:0,0:0:0:0:
124,286,50483,2,0,P|173:237|217:230,1,93.3333304850261,10|0,0:0|0:0,0:0:0:0:
391,288,50846,1,2,0:0:0:0:
444,154,51028,2,0,P|472:190|463:235,1,93.3333304850261,10|0,0:1|0:0,0:0:0:0:
194,230,51392,1,10,0:0:0:0:
141,148,51574,6,0,B|159:122|192:124|192:124|330:173,1,186.666660970052,10|0,0:0|0:0,0:0:0:0:
128,168,52119,2,0,L|33:152,2,93.3333304850261,10|0|8,0:1|0:0|0:0,0:0:0:0:
350,5,52664,6,0,B|355:32|339:55|339:55|201:106,1,186.666660970052,10|0,0:0|0:0,0:0:0:0:
269,262,53210,2,0,P|224:234|180:238,1,93.3333304850261,10|0,0:1|0:0,0:0:0:0:
105,357,53574,1,0,0:0:0:0:
164,228,53755,1,10,0:0:0:0:
164,228,54119,1,2,0:0:0:0:
304,355,54301,6,0,B|339:346|354:314|338:296|355:257|398:246,1,139.999995727539,10|0,0:1|0:0,0:0:0:0:
386,250,54664,1,2,0:0:0:0:
388,140,54846,2,0,P|419:179|465:184,1,93.3333304850261,10|0,0:0|0:0,0:0:0:0:
366,48,55210,1,8,0:0:0:0:
197,151,55392,5,8,0:1:0:0:
70,89,55574,1,8,0:0:0:0:
188,17,55755,1,8,0:0:0:0:
388,140,55937,6,0,B|425:132|425:132|442:134|442:134|471:128,1,83.3333333333333,10|0,0:0|0:0,0:0:0:0:
369,129,56483,6,0,P|310:139|314:271,1,186.666660970052,8|0,0:1|0:0,0:0:0:0:
483,344,57028,2,0,P|495:299|459:257,1,93.3333304850261,10|0,0:0|0:0,0:0:0:0:
380,262,57392,1,0,0:0:0:0:
262,364,57574,2,0,L|141:348,1,93.3333304850261,10|0,0:1|0:0,0:0:0:0:
46,161,57937,1,2,0:0:0:0:
115,116,58119,6,0,P|155:131|166:206,1,93.3333304850261,10|0,0:0|0:0,0:0:0:0:
380,262,58483,1,2,0:0:0:0:
512,120,58664,2,0,L|300:98,1,186.666660970052,8|2,0:1|0:0,0:0:0:0:
110,260,59210,2,0,L|217:243,2,93.3333304850261,10|0|2,0:0|0:0|0:0,0:0:0:0:
399,241,59755,2,0,L|293:230,1,93.3333304850261,10|0,0:1|0:0,0:0:0:0:
213,221,60119,1,10,0:0:0:0:
34,61,60301,6,0,B|76:74|76:74|230:28,1,186.666660970052,10|0,0:0|0:0,0:0:0:0:
508,138,60846,2,0,P|421:155|399:241,1,186.666660970052,10|8,0:1|0:0,0:0:0:0:
212,33,61392,1,10,0:0:0:0:
55,229,61755,5,2,0:0:0:0:
76,246,61846,1,2,0:0:0:0:
103,248,61937,2,0,P|156:214|167:163,1,93.3333304850261,10|0,0:1|0:0,0:0:0:0:
142,111,62301,1,2,0:0:0:0:
272,229,62483,6,0,P|301:185|348:174,1,93.3333304850261,8|0,0:0|0:0,0:0:0:0:
276,244,62846,1,0,0:0:0:0:
502,161,63028,6,0,B|469:153|450:121|467:102|449:69|403:62,1,139.999995727539,10|0,0:1|0:0,0:0:0:0:
412,63,63392,1,2,0:0:0:0:
276,244,63574,6,0,B|309:236|328:204|311:185|329:152|375:145,1,139.999995727539,2|0,0:0|0:0,0:0:0:0:
366,146,63937,1,10,0:0:0:0:
255,53,64119,5,10,0:1:0:0:
126,150,64301,1,8,0:0:0:0:
0,65,64483,1,10,0:0:0:0:
132,13,64664,6,0,L|103:154,1,133.333333333333,10|0,0:0|0:0,0:0:0:0:
42,331,65210,2,0,P|76:289|155:283,1,133.333333333333,2|2,0:3|0:0,0:0:0:0:
269,190,65755,2,0,P|294:227|337:237,1,66.6666666666667,2|0,0:0|0:0,0:0:0:0:
402,203,66119,1,8,0:0:0:0:
312,101,66301,2,0,P|324:49|399:21,1,133.333333333333,2|0,0:3|0:0,0:0:0:0:
402,203,66846,1,8,0:0:0:0:
402,203,67210,5,2,0:0:0:0:
320,256,67392,2,0,P|275:235|256:201,1,66.6666666666667,2|0,0:3|0:0,0:0:0:0:
200,320,67755,2,0,P|249:276|314:274,1,133.333333333333,2|0,0:0|0:0,0:0:0:0:
391,327,68301,1,8,0:0:0:0:
402,203,68483,2,0,L|381:126,1,66.6666666666667,2|0,0:3|0:0,0:0:0:0:
190,174,68846,5,8,0:0:0:0:
108,127,69028,1,10,0:0:0:0:
200,182,69392,1,0,0:0:0:0:
293,146,69574,2,0,P|309:121|302:72,2,66.6666666666667,0|0|0,0:3|0:0|0:0,0:0:0:0:
121,283,70119,6,0,L|253:298,1,133.333333333333,10|0,0:0|0:0,0:0:0:0:
270,304,70664,2,0,P|292:254|283:229,1,66.6666666666667,0|0,0:3|0:0,0:0:0:0:
200,73,71028,6,0,B|153:78|121:122|156:170|111:214|56:205,1,200,10|0,0:0|0:0,0:0:0:0:
248,176,71755,1,2,0:3:0:0:
248,176,71846,2,0,P|304:204|313:242,1,100,0|8,0:0|0:0,0:0:0:0:
402,312,72301,5,2,0:0:0:0:
402,312,72483,1,0,0:0:0:0:
402,312,72664,1,8,0:0:0:0:
432,276,72846,5,2,0:3:0:0:
446,204,73028,1,8,0:0:0:0:
396,132,73210,1,8,0:0:0:0:
261,87,73392,6,0,P|336:74|377:17,1,133.333333333333,10|0,0:0|0:0,0:0:0:0:
236,73,73937,2,0,P|213:125|224:157,1,66.6666666666667,2|0,0:3|0:0,0:0:0:0:
277,206,74301,1,0,0:0:0:0:
452,177,74483,2,0,P|480:232|450:295,1,133.333333333333,2|8,0:0|0:0,0:0:0:0:
338,355,75028,2,0,L|191:336,1,133.333333333333,2|0,0:3|0:0,0:0:0:0:
49,320,75574,1,8,0:0:0:0:
49,320,75937,5,2,0:0:0:0:
97,243,76119,2,0,P|149:270|157:286,1,66.6666666666667,2|0,0:3|0:0,0:0:0:0:
74,240,76483,2,0,P|122:210|130:133,1,133.333333333333,2|0,0:0|0:0,0:0:0:0:
19,78,77028,1,8,0:0:0:0:
203,27,77210,1,2,0:3:0:0:
203,27,77574,5,12,0:0:0:0:
203,27,79937,5,8,0:1:0:0:
209,45,80119,1,8,0:1:0:0:
215,63,80301,1,8,0:1:0:0:
332,26,80483,5,8,0:1:0:0:
313,59,80664,1,8,0:1:0:0:
296,94,80846,1,8,0:1:0:0:
429,148,81028,5,8,0:1:0:0:
346,165,81210,1,8,0:1:0:0:
265,194,81392,1,8,0:1:0:0:
346,350,81574,5,8,0:0:0:0:
238,278,81755,1,8,0:1:0:0:
120,222,81937,1,8,0:1:0:0:
429,148,82119,6,0,P|451:188|437:225,1,83.3333333333333,10|0,0:0|0:0,0:0:0:0:
435,135,82664,6,0,P|463:183|348:253,1,213.333333333333,12|0,0:1|0:0,0:0:0:0:
163,71,83210,6,0,B|116:54|116:54|78:75,1,93.3333304850261,10|0,0:0|0:0,0:0:0:0:
14,120,83574,1,2,0:0:0:0:
330,174,83755,2,0,B|377:157|377:157|414:178,1,93.3333304850261,10|0,0:1|0:0,0:0:0:0:
479,223,84119,1,2,0:0:0:0:
222,162,84301,6,0,P|184:216|259:293,1,186.666660970052,10|0,0:0|0:0,0:0:0:0:
270,291,84846,6,0,P|285:253|276:228,1,66.6666666666667,8|2,0:1|0:0,0:0:0:0:
104,128,85392,6,0,B|150:107|150:107|202:35|202:35|251:15,1,186.666660970052,10|2,0:0|0:0,0:0:0:0:
78,133,85937,2,0,B|46:100|46:100|63:56,1,93.3333304850261,10|0,0:1|0:0,0:0:0:0:
330,178,86301,1,10,0:0:0:0:
407,121,86483,6,0,P|419:68|303:48,1,186.666660970052,10|0,0:0|0:0,0:0:0:0:
427,253,87028,2,0,P|376:262|355:316,1,93.3333304850261,10|0,0:1|0:0,0:0:0:0:
377,384,87392,1,0,0:0:0:0:
217,237,87574,2,0,B|138:256|138:256|105:276|105:276|40:290,1,186.666660970052,10|0,0:0|0:0,0:0:0:0:
241,234,88119,2,0,P|268:284|255:313,1,93.3333304850261,10|0,0:1|0:0,0:0:0:0:
181,359,88483,1,2,0:0:0:0:
39,288,88664,1,10,0:0:0:0:
39,288,89210,6,0,B|57:237|57:237|41:149|41:149|54:108,1,186.666660970052,10|0,0:1|0:0,0:0:0:0:
59,293,89755,6,0,P|117:257|150:266,1,93.3333304850261,10|0,0:0|0:0,0:0:0:0:
181,359,90119,1,8,0:0:0:0:
345,256,90301,5,8,0:1:0:0:
244,132,90483,1,8,0:0:0:0:
298,43,90664,1,8,0:0:0:0:
368,93,90846,6,0,P|374:133|344:167,1,83.3333333333333,10|0,0:0|0:0,0:0:0:0:
331,173,91392,6,0,B|243:162|243:162|194:144|194:144|97:134,1,213.333333333333,8|0,0:1|0:0,0:0:0:0:
283,312,91937,6,0,P|274:267|221:248,1,93.3333304850261,10|0,0:0|0:0,0:0:0:0:
161,305,92301,1,2,0:0:0:0:
326,165,92483,2,0,P|287:139|236:163,1,93.3333304850261,10|0,0:1|0:0,0:0:0:0:
234,246,92846,1,2,0:0:0:0:
262,40,93028,6,0,P|217:49|247:153,1,186.666660970052,10|0,0:0|0:0,0:0:0:0:
263,165,93574,6,0,P|300:155|327:165,1,66.6666666666667,8|0,0:1|0:0,0:0:0:0:
57,193,94119,6,0,P|117:213|127:257,1,93.3333304850261,10|0,0:0|0:0,0:0:0:0:
90,319,94483,1,2,0:0:0:0:
297,153,94664,2,0,P|311:218|301:248,1,93.3333304850261,10|0,0:1|0:0,0:0:0:0:
245,317,95028,1,10,0:0:0:0:
500,285,95210,6,0,P|466:329|327:385,1,186.666660970052,10|0,0:0|0:0,0:0:0:0:
1,367,95755,2,0,B|14:320|75:306|85:323|135:316|151:263,1,186.666660970052,10|0,0:1|0:0,0:0:0:0:
372,84,96301,2,0,B|365:106|347:111|347:111|200:87,1,186.666660970052,10|0,0:0|0:0,0:0:0:0:
148,270,96846,2,0,P|193:251|199:203,1,93.3333304850261,10|0,0:1|0:0,0:0:0:0:
125,148,97210,1,2,0:0:0:0:
216,12,97392,1,8,0:0:0:0:
216,12,97937,5,10,0:1:0:0:
302,84,98119,1,2,0:0:0:0:
264,168,98301,2,0,L|281:65,2,93.3333304850261,2|8|0,0:0|0:0|0:0,0:0:0:0:
231,335,98846,1,8,0:0:0:0:
339,216,99028,5,8,0:1:0:0:
197,99,99210,1,8,0:0:0:0:
293,0,99392,1,8,0:0:0:0:
293,0,99574,6,0,P|357:17|393:90,1,150.000005722046,8|2,0:0|0:3,0:0:0:0:
370,236,100301,5,2,0:0:0:0:
370,236,100483,1,2,0:0:0:0:
370,236,100664,2,0,B|325:228|307:200|321:182|303:144|255:141,1,150.000005722046,10|2,0:0|0:3,0:0:0:0:
90,225,101574,1,0,0:0:0:0:
43,147,101755,6,0,P|46:130|56:109,4,25.0000009536744,10|2|2|2|2,0:0|0:0|0:0|0:0|0:0,0:0:0:0:
172,279,102301,2,0,L|287:256,1,100.000003814697,2|2,0:3|0:0,0:0:0:0:
294,256,102846,2,0,P|303:217|256:181,1,100.000003814697,8|8,0:0|0:0,0:0:0:0:
172,279,103392,1,2,0:3:0:0:
68,213,103574,5,2,0:0:0:0:
68,213,103755,1,10,0:0:0:0:
68,213,103937,2,0,L|86:103,1,100.000003814697,10|0,0:0|0:0,0:0:0:0:
104,23,104483,1,2,0:3:0:0:
227,119,104664,5,2,0:0:0:0:
227,119,104846,1,2,0:0:0:0:
227,119,105028,2,0,P|260:94|329:87,1,100.000003814697,10|2,0:0|0:0,0:0:0:0:
416,157,105574,1,2,0:3:0:0:
416,157,105937,6,0,P|386:176|398:283,1,150.000005722046,10|2,0:0|0:0,0:0:0:0:
446,151,106664,2,0,P|458:116|448:89,2,50.0000019073487,2|2|8,0:3|0:0|0:0,0:0:0:0:
432,156,107210,1,8,0:0:0:0:
432,156,107574,2,0,L|363:145,1,50.0000019073487,8|2,0:0|0:3,0:0:0:0:
195,111,107937,5,10,0:0:0:0:
195,111,108119,1,10,0:0:0:0:
195,111,108301,2,0,P|226:157|212:210,1,100.000003814697,10|0,0:0|0:0,0:0:0:0:
150,259,108846,1,2,0:3:0:0:
52,153,109028,5,2,0:0:0:0:
52,153,109210,1,2,0:0:0:0:
52,153,109392,2,0,P|21:199|35:252,1,100.000003814697,10|8,0:0|0:0,0:0:0:0:
114,287,109937,1,2,0:3:0:0:
253,145,110301,5,2,0:0:0:0:
334,198,110483,2,0,P|368:182|378:165,2,50.0000019073487,10|2|2,0:0|0:0|0:0,0:0:0:0:
240,124,111028,5,2,0:3:0:0:
170,185,111210,2,0,P|163:209|171:233,1,50.0000019073487,2|2,0:0|0:0,0:0:0:0:
375,346,111574,5,10,0:0:0:0:
401,332,111755,1,2,0:0:0:0:
437,266,111937,1,10,0:0:0:0:
374,172,112119,2,0,P|376:135|395:113,1,50.0000019073487,2|0,0:3|0:0,0:0:0:0:
471,70,112483,2,0,L|435:66,1,25.0000009536744,10|0,0:0|0:0,0:0:0:0:
477,57,112664,6,0,L|377:44,1,100.000003814697,8|0,0:0|0:0,0:0:0:0:
183,40,113210,2,0,P|233:75|240:115,1,100.000003814697,2|2,0:3|0:0,0:0:0:0:
120,285,113755,2,0,L|137:186,1,100.000003814697,8|2,0:0|0:0,0:0:0:0:
106,293,114301,2,0,L|95:227,1,50.0000019073487,2|0,0:3|0:0,0:0:0:0:
233,197,114664,6,0,L|201:343,1,150.000005722046,8|2,0:0|0:0,0:0:0:0:
201,343,115392,1,2,0:3:0:0:
205,347,115755,2,0,B|265:330|265:330|325:330|325:330|382:310,1,175.00000667572,10|0,0:0|0:0,0:0:0:0:
186,351,116483,5,2,0:3:0:0:
140,262,116664,1,8,0:0:0:0:
197,183,116846,1,10,0:0:0:0:
197,183,116937,1,10,0:0:0:0:
197,183,117028,2,0,B|240:195|240:195|278:177,1,83.3333333333333,10|0,0:0|0:0,0:0:0:0:
287,172,117574,6,0,B|340:127|327:49|255:61|245:101,1,173.333325398763,12|0,0:0|0:0,0:0:0:0:
21,254,118119,6,0,P|89:230|164:226,1,133.333333333333,10|2,0:0|0:0,0:0:0:0:
168,233,118574,1,2,0:0:0:0:
184,243,118664,2,0,P|202:204|191:173,1,66.6666666666667,8|0,0:1|0:0,0:0:0:0:
116,119,119028,1,2,0:0:0:0:
78,325,119210,6,0,P|126:311|161:320,1,66.6666666666667,8|0,0:0|0:0,0:0:0:0:
321,200,119574,1,2,0:0:0:0:
443,291,119755,1,10,0:1:0:0:
443,291,120119,5,2,0:0:0:0:
504,237,120301,2,0,P|511:190|461:88,1,133.333333333333,8|2,0:0|0:0,0:0:0:0:
431,280,120846,2,0,P|391:247|363:242,1,66.6666666666667,8|0,0:1|0:0,0:0:0:0:
254,309,121210,1,2,0:0:0:0:
131,217,121392,5,8,0:0:0:0:
131,217,121483,1,2,0:0:0:0:
131,217,121574,1,2,0:0:0:0:
131,217,121664,2,0,P|108:225|82:234,2,33.3333333333333,2|2|2,0:0|0:0|0:0,0:0:0:0:
148,206,121937,2,0,B|201:214|201:214|238:230|238:230|296:238,1,133.333333333333,8|0,0:1|0:0,0:0:0:0:
381,89,122483,6,0,P|333:109|318:138,2,66.6666666666667,10|2|2,0:0|0:0|0:0,0:0:0:0:
447,213,123028,2,0,P|418:180|392:175,1,66.6666666666667,10|2,0:1|0:0,0:0:0:0:
238,336,123392,1,2,0:0:0:0:
160,273,123574,1,8,0:0:0:0:
160,273,124119,6,0,P|170:197|232:190,1,133.333333333333,8|2,0:1|0:0,0:0:0:0:
381,269,124664,1,8,0:0:0:0:
445,221,124846,6,0,P|433:252|402:272,1,66.6666666666667,0|2,0:0|0:0,0:0:0:0:
297,183,125210,2,0,P|327:196|359:191,2,66.6666666666667,10|2|2,0:1|0:0|0:0,0:0:0:0:
134,131,125755,6,0,B|173:122|186:94|170:65|192:36|232:29,1,133.333333333333,8|2,0:0|0:0,0:0:0:0:
345,126,126301,1,10,0:1:0:0:
364,128,126392,1,2,0:0:0:0:
383,123,126483,1,2,0:0:0:0:
399,112,126574,1,2,0:0:0:0:
409,95,126664,1,2,0:0:0:0:
411,75,126755,1,2,0:0:0:0:
401,57,126846,6,0,P|364:94|378:186,1,133.333333333333,10|2,0:0|0:0,0:0:0:0:
334,290,127392,1,10,0:1:0:0:
321,305,127483,1,2,0:0:0:0:
302,311,127574,1,2,0:0:0:0:
282,311,127664,1,2,0:0:0:0:
264,301,127755,1,2,0:0:0:0:
250,286,127846,1,2,0:0:0:0:
243,266,127937,6,0,B|248:210|248:210|238:186|238:186|243:117,1,133.333333333333,10|2,0:0|0:0,0:0:0:0:
85,38,128483,5,8,0:1:0:0:
49,109,128664,1,2,0:0:0:0:
129,107,128846,1,2,0:0:0:0:
345,21,129028,5,10,0:0:0:0:
373,130,129210,1,2,0:0:0:0:
261,108,129392,1,2,0:0:0:0:
61,275,129574,5,10,0:1:0:0:
238,249,129755,1,2,0:0:0:0:
132,124,129937,2,0,L|138:170,1,33.3333333333333,2|0,0:0|0:0,0:0:0:0:
149,256,130119,6,0,L|129:109,1,133.333333333333,8|0,0:0|0:0,0:0:0:0:
246,315,130664,2,0,L|236:241,1,66.6666666666667,8|0,0:1|0:0,0:0:0:0:
131,123,131028,1,2,0:0:0:0:
262,43,131210,6,0,B|246:60|228:62|228:62|134:45,1,133.333333333333,8|0,0:0|0:0,0:0:0:0:
279,28,131755,2,0,P|320:46|333:82,2,66.6666666666667,10|2|2,0:1|0:0|0:0,0:0:0:0:
263,208,132301,5,8,0:0:0:0:
282,205,132483,1,8,0:1:0:0:
298,193,132664,1,8,0:1:0:0:
367,268,132846,5,8,0:1:0:0:
392,230,133028,1,8,0:1:0:0:
400,182,133210,1,8,0:1:0:0:
506,224,133392,5,8,0:0:0:0:
495,137,133574,1,8,0:1:0:0:
422,89,133755,1,8,0:1:0:0:
505,21,133937,5,8,0:1:0:0:
343,5,134119,1,8,0:1:0:0:
263,121,134301,1,8,0:1:0:0:
172,70,134483,6,0,P|131:66|100:92,1,83.3333333333333,10|0,0:0|0:0,0:0:0:0:
100,92,135028,6,0,P|174:105|256:-5,1,213.333333333333,12|0,0:1|0:0,0:0:0:0:
480,183,135574,6,0,B|443:166|443:166|292:210,1,186.666660970052,10|0,0:0|0:0,0:0:0:0:
75,196,136119,2,0,P|65:247|88:284,1,93.3333304850261,10|0,0:1|0:0,0:0:0:0:
302,325,136483,1,2,0:0:0:0:
313,241,136664,2,0,L|212:270,1,93.3333304850261,10|0,0:0|0:0,0:0:0:0:
89,111,137028,5,2,0:0:0:0:
75,196,137210,2,0,P|142:180|168:140,1,93.3333304850261,8|0,0:1|0:0,0:0:0:0:
387,199,137574,1,2,0:0:0:0:
401,284,137755,2,0,P|334:268|308:228,1,93.3333304850261,10|0,0:0|0:0,0:0:0:0:
177,271,138119,1,2,0:0:0:0:
163,356,138301,2,0,P|230:340|256:300,1,93.3333304850261,10|0,0:1|0:0,0:0:0:0:
212,151,138664,1,10,0:0:0:0:
300,34,138846,6,0,B|284:94|284:94|294:149|294:149|275:220,1,186.666660970052,10|0,0:0|0:0,0:0:0:0:
312,13,139392,2,0,B|357:1|357:1|406:23,2,93.3333304850261,10|0|8,0:1|0:0|0:0,0:0:0:0:
195,223,139937,6,0,B|142:225|116:188|133:147|104:113|59:115,1,186.666660970052,10|0,0:0|0:0,0:0:0:0:
212,206,140483,2,0,P|243:165|234:108,1,93.3333304850261,10|0,0:1|0:0,0:0:0:0:
174,68,140846,1,0,0:0:0:0:
195,223,141028,6,0,P|247:213|284:240,1,93.3333304850261,10|0,0:0|0:0,0:0:0:0:
298,316,141392,1,2,0:0:0:0:
479,94,141574,6,0,B|418:100|418:100|408:109|408:109|359:115|359:115|348:124|348:124|296:130,1,186.666660970052,10|2,0:1|0:0,0:0:0:0:
497,94,142119,2,0,P|476:186|473:277,1,186.666660970052,10|8,0:0|0:0,0:0:0:0:
290,146,142664,5,8,0:1:0:0:
184,253,142846,1,8,0:0:0:0:
286,381,143028,1,8,0:0:0:0:
367,331,143210,6,0,P|372:298|332:259,1,83.3333333333333,10|0,0:0|0:0,0:0:0:0:
381,336,143755,6,0,B|393:237|393:237|404:212|404:212|413:115,1,213.333333333333,8|0,0:1|0:0,0:0:0:0:
494,384,144301,6,0,L|516:191,1,186.666660970052,10|0,0:0|0:0,0:0:0:0:
386,53,144846,2,0,P|333:58|305:99,1,93.3333304850261,10|0,0:1|0:0,0:0:0:0:
213,276,145210,1,2,0:0:0:0:
88,200,145392,1,10,0:0:0:0:
88,200,145755,5,2,0:0:0:0:
140,132,145937,2,0,L|113:255,1,93.3333304850261,8|0,0:1|0:0,0:0:0:0:
369,304,146301,1,2,0:0:0:0:
350,380,146483,2,0,L|329:288,1,93.3333304850261,10|0,0:0|0:0,0:0:0:0:
479,172,146846,1,2,0:0:0:0:
467,84,147028,2,0,L|446:175,1,93.3333304850261,10|0,0:1|0:0,0:0:0:0:
475,65,147392,1,10,0:0:0:0:
350,221,147574,6,0,B|299:203|299:203|258:161|258:161|189:132,1,186.666660970052,10|0,0:0|0:0,0:0:0:0:
374,220,148119,2,0,P|399:172|375:127,1,93.3333304850261,10|0,0:1|0:0,0:0:0:0:
300,71,148483,1,8,0:0:0:0:
115,226,148664,6,0,L|207:205,1,93.3333304850261,10|0,0:0|0:0,0:0:0:0:
415,290,149028,1,2,0:0:0:0:
410,322,149119,1,2,0:0:0:0:
382,339,149210,2,0,L|228:313,1,139.999995727539,10|0,0:1|0:0,0:0:0:0:
243,315,149574,6,0,P|238:286|253:263,1,46.6666652425131,2|0,0:0|0:0,0:0:0:0:
323,233,149755,2,0,P|352:189|280:95,1,186.666660970052,8|8,0:0|0:1,0:0:0:0:
114,191,150301,5,8,0:1:0:0:
60,138,150483,1,8,0:1:0:0:
84,67,150664,1,8,0:1:0:0:
131,200,150846,5,8,0:0:0:0:
203,137,151028,1,8,0:1:0:0:
173,31,151210,1,8,0:1:0:0:
132,216,151392,5,8,0:1:0:0:
239,291,151574,1,8,0:1:0:0:
353,228,151755,1,8,0:1:0:0:
429,266,151937,6,0,P|444:310|422:350,1,83.3333333333333,10|0,0:0|0:0,0:0:0:0:
430,342,152483,6,0,B|433:290|433:290|481:193|481:193|482:112,1,213.333333333333,12|0,0:1|0:0,0:0:0:0:
292,173,153028,6,0,P|356:167|370:144,1,93.3333304850261,10|0,0:0|0:0,0:0:0:0:
278,267,153392,1,2,0:0:0:0:
235,113,153574,2,0,P|248:175|273:186,1,93.3333304850261,10|0,0:1|0:0,0:0:0:0:
430,342,153937,1,2,0:0:0:0:
461,234,154119,6,0,L|254:271,1,186.666660970052,10|0,0:0|0:0,0:0:0:0:
277,266,154664,6,0,P|260:248|264:204,1,66.6666666666667,8|2,0:1|0:0,0:0:0:0:
251,37,155210,6,0,B|198:49|180:89|204:115|174:155|115:156,1,186.666660970052,10|2,0:0|0:0,0:0:0:0:
329,100,155755,2,0,P|301:62|255:55,1,93.3333304850261,10|0,0:1|0:0,0:0:0:0:
117,177,156119,1,10,0:0:0:0:
55,101,156301,6,0,B|101:101|136:143|117:166|152:199|217:195,1,186.666660970052,10|0,0:0|0:0,0:0:0:0:
449,67,156846,2,0,P|424:143|413:282,1,186.666660970052,10|0,0:1|0:0,0:0:0:0:
473,50,157392,2,0,P|434:8|332:64,1,186.666660970052,10|0,0:0|0:0,0:0:0:0:
189,296,157937,1,10,0:1:0:0:
189,296,158301,1,2,0:0:0:0:
139,224,158483,2,0,P|189:206|234:223,1,93.3333304850261,10|0,0:0|0:0,0:0:0:0:
121,228,159028,6,0,P|145:175|109:34,1,186.666660970052,10|0,0:1|0:0,0:0:0:0:
282,191,159574,2,0,P|354:173|395:186,1,93.3333304850261,10|0,0:0|0:0,0:0:0:0:
422,266,159937,1,8,0:0:0:0:
265,205,160119,5,8,0:1:0:0:
312,58,160301,1,8,0:0:0:0:
179,6,160483,1,8,0:0:0:0:
110,56,160664,6,0,B|116:98|116:98|124:109|124:109|128:144,1,83.3333333333333,10|0,0:0|0:0,0:0:0:0:
95,55,161210,6,0,B|109:159|109:159|123:175|123:175|136:269,1,213.333333333333,8|0,0:1|0:0,0:0:0:0:
343,170,161755,6,0,L|328:280,1,93.3333304850261,10|0,0:0|0:0,0:0:0:0:
310,360,162119,1,2,0:0:0:0:
358,151,162301,2,0,L|343:41,1,93.3333304850261,10|0,0:1|0:0,0:0:0:0:
143,198,162664,1,2,0:0:0:0:
84,127,162846,6,0,B|97:104|119:98|119:98|273:136,1,186.666660970052,10|0,0:0|0:0,0:0:0:0:
254,131,163392,6,0,P|273:106|270:59,1,66.6666666666667,8|0,0:1|0:0,0:0:0:0:
178,269,163937,6,0,L|365:223,1,186.666660970052,10|2,0:0|0:0,0:0:0:0:
160,274,164483,2,0,B|145:318|145:318|174:357,1,93.3333304850261,10|0,0:1|0:0,0:0:0:0:
189,186,164846,1,10,0:0:0:0:
379,304,165028,6,0,B|421:295|451:253|431:229|446:181|498:170,1,186.666660970052,10|0,0:0|0:0,0:0:0:0:
251,251,165574,2,0,P|331:279|335:391,1,186.666660970052,10|0,0:1|0:0,0:0:0:0:
237,245,166119,2,0,B|252:160|252:160|267:132|267:132|280:44,1,186.666660970052,10|0,0:0|0:0,0:0:0:0:
87,121,166664,2,0,L|200:101,1,93.3333304850261,10|0,0:1|0:0,0:0:0:0:
358,78,167028,1,2,0:0:0:0:
178,104,167210,1,8,0:0:0:0:
178,104,167755,5,10,0:1:0:0:
267,90,167937,1,2,0:0:0:0:
358,78,168119,2,0,L|328:273,1,186.666660970052,2|0,0:0|0:0,0:0:0:0:
361,60,168664,1,8,0:0:0:0:
387,162,168846,5,8,0:1:0:0:
295,241,169028,1,8,0:0:0:0:
365,342,169210,1,8,0:0:0:0:
162,371,169392,6,0,L|65:353,1,83.3333333333333,10|0,0:0|0:0,0:0:0:0:
80,355,169937,6,0,B|161:338|161:338|191:342|191:342|294:320,1,213.333333333333,12|0,0:1|0:0,0:0:0:0:
453,185,170483,6,0,B|410:185|373:151|393:109|361:66|306:65,1,186.666660970052,10|0,0:0|0:0,0:0:0:0:
147,118,171028,2,0,P|204:122|222:157,1,93.3333304850261,10|0,0:1|0:0,0:0:0:0:
110,314,171392,2,0,P|95:284|100:261,1,46.6666652425131,2|0,0:0|0:0,0:0:0:0:
254,273,171574,6,0,P|182:238|128:313,1,186.666660970052,10|2,0:0|0:0,0:0:0:0:
274,284,172119,2,0,P|321:250|320:212,1,93.3333304850261,8|0,0:1|0:0,0:0:0:0:
171,127,172483,1,2,0:0:0:0:
171,127,172664,2,0,L|382:69,1,186.666660970052,10|2,0:0|0:0,0:0:0:0:
280,290,173210,2,0,L|429:305,1,139.999995727539,10|0,0:1|0:0,0:0:0:0:
419,304,173574,2,0,P|440:260|432:241,1,46.6666652425131,10|2,0:0|0:0,0:0:0:0:
503,189,173755,6,0,P|468:136|359:153,1,186.666660970052,10|0,0:0|0:0,0:0:0:0:
419,304,174301,1,10,0:1:0:0:
419,304,174664,1,8,0:0:0:0:
503,189,174846,6,0,P|489:95|500:-2,1,186.666660970052,10|0,0:0|0:0,0:0:0:0:
332,26,175392,2,0,P|347:72|341:122,1,93.3333304850261,10|0,0:1|0:0,0:0:0:0:
248,180,175755,1,0,0:0:0:0:
95,105,175937,1,10,0:0:0:0:
95,105,176301,5,2,0:0:0:0:
40,206,176483,2,0,L|145:190,1,93.3333304850261,10|0,0:1|0:0,0:0:0:0:
323,243,176846,1,2,0:0:0:0:
323,243,177028,2,0,B|276:243|244:281|263:320|229:356|186:361,1,186.666660970052,10|8,0:0|0:0,0:0:0:0:
351,243,177574,5,8,0:1:0:0:
434,294,177755,1,8,0:0:0:0:
505,232,177937,1,8,0:0:0:0:
351,243,178119,6,0,L|269:209,1,83.3333333333333,10|0,0:0|0:0,0:0:0:0:
274,211,178664,6,0,B|200:230|200:230|135:273|135:273|66:289,1,213.333333333333,8|0,0:1|0:0,0:0:0:0:
264,108,179210,6,0,L|464:133,1,186.666660970052,10|0,0:0|0:0,0:0:0:0:
256,92,179755,2,0,L|150:116,1,93.3333304850261,10|0,0:1|0:0,0:0:0:0:
73,143,180119,1,2,0:0:0:0:
264,108,180301,6,0,P|229:146|225:199,1,93.3333304850261,10|0,0:0|0:0,0:0:0:0:
350,327,180664,1,2,0:0:0:0:
480,247,180846,1,8,0:1:0:0:
480,247,181210,5,2,0:0:0:0:
480,247,181392,2,0,L|464:42,1,186.666660970052,10|2,0:0|0:0,0:0:0:0:
470,268,181937,2,0,P|416:282|393:252,1,93.3333304850261,10|0,0:1|0:0,0:0:0:0:
257,136,182301,1,10,0:0:0:0:
196,201,182483,6,0,P|230:173|285:276,1,186.666660970052,10|0,0:0|0:0,0:0:0:0:
472,372,183028,1,10,0:1:0:0:
472,372,183392,1,8,0:0:0:0:
465,288,183574,6,0,B|403:285|380:319|393:343|360:385|298:376,1,186.666660970052,10|2,0:0|0:0,0:0:0:0:
472,372,184119,2,0,P|486:323|452:280,1,93.3333304850261,10|0,0:1|0:0,0:0:0:0:
228,326,184483,1,2,0:0:0:0:
310,278,184664,6,0,P|314:227|283:198,2,93.3333304850261,8|8|8,0:0|0:1|0:1,0:0:0:0:
152,286,185210,5,8,0:1:0:0:
152,286,185392,1,8,0:1:0:0:
152,286,185574,1,8,0:1:0:0:
125,206,185755,5,8,0:0:0:0:
161,130,185937,1,8,0:1:0:0:
244,120,186119,1,8,0:1:0:0:
181,13,186301,5,8,0:1:0:0:
239,135,186483,1,8,0:1:0:0:
373,152,186664,1,8,0:1:0:0:
477,315,186846,5,10,0:0:0:0:
