osu file format v14

[General]
AudioFilename: audio.mp3
AudioLeadIn: 0
PreviewTime: 81392
Countdown: 0
SampleSet: Soft
StackLeniency: 0.6
Mode: 0
LetterboxInBreaks: 0
WidescreenStoryboard: 1

[Editor]
Bookmarks: 3574,12301,28664,29755,47210,64664,82119,99574,117028,134483,151937,169392,186846
DistanceSpacing: 0.9
BeatDivisor: 6
GridSize: 16
TimelineZoom: 1.299999

[Metadata]
Title:Step Into The Light (feat. Jonah Hitchens)
TitleUnicode:Step Into The Light (feat. Jonah Hitchens)
Artist:Teminite
ArtistUnicode:Teminite
Creator:hypercyte
Version:Easy
Source:
Tags:hypercute noffy inception english vocal swing low bpm 1/3 edm electronic dance music
BeatmapID:2276960
BeatmapSetID:1089017

[Difficulty]
HPDrainRate:3
CircleSize:3
OverallDifficulty:3
ApproachRate:3
SliderMultiplier:1
SliderTickRate:1

[Events]
//Background and Video events
0,0,"pexels-photo-2301177.jpg",0,0
//Break Periods
2,77773,78497
2,99773,106861
//Storyboard Layer 0 (Background)
//Storyboard Layer 1 (Fail)
//Storyboard Layer 2 (Pass)
//Storyboard Layer 3 (Foreground)
//Storyboard Layer 4 (Overlay)
//Storyboard Sound Samples

[TimingPoints]
3574,545.454545454546,4,2,4,44,1,0
3574,-100,4,2,4,44,0,0
11210,-100,4,2,4,24,0,0
11755,-100,4,2,4,44,0,0
12301,-100,4,2,4,44,0,0
27574,-100,4,2,4,33,0,0
28119,-100,4,2,4,44,0,0
28664,-100,4,2,4,54,0,0
29210,-100,4,2,4,64,0,0
29755,-100,4,2,44,74,0,0
30301,-100,4,2,44,74,0,1
30846,-100,4,2,44,74,0,0
38483,-100,4,2,44,74,0,0
39028,-100,4,2,44,74,0,1
39574,-100,4,2,44,74,0,0
47210,-100,4,2,44,74,0,0
47755,-100,4,2,44,74,0,0
55937,-100,4,2,44,74,0,0
56483,-100,4,2,44,74,0,0
64664,-100,4,2,4,44,0,0
79937,-100,4,2,4,34,0,0
80483,-100,4,2,4,44,0,0
81028,-100,4,2,4,54,0,0
81574,-100,4,2,44,64,0,0
81755,-100,4,2,4,64,0,0
82119,-100,4,2,44,74,0,0
82664,-100,4,2,44,74,0,1
83210,-100,4,2,44,74,0,0
90846,-100,4,2,44,74,0,0
91392,-100,4,2,44,74,0,1
91937,-100,4,2,44,74,0,0
99574,-100,4,2,4,54,0,0
108301,-100,4,2,4,54,0,0
116483,-100,4,2,44,64,0,0
117028,-100,4,2,44,64,0,0
117574,-100,4,2,44,64,0,0
118119,-100,4,2,44,64,0,0
132301,-100,4,2,44,34,0,0
132483,-100,4,2,4,34,0,0
132846,-100,4,2,44,44,0,0
133028,-100,4,2,4,44,0,0
133392,-100,4,2,44,54,0,0
133574,-100,4,2,4,54,0,0
133937,-100,4,2,44,64,0,0
134119,-100,4,2,4,64,0,0
134483,-100,4,2,44,74,0,0
135028,-100,4,2,44,74,0,1
135574,-100,4,2,44,74,0,1
143210,-100,4,2,44,74,0,0
143755,-100,4,2,44,74,0,1
149755,-100,4,2,44,34,0,1
149937,-100,4,2,4,34,0,1
150301,-100,4,2,44,44,0,1
150483,-100,4,2,4,44,0,1
150846,-100,4,2,44,54,0,1
151028,-100,4,2,4,54,0,1
151392,-100,4,2,44,64,0,1
151574,-100,4,2,4,64,0,1
151937,-100,4,2,44,74,0,0
152483,-100,4,2,44,74,0,1
153028,-100,4,2,44,74,0,0
160664,-100,4,2,44,74,0,0
161210,-100,4,2,44,74,0,1
161755,-100,4,2,44,74,0,0
169392,-100,4,2,44,74,0,0
169937,-100,4,2,44,74,0,1
170483,-100,4,2,44,74,0,0
178119,-100,4,2,44,74,0,0
178664,-100,4,2,44,74,0,0
179210,-100,4,2,44,74,0,0
184664,-100,4,2,44,34,0,0
184846,-100,4,2,4,34,0,0
185209,-100,4,2,44,44,0,0
185391,-100,4,2,4,44,0,0
185755,-100,4,2,44,54,0,0
185937,-100,4,2,4,54,0,0
186300,-100,4,2,44,64,0,0
186482,-100,4,2,4,64,0,0
186846,-100,4,2,44,74,0,0

[Colours]
Combo1 : 254,194,196
Combo2 : 252,201,150
Combo3 : 252,240,154
Combo4 : 222,251,136
Combo5 : 167,250,165
Combo6 : 169,236,250
Combo7 : 206,197,252
Combo8 : 252,197,247

[HitObjects]
60,94,12301,6,0,B|111:98|138:147|116:175|146:226|205:228,1,200,10|2,0:0|0:0,0:0:0:0:
265,173,13937,1,2,0:3:0:0:
347,208,14483,2,0,P|369:258|345:305,1,100,8|2,0:0|0:3,0:0:0:0:
297,320,15392,2,0,L|156:304,1,133.333333333333,2|2,0:0|0:3,0:0:0:0:
75,294,16664,1,10,0:0:0:0:
46,208,17210,1,2,0:3:0:0:
111,146,17755,2,0,L|223:160,1,100,8|2,0:0|0:3,0:0:0:0:
268,173,18664,2,0,P|293:230|251:285,1,133.333333333333,10|2,0:0|0:3,0:0:0:0:
204,314,19755,1,8,0:0:0:0:
306,376,20483,1,2,0:3:0:0:
380,325,21028,6,0,P|395:224|346:125,1,200,10|2,0:0|0:0,0:0:0:0:
266,144,22664,1,2,0:3:0:0:
188,97,23210,2,0,L|80:112,1,100,8|2,0:0|0:3,0:0:0:0:
29,119,24119,2,0,P|8:176|49:249,1,133.333333333333,2|2,0:0|0:3,0:0:0:0:
117,278,25392,2,0,L|219:257,1,100,8|2,0:0|0:3,0:0:0:0:
305,257,26483,2,0,B|332:298|332:298|314:350,1,100,8|2,0:0|0:3,0:0:0:0:
227,365,27574,1,8,0:1:0:0:
183,286,28119,1,8,0:1:0:0:
105,240,28664,1,8,0:1:0:0:
70,156,29210,1,8,0:1:0:0:
126,86,29755,6,0,L|242:93,1,100,10|12,0:0|0:1,0:0:0:0:
308,127,30846,1,10,0:0:0:0:
393,99,31392,1,10,0:1:0:0:
467,149,31937,2,0,P|482:204|441:260,1,100,10|8,0:0|0:1,0:0:0:0:
393,295,33028,1,10,0:0:0:0:
310,258,33574,1,10,0:1:0:0:
224,285,34119,6,0,L|115:276,2,100,10|10|10,0:0|0:1|0:0,0:0:0:0:
310,258,35755,1,10,0:1:0:0:
270,177,36301,1,10,0:0:0:0:
323,104,36846,2,0,P|398:94|466:195,1,200,10|8,0:1|0:1,0:0:0:0:
412,257,38483,6,0,P|365:261|333:307,1,100,10|8,0:0|0:1,0:0:0:0:
271,365,39574,1,10,0:0:0:0:
189,327,40119,1,10,0:1:0:0:
106,291,40664,2,0,L|129:176,1,100,10|8,0:0|0:1,0:0:0:0:
196,134,41755,1,10,0:0:0:0:
277,173,42301,1,10,0:1:0:0:
358,135,42846,6,0,B|405:136|405:136|422:141|422:141|462:142,2,100,10|10|10,0:0|0:1|0:0,0:0:0:0:
281,87,44483,2,0,L|173:85,1,100,10|8,0:1|0:0,0:0:0:0:
110,140,45574,1,10,0:1:0:0:
166,209,46119,2,0,P|177:262|150:310,1,100,8|8,0:0|0:1,0:0:0:0:
221,366,47210,6,0,P|298:353|329:350,2,100,10|12|10,0:0|0:1|0:0,0:0:0:0:
133,345,48846,2,0,P|108:306|125:250,1,100,10|10,0:1|0:0,0:0:0:0:
177,187,49937,1,8,0:1:0:0:
263,212,50483,1,10,0:0:0:0:
340,166,51028,1,10,0:1:0:0:
411,220,51574,6,0,L|407:328,2,100,10|10|10,0:0|0:1|0:0,0:0:0:0:
459,144,53210,2,0,L|462:44,1,100,10|10,0:1|0:0,0:0:0:0:
376,17,54301,2,0,L|290:21,1,66.6666666666667,10|2,0:1|0:0,0:0:0:0:
232,111,55392,1,8,0:1:0:0:
289,180,55937,6,0,L|282:298,2,100,10|8|10,0:0|0:1|0:0,0:0:0:0:
246,100,57574,2,0,P|174:78|147:92,1,100,10|10,0:1|0:0,0:0:0:0:
108,163,58664,1,8,0:1:0:0:
148,243,59210,1,10,0:0:0:0:
103,321,59755,1,10,0:1:0:0:
180,367,60301,6,0,P|225:357|296:354,2,100,10|10|10,0:0|0:1|0:0,0:0:0:0:
96,332,61937,2,0,L|103:221,1,100,10|8,0:1|0:0,0:0:0:0:
135,148,63028,1,10,0:1:0:0:
222,124,63574,1,2,0:0:0:0:
303,161,64119,1,10,0:1:0:0:
386,127,64664,6,0,P|432:188|356:292,1,200,10|2,0:0|0:0,0:0:0:0:
290,266,66301,1,2,0:3:0:0:
209,306,66846,2,0,L|109:293,1,100,8|2,0:0|0:3,0:0:0:0:
50,284,67755,2,0,P|23:216|59:164,1,133.333333333333,2|2,0:0|0:3,0:0:0:0:
141,176,69028,6,0,L|252:173,1,100,10|0,0:0|0:3,0:0:0:0:
304,109,70119,2,0,L|415:106,1,100,10|0,0:0|0:3,0:0:0:0:
463,104,71028,1,10,0:0:0:0:
472,223,71755,2,0,B|382:225|382:225|359:238|359:238|250:240,1,200,2|2,0:3|0:3,0:0:0:0:
197,194,73392,6,0,B|148:205|125:253|152:280|124:334|56:338,1,200,10|2,0:0|0:0,0:0:0:0:
2,280,75028,1,2,0:3:0:0:
34,195,75574,2,0,P|49:119|51:82,1,100,8|2,0:0|0:3,0:0:0:0:
61,37,76483,2,0,P|94:23|156:43,2,100,2|8|12,0:0|0:0|0:0,0:0:0:0:
318,330,79937,5,8,0:1:0:0:
381,265,80483,1,8,0:1:0:0:
378,175,81028,1,8,0:1:0:0:
306,120,81574,1,8,0:0:0:0:
221,151,82119,6,0,L|115:139,1,100,10|12,0:0|0:1,0:0:0:0:
73,63,83210,1,10,0:0:0:0:
137,0,83755,1,10,0:1:0:0:
217,40,84301,2,0,L|316:51,1,100,10|8,0:0|0:1,0:0:0:0:
388,105,85392,1,10,0:0:0:0:
346,184,85937,1,10,0:1:0:0:
393,260,86483,6,0,P|455:274|495:245,2,100,10|10|10,0:0|0:1|0:0,0:0:0:0:
316,213,88119,2,0,P|242:239|233:272,1,100,10|10,0:1|0:0,0:0:0:0:
186,328,89210,2,0,L|80:308,1,100,10|10,0:1|0:0,0:0:0:0:
31,239,90301,1,8,0:1:0:0:
79,163,90846,6,0,B|125:171|125:171|138:180|138:180|178:186,1,100,10|8,0:0|0:1,0:0:0:0:
254,227,91937,1,10,0:0:0:0:
339,197,92483,1,10,0:1:0:0:
374,114,93028,2,0,P|357:58|297:36,1,100,10|8,0:0|0:1,0:0:0:0:
239,71,94119,1,10,0:0:0:0:
152,46,94664,1,10,0:1:0:0:
68,80,95210,6,0,B|53:131|53:131|69:182,2,100,10|10|10,0:0|0:1|0:0,0:0:0:0:
152,49,96846,2,0,L|253:57,1,100,10|8,0:1|0:0,0:0:0:0:
321,114,97937,1,10,0:1:0:0:
280,194,98483,1,8,0:0:0:0:
339,261,99028,2,0,L|438:268,1,100,8|8,0:1|0:0,0:0:0:0:
162,64,108301,6,0,B|216:69|237:129|214:154|253:199|302:201,2,200,10|10|10,0:0|0:0|0:0,0:0:0:0:
74,85,111028,1,2,0:3:0:0:
38,167,111574,2,0,L|62:279,1,100,10|2,0:0|0:3,0:0:0:0:
81,320,112483,6,0,B|148:336|148:336|217:292,1,133.333333333333,10|2,0:0|0:3,0:0:0:0:
244,221,113755,2,0,P|311:211|344:239,1,100,8|2,0:0|0:3,0:0:0:0:
386,258,114664,2,0,P|445:246|443:164,1,133.333333333333,8|2,0:0|0:3,0:0:0:0:
413,139,115755,1,10,0:0:0:0:
292,143,116483,1,2,0:3:0:0:
216,94,117028,6,0,L|96:93,1,100,10|12,0:0|0:0,0:0:0:0:
42,144,118119,2,0,P|15:214|32:256,1,100,10|8,0:0|0:1,0:0:0:0:
65,275,119028,2,0,L|204:266,1,133.333333333333,2|10,0:0|0:1,0:0:0:0:
288,264,120301,2,0,P|319:232|295:178,1,100,8|8,0:0|0:1,0:0:0:0:
261,103,121392,6,0,P|250:65|385:34,1,200,8|10,0:0|0:0,0:0:0:0:
416,84,123028,1,10,0:1:0:0:
422,173,123574,2,0,P|392:220|385:278,1,100,8|8,0:0|0:1,0:0:0:0:
378,352,124664,1,8,0:0:0:0:
287,351,125210,1,10,0:1:0:0:
234,278,125755,6,0,L|133:307,1,100,10|10,0:0|0:1,0:0:0:0:
106,221,126846,2,0,L|202:193,1,100,10|10,0:0|0:1,0:0:0:0:
253,119,127937,2,0,B|303:130|303:130|355:108,1,100,10|8,0:0|0:1,0:0:0:0:
435,133,129028,1,10,0:0:0:0:
451,221,129574,1,10,0:1:0:0:
382,279,130119,6,0,P|330:275|275:278,1,100,8|8,0:0|0:1,0:0:0:0:
192,278,131210,2,0,P|161:232|182:186,1,100,8|10,0:0|0:1,0:0:0:0:
237,129,132301,1,8,0:0:0:0:
194,49,132846,1,8,0:1:0:0:
104,55,133392,1,8,0:0:0:0:
59,133,133937,1,8,0:1:0:0:
116,202,134483,6,0,P|124:246|103:310,1,100,10|12,0:0|0:1,0:0:0:0:
182,352,135574,2,0,L|292:335,1,100,10|10,0:0|0:1,0:0:0:0:
365,367,136664,1,10,0:0:0:0:
447,331,137210,2,0,P|454:282|419:241,1,100,8|10,0:1|0:0,0:0:0:0:
337,222,138301,2,0,P|330:173|365:132,1,100,10|10,0:1|0:0,0:0:0:0:
401,55,139392,5,10,0:1:0:0:
322,11,139937,2,0,L|208:22,1,100,10|10,0:0|0:1,0:0:0:0:
140,57,141028,2,0,P|98:113|104:143,1,100,10|10,0:0|0:1,0:0:0:0:
141,183,141937,2,0,L|281:162,1,133.333333333333,2|8,0:0|0:1,0:0:0:0:
360,182,143210,6,0,P|380:233|357:279,1,100,10|8,0:0|0:1,0:0:0:0:
280,306,144301,1,10,0:0:0:0:
212,246,144846,1,10,0:1:0:0:
122,238,145392,2,0,P|80:268|77:326,1,100,10|8,0:0|0:1,0:0:0:0:
141,371,146483,2,0,L|255:356,1,100,10|10,0:0|0:1,0:0:0:0:
325,328,147574,5,10,0:0:0:0:
411,353,148119,1,10,0:1:0:0:
475,290,148664,2,0,P|485:239|452:193,1,100,10|10,0:0|0:1,0:0:0:0:
379,162,149755,1,8,0:0:0:0:
290,180,150301,1,8,0:1:0:0:
218,125,150846,1,8,0:0:0:0:
129,143,151392,1,8,0:1:0:0:
62,82,151937,6,0,P|84:37|127:17,1,100,10|12,0:0|0:1,0:0:0:0:
210,53,153028,1,10,0:0:0:0:
297,31,153574,1,10,0:1:0:0:
384,53,154119,2,0,P|409:100|392:144,1,100,10|8,0:0|0:1,0:0:0:0:
313,180,155210,1,10,0:0:0:0:
357,258,155755,1,10,0:1:0:0:
294,322,156301,6,0,B|245:319|245:319|231:323|231:323|189:321,2,100,10|10|10,0:0|0:1|0:0,0:0:0:0:
357,258,157937,2,0,P|370:215|333:167,1,100,10|10,0:1|0:0,0:0:0:0:
262,128,159028,2,0,L|156:137,1,100,10|10,0:1|0:0,0:0:0:0:
89,83,160119,1,8,0:1:0:0:
153,20,160664,6,0,L|252:11,1,100,10|8,0:0|0:1,0:0:0:0:
335,47,161755,1,10,0:0:0:0:
419,14,162301,1,10,0:1:0:0:
494,62,162846,2,0,P|511:114|487:161,1,100,10|8,0:0|0:1,0:0:0:0:
411,190,163937,1,10,0:0:0:0:
324,164,164483,1,10,0:1:0:0:
249,213,165028,6,0,P|269:242|252:305,2,100,10|10|10,0:0|0:1|0:0,0:0:0:0:
177,158,166664,2,0,L|77:181,1,100,10|8,0:1|0:0,0:0:0:0:
21,248,167755,1,10,0:1:0:0:
70,323,168301,1,8,0:0:0:0:
157,301,168846,1,8,0:1:0:0:
241,332,169392,6,0,L|348:303,1,100,10|12,0:0|0:1,0:0:0:0:
425,285,170483,2,0,B|469:196|469:196|392:121,1,200,10|10,0:0|0:0,0:0:0:0:
314,89,172119,2,0,P|268:124|218:122,1,100,8|10,0:1|0:0,0:0:0:0:
167,57,173210,1,10,0:1:0:0:
94,110,173755,6,0,P|80:185|87:222,1,100,10|10,0:0|0:1,0:0:0:0:
138,279,174846,2,0,L|244:263,1,100,10|10,0:0|0:1,0:0:0:0:
293,283,175755,2,0,L|436:261,1,133.333333333333,2|10,0:0|0:1,0:0:0:0:
501,215,177028,2,0,P|506:159|467:124,1,100,10|8,0:0|0:1,0:0:0:0:
395,94,178119,6,0,L|289:109,1,100,10|8,0:0|0:1,0:0:0:0:
214,69,179210,1,10,0:0:0:0:
133,109,179755,1,10,0:1:0:0:
102,193,180301,2,0,L|122:296,1,100,10|8,0:0|0:1,0:0:0:0:
142,347,181210,2,0,P|182:358|242:293,1,133.333333333333,2|10,0:0|0:1,0:0:0:0:
272,215,182483,5,10,0:0:0:0:
356,244,183028,1,10,0:1:0:0:
435,202,183574,2,0,P|450:139|430:109,1,100,10|10,0:0|0:1,0:0:0:0:
358,62,184664,1,8,0:0:0:0:
276,99,185210,1,8,0:1:0:0:
191,67,185755,1,8,0:0:0:0:
110,107,186301,1,8,0:1:0:0:
26,73,186846,5,10,0:0:0:0:
