osu file format v14

[General]
AudioFilename: audio.mp3
AudioLeadIn: 0
PreviewTime: -1
Countdown: 0
SampleSet: Normal
StackLeniency: 0.3
Mode: 0
LetterboxInBreaks: 0
WidescreenStoryboard: 1

[Editor]
DistanceSpacing: 3
BeatDivisor: 8
GridSize: 8
TimelineZoom: 1

[Metadata]
Title:Firepower
TitleUnicode:Firepower
Artist:Teminite
ArtistUnicode:Teminite
Creator:Rewind1337
Version:noises
Source:
Tags:
BeatmapID:1026004
BeatmapSetID:480640

[Difficulty]
HPDrainRate:6
CircleSize:4
OverallDifficulty:6
ApproachRate:9.5
SliderMultiplier:2
SliderTickRate:2

[Events]
//Background and Video events
0,0,"Unbenannt.jpg",0,0
//Break Periods
2,46093,50328
2,51740,55975
//Storyboard Layer 0 (Background)
//Storyboard Layer 1 (Fail)
//Storyboard Layer 2 (Pass)
//Storyboard Layer 3 (Foreground)
//Storyboard Sound Samples

[TimingPoints]
211,705.882352941176,4,1,0,70,1,0
211,-200,4,1,0,70,0,0
19975,-100,4,1,0,70,0,0
22799,-66.6666666666667,4,1,0,70,0,0
67975,-200,4,1,0,70,0,0
72916,-66.6666666666667,4,1,0,70,0,0
73622,-200,4,1,0,70,0,0
84210,-66.6666666666667,4,1,0,70,0,0
84916,-200,4,1,0,70,0,0
96210,-125,4,1,0,70,0,0
101858,-90.9090909090909,4,1,0,70,0,0
107505,-71.4285714285714,4,1,0,70,0,0

[HitObjects]
196,27,11505,6,0,B|157:61|157:61|175:105|175:105|132:145,1,150
49,229,12916,6,0,L|105:261,1,50
164,345,13622,2,0,L|219:312,1,50
316,357,14328,6,0,B|354:322|354:322|336:278|336:278|379:238,1,150
397,135,15739,6,0,L|353:109,1,50
275,29,16445,2,0,L|231:53,1,50
97,216,17152,6,0,B|111:265|111:265|159:278|159:278|173:326,1,150
280,272,18563,6,0,L|312:224,1,50
227,141,19269,2,0,L|195:93,1,50
286,69,19975,5,0,0:0:0:0:
287,53,20063,1,0,0:0:0:0:
292,67,20152,1,0,0:0:0:0:
280,56,20240,1,0,0:0:0:0:
295,61,20328,1,0,0:0:0:0:
278,61,20416,1,0,0:0:0:0:
293,56,20505,1,0,0:0:0:0:
281,67,20593,1,0,0:0:0:0:
287,53,20681,5,0,0:0:0:0:
286,70,20769,1,0,0:0:0:0:
285,86,20857,1,0,0:0:0:0:
284,102,20945,1,0,0:0:0:0:
283,117,21034,1,0,0:0:0:0:
282,134,21122,1,0,0:0:0:0:
281,150,21210,1,0,0:0:0:0:
280,166,21298,1,0,0:0:0:0:
269,172,21387,5,0,0:0:0:0:
250,181,21475,1,0,0:0:0:0:
226,191,21563,1,0,0:0:0:0:
199,202,21651,1,0,0:0:0:0:
163,214,21740,5,0,0:0:0:0:
198,234,21828,1,0,0:0:0:0:
236,255,21916,1,0,0:0:0:0:
275,277,22004,1,0,0:0:0:0:
317,300,22093,5,0,0:0:0:0:
384,58,22269,1,0,0:0:0:0:
189,105,22446,1,0,0:0:0:0:
374,178,22622,1,0,0:0:0:0:
87,268,22799,6,0,L|179:297,1,75.0000028610231
87,268,23152,2,0,L|179:239,1,75.0000028610231
264,320,23681,1,0,0:0:0:0:
88,272,23858,1,0,0:0:0:0:
264,216,24034,1,0,0:0:0:0:
208,267,24210,2,0,B|132:267|132:267|63:241,1,150.000005722046
240,264,24916,1,0,0:0:0:0:
34,230,25093,1,0,0:0:0:0:
425,116,25622,6,0,L|333:87,1,75.0000028610231
425,116,25975,2,0,L|333:145,1,75.0000028610231
248,64,26504,1,0,0:0:0:0:
371,211,26681,1,0,0:0:0:0:
187,233,26857,1,0,0:0:0:0:
395,117,27033,2,0,B|319:117|319:117|250:143,1,150.000005722046
424,120,27739,1,0,0:0:0:0:
221,156,27916,1,0,0:0:0:0:
88,264,28093,1,0,0:0:0:0:
291,228,28270,1,0,0:0:0:0:
425,116,28446,6,0,L|333:87,1,75.0000028610231
425,116,28799,2,0,L|425:279,1,150.000005722046
425,86,29328,1,0,0:0:0:0:
423,298,29505,1,0,0:0:0:0:
423,54,29681,1,0,0:0:0:0:
423,330,29858,2,0,B|355:373|355:373|275:373,1,150.000005722046
448,312,30563,1,0,0:0:0:0:
256,376,30740,1,0,0:0:0:0:
287,229,31269,6,0,L|333:287,1,75.0000028610231
287,229,31622,2,0,L|406:117,1,150.000005722046
262,249,32151,1,0,0:0:0:0:
419,106,32328,1,0,0:0:0:0:
238,272,32504,1,0,0:0:0:0:
440,80,32681,2,0,B|483:148|483:148|483:228,1,150.000005722046
237,152,33386,1,0,0:0:0:0:
429,88,33563,1,0,0:0:0:0:
275,232,33740,1,0,0:0:0:0:
83,296,33917,1,0,0:0:0:0:
260,129,34093,6,0,B|266:105|306:110|316:64,2,75.0000028610231
224,304,34799,1,0,0:0:0:0:
239,103,35152,1,0,0:0:0:0:
464,120,35505,1,0,0:0:0:0:
216,78,35858,1,0,0:0:0:0:
224,304,36211,1,0,0:0:0:0:
190,55,36563,1,0,0:0:0:0:
388,175,36916,6,0,B|420:180|415:220|439:226,2,75.0000028610231
247,318,37622,1,0,0:0:0:0:
428,188,37975,1,0,0:0:0:0:
216,80,38328,1,0,0:0:0:0:
469,205,38681,1,0,0:0:0:0:
247,318,39034,1,0,0:0:0:0:
512,220,39387,1,0,0:0:0:0:
186,237,39740,6,0,B|168:254|136:228|115:253,2,75.0000028610231
256,64,40446,1,0,0:0:0:0:
150,262,40799,1,0,0:0:0:0:
344,336,41152,1,0,0:0:0:0:
116,284,41505,1,0,0:0:0:0:
256,64,41858,1,0,0:0:0:0:
84,305,42210,1,0,0:0:0:0:
366,156,42563,6,0,B|396:165|409:127|434:132,2,75.0000028610231
136,128,43269,1,0,0:0:0:0:
415,163,43622,1,0,0:0:0:0:
248,336,43975,1,0,0:0:0:0:
461,167,44328,1,0,0:0:0:0:
136,128,44681,1,0,0:0:0:0:
504,173,45034,1,0,0:0:0:0:
256,117,45387,6,0,L|256:192,1,75.0000028610231
256,230,51034,6,0,L|256:155,1,75.0000028610231
256,192,56681,6,0,L|256:268,1,75.0000028610231
256,298,57034,1,0,0:0:0:0:
466,298,57740,1,0,0:0:0:0:
466,87,58446,1,0,0:0:0:0:
255,87,59152,1,0,0:0:0:0:
255,250,59858,1,0,0:0:0:0:
45,250,60563,1,0,0:0:0:0:
45,39,61269,1,0,0:0:0:0:
255,40,61975,1,0,0:0:0:0:
256,296,62328,6,0,L|256:192,1,75.0000028610231
256,192,62681,1,0,0:0:0:0:
151,10,63034,1,0,0:0:0:0:
361,10,63387,1,0,0:0:0:0:
256,192,63740,1,0,0:0:0:0:
181,117,63916,1,0,0:0:0:0:
255,42,64093,1,0,0:0:0:0:
329,116,64269,1,0,0:0:0:0:
208,256,64446,1,0,0:0:0:0:
116,119,64622,1,0,0:0:0:0:
254,166,64799,1,0,0:0:0:0:
116,210,64975,1,0,0:0:0:0:
216,80,65152,5,0,0:0:0:0:
240,72,65240,1,0,0:0:0:0:
264,64,65328,1,0,0:0:0:0:
288,56,65416,1,0,0:0:0:0:
312,48,65505,1,0,0:0:0:0:
336,40,65593,1,0,0:0:0:0:
360,32,65681,1,0,0:0:0:0:
384,24,65769,1,0,0:0:0:0:
408,32,65858,5,0,0:0:0:0:
408,64,65946,1,0,0:0:0:0:
407,103,66034,1,0,0:0:0:0:
408,149,66122,1,0,0:0:0:0:
408,199,66211,1,0,0:0:0:0:
412,254,66299,1,0,0:0:0:0:
379,214,66387,1,0,0:0:0:0:
429,226,66475,1,0,0:0:0:0:
384,246,66563,5,0,0:0:0:0:
259,301,66740,1,0,0:0:0:0:
217,302,66828,1,0,0:0:0:0:
185,274,66916,1,0,0:0:0:0:
440,301,67093,1,0,0:0:0:0:
248,226,67269,1,0,0:0:0:0:
354,43,67975,2,0,B|404:33|434:67,1,75
435,314,68681,1,0,0:0:0:0:
183,103,68858,1,0,0:0:0:0:
412,192,69034,1,0,0:0:0:0:
115,249,69210,1,0,0:0:0:0:
90,273,69387,1,0,0:0:0:0:
234,115,69563,1,0,0:0:0:0:
244,84,69740,1,0,0:0:0:0:
304,286,69916,1,0,0:0:0:0:
329,306,70093,1,0,0:0:0:0:
146,148,70446,1,0,0:0:0:0:
478,205,70622,1,0,0:0:0:0:
158,341,70799,2,0,B|108:351|78:317,1,75
352,320,71505,1,0,0:0:0:0:
330,38,71681,1,0,0:0:0:0:
456,360,71858,1,0,0:0:0:0:
376,112,72034,1,0,0:0:0:0:
264,272,72210,1,0,0:0:0:0:
248,264,72299,1,0,0:0:0:0:
232,256,72387,1,0,0:0:0:0:
216,248,72475,1,0,0:0:0:0:
200,240,72563,1,0,0:0:0:0:
348,128,72740,1,0,0:0:0:0:
364,120,72829,1,0,0:0:0:0:
380,112,72916,2,0,L|452:72,1,75.0000028610231
132,272,73269,2,0,L|60:312,1,75.0000028610231
382,212,73622,2,0,B|432:202|462:236,1,75
160,264,74328,1,0,0:0:0:0:
392,72,74505,1,0,0:0:0:0:
240,296,74681,1,0,0:0:0:0:
176,48,74857,1,0,0:0:0:0:
163,16,75034,1,0,0:0:0:0:
253,253,75210,1,0,0:0:0:0:
237,281,75387,1,0,0:0:0:0:
433,123,75563,1,0,0:0:0:0:
466,117,75740,1,0,0:0:0:0:
140,158,76093,1,0,0:0:0:0:
427,332,76269,1,0,0:0:0:0:
271,155,76446,1,0,0:0:0:0:
321,323,76799,1,0,0:0:0:0:
448,193,77063,1,0,0:0:0:0:
470,170,77152,2,0,B|506:127|490:68,1,100
208,72,78563,1,0,0:0:0:0:
144,272,78740,1,0,0:0:0:0:
355,333,78916,1,0,0:0:0:0:
419,133,79093,1,0,0:0:0:0:
164,56,79269,2,0,B|114:46|84:80,1,75
211,313,79975,1,0,0:0:0:0:
293,38,80152,1,0,0:0:0:0:
418,308,80328,1,0,0:0:0:0:
190,159,80504,1,0,0:0:0:0:
164,138,80681,1,0,0:0:0:0:
419,134,80857,1,0,0:0:0:0:
449,121,81034,1,0,0:0:0:0:
293,292,81210,1,0,0:0:0:0:
285,324,81387,1,0,0:0:0:0:
174,94,81740,1,0,0:0:0:0:
270,295,81916,1,0,0:0:0:0:
337,83,82093,2,0,B|361:38|406:37,1,75
397,302,82799,1,0,0:0:0:0:
216,98,82975,1,0,0:0:0:0:
153,321,83152,1,0,0:0:0:0:
432,139,83328,1,0,0:0:0:0:
372,270,83504,1,0,0:0:0:0:
364,285,83593,1,0,0:0:0:0:
356,302,83681,1,0,0:0:0:0:
348,318,83769,1,0,0:0:0:0:
340,334,83857,1,0,0:0:0:0:
240,159,84034,1,0,0:0:0:0:
232,143,84123,1,0,0:0:0:0:
224,127,84210,2,0,L|184:55,1,75.0000028610231
288,257,84563,2,0,L|328:329,1,75.0000028610231
274,127,84916,2,0,B|264:77|298:47,1,75
160,253,85622,1,0,0:0:0:0:
427,177,85799,1,0,0:0:0:0:
158,157,85975,1,0,0:0:0:0:
405,321,86151,1,0,0:0:0:0:
435,342,86328,1,0,0:0:0:0:
187,253,86504,1,0,0:0:0:0:
158,274,86681,1,0,0:0:0:0:
368,110,86857,1,0,0:0:0:0:
386,80,87034,1,0,0:0:0:0:
319,291,87387,1,0,0:0:0:0:
59,316,87563,1,0,0:0:0:0:
312,128,87740,2,0,L|344:96,2,25
290,161,88181,1,0,0:0:0:0:
292,199,88269,1,0,0:0:0:0:
309,230,88358,1,0,0:0:0:0:
345,245,88446,2,0,L|372:256,1,25
401,265,88710,1,0,0:0:0:0:
436,251,88799,2,0,L|471:215,1,50
304,72,89857,1,0,0:0:0:0:
368,272,90034,1,0,0:0:0:0:
157,333,90210,1,0,0:0:0:0:
93,133,90387,1,0,0:0:0:0:
289,241,90563,2,0,B|332:268|332:268|377:272,1,87.5
398,276,91269,1,0,0:0:0:0:
369,169,91622,2,0,L|379:134,1,25
310,189,91975,2,0,B|368:169|368:169|379:138,1,87.5
385,113,92681,1,0,0:0:0:0:
154,96,93034,2,0,L|175:107,1,25
119,148,93387,2,0,B|153:96|153:96|182:110,1,87.5
204,122,94093,1,0,0:0:0:0:
338,277,94446,2,0,L|319:307,1,25
415,290,94799,2,0,B|338:279|338:279|324:298,1,100
128,294,95681,1,0,0:0:0:0:
217,88,95858,1,0,0:0:0:0:
434,96,96034,1,0,0:0:0:0:
314,312,96210,2,0,B|348:246|348:246|408:217,1,140
435,205,96916,1,0,0:0:0:0:
184,276,97269,2,0,L|176:316,1,40
96,228,97622,2,0,B|184:277|184:277|175:319,1,140
170,343,98328,1,0,0:0:0:0:
272,96,98681,2,0,L|296:56,1,40
348,163,99034,2,0,B|273:96|273:96|297:54,1,140
311,37,99740,1,0,0:0:0:0:
352,296,100093,2,0,L|336:256,1,40
469,267,100446,2,0,B|353:296|353:296|334:252,1,160
104,168,101328,1,0,0:0:0:0:
336,128,101505,1,0,0:0:0:0:
160,40,101681,1,0,0:0:0:0:
360,32,101858,2,0,B|453:74|453:74|485:177,1,192.500005874634
488,192,102563,1,0,0:0:0:0:
152,256,102916,2,0,L|184:208,1,55.0000016784668
269,326,103269,2,0,B|152:256|152:256|188:203,1,192.500005874634
203,184,103975,1,0,0:0:0:0:
486,150,104328,2,0,L|463:96,1,55.0000016784668
357,196,104681,2,0,B|485:149|485:149|459:90,1,192.500005874634
450,68,105387,1,0,0:0:0:0:
144,96,105740,2,0,L|176:152,1,55.0000016784668
295,29,106093,2,0,B|144:96|144:96|183:162,1,220.000006713867
327,337,106975,1,0,0:0:0:0:
386,141,107152,1,0,0:0:0:0:
131,218,107328,1,0,0:0:0:0:
384,318,107505,2,0,B|465:228|465:228|442:73,1,244.999992523194
442,75,108210,1,0,0:0:0:0:
224,168,108563,2,0,L|152:184,1,69.9999978637696
341,298,108916,2,0,B|224:168|224:168|152:184,1,244.999992523194
125,192,109622,1,0,0:0:0:0:
376,216,109975,2,0,L|440:176,1,69.9999978637696
262,91,110328,2,0,B|377:218|377:218|446:172,1,244.999992523194
464,160,111034,1,0,0:0:0:0:
112,290,111387,1,0,0:0:0:0:
252,35,111740,1,0,0:0:0:0:
512,352,112269,1,0,0:0:0:0:
29,357,112799,1,0,0:0:0:0:
