osu file format v14

[General]
AudioFilename: audio.mp3
AudioLeadIn: 0
PreviewTime: -1
Countdown: 1
SampleSet: None
StackLeniency: 0.4
Mode: 0
LetterboxInBreaks: 0
WidescreenStoryboard: 1

[Editor]
Bookmarks: 24583,48416,80083,134833,139749,142083,144249,149169
DistanceSpacing: 1.3
BeatDivisor: 4
GridSize: 4
TimelineZoom: 2.2

[Metadata]
Title:Evolution
TitleUnicode:Evolution
Artist:Teminite
ArtistUnicode:Teminite
Creator:TecGamer_Brazil
Version:Evolve
Source:
Tags:
BeatmapID:1524374
BeatmapSetID:721964

[Difficulty]
HPDrainRate:9.3
CircleSize:4
OverallDifficulty:8
ApproachRate:9.5
SliderMultiplier:1.7
SliderTickRate:1

[Events]
//Background and Video events
0,0,"wallpaper-anime-cute-desktop-images.jpg",0,0
//Break Periods
2,125699,131224
//Storyboard Layer 0 (Background)
//Storyboard Layer 1 (Fail)
//Storyboard Layer 2 (Pass)
//Storyboard Layer 3 (Foreground)
//Storyboard Sound Samples

[TimingPoints]
2500,500,4,1,1,5,1,0
2833,-100,4,1,1,5,0,0
3000,-100,4,1,1,10,0,0
3154,-100,4,1,1,15,0,0
3320,-100,4,1,1,20,0,0
3750,333.333333333333,4,1,1,100,1,0
3750,-100,4,1,1,25,0,0
4083,-100,4,1,1,30,0,0
9249,-200,4,1,1,30,0,0
9749,-100,4,1,1,30,0,0
11249,-66.6666666666667,4,1,1,30,0,0
11583,-133.333333333333,4,1,1,30,0,0
12083,-100,4,1,1,30,0,0
12499,-100,4,1,1,70,0,0
16333,-133.333333333333,4,1,1,70,0,0
17300,-100,4,1,1,70,0,0
19416,-100,4,1,1,84,0,0
28499,-200,4,1,1,84,0,0
29333,-100,4,1,1,84,0,0
50004,-66.6666666666667,4,1,1,84,0,1
52249,-100,4,1,1,84,0,1
53166,-66.6666666666667,4,1,1,84,0,1
53416,-133.333333333333,4,1,1,84,0,1
55083,-66.6666666666667,4,1,1,84,0,1
55333,-100,4,1,1,84,0,1
58083,-66.6666666666667,4,1,1,84,0,1
58999,-100,4,1,1,84,0,1
64333,-66.6666666666667,4,1,1,84,0,1
64666,-100,4,1,1,84,0,1
65166,-66.6666666666667,4,1,1,84,0,1
65291,-100,4,1,1,84,0,1
66004,-100,4,1,1,84,0,0
67598,-66.6666666666667,4,1,1,84,0,1
78916,-100,4,1,1,84,0,1
79166,-66.6666666666667,4,1,1,84,0,1
86833,-100,4,1,1,84,0,0
90666,-133.333333333333,4,1,1,84,0,0
90999,-100,4,1,1,84,0,0
107583,-66.6666666666667,4,1,1,84,0,0
107666,-100,4,1,1,84,0,0
109333,-66.6666666666667,4,1,1,84,0,0
109499,-100,4,1,1,84,0,0
109749,-133.333333333333,4,1,1,84,0,0
110083,-100,4,1,1,84,0,0
125166,-100,4,1,1,15,0,0
125333,-100,4,1,1,10,0,0
125499,-100,4,1,1,5,0,0
135833,-133.333333333333,4,1,1,5,0,0
136333,-100,4,1,1,5,0,0
144249,317.460317460317,4,1,1,15,1,0
144249,-100,4,1,1,15,0,0
144416,-100,4,1,1,20,0,0
144583,-100,4,1,1,35,0,0
144749,-100,4,1,1,35,0,0
145499,-100,4,1,1,49,0,0
149487,-76.9230769230769,4,1,1,49,0,0
150280,-100,4,1,1,49,0,0
151312,-72.992700729927,4,1,1,49,0,0
151709,-100,4,1,1,49,0,0
151788,-71.9424460431655,4,1,1,49,0,0
153058,-100,4,1,1,49,0,0
153614,-52.6315789473684,4,1,1,49,0,0
153772,-76.9230769230769,4,1,1,49,0,0
156312,-100,4,1,1,49,0,0
158455,-76.9230769230769,4,1,1,49,0,0
161629,-66.6666666666667,4,1,1,49,0,0
162026,-100,4,1,1,49,0,0
163375,-68.9655172413793,4,1,1,49,0,0
163693,-100,4,1,1,49,0,0
170995,-76.9230769230769,4,1,1,49,0,0
171153,-66.6666666666667,4,1,1,49,0,0
173137,-66.6666666666667,4,1,1,49,0,1
175439,-100,4,1,1,49,0,1
177026,-76.9230769230769,4,1,1,49,0,1
177185,-100,4,1,1,49,0,1
177344,-66.6666666666667,4,1,1,49,0,1
177502,-100,4,1,1,49,0,1
178693,-66.6666666666667,4,1,1,49,0,1
178931,-100,4,1,1,49,0,1
179407,-76.9230769230769,4,1,1,49,0,1
179566,-100,4,1,1,49,0,1
181391,-52.6315789473684,4,1,1,49,0,1
181629,-100,4,1,1,49,0,1
183217,-66.6666666666667,4,1,1,49,0,1
183296,-100,4,1,1,49,0,1
184487,-76.9230769230769,4,1,1,49,0,1
184963,-100,4,1,1,49,0,1
187106,-76.9230769230769,4,1,1,49,0,1
187502,-100,4,1,1,49,0,1
190280,-125,4,1,1,49,0,1
190677,-100,4,1,1,49,0,1
194328,-66.6666666666667,4,1,1,49,0,1
195201,-76.9230769230769,4,1,1,49,0,1
199566,-66.6666666666667,4,1,1,49,0,1
199725,-100,4,1,1,49,0,1
200122,-133.333333333333,4,1,1,49,0,1
200598,-100,4,1,1,49,0,1
207185,-133.333333333333,4,1,1,49,0,1
207502,-100,4,1,1,49,0,1
208931,-66.6666666666667,4,1,1,49,0,1
209090,-100,4,1,1,49,0,1
209169,-76.9230769230769,4,1,1,49,0,1
209328,-100,4,1,1,49,0,1
210836,-83.3333333333333,4,1,1,49,0,1
210995,-100,4,1,1,49,0,1
211788,315.789473684211,4,1,1,49,1,0
211788,-100,4,1,1,49,0,0
214328,-90.9090909090909,4,1,1,49,0,0
214645,-100,4,1,1,49,0,0
230577,-66.6666666666667,4,1,1,49,0,0
230893,-100,4,1,1,49,0,0
237919,-66.6666666666667,4,1,1,49,0,0
238156,-100,4,1,1,49,0,0
246209,-66.6666666666667,4,1,1,49,0,0
246682,-100,4,1,1,49,0,0

[Colours]
Combo1 : 128,64,0
Combo2 : 0,68,136
Combo3 : 37,185,239
Combo4 : 0,121,0
Combo5 : 241,152,190

[HitObjects]
168,196,2833,5,0,0:0:0:0:
312,152,3000,1,0,0:0:0:0:
408,232,3166,1,0,0:0:0:0:
396,64,3333,1,8,0:0:0:0:
288,68,3750,6,0,P|236:72|204:96,1,85
200,160,4083,2,0,P|224:244|224:272,1,85
304,184,4416,1,0,0:0:0:0:
376,260,4583,1,8,0:0:0:0:
440,84,4749,6,0,L|424:184,1,85
272,212,5083,2,0,L|320:328,1,85
360,232,5416,1,0,0:0:0:0:
324,108,5583,2,0,P|268:96|232:104,2,85
324,108,6083,6,0,P|240:120|248:152,1,127.5
232,240,6499,6,0,L|296:176,1,85
300,176,6833,1,0,0:0:0:0:
316,164,6916,1,0,0:0:0:0:
336,156,6999,1,0,0:0:0:0:
416,208,7166,6,0,L|392:304,1,85
252,100,7499,2,0,L|304:184,2,85
168,116,7999,5,0,0:0:0:0:
220,224,8166,1,0,0:0:0:0:
120,188,8333,1,0,0:0:0:0:
256,152,8499,1,8,0:0:0:0:
256,152,8666,6,0,L|320:228,1,85
388,192,8999,2,0,P|460:192|484:224,1,85
445,279,9333,6,0,L|473:167,1,85
192,120,9833,5,0,0:0:0:0:
220,236,9999,1,0,0:0:0:0:
288,128,10166,1,0,0:0:0:0:
320,244,10333,1,0,0:0:0:0:
392,172,10499,2,0,P|432:136|432:80,2,85
338,105,10999,6,0,L|402:185,1,85
280,196,11333,6,0,P|264:140|232:188,1,127.5
244,280,11666,6,0,P|176:280|128:248,1,127.5
112,148,12499,1,0,0:0:0:0:
192,280,12666,1,0,0:0:0:0:
200,32,12833,1,0,0:0:0:0:
300,152,12999,6,0,P|352:136|396:160,1,85
288,228,13333,6,0,P|336:256|396:240,1,85
448,160,13666,6,0,L|416:256,1,85
376,308,13999,1,0,0:0:0:0:
296,316,14166,2,0,L|340:212,1,85
200,112,14916,6,0,L|244:160,2,42.5
256,56,15249,1,0,0:0:0:0:
336,64,15416,2,0,P|388:64|452:92,2,85
336,136,15916,1,0,0:0:0:0:
288,200,16083,1,0,0:0:0:0:
352,272,16249,1,0,0:0:0:0:
424,152,16416,2,0,P|420:196|448:252,1,95.6250036478044
152,80,16833,6,0,P|220:84|240:136,1,127.500004863739
248,216,17333,6,0,P|312:204|344:172,1,85
282,73,17666,2,0,L|326:193,1,127.5
136,236,18083,5,0,0:0:0:0:
132,216,18166,1,0,0:0:0:0:
128,196,18249,1,0,0:0:0:0:
120,176,18333,2,0,L|208:156,1,85
456,280,18749,2,0,P|436:228|380:172,2,127.5
360,280,19416,1,0,0:0:0:0:
232,156,19583,1,0,0:0:0:0:
236,304,19749,1,0,0:0:0:0:
104,184,19916,1,0,0:0:0:0:
204,228,20083,6,0,B|152:196|112:268|28:220,1,170
48,128,20583,2,0,P|96:80|152:64,1,127.5
200,212,20999,1,0,0:0:0:0:
256,124,21166,2,0,P|304:124|376:156,1,127.5
328,128,22166,6,0,L|292:204,1,85
152,220,22499,2,0,L|196:320,2,85
140,92,22999,1,0,0:0:0:0:
228,172,23166,1,0,0:0:0:0:
228,172,23249,1,0,0:0:0:0:
228,172,23333,2,0,P|240:232|280:268,1,85
320,184,23666,6,0,P|364:168|464:176,1,127.5
412,284,24583,6,0,P|468:248|472:200,2,85
312,172,25166,1,0,0:0:0:0:
276,304,25333,1,0,0:0:0:0:
168,212,25499,1,0,0:0:0:0:
104,116,25666,6,0,P|144:56|184:40,1,85
376,80,26416,6,0,L|344:168,2,85
424,328,26916,2,0,L|356:252,2,85
256,176,27416,1,4,0:0:0:0:
168,176,27583,1,0,0:0:0:0:
80,216,27749,1,8,0:0:0:0:
32,80,27916,2,0,P|60:148|72:168,1,85
144,248,28249,6,0,P|200:232|256:228,1,85
296,164,28583,6,0,P|344:120|256:88,1,170
144,216,29416,6,0,L|172:144,2,42.5
236,192,29666,2,0,L|216:252,2,42.5
340,60,29999,6,0,L|372:160,1,85
456,144,30333,2,0,P|480:96|416:76,1,127.5
336,60,30916,2,0,L|320:148,1,85
240,128,31249,1,0,0:0:0:0:
192,208,31416,1,0,0:0:0:0:
292,252,31583,1,0,0:0:0:0:
340,124,31749,1,0,0:0:0:0:
408,96,31833,6,0,P|352:104|344:156,1,85
375,269,32166,2,0,L|259:245,1,85
272,48,32499,6,0,L|284:136,1,85
124,108,32833,6,0,P|168:92|224:100,1,85
217,165,33166,6,0,P|193:113|217:85,1,85
344,164,33499,6,0,P|400:104|304:108,1,212.5
36,264,34083,6,0,P|56:332|80:356,1,85
80,172,34416,2,0,P|112:212|120:268,1,85
32,80,34749,1,0,0:0:0:0:
32,80,34916,2,0,P|104:80|132:92,1,85
188,132,35249,2,0,P|232:144|276:144,1,85
356,168,35583,6,0,B|408:216|408:216|352:256,1,127.5
280,132,35999,6,0,B|216:164|216:164|272:192,1,127.5
328,76,36416,2,0,P|376:52|416:112,2,127.5
392,164,37083,2,0,L|392:224,1,42.5
308,248,37333,2,0,L|324:320,1,42.5
216,280,37583,1,0,0:0:0:0:
120,260,37749,1,0,0:0:0:0:
24,276,37916,1,0,0:0:0:0:
288,256,38083,2,0,P|344:232|412:232,1,127.5
468,160,38499,1,0,0:0:0:0:
384,128,38666,2,0,P|340:76|348:20,1,127.5
264,16,39083,6,0,L|208:96,2,85
308,104,39583,1,0,0:0:0:0:
256,184,39749,1,0,0:0:0:0:
352,224,39916,1,0,0:0:0:0:
356,264,39999,1,0,0:0:0:0:
360,304,40083,1,0,0:0:0:0:
368,344,40166,1,0,0:0:0:0:
200,260,40333,1,8,0:0:0:0:
164,272,40416,1,8,0:0:0:0:
120,276,40500,1,0,0:0:0:0:
92,264,40583,1,0,0:0:0:0:
60,240,40667,1,0,0:0:0:0:
144,80,40833,6,0,P|96:112|96:160,1,85
288,136,41166,1,8,0:0:0:0:
148,244,41499,2,0,P|124:196|128:152,1,85
288,136,41833,1,0,0:0:0:0:
264,216,42083,6,0,P|276:156|304:116,1,85
316,292,42416,1,0,0:0:0:0:
412,160,42583,6,8,P|412:208|400:248,2,85
344,148,43083,6,0,P|292:112|276:76,2,85
344,308,43583,1,0,0:0:0:0:
292,296,43666,1,0,0:0:0:0:
240,288,43749,1,0,0:0:0:0:
192,176,43999,6,0,P|272:140|288:120,2,85
76,216,44499,1,0,0:0:0:0:
56,192,44583,1,0,0:0:0:0:
40,160,44666,1,0,0:0:0:0:
176,80,44916,1,0,0:0:0:0:
280,176,45083,1,0,0:0:0:0:
196,268,45249,1,0,0:0:0:0:
104,164,45416,1,0,0:0:0:0:
176,80,45583,6,0,P|220:48|256:44,1,85
232,200,45916,2,0,P|272:164|328:180,2,85
288,284,46416,1,4,0:0:0:0:
328,228,46583,2,0,P|364:196|400:188,2,85
144,96,47083,1,0,0:0:0:0:
164,248,47249,1,0,0:0:0:0:
312,244,47416,1,0,0:0:0:0:
308,84,47583,1,0,0:0:0:0:
432,116,47749,5,0,0:0:0:0:
432,116,47833,1,0,0:0:0:0:
432,116,47916,1,0,0:0:0:0:
432,198,47999,2,0,P|424:146|436:106,1,85
264,144,48416,6,0,P|244:200|252:232,1,85
248,223,48666,2,0,P|336:224|364:240,1,85
331,222,48916,6,0,L|331:274,2,42.5
124,192,49333,5,0,0:0:0:0:
200,56,49499,1,0,0:0:0:0:
288,216,49666,1,0,0:0:0:0:
200,56,49833,1,0,0:0:0:0:
124,192,49999,1,0,0:0:0:0:
200,56,50166,1,0,0:0:0:0:
288,216,50333,1,0,0:0:0:0:
304,128,50499,2,0,P|320:60|264:100,2,127.500004863739
204,136,50999,2,0,P|256:220|316:276,2,127.500004863739
136,188,51499,6,0,L|196:236,2,63.7500024318696
120,288,51749,2,0,P|200:304|232:300,2,63.7500024318696
280,236,51999,2,0,P|352:244|384:256,2,63.7500024318696
348,164,52333,2,0,P|392:116|324:112,1,127.5
200,112,52749,1,8,0:0:0:0:
200,112,52833,1,0,0:0:0:0:
200,112,52916,2,0,P|248:68|260:40,1,85
244,208,53249,2,0,B|308:180|392:196|388:196|392:200|392:200|348:252,1,191.250007295609
128,120,53666,2,0,P|76:164|84:208,1,95.6250036478044
164,224,54083,5,0,0:0:0:0:
148,256,54166,1,0,0:0:0:0:
128,288,54249,1,0,0:0:0:0:
116,320,54333,2,0,P|104:372|48:340,1,127.500004863739
28,264,54833,2,0,L|64:184,1,63.7500024318696
124,112,55166,2,0,L|60:200,1,95.6250036478044
124,252,55416,1,0,0:0:0:0:
216,296,55583,1,0,0:0:0:0:
256,200,55749,5,0,0:0:0:0:
264,176,55833,1,0,0:0:0:0:
280,156,55916,1,0,0:0:0:0:
300,136,55999,1,0,0:0:0:0:
324,124,56083,1,0,0:0:0:0:
344,116,56166,1,0,0:0:0:0:
364,108,56249,6,0,P|404:96|480:156,1,127.5
408,192,56666,2,0,L|436:308,2,85
348,208,57166,5,0,0:0:0:0:
328,220,57249,1,0,0:0:0:0:
304,228,57333,1,0,0:0:0:0:
276,236,57416,1,0,0:0:0:0:
248,240,57499,1,0,0:0:0:0:
224,248,57583,1,0,0:0:0:0:
192,256,57666,1,0,0:0:0:0:
164,260,57749,6,0,P|100:256|152:304,1,170
144,168,58249,2,0,B|224:96|236:84|240:32,2,127.500004863739
124,176,58666,1,0,0:0:0:0:
104,200,58749,1,0,0:0:0:0:
96,232,58833,1,0,0:0:0:0:
92,272,58916,1,0,0:0:0:0:
96,308,58999,2,0,P|156:344|244:356,1,127.500004863739
260,212,59416,6,0,P|296:176|240:184,1,127.5
152,148,59833,1,0,0:0:0:0:
120,268,59999,1,0,0:0:0:0:
344,192,60166,2,0,P|352:124|296:132,1,127.5
388,32,60583,2,0,L|392:132,1,85
284,132,60916,2,0,L|256:220,1,85
344,216,61249,1,0,0:0:0:0:
420,216,61416,1,0,0:0:0:0:
420,216,61583,2,0,P|420:152|396:112,2,85
284,116,62083,5,0,0:0:0:0:
244,160,62166,1,0,0:0:0:0:
200,196,62249,1,0,0:0:0:0:
164,220,62333,1,0,0:0:0:0:
120,248,62416,2,0,P|84:276|68:324,2,85
376,332,62916,6,0,P|352:280|296:248,1,85
320,184,63249,1,0,0:0:0:0:
368,112,63416,2,0,P|400:80|440:56,2,85
424,192,63916,1,0,0:0:0:0:
424,224,63999,1,0,0:0:0:0:
420,260,64083,1,0,0:0:0:0:
420,296,64166,1,0,0:0:0:0:
340,244,64333,2,0,B|272:200|288:136|288:136|224:132|176:80,1,255.000009727478
92,128,64833,5,0,0:0:0:0:
100,284,64999,1,0,0:0:0:0:
100,284,65083,1,0,0:0:0:0:
100,284,65166,2,0,P|68:212|84:180,1,85
156,176,65416,2,0,P|200:160|260:176,2,85
104,224,65833,1,0,0:0:0:0:
160,300,65999,1,0,0:0:0:0:
216,232,66166,1,0,0:0:0:0:
160,300,66333,1,0,0:0:0:0:
244,88,66499,5,0,0:0:0:0:
244,88,66583,1,0,0:0:0:0:
244,88,66666,1,0,0:0:0:0:
136,268,66833,1,0,0:0:0:0:
76,96,66999,1,0,0:0:0:0:
264,260,67166,1,0,0:0:0:0:
272,160,67666,2,0,P|332:136|388:136,1,85
420,184,67916,1,0,0:0:0:0:
372,256,68083,1,0,0:0:0:0:
448,312,68249,1,0,0:0:0:0:
196,264,68416,5,0,0:0:0:0:
152,136,68583,1,0,0:0:0:0:
268,100,68749,1,0,0:0:0:0:
312,244,68916,6,0,B|320:168|384:132|384:132|460:148|500:108,2,255.000009727478
216,224,69749,1,0,0:0:0:0:
160,280,69916,1,0,0:0:0:0:
160,280,69999,1,0,0:0:0:0:
160,280,70083,1,0,0:0:0:0:
84,112,70249,1,0,0:0:0:0:
24,240,70416,1,0,0:0:0:0:
224,156,70583,1,0,0:0:0:0:
24,240,70749,6,0,P|48:168|16:104,2,127.500004863739
164,224,71249,2,0,P|200:160|180:108,2,127.500004863739
264,252,71749,1,0,0:0:0:0:
368,192,71916,1,0,0:0:0:0:
256,140,72083,1,0,0:0:0:0:
360,96,72249,1,0,0:0:0:0:
256,48,72416,1,0,0:0:0:0:
248,296,72583,5,12,0:0:0:0:
204,220,72749,2,0,P|248:140|236:72,1,127.500004863739
84,104,73083,2,0,P|104:176|180:228,2,127.500004863739
164,80,73583,1,0,0:0:0:0:
224,148,73749,1,0,0:0:0:0:
280,216,73916,1,0,0:0:0:0:
356,176,74083,6,0,B|332:104|332:104|304:160,1,127.500004863739
280,216,74416,2,0,B|252:144|152:208|128:116,1,191.250007295609
72,56,74833,1,0,0:0:0:0:
44,160,74999,5,0,0:0:0:0:
44,160,75083,1,0,0:0:0:0:
44,160,75166,1,0,0:0:0:0:
132,180,75416,6,0,P|108:272|116:328,1,127.500004863739
132,180,75749,2,0,P|192:116|124:100,1,191.250007295609
268,144,76166,2,0,P|236:220|280:304,1,127.500004863739
344,180,76499,2,0,B|392:88|416:52|416:52|344:28|308:-8|304:52|304:52|288:48,1,255.000009727478
180,192,76999,6,0,P|128:128|112:72,2,127.500004863739
256,168,77416,5,0,0:0:0:0:
252,140,77499,1,0,0:0:0:0:
248,112,77583,1,0,0:0:0:0:
168,64,77749,1,0,0:0:0:0:
120,120,77916,1,8,0:0:0:0:
116,156,77999,1,8,0:0:0:0:
112,184,78083,5,8,0:0:0:0:
172,168,78249,6,0,L|240:280,1,127.500004863739
304,180,78583,2,0,L|380:56,1,127.500004863739
404,220,78916,6,0,P|448:168|384:160,1,127.500004863739
156,64,79333,5,0,0:0:0:0:
252,200,79499,1,0,0:0:0:0:
352,112,79666,2,0,B|328:44|328:44|272:96,1,127.500004863739
248,132,80083,5,0,0:0:0:0:
260,160,80166,1,0,0:0:0:0:
264,192,80249,1,0,0:0:0:0:
276,224,80333,1,0,0:0:0:0:
284,256,80416,1,0,0:0:0:0:
288,280,80499,1,0,0:0:0:0:
272,308,80583,5,0,0:0:0:0:
244,324,80666,1,0,0:0:0:0:
216,328,80749,1,0,0:0:0:0:
192,320,80833,1,0,0:0:0:0:
160,296,80916,1,0,0:0:0:0:
120,280,80999,1,0,0:0:0:0:
88,280,81083,1,0,0:0:0:0:
72,252,81166,5,0,0:0:0:0:
60,216,81249,1,0,0:0:0:0:
48,184,81333,1,0,0:0:0:0:
40,148,81416,1,0,0:0:0:0:
208,152,81666,6,0,P|216:76|164:32,1,127.500004863739
200,240,81999,6,0,P|256:284|328:248,1,127.500004863739
304,108,82333,5,0,0:0:0:0:
364,192,82499,1,0,0:0:0:0:
288,236,82666,5,0,0:0:0:0:
296,264,82749,1,0,0:0:0:0:
304,292,82833,1,0,0:0:0:0:
304,320,82916,1,0,0:0:0:0:
316,348,82999,1,0,0:0:0:0:
424,264,83166,6,0,P|448:212|392:204,1,127.500004863739
320,220,83499,1,0,0:0:0:0:
224,224,83666,2,0,B|248:136|248:136|356:120,1,191.250007295609
348,52,84083,1,0,0:0:0:0:
256,60,84249,5,0,0:0:0:0:
196,176,84416,5,0,0:0:0:0:
196,176,84499,1,0,0:0:0:0:
196,176,84583,1,0,0:0:0:0:
296,224,84749,2,0,B|392:236|392:236|440:132,1,191.250007295609
356,108,85166,6,0,P|296:60|244:92,1,127.500004863739
248,144,85499,1,0,0:0:0:0:
172,196,85666,1,0,0:0:0:0:
248,144,85833,2,0,P|212:84|160:36,1,127.500004863739
300,220,86166,6,0,L|320:312,2,63.7500024318696
404,160,86499,1,0,0:0:0:0:
316,100,86666,1,0,0:0:0:0:
304,296,86833,1,0,0:0:0:0:
196,208,86916,6,0,P|256:184|336:220,1,127.5
272,116,87333,5,0,0:0:0:0:
252,96,87416,1,0,0:0:0:0:
228,80,87499,1,0,0:0:0:0:
284,196,87666,6,0,B|336:160|384:228|436:180,1,127.5
424,324,88083,6,0,B|424:224|424:224|396:180,1,127.5
328,192,88499,5,8,0:0:0:0:
256,240,88666,1,8,0:0:0:0:
176,288,88833,1,0,0:0:0:0:
180,40,88999,6,0,L|224:128,1,85
220,124,89333,1,0,0:0:0:0:
240,148,89416,1,0,0:0:0:0:
264,172,89499,1,0,0:0:0:0:
344,316,89666,6,0,B|412:284|412:284|352:208,1,170
224,228,90166,1,0,0:0:0:0:
300,292,90333,1,0,0:0:0:0:
220,340,90499,1,0,0:0:0:0:
120,284,90666,6,0,P|68:256|32:192,1,127.5
144,164,91083,1,0,0:0:0:0:
80,92,91249,1,0,0:0:0:0:
116,248,91499,5,0,0:0:0:0:
136,272,91583,1,0,0:0:0:0:
156,304,91666,1,0,0:0:0:0:
248,252,91833,5,0,0:0:0:0:
276,280,91916,1,0,0:0:0:0:
304,308,91999,1,0,0:0:0:0:
184,80,92166,5,0,0:0:0:0:
200,96,92249,1,0,0:0:0:0:
316,160,92416,5,0,0:0:0:0:
304,136,92499,1,0,0:0:0:0:
268,248,92666,2,0,B|296:200|352:208|352:208|408:236,1,127.5
384,224,93083,6,0,L|456:292,1,85
432,316,93333,1,0,0:0:0:0:
404,348,93416,1,0,0:0:0:0:
376,372,93499,1,0,0:0:0:0:
184,72,93666,5,0,0:0:0:0:
264,224,93833,2,0,P|324:180|244:128,1,170
196,136,94333,5,0,0:0:0:0:
156,208,94499,1,0,0:0:0:0:
112,104,94666,6,0,P|60:108|20:132,2,85
248,104,95166,1,0,0:0:0:0:
272,136,95249,1,0,0:0:0:0:
300,168,95333,1,0,0:0:0:0:
392,232,95499,6,0,B|372:280|372:280|320:288,1,85
132,300,95833,6,0,B|88:300|88:300|44:248,1,85
140,52,96166,6,0,B|80:52|80:52|56:96,1,85
356,64,96499,6,0,B|420:60|420:60|448:104,1,85
236,152,96833,6,0,P|256:96|232:48,1,85
192,64,97166,1,0,0:0:0:0:
128,124,97333,1,0,0:0:0:0:
144,156,97416,1,0,0:0:0:0:
164,188,97499,1,0,0:0:0:0:
272,264,97666,5,0,0:0:0:0:
280,240,97749,1,0,0:0:0:0:
292,212,97833,1,0,0:0:0:0:
328,48,97999,5,0,0:0:0:0:
264,120,98166,1,0,0:0:0:0:
196,36,98333,1,0,0:0:0:0:
140,128,98499,1,0,0:0:0:0:
76,64,98666,1,0,0:0:0:0:
72,176,98833,6,0,P|56:240|64:280,2,85
164,164,99333,1,0,0:0:0:0:
216,236,99499,1,0,0:0:0:0:
276,160,99666,1,0,0:0:0:0:
216,236,99833,1,0,0:0:0:0:
248,320,99999,6,0,P|312:308|352:272,1,85
400,136,100333,6,0,L|392:224,1,85
240,128,100666,2,0,L|312:184,1,85
172,192,100999,2,0,L|264:224,1,85
128,76,101333,6,0,P|192:108|256:100,1,127.5
352,200,101749,6,0,P|384:152|364:88,1,127.5
248,124,102166,5,0,0:0:0:0:
248,160,102249,1,0,0:0:0:0:
248,200,102333,1,0,0:0:0:0:
248,232,102416,1,0,0:0:0:0:
348,156,102583,5,0,0:0:0:0:
368,256,102749,1,0,0:0:0:0:
456,244,102916,6,0,P|504:200|436:184,2,127.5
388,248,103583,5,0,0:0:0:0:
312,208,103749,6,0,L|252:92,1,127.5
140,96,104166,1,0,0:0:0:0:
80,168,104333,6,0,L|160:248,1,85
280,200,104666,2,0,P|228:188|196:212,1,85
400,256,104999,5,0,0:0:0:0:
388,236,105083,1,0,0:0:0:0:
368,212,105166,6,0,L|276:208,1,85
160,272,105499,5,0,0:0:0:0:
160,244,105583,1,0,0:0:0:0:
160,216,105666,2,0,L|260:216,1,85
244,128,105999,6,0,P|296:104|360:112,2,85
248,204,106499,2,0,P|260:248|304:296,1,85
312,188,106833,6,0,L|368:196,3,42.5
392,212,107166,2,0,L|464:224,3,42.5
376,44,107583,6,0,L|384:148,1,85
348,192,107833,2,0,P|420:160|364:136,1,170
296,112,108333,5,0,0:0:0:0:
240,196,108499,1,0,0:0:0:0:
196,112,108666,1,0,0:0:0:0:
196,112,108833,5,0,0:0:0:0:
164,192,108999,1,0,0:0:0:0:
72,156,109166,1,0,0:0:0:0:
152,300,109333,6,0,P|224:292|176:248,1,170
191,120,109749,2,0,L|179:252,1,127.5
296,156,110249,2,0,L|360:160,3,42.5
368,172,110583,2,0,L|408:216,3,42.5
160,96,110999,6,0,B|192:44|164:4|164:4|116:32|88:92|84:192|40:164|40:164|72:244,1,382.5
204,228,111999,2,0,P|260:192|256:144,1,85
304,100,112333,1,0,0:0:0:0:
376,152,112499,1,0,0:0:0:0:
392,224,112666,1,0,0:0:0:0:
352,288,112833,5,0,0:0:0:0:
152,332,112999,1,0,0:0:0:0:
268,232,113166,1,0,0:0:0:0:
312,364,113333,1,0,0:0:0:0:
128,116,113499,5,0,0:0:0:0:
156,140,113583,1,0,0:0:0:0:
184,168,113666,1,0,0:0:0:0:
216,196,113749,2,0,L|272:128,1,85
348,72,114083,1,0,0:0:0:0:
404,152,114249,5,0,0:0:0:0:
372,228,114416,1,0,0:0:0:0:
52,200,114583,5,0,0:0:0:0:
52,200,114666,1,0,0:0:0:0:
52,200,114749,1,0,0:0:0:0:
52,200,114833,6,0,L|100:240,6,42.5
168,168,115499,6,0,B|212:96|216:40|216:40|248:136|332:168|332:168|320:224|376:320,1,467.5
184,276,116583,6,0,P|232:304|284:312,1,85
160,184,116916,2,0,P|208:220|260:232,2,85
176,104,117416,1,0,0:0:0:0:
276,144,117583,1,0,0:0:0:0:
352,52,117749,1,0,0:0:0:0:
276,144,117916,1,0,0:0:0:0:
172,208,118083,6,0,P|204:184|272:232,1,127.5
344,216,118499,1,0,0:0:0:0:
368,128,118666,1,0,0:0:0:0:
300,52,118833,6,0,L|296:0,1,42.5
248,52,118999,2,0,L|244:-12,1,42.5
176,56,119166,2,0,L|180:-8,1,42.5
112,48,119333,2,0,L|108:-16,1,42.5
188,216,119583,5,0,0:0:0:0:
144,232,119666,2,0,P|104:152|112:100,1,127.5
192,24,120083,6,0,L|192:108,1,85
316,172,120416,2,0,L|372:276,1,85
452,152,120749,1,0,0:0:0:0:
316,176,120916,2,0,P|260:180|224:200,2,85
328,240,121416,6,0,L|300:356,2,85
232,152,121833,5,0,0:0:0:0:
220,184,121916,1,0,0:0:0:0:
212,216,121999,1,0,0:0:0:0:
336,192,122166,6,0,P|404:152|328:112,1,170
252,96,122583,5,0,0:0:0:0:
176,132,122749,1,0,0:0:0:0:
184,220,122916,1,0,0:0:0:0:
272,260,123083,1,0,0:0:0:0:
344,152,123249,5,0,0:0:0:0:
372,180,123333,1,0,0:0:0:0:
392,216,123416,1,0,0:0:0:0:
248,92,123499,6,0,B|204:144|204:144|264:160,1,127.5
432,68,123916,6,0,P|400:16|356:12,1,85
324,96,124249,6,0,P|384:140|396:92,1,127.5
324,96,124666,2,0,B|336:152|336:152|368:184|368:184|392:268,1,170
384,256,125166,5,0,0:0:0:0:
304,280,125333,1,0,0:0:0:0:
224,304,125499,1,0,0:0:0:0:
256,192,131749,12,0,134666,0:0:0:0:
236,128,134833,6,0,B|196:196|196:196|232:240|220:304,1,170
128,60,135333,5,0,0:0:0:0:
136,168,135499,1,0,0:0:0:0:
188,256,135666,1,0,0:0:0:0:
440,316,135833,6,0,P|468:260|460:216,1,85
340,128,136166,2,0,P|356:168|408:212,1,85
476,168,136499,1,8,0:0:0:0:
92,232,137166,5,6,0:0:0:0:
100,204,137249,1,0,0:0:0:0:
124,184,137333,1,0,0:0:0:0:
152,180,137416,1,0,0:0:0:0:
188,184,137499,6,0,L|288:188,1,85
272,187,137833,2,0,P|320:168|384:200,1,127.5
368,248,138249,6,0,L|416:340,1,85
284,308,138583,2,0,L|244:228,1,85
324,140,138916,5,4,0:0:0:0:
112,104,139749,5,0,0:0:0:0:
184,208,139916,1,0,0:0:0:0:
332,208,140083,1,0,0:0:0:0:
344,128,140249,6,0,B|364:56|364:56|304:8,1,127.5
332,208,140666,2,0,B|404:276|404:276|464:268,1,127.5
416,156,141083,5,0,0:0:0:0:
256,128,141249,1,0,0:0:0:0:
104,152,141416,1,0,0:0:0:0:
172,112,142083,6,0,B|220:136|220:136|268:104,1,85
352,232,142416,5,0,0:0:0:0:
224,164,142583,1,0,0:0:0:0:
336,136,142749,1,0,0:0:0:0:
336,56,142916,6,0,P|280:24|224:24,1,85
100,180,143333,6,0,B|104:248|208:264|208:264|256:228|312:252,1,255
120,132,144249,5,0,0:0:0:0:
212,224,144416,1,0,0:0:0:0:
296,132,144583,1,0,0:0:0:0:
268,236,144749,6,0,B|312:316|384:308|384:308|428:256|484:288,1,255
128,252,145360,1,0,0:0:0:0:
128,252,145439,2,0,P|96:192|100:112,1,127.5
94,133,145836,6,0,P|86:65|186:65,1,170
140,244,146312,5,0,0:0:0:0:
272,127,146471,22,0,P|208:151|248:227,1,170
372,188,146947,6,0,L|452:180,2,42.5
248,204,147264,5,0,0:0:0:0:
120,152,147423,1,0,0:0:0:0:
176,112,147661,1,0,0:0:0:0:
304,208,147820,6,0,B|368:216|356:292|468:216|460:300,1,170
464,292,148375,5,0,0:0:0:0:
460,316,148455,1,0,0:0:0:0:
444,340,148534,1,0,0:0:0:0:
408,352,148693,6,0,B|336:380|280:300|212:356,1,170
263,250,149169,6,0,P|215:290|251:342,1,127.5
368,196,149487,6,0,L|320:288,1,85
248,180,149804,2,0,P|264:232|264:288,1,85
120,168,150122,2,0,P|156:208|188:244,1,85
196,112,150439,6,0,P|240:84|176:48,1,127.5
88,92,150836,5,0,0:0:0:0:
144,156,150995,1,0,0:0:0:0:
144,180,151074,1,0,0:0:0:0:
140,200,151153,1,0,0:0:0:0:
292,80,151312,6,0,P|224:72|192:108,1,85
296,148,151550,2,0,P|332:184|388:188,1,85
232,188,151788,6,0,L|288:292,1,116.450003287239
388,276,152106,2,0,L|332:408,1,116.450003287239
200,280,152423,6,0,P|164:220|224:220,1,116.450003287239
240,168,152820,2,0,P|264:116|260:32,1,116.450003287239
368,120,153216,5,0,0:0:0:0:
376,152,153296,1,0,0:0:0:0:
388,188,153375,1,0,0:0:0:0:
392,216,153454,1,0,0:0:0:0:
208,208,153614,6,0,L|148:72,1,127.5
272,252,153852,6,0,P|312:176|280:128,1,110.499994941712
432,120,154169,2,0,P|424:56|384:0,1,110.499994941712
124,80,154487,5,0,0:0:0:0:
172,240,154645,1,0,0:0:0:0:
268,80,154804,1,0,0:0:0:0:
320,232,154963,1,0,0:0:0:0:
320,232,155122,37,0,0:0:0:0:
268,72,155280,1,0,0:0:0:0:
172,240,155439,1,0,0:0:0:0:
100,60,155598,1,0,0:0:0:0:
108,184,155756,6,0,P|72:120|68:88,2,55.2499974708558
180,136,156074,6,0,B|224:88|288:184|332:116,1,165.749992412567
328,104,156471,5,0,0:0:0:0:
312,68,156550,1,0,0:0:0:0:
288,40,156629,1,0,0:0:0:0:
164,112,156788,6,0,P|168:56|216:40,1,85
288,184,157106,2,0,P|264:140|232:112,1,85
90,189,157423,5,0,0:0:0:0:
208,196,157582,2,0,B|112:200|96:204|96:204|84:172,1,127.5
76,48,157979,6,0,P|128:88|176:88,1,85
208,152,158455,6,0,P|152:176|176:224,1,127.5
284,180,158852,2,0,P|324:140|256:104,1,127.5
152,56,159169,6,0,L|104:176,1,110.499994941712
184,192,159487,1,0,0:0:0:0:
260,212,159645,2,0,P|312:180|240:128,1,165.749992412568
184,192,160042,38,0,L|140:296,1,110.499994941712
240,336,160360,1,0,0:0:0:0:
308,248,160518,2,0,P|388:220|304:184,1,220.999989883423
248,128,160995,6,0,P|244:96|272:28,2,55.2499974708558
344,176,161312,2,0,P|400:140|420:148,2,55.2499974708558
196,200,161629,6,0,B|144:160|108:84|108:84|112:160|68:280,1,331.499984825135
204,288,162185,5,0,0:0:0:0:
316,320,162344,1,0,0:0:0:0:
336,236,162502,1,0,0:0:0:0:
232,196,162661,1,0,0:0:0:0:
84,144,162820,6,0,B|152:120|152:120|220:144,1,127.5
288,152,163217,1,0,0:0:0:0:
288,152,163375,2,0,P|240:176|208:252,2,127.5
364,232,163852,5,0,0:0:0:0:
280,272,164010,1,0,0:0:0:0:
256,300,164090,1,0,0:0:0:0:
224,328,164169,1,0,0:0:0:0:
124,224,164328,5,0,0:0:0:0:
152,212,164407,1,0,0:0:0:0:
180,200,164487,1,0,0:0:0:0:
122,158,164725,5,8,0:0:0:0:
351,93,164883,1,0,0:0:0:0:
293,324,165042,1,0,0:0:0:0:
336,184,165201,6,0,L|376:264,1,85
444,184,165518,1,0,0:0:0:0:
392,104,165677,1,0,0:0:0:0:
276,112,165836,5,0,0:0:0:0:
336,184,165995,1,0,0:0:0:0:
280,244,166153,5,0,0:0:0:0:
256,224,166233,1,0,0:0:0:0:
228,200,166312,1,0,0:0:0:0:
136,228,166471,5,0,0:0:0:0:
64,184,166629,2,0,P|96:140|60:172,1,170
232,56,167106,6,0,L|200:156,1,85
264,208,167423,6,0,L|188:120,1,85
160,48,167741,6,0,L|136:136,1,85
192,276,168058,6,0,L|140:184,1,85
92,152,168375,6,0,P|32:168|4:204,1,85
76,216,168693,5,0,0:0:0:0:
136,328,168852,1,0,0:0:0:0:
228,252,169010,1,0,0:0:0:0:
284,140,169248,5,0,0:0:0:0:
392,236,169407,1,0,0:0:0:0:
412,104,169566,1,0,0:0:0:0:
232,36,169725,5,0,0:0:0:0:
228,64,169804,1,0,0:0:0:0:
224,88,169883,1,0,0:0:0:0:
220,116,169963,1,0,0:0:0:0:
216,144,170042,1,0,0:0:0:0:
212,168,170122,5,0,0:0:0:0:
224,196,170201,6,0,L|156:148,4,42.5
236,284,170598,6,0,P|324:272|364:232,1,127.5
336,165,170995,2,0,L|356:277,1,85
236,92,171233,6,0,P|160:88|112:20,1,127.500004863739
168,188,171550,2,0,P|248:192|304:232,1,127.500004863739
344,168,171868,6,0,P|304:100|320:36,1,127.500004863739
428,124,172185,2,0,P|436:192|396:244,1,127.500004863739
312,184,172502,5,0,0:0:0:0:
296,196,172582,1,0,0:0:0:0:
276,208,172661,1,0,0:0:0:0:
296,292,172820,5,0,0:0:0:0:
392,240,172979,1,0,0:0:0:0:
352,88,173137,5,0,0:0:0:0:
328,96,173217,1,0,0:0:0:0:
300,104,173296,1,0,0:0:0:0:
192,188,173455,6,0,P|244:144|160:112,1,191.250007295609
200,192,173852,2,0,B|304:184|304:184|392:240|392:240|508:236,1,318.750012159348
424,80,174407,6,0,L|440:164,1,63.7500024318696
352,216,174566,2,0,L|376:144,2,63.7500024318696
256,140,174804,6,0,B|180:128|128:40|128:40|128:120|80:204|80:204|124:228|184:344,1,510.000019454957
296,252,175598,5,0,0:0:0:0:
344,160,175756,1,0,0:0:0:0:
232,144,175915,1,0,0:0:0:0:
188,244,176074,5,0,0:0:0:0:
168,228,176153,1,0,0:0:0:0:
144,216,176233,2,0,L|196:160,3,42.5
184,96,176629,5,0,0:0:0:0:
220,92,176709,1,0,0:0:0:0:
248,120,176788,1,0,0:0:0:0:
284,144,176868,1,0,0:0:0:0:
332,152,176947,5,0,0:0:0:0:
360,160,177026,6,0,P|392:120|392:48,1,85
312,240,177344,6,0,P|356:304|420:336,1,127.5
160,224,177661,5,0,0:0:0:0:
140,112,177820,1,0,0:0:0:0:
140,112,177979,2,0,P|196:104|256:108,1,85
368,296,178296,2,0,P|336:232|336:172,1,127.5
424,160,178693,6,0,B|428:96|404:48|404:48|472:32|496:0,1,212.5
344,128,179090,6,0,P|336:160|244:200,1,127.5
216,236,179407,2,0,L|252:332,1,85
100,76,179645,2,0,B|172:136|172:136|264:116,1,170
328,228,180122,5,0,0:0:0:0:
320,128,180280,1,8,0:0:0:0:
220,240,180439,5,0,0:0:0:0:
192,124,180598,1,8,0:0:0:0:
140,216,180756,2,0,P|88:196|40:168,1,85
128,72,181074,6,0,P|84:112|56:144,1,85
312,236,181391,2,0,P|372:192|380:144,2,127.5
224,128,181788,5,0,0:0:0:0:
264,200,181947,1,0,0:0:0:0:
184,224,182106,1,0,0:0:0:0:
136,148,182264,1,0,0:0:0:0:
360,160,182502,1,0,0:0:0:0:
344,200,182582,1,0,0:0:0:0:
272,136,182741,6,0,P|236:80|176:144,1,170
202,210,183217,6,0,P|174:162|178:118,1,85
256,132,183455,1,0,0:0:0:0:
344,144,183614,1,0,0:0:0:0:
400,212,183772,1,0,0:0:0:0:
404,248,183852,1,0,0:0:0:0:
408,288,183931,1,0,0:0:0:0:
296,224,184090,6,0,P|216:248|228:264,1,127.5
128,144,184487,2,0,L|140:236,1,85
224,288,184804,2,0,L|264:192,1,85
128,144,185122,2,0,P|176:108|264:156,1,170
396,132,185598,5,0,0:0:0:0:
388,168,185677,1,0,0:0:0:0:
376,204,185756,1,0,0:0:0:0:
368,240,185836,1,0,0:0:0:0:
352,272,185915,5,0,0:0:0:0:
300,292,185995,1,0,0:0:0:0:
240,280,186074,1,0,0:0:0:0:
180,276,186153,1,0,0:0:0:0:
128,272,186233,1,0,0:0:0:0:
156,96,186391,6,0,P|112:156|152:200,1,127.5
135,192,186788,2,0,P|80:212|24:216,1,85
240,152,187106,6,0,P|296:120|360:108,2,127.5
188,216,187582,5,0,0:0:0:0:
192,244,187661,1,0,0:0:0:0:
200,276,187741,1,0,0:0:0:0:
304,244,187899,6,0,P|360:188|288:144,1,170
196,104,188375,2,0,P|132:112|88:104,2,85
268,132,188852,1,0,0:0:0:0:
232,216,189010,1,0,0:0:0:0:
324,220,189169,6,0,P|384:232|428:216,2,85
140,184,189645,6,0,L|140:120,2,42.5
244,224,189963,5,0,0:0:0:0:
240,256,190042,1,0,0:0:0:0:
232,288,190122,1,0,0:0:0:0:
336,268,190280,38,0,P|400:240|328:184,1,170
156,140,190836,1,0,0:0:0:0:
304,100,190995,1,0,0:0:0:0:
220,52,191153,1,0,0:0:0:0:
280,236,191312,1,0,0:0:0:0:
280,236,191471,6,0,P|328:216|384:220,2,85
200,196,191947,1,0,0:0:0:0:
100,168,192106,1,0,0:0:0:0:
16,192,192264,1,0,0:0:0:0:
160,88,192423,6,0,L|224:88,3,42.5
248,88,192820,1,0,0:0:0:0:
368,164,192979,1,0,0:0:0:0:
256,268,193137,1,0,0:0:0:0:
160,88,193375,6,0,L|224:88,3,42.5
256,272,193772,1,0,0:0:0:0:
368,164,193931,1,0,0:0:0:0:
272,80,194089,1,0,0:0:0:0:
156,184,194328,6,0,P|140:128|56:200,1,212.5
196,264,194883,2,0,P|276:248|296:208,2,127.5
160,76,195360,6,0,L|124:160,1,63.7500024318696
256,124,195598,2,0,P|356:128|388:156,1,127.500004863739
339,235,195915,6,0,P|343:171|379:139,1,110.499994941712
196,104,196233,6,0,L|156:252,1,110.499994941712
72,300,196550,2,0,L|16:164,1,110.499994941712
92,116,196868,5,0,0:0:0:0:
244,128,197026,1,0,0:0:0:0:
168,36,197185,1,6,0:0:0:0:
144,164,197343,6,0,P|140:240|184:284,1,110.499994941712
240,240,197661,1,0,0:0:0:0:
324,216,197820,2,0,P|384:212|456:240,2,110.499994941712
272,88,198296,6,0,P|268:128|292:216,1,110.499994941712
184,236,198614,5,0,0:0:0:0:
196,256,198693,1,0,0:0:0:0:
208,280,198772,1,0,0:0:0:0:
304,224,198931,5,0,0:0:0:0:
316,200,199010,1,0,0:0:0:0:
328,176,199090,1,0,0:0:0:0:
292,72,199248,6,0,P|344:32|428:44,1,110.499994941712
408,252,199566,2,0,L|392:128,1,110.499994941712
168,188,200122,2,0,P|208:148|240:224,1,170
252,252,200677,6,0,L|340:208,1,85
328,132,200995,2,0,P|312:72|384:104,1,170
152,120,201471,6,0,L|112:252,2,127.5
240,80,202106,1,0,0:0:0:0:
304,176,202264,1,0,0:0:0:0:
296,268,202423,1,0,0:0:0:0:
368,76,202581,5,0,0:0:0:0:
392,104,202661,1,0,0:0:0:0:
420,140,202740,1,0,0:0:0:0:
284,228,202899,5,0,0:0:0:0:
320,220,202979,1,0,0:0:0:0:
360,216,203058,1,0,0:0:0:0:
208,216,203217,6,0,P|156:188|156:188,1,42.5
72,104,203455,2,0,B|160:92|160:92|208:144,1,127.5
92,180,203852,5,0,0:0:0:0:
168,56,204248,5,0,0:0:0:0:
192,204,204407,1,0,0:0:0:0:
284,64,204566,1,0,0:0:0:0:
356,216,204725,1,0,0:0:0:0:
168,56,204883,5,0,0:0:0:0:
192,204,204963,1,0,0:0:0:0:
284,68,205042,1,0,0:0:0:0:
356,216,205122,1,0,0:0:0:0:
52,288,205280,5,0,0:0:0:0:
76,312,205360,1,0,0:0:0:0:
112,344,205439,1,0,0:0:0:0:
144,356,205518,1,0,0:0:0:0:
180,352,205598,1,0,0:0:0:0:
212,304,205677,1,0,0:0:0:0:
244,300,205756,1,0,0:0:0:0:
268,336,205836,1,0,0:0:0:0:
256,192,205915,12,0,206709,0:0:0:0:
96,120,206868,6,0,P|160:112|204:136,1,85
304,220,207185,2,0,P|368:212|400:160,1,127.5
304,220,207661,6,0,L|304:320,2,85
132,312,208296,1,0,0:0:0:0:
52,128,208455,1,0,0:0:0:0:
216,128,208614,2,4,P|268:80|320:96,1,127.5
328,160,208931,6,0,L|296:280,1,85
384,264,209169,6,0,P|444:240|500:264,1,110.499994941712
156,140,209566,5,0,0:0:0:0:
252,136,209725,1,0,0:0:0:0:
232,24,209883,1,0,0:0:0:0:
132,20,210042,1,0,0:0:0:0:
152,136,210201,1,0,0:0:0:0:
24,32,210360,5,0,0:0:0:0:
148,236,210518,6,0,P|212:216|208:176,1,85
183,158,210836,2,0,L|139:254,1,85
256,192,211074,12,0,211709,0:0:0:0:
96,128,211868,6,0,B|180:172|84:220|160:232,1,127.5
236,232,212264,1,0,0:0:0:0:
332,244,212423,1,0,0:0:0:0:
388,168,212582,1,0,0:0:0:0:
324,76,212741,6,0,P|264:56|164:80,1,127.5
264,56,213130,2,0,P|272:112|304:148,1,85
340,304,213455,6,0,L|376:244,1,42.5
376,328,213614,2,0,L|376:248,1,42.5
408,332,213772,2,0,L|464:288,1,42.5
448,348,213931,2,0,L|432:288,1,42.5
372,228,214169,5,0,0:0:0:0:
260,136,214328,2,0,B|212:144|212:144|92:88|92:88,1,170
88,184,214804,1,0,0:0:0:0:
92,272,214963,1,0,0:0:0:0:
148,364,215122,1,0,0:0:0:0:
280,144,215261,6,0,P|348:100|356:168,1,170
316,252,215735,2,0,L|292:368,2,85
256,140,216209,1,0,0:0:0:0:
184,144,216366,2,0,P|88:128|24:132,1,127.5
28,204,216761,6,0,L|56:272,1,42.5
124,232,216998,2,4,L|144:280,2,42.5
144,68,217314,5,0,0:0:0:0:
264,204,217472,1,0,0:0:0:0:
288,228,217551,1,0,0:0:0:0:
312,252,217630,1,0,0:0:0:0:
424,152,217788,1,0,0:0:0:0:
324,80,217945,1,0,0:0:0:0:
208,120,218103,1,0,0:0:0:0:
164,220,218261,6,0,P|152:280|184:332,1,85
296,228,218577,2,0,P|348:132|348:132,1,85
120,160,218893,6,0,P|84:128|80:80,1,85
208,124,219209,1,0,0:0:0:0:
464,248,219366,2,0,P|428:364|428:364,2,85
376,200,219840,5,0,0:0:0:0:
280,252,219998,1,0,0:0:0:0:
200,180,220156,5,0,0:0:0:0:
168,172,220235,1,0,0:0:0:0:
144,168,220314,1,0,0:0:0:0:
116,112,220472,5,0,0:0:0:0:
212,56,220630,1,0,0:0:0:0:
300,148,220788,1,0,0:0:0:0:
124,260,220945,6,0,P|168:264|204:336,1,127.5
340,272,221340,5,0,0:0:0:0:
456,84,221498,1,0,0:0:0:0:
292,120,221656,1,0,0:0:0:0:
184,268,221814,1,0,0:0:0:0:
140,56,221972,1,0,0:0:0:0:
416,300,222130,1,0,0:0:0:0:
48,168,222288,5,0,0:0:0:0:
384,236,222445,5,0,0:0:0:0:
356,220,222524,1,0,0:0:0:0:
324,208,222603,1,0,0:0:0:0:
240,244,222761,5,0,0:0:0:0:
232,152,222919,1,0,0:0:0:0:
232,152,223077,2,0,L|184:64,1,85
120,92,223393,1,0,0:0:0:0:
100,176,223551,1,0,0:0:0:0:
160,248,223709,1,0,0:0:0:0:
328,216,223866,5,0,0:0:0:0:
336,256,223945,1,0,0:0:0:0:
344,292,224024,1,0,0:0:0:0:
456,228,224182,5,0,0:0:0:0:
480,212,224261,1,0,0:0:0:0:
504,196,224340,1,0,0:0:0:0:
203,139,224735,2,0,P|243:103|303:87,2,85
184,252,225209,6,0,P|144:184|120:152,1,85
460,324,225524,2,0,L|536:224,1,85
416,248,225840,5,0,0:0:0:0:
332,220,225998,1,0,0:0:0:0:
236,208,226156,1,0,0:0:0:0:
144,160,226314,5,0,0:0:0:0:
140,156,226393,1,0,0:0:0:0:
140,156,226472,1,0,0:0:0:0:
144,160,226551,6,0,P|168:120|104:32,2,170
244,56,227340,5,0,0:0:0:0:
352,104,227498,1,0,0:0:0:0:
468,168,227656,1,0,0:0:0:0:
408,248,227814,5,0,0:0:0:0:
328,284,227972,1,0,0:0:0:0:
228,324,228130,1,0,0:0:0:0:
140,208,228288,5,0,0:0:0:0:
136,184,228366,1,0,0:0:0:0:
132,160,228445,1,0,0:0:0:0:
212,112,228603,5,0,0:0:0:0:
216,96,228682,1,0,0:0:0:0:
220,76,228761,1,0,0:0:0:0:
324,156,228919,5,0,0:0:0:0:
312,136,228998,1,0,0:0:0:0:
304,120,229077,1,0,0:0:0:0:
256,200,229235,6,0,P|208:244|216:328,1,127.5
283,333,229630,2,0,L|187:297,1,85
304,232,229945,6,0,P|344:200|396:192,1,85
271,310,230261,2,0,L|319:194,1,85
148,112,230577,6,0,B|192:168|192:168|232:128|268:148|300:176|348:176|360:120|360:120|460:152|464:152|464:152|436:220,1,425
356,264,231288,6,0,P|392:288|432:268,1,85
456,196,231603,2,0,L|424:292,1,85
216,132,231919,6,0,L|212:188,1,42.5
216,132,232156,2,0,L|192:252,1,85
216,132,232472,2,0,L|176:288,1,127.5
296,184,232866,5,0,0:0:0:0:
296,184,232945,1,0,0:0:0:0:
296,184,233024,2,0,B|336:172|388:176|428:208,1,127.5
348,260,233419,5,0,0:0:0:0:
264,316,233577,1,0,0:0:0:0:
208,240,233735,1,0,0:0:0:0:
312,192,233893,1,0,0:0:0:0:
160,104,234051,5,0,0:0:0:0:
144,120,234130,1,0,0:0:0:0:
120,144,234209,1,0,0:0:0:0:
100,160,234288,1,0,0:0:0:0:
8,260,234445,6,0,B|28:176|92:268|192:208,1,170
248,184,234919,1,0,0:0:0:0:
332,256,235077,1,0,0:0:0:0:
400,316,235235,1,0,0:0:0:0:
412,252,235393,6,0,P|428:200|408:124,1,127.5
252,216,235866,5,0,0:0:0:0:
308,104,236024,2,0,P|364:96|436:96,2,127.5
128,216,236656,5,0,0:0:0:0:
104,56,236814,1,0,0:0:0:0:
28,216,236972,1,0,0:0:0:0:
96,104,237130,1,0,0:0:0:0:
128,216,237288,1,0,0:0:0:0:
288,164,237445,5,0,0:0:0:0:
288,196,237524,1,0,0:0:0:0:
288,224,237603,1,0,0:0:0:0:
296,252,237682,1,0,0:0:0:0:
296,288,237761,1,0,0:0:0:0:
364,284,237919,6,0,P|428:272|364:228,1,170
407,95,238314,2,0,L|375:223,1,127.5
272,208,238709,2,0,L|312:316,1,85
184,208,239024,2,0,L|200:120,1,85
120,112,239340,2,0,L|172:12,1,85
284,124,239577,5,0,0:0:0:0:
220,200,239735,1,0,0:0:0:0:
208,80,239893,1,0,0:0:0:0:
372,168,240051,5,0,0:0:0:0:
416,280,240209,1,0,0:0:0:0:
472,116,240366,1,0,0:0:0:0:
344,80,240524,1,0,0:0:0:0:
472,116,240682,2,0,P|468:60|444:16,1,85
364,184,240998,2,0,P|408:200|460:184,1,85
420,268,241314,6,0,L|352:352,1,85
256,284,241630,2,0,P|236:240|288:196,1,85
232,136,241945,2,0,L|252:236,1,85
368,120,242261,6,0,L|408:216,1,85
384,284,242577,2,0,L|408:196,1,85
332,176,242893,6,0,P|248:152|192:172,1,127.5
152,196,243288,1,0,0:0:0:0:
192,284,243445,1,0,0:0:0:0:
112,348,243603,1,0,0:0:0:0:
192,284,243761,6,0,P|232:236|260:228,1,85
255,144,244077,2,0,L|251:232,1,85
316,36,244393,5,0,0:0:0:0:
316,56,244472,1,0,0:0:0:0:
320,80,244551,1,0,0:0:0:0:
320,100,244630,1,0,0:0:0:0:
328,124,244709,1,0,0:0:0:0:
424,240,244866,1,0,0:0:0:0:
396,164,245024,5,0,0:0:0:0:
304,204,245182,1,0,0:0:0:0:
344,280,245340,1,0,0:0:0:0:
176,216,245498,5,0,0:0:0:0:
196,236,245577,1,0,0:0:0:0:
216,256,245656,1,0,0:0:0:0:
240,276,245735,1,0,0:0:0:0:
356,212,245893,6,0,P|376:120|376:120,1,85
172,12,246209,6,0,B|232:56|232:56|244:372,1,382.5
312,128,246919,6,0,L|292:216,1,85
184,212,247314,2,0,L|276:324,1,127.5
256,192,247709,12,0,250630,0:0:0:0:
