osu file format v14

[General]
AudioFilename: audio.mp3
AudioLeadIn: 0
PreviewTime: -1
Countdown: 1
SampleSet: None
StackLeniency: 0.4
Mode: 3
LetterboxInBreaks: 0
SpecialStyle: 0
WidescreenStoryboard: 1

[Editor]
Bookmarks: 24583,48416,80083,134833,139749,142083,144249,149169
DistanceSpacing: 1.3
BeatDivisor: 4
GridSize: 4
TimelineZoom: 2.2

[Metadata]
Title:Evolution
TitleUnicode:Evolution
Artist:Teminite
ArtistUnicode:Teminite
Creator:TecGamer_Brazil
Version:...
Source:
Tags:
BeatmapID:1524373
BeatmapSetID:721964

[Difficulty]
HPDrainRate:9.3
CircleSize:4
OverallDifficulty:8
ApproachRate:8.9
SliderMultiplier:1.7
SliderTickRate:1

[Events]
//Background and Video events
0,0,"anime_girl_bag_horizontal_bar_summer_12629_1366x768.jpg",0,0
//Break Periods
//Storyboard Layer 0 (Background)
//Storyboard Layer 1 (Fail)
//Storyboard Layer 2 (Pass)
//Storyboard Layer 3 (Foreground)
//Storyboard Sound Samples

[TimingPoints]
2500,500,4,1,1,5,1,0
2833,-100,4,1,1,5,0,0
3000,-100,4,1,1,10,0,0
3154,-100,4,1,1,15,0,0
3320,-100,4,1,1,20,0,0
3750,333.333333333333,4,1,1,100,1,0
3750,-100,4,1,1,25,0,0
4083,-100,4,1,1,30,0,0
9249,-200,4,1,1,30,0,0
9749,-100,4,1,1,30,0,0
11249,-66.6666666666667,4,1,1,30,0,0
11583,-133.333333333333,4,1,1,30,0,0
12083,-100,4,1,1,30,0,0
12499,-100,4,1,1,70,0,0
16333,-133.333333333333,4,1,1,70,0,0
17300,-100,4,1,1,70,0,0
19416,-100,4,1,1,84,0,0
28499,-200,4,1,1,84,0,0
29333,-100,4,1,1,84,0,0
50004,-66.6666666666667,4,1,1,84,0,1
52249,-100,4,1,1,84,0,1
53166,-66.6666666666667,4,1,1,84,0,1
53416,-133.333333333333,4,1,1,84,0,1
55083,-66.6666666666667,4,1,1,84,0,1
55333,-100,4,1,1,84,0,1
58083,-66.6666666666667,4,1,1,84,0,1
58999,-100,4,1,1,84,0,1
64333,-66.6666666666667,4,1,1,84,0,1
64666,-100,4,1,1,84,0,1
65166,-66.6666666666667,4,1,1,84,0,1
65291,-100,4,1,1,84,0,1
66004,-100,4,1,1,84,0,0
67598,-66.6666666666667,4,1,1,84,0,1
78916,-100,4,1,1,84,0,1
79166,-66.6666666666667,4,1,1,84,0,1
86833,-100,4,1,1,84,0,0
90666,-133.333333333333,4,1,1,84,0,0
90999,-100,4,1,1,84,0,0
107583,-66.6666666666667,4,1,1,84,0,0
107666,-100,4,1,1,84,0,0
109333,-66.6666666666667,4,1,1,84,0,0
109499,-100,4,1,1,84,0,0
109749,-133.333333333333,4,1,1,84,0,0
110083,-100,4,1,1,84,0,0
125166,-100,4,1,1,15,0,0
125333,-100,4,1,1,10,0,0
125499,-100,4,1,1,5,0,0
135833,-133.333333333333,4,1,1,5,0,0
136333,-100,4,1,1,5,0,0
144249,317.460317460317,4,1,1,15,1,0
144249,-100,4,1,1,15,0,0
144416,-100,4,1,1,20,0,0
144583,-100,4,1,1,35,0,0
144749,-100,4,1,1,35,0,0
145499,-100,4,1,1,49,0,0
149487,-76.9230769230769,4,1,1,49,0,0
150280,-100,4,1,1,49,0,0
151312,-72.992700729927,4,1,1,49,0,0
151709,-100,4,1,1,49,0,0
151788,-71.9424460431655,4,1,1,49,0,0
153058,-100,4,1,1,49,0,0
153614,-52.6315789473684,4,1,1,49,0,0
153772,-76.9230769230769,4,1,1,49,0,0
156312,-100,4,1,1,49,0,0
158455,-76.9230769230769,4,1,1,49,0,0
161629,-66.6666666666667,4,1,1,49,0,0
162026,-100,4,1,1,49,0,0
163375,-68.9655172413793,4,1,1,49,0,0
163693,-100,4,1,1,49,0,0
170995,-76.9230769230769,4,1,1,49,0,0
171153,-66.6666666666667,4,1,1,49,0,0
173137,-66.6666666666667,4,1,1,49,0,1
175439,-100,4,1,1,49,0,1
177026,-76.9230769230769,4,1,1,49,0,1
177185,-100,4,1,1,49,0,1
177344,-66.6666666666667,4,1,1,49,0,1
177502,-100,4,1,1,49,0,1
178693,-66.6666666666667,4,1,1,49,0,1
178931,-100,4,1,1,49,0,1
179407,-76.9230769230769,4,1,1,49,0,1
179566,-100,4,1,1,49,0,1
181391,-52.6315789473684,4,1,1,49,0,1
181629,-100,4,1,1,49,0,1
183217,-66.6666666666667,4,1,1,49,0,1
183296,-100,4,1,1,49,0,1
184487,-76.9230769230769,4,1,1,49,0,1
184963,-100,4,1,1,49,0,1
187106,-76.9230769230769,4,1,1,49,0,1
187502,-100,4,1,1,49,0,1
190280,-125,4,1,1,49,0,1
190677,-100,4,1,1,49,0,1
194328,-66.6666666666667,4,1,1,49,0,1
195201,-76.9230769230769,4,1,1,49,0,1
199566,-66.6666666666667,4,1,1,49,0,1
199725,-100,4,1,1,49,0,1
200122,-133.333333333333,4,1,1,49,0,1
200598,-100,4,1,1,49,0,1
207185,-133.333333333333,4,1,1,49,0,1
207502,-100,4,1,1,49,0,1
208931,-66.6666666666667,4,1,1,49,0,1
209090,-100,4,1,1,49,0,1
209169,-76.9230769230769,4,1,1,49,0,1
209328,-100,4,1,1,49,0,1
210836,-83.3333333333333,4,1,1,49,0,1
210995,-100,4,1,1,49,0,1
211788,315.789473684211,4,1,1,49,1,0
211788,-100,4,1,1,49,0,0
214328,-90.9090909090909,4,1,1,49,0,0
214645,-100,4,1,1,49,0,0
230577,-66.6666666666667,4,1,1,49,0,0
230893,-100,4,1,1,49,0,0
237919,-66.6666666666667,4,1,1,49,0,0
238156,-100,4,1,1,49,0,0
246209,-66.6666666666667,4,1,1,49,0,0
246682,-100,4,1,1,49,0,0

[Colours]
Combo1 : 128,64,0
Combo2 : 0,68,136
Combo3 : 37,185,239
Combo4 : 0,121,0
Combo5 : 241,152,190

[HitObjects]
320,192,3125,5,0,0:0:0:0:
320,192,3250,1,0,0:0:0:0:
448,192,3500,1,0,0:0:0:0:
448,192,3750,1,0,0:0:0:0:
320,192,4083,1,0,0:0:0:0:
64,192,4916,1,0,0:0:0:0:
320,192,5166,1,0,0:0:0:0:
64,192,5249,1,0,0:0:0:0:
192,192,5416,1,0,0:0:0:0:
320,192,5499,1,0,0:0:0:0:
448,192,5666,1,0,0:0:0:0:
192,192,5666,1,0,0:0:0:0:
320,192,5749,1,0,0:0:0:0:
64,192,5749,1,0,0:0:0:0:
320,192,5916,1,0,0:0:0:0:
64,192,6083,1,0,0:0:0:0:
448,192,6249,1,0,0:0:0:0:
448,192,6499,1,0,0:0:0:0:
192,192,6749,1,0,0:0:0:0:
448,192,6999,1,0,0:0:0:0:
64,192,7166,1,0,0:0:0:0:
320,192,7666,1,0,0:0:0:0:
192,192,7749,1,0,0:0:0:0:
64,192,7749,1,0,0:0:0:0:
448,192,7833,1,0,0:0:0:0:
192,192,7916,1,0,0:0:0:0:
320,192,7916,1,0,0:0:0:0:
64,192,7999,1,0,0:0:0:0:
448,192,8083,1,0,0:0:0:0:
192,192,8166,1,0,0:0:0:0:
320,192,8166,1,0,0:0:0:0:
64,192,8249,1,0,0:0:0:0:
448,192,8249,1,0,0:0:0:0:
192,192,8333,1,0,0:0:0:0:
320,192,8416,1,0,0:0:0:0:
64,192,8416,1,0,0:0:0:0:
448,192,8499,1,0,0:0:0:0:
192,192,8499,1,0,0:0:0:0:
320,192,8833,1,0,0:0:0:0:
64,192,9166,1,0,0:0:0:0:
192,192,9416,1,0,0:0:0:0:
320,192,9416,1,0,0:0:0:0:
64,192,9499,1,0,0:0:0:0:
448,192,9499,1,0,0:0:0:0:
192,192,9583,1,0,0:0:0:0:
320,192,9583,1,0,0:0:0:0:
64,192,9666,1,0,0:0:0:0:
448,192,9749,1,0,0:0:0:0:
192,192,9833,1,0,0:0:0:0:
320,192,9833,1,0,0:0:0:0:
448,192,9916,1,0,0:0:0:0:
64,192,9916,1,0,0:0:0:0:
320,192,10166,1,0,0:0:0:0:
320,192,10333,1,0,0:0:0:0:
64,192,10416,1,0,0:0:0:0:
448,192,10583,1,0,0:0:0:0:
448,192,10749,1,0,0:0:0:0:
192,192,10833,1,0,0:0:0:0:
320,192,10999,1,0,0:0:0:0:
64,192,11083,1,0,0:0:0:0:
448,192,11249,1,0,0:0:0:0:
64,192,11499,1,0,0:0:0:0:
448,192,11666,1,0,0:0:0:0:
192,192,11749,1,0,0:0:0:0:
64,192,12083,1,0,0:0:0:0:
448,192,12249,1,0,0:0:0:0:
320,192,12666,1,0,0:0:0:0:
64,192,12833,1,0,0:0:0:0:
448,192,12999,1,0,0:0:0:0:
192,192,13249,1,0,0:0:0:0:
320,192,13333,1,0,0:0:0:0:
64,192,13499,1,0,0:0:0:0:
320,192,13666,1,0,0:0:0:0:
320,192,13833,1,0,0:0:0:0:
64,192,13999,1,0,0:0:0:0:
192,192,14083,1,0,0:0:0:0:
320,192,14083,1,0,0:0:0:0:
448,192,14166,1,0,0:0:0:0:
64,192,14249,1,0,0:0:0:0:
320,192,14333,1,0,0:0:0:0:
192,192,14333,1,0,0:0:0:0:
448,192,14416,1,0,0:0:0:0:
64,192,14416,1,0,0:0:0:0:
320,192,14499,1,0,0:0:0:0:
192,192,14583,1,0,0:0:0:0:
448,192,14583,1,0,0:0:0:0:
64,192,14666,1,0,0:0:0:0:
320,192,14916,1,0,0:0:0:0:
320,192,15083,1,0,0:0:0:0:
64,192,15166,1,0,0:0:0:0:
448,192,15333,1,0,0:0:0:0:
448,192,15416,1,0,0:0:0:0:
448,192,15583,1,0,0:0:0:0:
192,192,15666,1,0,0:0:0:0:
64,192,15833,1,0,0:0:0:0:
320,192,16083,1,0,0:0:0:0:
64,192,16249,1,0,0:0:0:0:
320,192,16416,1,0,0:0:0:0:
64,192,16416,1,0,0:0:0:0:
64,192,16666,1,0,0:0:0:0:
320,192,16666,1,0,0:0:0:0:
448,192,16916,1,0,0:0:0:0:
64,192,16999,1,0,0:0:0:0:
192,192,17166,1,0,0:0:0:0:
448,192,17249,1,0,0:0:0:0:
192,192,17416,1,0,0:0:0:0:
448,192,17499,1,0,0:0:0:0:
192,192,17749,1,0,0:0:0:0:
320,192,17833,1,0,0:0:0:0:
320,192,18083,128,0,18583:0:0:0:0:
64,192,18416,1,0,0:0:0:0:
192,192,18666,1,0,0:0:0:0:
448,192,18916,128,0,19249:0:0:0:0:
192,192,19083,128,0,19499:0:0:0:0:
320,192,19416,1,0,0:0:0:0:
64,192,19583,1,0,0:0:0:0:
448,192,19749,1,0,0:0:0:0:
64,192,19916,1,0,0:0:0:0:
320,192,20083,1,0,0:0:0:0:
64,192,20249,1,0,0:0:0:0:
320,192,20416,1,0,0:0:0:0:
192,192,20583,1,0,0:0:0:0:
448,192,20749,1,0,0:0:0:0:
64,192,20833,1,0,0:0:0:0:
448,192,20999,1,0,0:0:0:0:
192,192,21166,1,0,0:0:0:0:
320,192,21249,1,0,0:0:0:0:
320,192,21499,1,0,0:0:0:0:
448,192,21499,1,0,0:0:0:0:
320,192,21749,1,0,0:0:0:0:
448,192,21833,1,0,0:0:0:0:
192,192,22083,1,0,0:0:0:0:
64,192,22083,1,0,0:0:0:0:
320,192,22166,1,0,0:0:0:0:
448,192,22166,1,0,0:0:0:0:
192,192,22416,1,0,0:0:0:0:
320,192,22416,1,0,0:0:0:0:
64,192,22416,1,0,0:0:0:0:
448,192,22499,1,0,0:0:0:0:
320,192,22666,1,0,0:0:0:0:
192,192,22666,1,0,0:0:0:0:
64,192,22749,1,0,0:0:0:0:
448,192,22749,1,0,0:0:0:0:
192,192,22916,1,0,0:0:0:0:
320,192,22916,1,0,0:0:0:0:
448,192,22999,1,0,0:0:0:0:
64,192,22999,1,0,0:0:0:0:
320,192,23166,1,0,0:0:0:0:
192,192,23166,1,0,0:0:0:0:
64,192,23249,1,0,0:0:0:0:
448,192,23249,1,0,0:0:0:0:
320,192,23499,1,0,0:0:0:0:
320,192,23749,1,0,0:0:0:0:
64,192,23916,1,0,0:0:0:0:
448,192,23999,1,0,0:0:0:0:
192,192,24333,1,0,0:0:0:0:
448,192,24333,1,0,0:0:0:0:
448,192,24583,1,0,0:0:0:0:
192,192,24583,1,0,0:0:0:0:
448,192,24666,1,0,0:0:0:0:
192,192,24749,1,0,0:0:0:0:
320,192,24916,1,0,0:0:0:0:
64,192,25083,1,0,0:0:0:0:
320,192,25166,1,0,0:0:0:0:
64,192,25333,1,0,0:0:0:0:
448,192,25499,1,0,0:0:0:0:
192,192,25749,1,0,0:0:0:0:
320,192,25916,1,0,0:0:0:0:
64,192,26083,1,0,0:0:0:0:
320,192,26249,128,0,26583:0:0:0:0:
448,192,26333,1,0,0:0:0:0:
192,192,26333,1,0,0:0:0:0:
64,192,26333,1,0,0:0:0:0:
320,192,26833,1,0,0:0:0:0:
64,192,26999,1,0,0:0:0:0:
320,192,27166,1,0,0:0:0:0:
192,192,27333,1,0,0:0:0:0:
320,192,27583,1,0,0:0:0:0:
320,192,27833,1,0,0:0:0:0:
64,192,27999,1,0,0:0:0:0:
320,192,28749,1,0,0:0:0:0:
64,192,29499,1,0,0:0:0:0:
320,192,29666,1,0,0:0:0:0:
64,192,29916,1,0,0:0:0:0:
448,192,30249,1,0,0:0:0:0:
192,192,30499,1,0,0:0:0:0:
320,192,30666,1,0,0:0:0:0:
64,192,31083,1,0,0:0:0:0:
448,192,31416,1,0,0:0:0:0:
192,192,31666,1,0,0:0:0:0:
320,192,31916,1,0,0:0:0:0:
64,192,32249,1,0,0:0:0:0:
448,192,32499,1,0,0:0:0:0:
192,192,32833,1,0,0:0:0:0:
320,192,33166,1,0,0:0:0:0:
64,192,33416,1,0,0:0:0:0:
448,192,33749,1,0,0:0:0:0:
192,192,33999,1,0,0:0:0:0:
320,192,34333,1,0,0:0:0:0:
64,192,34583,1,0,0:0:0:0:
448,192,34916,1,0,0:0:0:0:
192,192,35249,1,0,0:0:0:0:
448,192,35583,1,0,0:0:0:0:
64,192,35833,1,0,0:0:0:0:
320,192,36166,1,0,0:0:0:0:
64,192,36416,1,0,0:0:0:0:
448,192,36666,1,0,0:0:0:0:
192,192,36999,1,0,0:0:0:0:
320,192,37333,1,0,0:0:0:0:
64,192,37583,1,0,0:0:0:0:
448,192,37999,1,0,0:0:0:0:
192,192,38249,1,0,0:0:0:0:
448,192,38499,1,0,0:0:0:0:
64,192,38666,1,0,0:0:0:0:
448,192,38833,1,0,0:0:0:0:
64,192,38999,1,0,0:0:0:0:
448,192,39083,1,0,0:0:0:0:
192,192,39249,1,0,0:0:0:0:
320,192,39416,1,0,0:0:0:0:
64,192,39583,1,0,0:0:0:0:
320,192,39749,1,0,0:0:0:0:
64,192,39916,1,0,0:0:0:0:
320,192,40166,1,0,0:0:0:0:
320,192,40583,1,0,0:0:0:0:
64,192,40916,1,0,0:0:0:0:
320,192,40916,1,0,0:0:0:0:
192,192,40999,1,0,0:0:0:0:
448,192,40999,1,0,0:0:0:0:
64,192,41749,1,0,0:0:0:0:
192,192,41749,1,0,0:0:0:0:
320,192,41833,1,0,0:0:0:0:
448,192,41833,1,0,0:0:0:0:
320,192,42333,1,0,0:0:0:0:
448,192,42333,1,0,0:0:0:0:
64,192,42333,1,0,0:0:0:0:
192,192,42333,1,0,0:0:0:0:
320,192,42666,1,0,0:0:0:0:
448,192,42666,1,0,0:0:0:0:
64,192,42666,1,0,0:0:0:0:
192,192,42666,1,0,0:0:0:0:
320,192,43249,1,0,0:0:0:0:
64,192,43333,1,0,0:0:0:0:
448,192,43583,1,0,0:0:0:0:
448,192,43749,1,0,0:0:0:0:
448,192,43916,1,0,0:0:0:0:
192,192,44083,1,0,0:0:0:0:
448,192,44249,1,0,0:0:0:0:
64,192,44416,1,0,0:0:0:0:
448,192,44833,1,0,0:0:0:0:
448,192,45166,1,0,0:0:0:0:
448,192,45499,1,0,0:0:0:0:
192,192,45749,1,0,0:0:0:0:
448,192,46083,1,0,0:0:0:0:
192,192,46416,1,0,0:0:0:0:
448,192,46749,1,0,0:0:0:0:
64,192,46916,1,0,0:0:0:0:
448,192,47166,1,0,0:0:0:0:
64,192,47416,1,0,0:0:0:0:
448,192,47666,1,0,0:0:0:0:
64,192,47999,1,0,0:0:0:0:
448,192,48249,1,0,0:0:0:0:
64,192,48416,1,0,0:0:0:0:
320,192,48499,1,0,0:0:0:0:
448,192,48583,1,0,0:0:0:0:
64,192,48666,1,0,0:0:0:0:
320,192,48749,1,0,0:0:0:0:
448,192,48916,1,0,0:0:0:0:
64,192,48916,1,0,0:0:0:0:
320,192,49083,1,0,0:0:0:0:
192,192,49166,1,0,0:0:0:0:
448,192,49166,1,0,0:0:0:0:
64,192,49249,1,0,0:0:0:0:
320,192,49333,1,0,0:0:0:0:
192,192,49333,1,0,0:0:0:0:
448,192,49416,1,0,0:0:0:0:
64,192,49416,1,0,0:0:0:0:
320,192,49499,1,0,0:0:0:0:
192,192,49583,1,0,0:0:0:0:
448,192,49583,1,0,0:0:0:0:
64,192,49666,1,0,0:0:0:0:
320,192,49666,1,0,0:0:0:0:
192,192,49749,1,0,0:0:0:0:
448,192,49749,1,0,0:0:0:0:
64,192,49833,1,0,0:0:0:0:
320,192,50083,1,0,0:0:0:0:
64,192,50166,1,0,0:0:0:0:
320,192,50249,1,0,0:0:0:0:
64,192,50416,1,0,0:0:0:0:
448,192,50583,1,0,0:0:0:0:
192,192,50666,1,0,0:0:0:0:
320,192,51166,1,0,0:0:0:0:
192,192,51249,1,0,0:0:0:0:
448,192,51249,1,0,0:0:0:0:
64,192,51249,1,0,0:0:0:0:
448,192,51499,1,0,0:0:0:0:
64,192,51499,1,0,0:0:0:0:
192,192,51499,1,0,0:0:0:0:
320,192,51499,1,0,0:0:0:0:
64,192,51749,1,0,0:0:0:0:
320,192,51749,1,0,0:0:0:0:
192,192,51749,1,0,0:0:0:0:
448,192,51749,1,0,0:0:0:0:
64,192,51999,1,0,0:0:0:0:
192,192,51999,1,0,0:0:0:0:
320,192,51999,1,0,0:0:0:0:
448,192,51999,1,0,0:0:0:0:
64,192,52333,1,0,0:0:0:0:
192,192,52333,1,0,0:0:0:0:
320,192,52333,1,0,0:0:0:0:
448,192,52333,1,0,0:0:0:0:
64,192,52583,1,0,0:0:0:0:
192,192,52583,1,0,0:0:0:0:
320,192,52583,1,0,0:0:0:0:
448,192,52583,1,0,0:0:0:0:
320,192,52749,1,0,0:0:0:0:
448,192,52916,1,0,0:0:0:0:
64,192,52916,1,0,0:0:0:0:
320,192,52999,1,0,0:0:0:0:
192,192,52999,1,0,0:0:0:0:
448,192,53083,1,0,0:0:0:0:
64,192,53083,1,0,0:0:0:0:
320,192,53166,1,0,0:0:0:0:
192,192,53249,1,0,0:0:0:0:
64,192,53333,1,0,0:0:0:0:
448,192,53333,1,0,0:0:0:0:
192,192,53416,1,0,0:0:0:0:
320,192,53416,1,0,0:0:0:0:
448,192,53416,1,0,0:0:0:0:
64,192,53499,1,0,0:0:0:0:
192,192,53583,1,0,0:0:0:0:
320,192,53583,1,0,0:0:0:0:
448,192,53666,1,0,0:0:0:0:
64,192,53666,1,0,0:0:0:0:
192,192,53833,1,0,0:0:0:0:
320,192,53833,1,0,0:0:0:0:
448,192,53916,1,0,0:0:0:0:
64,192,53916,1,0,0:0:0:0:
192,192,53999,1,0,0:0:0:0:
64,192,54083,1,0,0:0:0:0:
320,192,54166,1,0,0:0:0:0:
448,192,54249,1,0,0:0:0:0:
192,192,54416,1,0,0:0:0:0:
320,192,54416,1,0,0:0:0:0:
64,192,54499,1,0,0:0:0:0:
448,192,54499,1,0,0:0:0:0:
192,192,54666,1,0,0:0:0:0:
320,192,54749,1,0,0:0:0:0:
64,192,54749,1,0,0:0:0:0:
448,192,54749,1,0,0:0:0:0:
192,192,54999,1,0,0:0:0:0:
320,192,54999,1,0,0:0:0:0:
64,192,55083,1,0,0:0:0:0:
448,192,55083,1,0,0:0:0:0:
320,192,55249,1,0,0:0:0:0:
192,192,55249,1,0,0:0:0:0:
448,192,55333,1,0,0:0:0:0:
64,192,55333,1,0,0:0:0:0:
320,192,55416,1,0,0:0:0:0:
192,192,55499,1,0,0:0:0:0:
448,192,55499,1,0,0:0:0:0:
64,192,55583,1,0,0:0:0:0:
320,192,55666,1,0,0:0:0:0:
192,192,55666,1,0,0:0:0:0:
64,192,55749,1,0,0:0:0:0:
448,192,55749,128,0,56083:0:0:0:0:
192,192,55833,1,0,0:0:0:0:
320,192,55833,1,0,0:0:0:0:
64,192,55916,1,0,0:0:0:0:
320,192,55999,1,0,0:0:0:0:
192,192,56083,1,0,0:0:0:0:
448,192,56166,1,0,0:0:0:0:
64,192,56166,1,0,0:0:0:0:
192,192,56249,1,0,0:0:0:0:
320,192,56249,1,0,0:0:0:0:
64,192,56333,1,0,0:0:0:0:
448,192,56333,1,0,0:0:0:0:
192,192,56416,1,0,0:0:0:0:
320,192,56499,1,0,0:0:0:0:
64,192,56583,1,0,0:0:0:0:
448,192,56583,1,0,0:0:0:0:
192,192,56666,1,0,0:0:0:0:
320,192,56666,1,0,0:0:0:0:
64,192,56749,1,0,0:0:0:0:
448,192,56749,1,0,0:0:0:0:
192,192,56833,1,0,0:0:0:0:
320,192,56833,1,0,0:0:0:0:
64,192,56916,1,0,0:0:0:0:
448,192,56916,1,0,0:0:0:0:
192,192,57083,1,0,0:0:0:0:
320,192,57083,1,0,0:0:0:0:
448,192,57166,1,0,0:0:0:0:
64,192,57166,1,0,0:0:0:0:
192,192,57249,1,0,0:0:0:0:
320,192,57249,1,0,0:0:0:0:
64,192,57333,1,0,0:0:0:0:
448,192,57333,1,0,0:0:0:0:
192,192,57499,1,0,0:0:0:0:
320,192,57499,1,0,0:0:0:0:
64,192,57583,1,0,0:0:0:0:
448,192,57583,1,0,0:0:0:0:
192,192,57666,1,0,0:0:0:0:
320,192,57666,1,0,0:0:0:0:
64,192,57749,1,0,0:0:0:0:
448,192,57749,1,0,0:0:0:0:
320,192,57999,1,0,0:0:0:0:
64,192,58083,1,0,0:0:0:0:
320,192,58249,1,0,0:0:0:0:
192,192,58333,1,0,0:0:0:0:
448,192,58333,1,0,0:0:0:0:
64,192,58416,1,0,0:0:0:0:
320,192,58499,1,0,0:0:0:0:
192,192,58499,1,0,0:0:0:0:
448,192,58583,1,0,0:0:0:0:
64,192,58583,1,0,0:0:0:0:
320,192,58666,1,0,0:0:0:0:
192,192,58666,1,0,0:0:0:0:
448,192,58749,1,0,0:0:0:0:
64,192,58833,1,0,0:0:0:0:
320,192,58916,1,0,0:0:0:0:
192,192,58916,1,0,0:0:0:0:
448,192,58999,1,0,0:0:0:0:
64,192,58999,1,0,0:0:0:0:
320,192,59083,1,0,0:0:0:0:
192,192,59166,1,0,0:0:0:0:
448,192,59166,1,0,0:0:0:0:
320,192,59416,1,0,0:0:0:0:
320,192,59666,1,0,0:0:0:0:
64,192,59916,1,0,0:0:0:0:
320,192,60249,1,0,0:0:0:0:
192,192,60249,1,0,0:0:0:0:
64,192,60333,1,0,0:0:0:0:
448,192,60333,1,0,0:0:0:0:
192,192,60416,1,0,0:0:0:0:
320,192,60499,1,0,0:0:0:0:
64,192,60499,1,0,0:0:0:0:
448,192,60583,1,0,0:0:0:0:
192,192,60666,1,0,0:0:0:0:
320,192,60666,1,0,0:0:0:0:
64,192,60749,1,0,0:0:0:0:
448,192,60749,1,0,0:0:0:0:
192,192,60833,1,0,0:0:0:0:
320,192,60916,1,0,0:0:0:0:
64,192,60916,1,0,0:0:0:0:
448,192,60999,1,0,0:0:0:0:
192,192,61083,1,0,0:0:0:0:
64,192,61166,1,0,0:0:0:0:
448,192,61249,1,0,0:0:0:0:
192,192,61249,1,0,0:0:0:0:
320,192,61333,1,0,0:0:0:0:
64,192,61333,1,0,0:0:0:0:
448,192,61416,1,0,0:0:0:0:
192,192,61416,1,0,0:0:0:0:
320,192,61499,1,0,0:0:0:0:
64,192,61499,1,0,0:0:0:0:
448,192,61583,1,0,0:0:0:0:
192,192,61666,1,0,0:0:0:0:
448,192,61749,1,0,0:0:0:0:
64,192,61749,1,0,0:0:0:0:
320,192,61833,1,0,0:0:0:0:
192,192,61916,1,0,0:0:0:0:
64,192,61999,1,0,0:0:0:0:
448,192,61999,1,0,0:0:0:0:
192,192,62083,1,0,0:0:0:0:
320,192,62083,1,0,0:0:0:0:
64,192,62166,1,0,0:0:0:0:
448,192,62249,1,0,0:0:0:0:
192,192,62333,1,0,0:0:0:0:
320,192,62333,1,0,0:0:0:0:
64,192,62416,1,0,0:0:0:0:
448,192,62416,1,0,0:0:0:0:
192,192,62499,1,0,0:0:0:0:
320,192,62583,1,0,0:0:0:0:
64,192,62666,1,0,0:0:0:0:
448,192,62666,1,0,0:0:0:0:
192,192,62749,1,0,0:0:0:0:
320,192,62749,1,0,0:0:0:0:
64,192,62833,1,0,0:0:0:0:
448,192,62833,1,0,0:0:0:0:
192,192,62916,1,0,0:0:0:0:
320,192,63166,1,0,0:0:0:0:
64,192,63333,1,0,0:0:0:0:
448,192,63499,1,0,0:0:0:0:
192,192,63666,1,0,0:0:0:0:
320,192,63833,1,0,0:0:0:0:
448,192,63833,1,0,0:0:0:0:
192,192,63916,128,0,64249:0:0:0:0:
320,192,64083,1,0,0:0:0:0:
448,192,64166,1,0,0:0:0:0:
64,192,64166,1,0,0:0:0:0:
320,192,64333,1,0,0:0:0:0:
192,192,64333,1,0,0:0:0:0:
448,192,64333,1,0,0:0:0:0:
64,192,64416,1,0,0:0:0:0:
192,192,64499,1,0,0:0:0:0:
320,192,64499,1,0,0:0:0:0:
64,192,64583,1,0,0:0:0:0:
448,192,64583,1,0,0:0:0:0:
192,192,64749,1,0,0:0:0:0:
320,192,64749,1,0,0:0:0:0:
64,192,64833,1,0,0:0:0:0:
448,192,64833,1,0,0:0:0:0:
192,192,64999,1,0,0:0:0:0:
320,192,64999,1,0,0:0:0:0:
64,192,65083,1,0,0:0:0:0:
192,192,65166,1,0,0:0:0:0:
320,192,65249,1,0,0:0:0:0:
64,192,65333,1,0,0:0:0:0:
448,192,65333,1,0,0:0:0:0:
192,192,65416,1,0,0:0:0:0:
320,192,65499,1,0,0:0:0:0:
64,192,65499,1,0,0:0:0:0:
448,192,65583,1,0,0:0:0:0:
192,192,65666,1,0,0:0:0:0:
320,192,65666,1,0,0:0:0:0:
64,192,65749,1,0,0:0:0:0:
448,192,65833,1,0,0:0:0:0:
192,192,65916,1,0,0:0:0:0:
320,192,65999,1,0,0:0:0:0:
64,192,65999,1,0,0:0:0:0:
448,192,66083,1,0,0:0:0:0:
192,192,66166,1,0,0:0:0:0:
64,192,66249,1,0,0:0:0:0:
320,192,66249,1,0,0:0:0:0:
192,192,66333,1,0,0:0:0:0:
448,192,66333,1,0,0:0:0:0:
64,192,66416,1,0,0:0:0:0:
320,192,66499,1,0,0:0:0:0:
192,192,66499,1,0,0:0:0:0:
448,192,66583,1,0,0:0:0:0:
64,192,66666,1,0,0:0:0:0:
320,192,66666,1,0,0:0:0:0:
192,192,66749,1,0,0:0:0:0:
448,192,66833,1,0,0:0:0:0:
64,192,66833,1,0,0:0:0:0:
320,192,66916,1,0,0:0:0:0:
192,192,66999,1,0,0:0:0:0:
448,192,66999,1,0,0:0:0:0:
64,192,67083,1,0,0:0:0:0:
320,192,67166,1,0,0:0:0:0:
192,192,67166,1,0,0:0:0:0:
64,192,67249,1,0,0:0:0:0:
320,192,67416,1,0,0:0:0:0:
64,192,67583,1,0,0:0:0:0:
448,192,67833,1,0,0:0:0:0:
192,192,68083,1,0,0:0:0:0:
320,192,68249,1,0,0:0:0:0:
192,192,68333,1,0,0:0:0:0:
448,192,68333,1,0,0:0:0:0:
64,192,68416,1,0,0:0:0:0:
320,192,68499,1,0,0:0:0:0:
192,192,68499,1,0,0:0:0:0:
448,192,68583,1,0,0:0:0:0:
64,192,68583,1,0,0:0:0:0:
320,192,68749,1,0,0:0:0:0:
192,192,68749,1,0,0:0:0:0:
448,192,68833,1,0,0:0:0:0:
64,192,68833,1,0,0:0:0:0:
320,192,68916,1,0,0:0:0:0:
192,192,68999,1,0,0:0:0:0:
448,192,69083,1,0,0:0:0:0:
64,192,69083,1,0,0:0:0:0:
320,192,69166,1,0,0:0:0:0:
192,192,69166,1,0,0:0:0:0:
64,192,69249,1,0,0:0:0:0:
448,192,69333,1,0,0:0:0:0:
192,192,69416,1,0,0:0:0:0:
320,192,69416,1,0,0:0:0:0:
64,192,69499,1,0,0:0:0:0:
448,192,69583,1,0,0:0:0:0:
192,192,69666,1,0,0:0:0:0:
320,192,69666,1,0,0:0:0:0:
64,192,69749,1,0,0:0:0:0:
448,192,69749,1,0,0:0:0:0:
192,192,69833,1,0,0:0:0:0:
320,192,70416,1,0,0:0:0:0:
64,192,70416,1,0,0:0:0:0:
448,192,70499,1,0,0:0:0:0:
192,192,70499,1,0,0:0:0:0:
320,192,70583,1,0,0:0:0:0:
64,192,70666,1,0,0:0:0:0:
448,192,70749,1,0,0:0:0:0:
192,192,70749,1,0,0:0:0:0:
64,192,70833,1,0,0:0:0:0:
320,192,70833,1,0,0:0:0:0:
448,192,70916,1,0,0:0:0:0:
192,192,70999,1,0,0:0:0:0:
64,192,71083,1,0,0:0:0:0:
320,192,71083,1,0,0:0:0:0:
448,192,71166,1,0,0:0:0:0:
192,192,71166,1,0,0:0:0:0:
64,192,71333,1,0,0:0:0:0:
320,192,71333,1,0,0:0:0:0:
448,192,71416,1,0,0:0:0:0:
192,192,71416,1,0,0:0:0:0:
320,192,71499,1,0,0:0:0:0:
64,192,71499,1,0,0:0:0:0:
448,192,71583,1,0,0:0:0:0:
192,192,71583,1,0,0:0:0:0:
64,192,71749,1,0,0:0:0:0:
320,192,71749,1,0,0:0:0:0:
192,192,71833,1,0,0:0:0:0:
320,192,71999,1,0,0:0:0:0:
64,192,72249,1,0,0:0:0:0:
448,192,72583,1,0,0:0:0:0:
192,192,72833,1,0,0:0:0:0:
64,192,72916,1,0,0:0:0:0:
320,192,72916,1,0,0:0:0:0:
448,192,72916,1,0,0:0:0:0:
192,192,72999,1,0,0:0:0:0:
320,192,73083,1,0,0:0:0:0:
64,192,73083,1,0,0:0:0:0:
448,192,73166,1,0,0:0:0:0:
192,192,73166,1,0,0:0:0:0:
320,192,73249,1,0,0:0:0:0:
64,192,73333,1,0,0:0:0:0:
448,192,73333,1,0,0:0:0:0:
192,192,73416,1,0,0:0:0:0:
320,192,73499,1,0,0:0:0:0:
64,192,73583,1,0,0:0:0:0:
448,192,73583,1,0,0:0:0:0:
192,192,73666,1,0,0:0:0:0:
320,192,73666,1,0,0:0:0:0:
64,192,73749,1,0,0:0:0:0:
448,192,73833,1,0,0:0:0:0:
192,192,73833,1,0,0:0:0:0:
320,192,73916,1,0,0:0:0:0:
64,192,73916,1,0,0:0:0:0:
448,192,73999,1,0,0:0:0:0:
192,192,73999,1,0,0:0:0:0:
320,192,74083,1,0,0:0:0:0:
64,192,74083,1,0,0:0:0:0:
192,192,74166,1,0,0:0:0:0:
448,192,74249,1,0,0:0:0:0:
64,192,74333,1,0,0:0:0:0:
448,192,74333,1,0,0:0:0:0:
320,192,74499,1,0,0:0:0:0:
320,192,74749,1,0,0:0:0:0:
64,192,74916,1,0,0:0:0:0:
448,192,75083,1,0,0:0:0:0:
192,192,75249,1,0,0:0:0:0:
448,192,75333,1,0,0:0:0:0:
448,192,75583,1,0,0:0:0:0:
192,192,75916,1,0,0:0:0:0:
448,192,76166,1,0,0:0:0:0:
64,192,76416,1,0,0:0:0:0:
192,192,76583,1,0,0:0:0:0:
320,192,76583,1,0,0:0:0:0:
448,192,76666,1,0,0:0:0:0:
64,192,76666,1,0,0:0:0:0:
192,192,76749,1,0,0:0:0:0:
320,192,76749,1,0,0:0:0:0:
448,192,76916,1,0,0:0:0:0:
64,192,76916,1,0,0:0:0:0:
192,192,76999,1,0,0:0:0:0:
320,192,76999,1,0,0:0:0:0:
448,192,77083,1,0,0:0:0:0:
64,192,77083,1,0,0:0:0:0:
192,192,77249,1,0,0:0:0:0:
320,192,77249,1,0,0:0:0:0:
448,192,77333,1,0,0:0:0:0:
64,192,77333,1,0,0:0:0:0:
192,192,77416,1,0,0:0:0:0:
320,192,77416,1,0,0:0:0:0:
448,192,77499,1,0,0:0:0:0:
64,192,77583,1,0,0:0:0:0:
192,192,77666,1,0,0:0:0:0:
320,192,77666,1,0,0:0:0:0:
64,192,77749,1,0,0:0:0:0:
192,192,77916,1,0,0:0:0:0:
320,192,77916,1,0,0:0:0:0:
448,192,77999,1,0,0:0:0:0:
64,192,77999,1,0,0:0:0:0:
192,192,78083,1,0,0:0:0:0:
320,192,78083,1,0,0:0:0:0:
64,192,78166,1,0,0:0:0:0:
192,192,78249,1,0,0:0:0:0:
320,192,78333,1,0,0:0:0:0:
64,192,78416,1,0,0:0:0:0:
448,192,78416,1,0,0:0:0:0:
192,192,78499,1,0,0:0:0:0:
320,192,78499,1,0,0:0:0:0:
64,192,78583,1,0,0:0:0:0:
192,192,78749,1,0,0:0:0:0:
320,192,78749,1,0,0:0:0:0:
448,192,78833,1,0,0:0:0:0:
64,192,78833,1,0,0:0:0:0:
192,192,78916,1,0,0:0:0:0:
320,192,78916,1,0,0:0:0:0:
64,192,78999,1,0,0:0:0:0:
448,192,78999,1,0,0:0:0:0:
192,192,79166,1,0,0:0:0:0:
320,192,79166,1,0,0:0:0:0:
64,192,79249,1,0,0:0:0:0:
448,192,79249,1,0,0:0:0:0:
192,192,79333,1,0,0:0:0:0:
320,192,79416,1,0,0:0:0:0:
64,192,79416,1,0,0:0:0:0:
448,192,79416,1,0,0:0:0:0:
192,192,79916,1,0,0:0:0:0:
320,192,79916,1,0,0:0:0:0:
64,192,79999,1,0,0:0:0:0:
448,192,79999,1,0,0:0:0:0:
192,192,80083,1,0,0:0:0:0:
320,192,80166,1,0,0:0:0:0:
64,192,80249,1,0,0:0:0:0:
448,192,80249,1,0,0:0:0:0:
192,192,80333,1,0,0:0:0:0:
320,192,80333,1,0,0:0:0:0:
64,192,80416,1,0,0:0:0:0:
448,192,80416,1,0,0:0:0:0:
192,192,80583,1,0,0:0:0:0:
320,192,80583,1,0,0:0:0:0:
64,192,80666,1,0,0:0:0:0:
448,192,80666,1,0,0:0:0:0:
192,192,80833,1,0,0:0:0:0:
320,192,80833,1,0,0:0:0:0:
64,192,80916,1,0,0:0:0:0:
448,192,80916,1,0,0:0:0:0:
192,192,80999,1,0,0:0:0:0:
320,192,81083,1,0,0:0:0:0:
64,192,81166,1,0,0:0:0:0:
448,192,81166,1,0,0:0:0:0:
192,192,81249,1,0,0:0:0:0:
320,192,81333,1,0,0:0:0:0:
64,192,81333,1,0,0:0:0:0:
448,192,81416,1,0,0:0:0:0:
192,192,81499,1,0,0:0:0:0:
320,192,81499,1,0,0:0:0:0:
64,192,81583,1,0,0:0:0:0:
448,192,81583,128,0,81999:0:0:0:0:
192,192,81666,1,0,0:0:0:0:
64,192,81666,1,0,0:0:0:0:
320,192,81666,1,0,0:0:0:0:
192,192,81833,1,0,0:0:0:0:
320,192,81833,1,0,0:0:0:0:
64,192,81916,1,0,0:0:0:0:
320,192,82333,1,0,0:0:0:0:
64,192,82416,1,0,0:0:0:0:
448,192,82666,1,0,0:0:0:0:
192,192,82749,1,0,0:0:0:0:
448,192,82916,1,0,0:0:0:0:
64,192,83083,1,0,0:0:0:0:
448,192,83333,1,0,0:0:0:0:
320,192,83666,1,0,0:0:0:0:
64,192,83833,1,0,0:0:0:0:
320,192,84083,1,0,0:0:0:0:
64,192,84249,1,0,0:0:0:0:
448,192,84416,1,0,0:0:0:0:
192,192,84666,1,0,0:0:0:0:
448,192,84749,1,0,0:0:0:0:
192,192,85083,1,0,0:0:0:0:
320,192,85166,1,0,0:0:0:0:
64,192,85416,1,0,0:0:0:0:
448,192,85583,1,0,0:0:0:0:
192,192,85749,1,0,0:0:0:0:
320,192,85916,1,0,0:0:0:0:
192,192,86083,1,0,0:0:0:0:
64,192,86166,1,0,0:0:0:0:
320,192,86166,1,0,0:0:0:0:
448,192,86249,1,0,0:0:0:0:
192,192,86333,1,0,0:0:0:0:
64,192,86333,1,0,0:0:0:0:
320,192,86416,1,0,0:0:0:0:
448,192,86499,1,0,0:0:0:0:
192,192,86499,1,0,0:0:0:0:
64,192,86583,1,0,0:0:0:0:
320,192,86583,1,0,0:0:0:0:
192,192,86666,1,0,0:0:0:0:
448,192,86666,1,0,0:0:0:0:
64,192,86749,1,0,0:0:0:0:
320,192,87166,1,0,0:0:0:0:
320,192,87499,1,0,0:0:0:0:
64,192,87749,1,0,0:0:0:0:
448,192,87999,1,0,0:0:0:0:
192,192,88333,1,0,0:0:0:0:
448,192,88583,1,0,0:0:0:0:
192,192,88916,1,0,0:0:0:0:
320,192,89249,1,0,0:0:0:0:
64,192,89499,1,0,0:0:0:0:
448,192,89833,1,0,0:0:0:0:
192,192,90166,1,0,0:0:0:0:
448,192,90416,1,0,0:0:0:0:
64,192,90749,1,0,0:0:0:0:
192,192,90749,1,0,0:0:0:0:
320,192,90749,1,0,0:0:0:0:
448,192,90749,1,0,0:0:0:0:
320,192,91333,1,0,0:0:0:0:
64,192,91666,1,0,0:0:0:0:
448,192,91916,1,0,0:0:0:0:
192,192,92166,1,0,0:0:0:0:
448,192,92499,1,0,0:0:0:0:
192,192,92833,1,0,0:0:0:0:
320,192,93166,1,0,0:0:0:0:
64,192,93499,1,0,0:0:0:0:
448,192,93749,1,0,0:0:0:0:
192,192,93999,1,0,0:0:0:0:
448,192,94333,1,0,0:0:0:0:
64,192,94666,1,0,0:0:0:0:
320,192,94916,1,0,0:0:0:0:
192,192,95166,1,0,0:0:0:0:
64,192,95499,1,0,0:0:0:0:
448,192,95499,1,0,0:0:0:0:
448,192,95583,1,0,0:0:0:0:
64,192,95666,1,0,0:0:0:0:
448,192,95749,1,0,0:0:0:0:
64,192,95833,1,0,0:0:0:0:
320,192,96083,1,0,0:0:0:0:
64,192,96416,1,0,0:0:0:0:
320,192,96749,1,0,0:0:0:0:
192,192,97083,1,0,0:0:0:0:
448,192,97333,1,0,0:0:0:0:
64,192,97666,1,0,0:0:0:0:
320,192,97999,1,0,0:0:0:0:
64,192,98249,1,0,0:0:0:0:
448,192,98583,1,0,0:0:0:0:
192,192,98833,1,0,0:0:0:0:
320,192,99166,1,0,0:0:0:0:
64,192,99416,1,0,0:0:0:0:
448,192,99666,1,0,0:0:0:0:
192,192,99999,1,0,0:0:0:0:
448,192,100249,1,0,0:0:0:0:
64,192,100583,1,0,0:0:0:0:
320,192,100916,1,0,0:0:0:0:
64,192,101249,1,0,0:0:0:0:
448,192,101499,1,0,0:0:0:0:
192,192,101916,1,0,0:0:0:0:
448,192,102166,1,0,0:0:0:0:
64,192,102416,1,0,0:0:0:0:
320,192,102666,1,0,0:0:0:0:
64,192,102999,1,0,0:0:0:0:
448,192,103416,1,0,0:0:0:0:
64,192,103666,1,0,0:0:0:0:
448,192,103999,1,0,0:0:0:0:
192,192,104249,1,0,0:0:0:0:
448,192,104583,1,0,0:0:0:0:
64,192,104833,1,0,0:0:0:0:
320,192,105083,1,0,0:0:0:0:
64,192,105416,1,0,0:0:0:0:
448,192,105749,1,0,0:0:0:0:
448,192,106083,1,0,0:0:0:0:
192,192,106333,1,0,0:0:0:0:
320,192,106666,1,0,0:0:0:0:
64,192,106916,1,0,0:0:0:0:
448,192,107249,1,0,0:0:0:0:
192,192,107499,1,0,0:0:0:0:
448,192,107666,1,0,0:0:0:0:
448,192,107833,1,0,0:0:0:0:
192,192,107916,1,0,0:0:0:0:
320,192,108083,1,0,0:0:0:0:
64,192,108333,1,0,0:0:0:0:
448,192,108499,1,0,0:0:0:0:
64,192,108583,1,0,0:0:0:0:
320,192,108749,1,0,0:0:0:0:
64,192,108999,1,0,0:0:0:0:
320,192,109249,1,0,0:0:0:0:
192,192,109666,1,0,0:0:0:0:
320,192,109999,1,0,0:0:0:0:
64,192,110083,1,0,0:0:0:0:
192,192,110083,1,0,0:0:0:0:
448,192,110166,1,0,0:0:0:0:
64,192,110333,1,0,0:0:0:0:
320,192,110333,1,0,0:0:0:0:
64,192,110583,1,0,0:0:0:0:
320,192,110583,128,0,111166:0:0:0:0:
192,192,110916,1,0,0:0:0:0:
448,192,111083,1,0,0:0:0:0:
64,192,111166,1,0,0:0:0:0:
64,192,111583,1,0,0:0:0:0:
320,192,111583,128,0,112416:0:0:0:0:
64,192,111833,128,0,112416:0:0:0:0:
192,192,112249,1,0,0:0:0:0:
448,192,112249,1,0,0:0:0:0:
192,192,112499,1,0,0:0:0:0:
448,192,112499,1,0,0:0:0:0:
320,192,112833,128,0,113166:0:0:0:0:
64,192,112833,128,0,113249:0:0:0:0:
192,192,113083,1,0,0:0:0:0:
448,192,113083,1,0,0:0:0:0:
192,192,113499,1,0,0:0:0:0:
320,192,113499,128,0,113833:0:0:0:0:
64,192,113666,1,0,0:0:0:0:
448,192,113666,1,0,0:0:0:0:
192,192,114249,1,0,0:0:0:0:
320,192,114249,1,0,0:0:0:0:
448,192,114333,1,0,0:0:0:0:
192,192,114583,1,0,0:0:0:0:
320,192,114583,1,0,0:0:0:0:
448,192,114583,1,0,0:0:0:0:
320,192,114833,1,0,0:0:0:0:
448,192,114916,1,0,0:0:0:0:
320,192,115166,1,0,0:0:0:0:
448,192,115166,1,0,0:0:0:0:
192,192,115333,1,0,0:0:0:0:
320,192,115416,1,0,0:0:0:0:
64,192,115416,1,0,0:0:0:0:
448,192,115499,1,0,0:0:0:0:
192,192,115499,1,0,0:0:0:0:
320,192,115583,1,0,0:0:0:0:
64,192,115583,1,0,0:0:0:0:
448,192,115666,1,0,0:0:0:0:
192,192,115749,1,0,0:0:0:0:
320,192,115749,1,0,0:0:0:0:
64,192,115833,1,0,0:0:0:0:
448,192,115833,1,0,0:0:0:0:
320,192,116166,1,0,0:0:0:0:
320,192,116416,1,0,0:0:0:0:
64,192,116666,1,0,0:0:0:0:
448,192,116916,1,0,0:0:0:0:
192,192,117083,1,0,0:0:0:0:
448,192,117249,1,0,0:0:0:0:
192,192,117416,1,0,0:0:0:0:
448,192,117666,1,0,0:0:0:0:
448,192,117833,1,0,0:0:0:0:
192,192,118166,1,0,0:0:0:0:
320,192,118499,1,0,0:0:0:0:
64,192,118749,1,0,0:0:0:0:
448,192,119083,1,0,0:0:0:0:
192,192,119333,1,0,0:0:0:0:
448,192,119666,1,0,0:0:0:0:
192,192,119916,1,0,0:0:0:0:
320,192,120166,1,0,0:0:0:0:
64,192,120499,1,0,0:0:0:0:
448,192,120749,1,0,0:0:0:0:
192,192,121083,1,0,0:0:0:0:
320,192,121333,1,0,0:0:0:0:
64,192,121583,1,0,0:0:0:0:
448,192,121916,1,0,0:0:0:0:
192,192,122166,1,0,0:0:0:0:
320,192,122499,1,0,0:0:0:0:
64,192,122749,1,0,0:0:0:0:
448,192,122916,1,0,0:0:0:0:
192,192,122999,1,0,0:0:0:0:
320,192,122999,1,0,0:0:0:0:
64,192,123083,1,0,0:0:0:0:
448,192,123166,1,0,0:0:0:0:
192,192,123249,1,0,0:0:0:0:
320,192,123249,1,0,0:0:0:0:
64,192,123333,1,0,0:0:0:0:
448,192,123333,1,0,0:0:0:0:
192,192,123416,1,0,0:0:0:0:
320,192,123499,1,0,0:0:0:0:
64,192,123499,1,0,0:0:0:0:
448,192,123583,1,0,0:0:0:0:
192,192,123666,1,0,0:0:0:0:
320,192,123666,1,0,0:0:0:0:
64,192,123749,1,0,0:0:0:0:
448,192,123749,1,0,0:0:0:0:
192,192,123833,1,0,0:0:0:0:
320,192,123916,1,0,0:0:0:0:
64,192,123916,1,0,0:0:0:0:
320,192,124166,1,0,0:0:0:0:
320,192,124416,1,0,0:0:0:0:
192,192,124499,1,0,0:0:0:0:
448,192,124499,1,0,0:0:0:0:
64,192,124499,1,0,0:0:0:0:
448,192,124666,1,0,0:0:0:0:
320,192,124666,1,0,0:0:0:0:
320,192,124916,128,0,125583:0:0:0:0:
448,192,124916,128,0,125666:0:0:0:0:
192,192,125249,1,0,0:0:0:0:
64,192,125333,1,0,0:0:0:0:
64,192,125499,1,0,0:0:0:0:
192,192,125499,1,0,0:0:0:0:
192,192,125749,1,0,0:0:0:0:
64,192,125833,1,0,0:0:0:0:
192,192,125999,128,0,127499:0:0:0:0:
320,192,126083,1,0,0:0:0:0:
448,192,126416,1,0,0:0:0:0:
448,192,126749,1,0,0:0:0:0:
64,192,126916,1,0,0:0:0:0:
320,192,127166,1,0,0:0:0:0:
64,192,127249,1,0,0:0:0:0:
320,192,127499,1,0,0:0:0:0:
448,192,127583,1,0,0:0:0:0:
64,192,127749,1,0,0:0:0:0:
320,192,127833,128,0,128333:0:0:0:0:
64,192,128083,1,0,0:0:0:0:
64,192,128249,1,0,0:0:0:0:
448,192,128249,128,0,128583:0:0:0:0:
64,192,128666,1,0,0:0:0:0:
320,192,128749,1,0,0:0:0:0:
64,192,128833,1,0,0:0:0:0:
448,192,128999,1,0,0:0:0:0:
448,192,129249,1,0,0:0:0:0:
448,192,129583,128,0,129999:0:0:0:0:
64,192,129833,1,0,0:0:0:0:
192,192,129999,1,0,0:0:0:0:
320,192,129999,1,0,0:0:0:0:
64,192,130499,1,0,0:0:0:0:
448,192,130499,128,0,130833:0:0:0:0:
192,192,130666,1,0,0:0:0:0:
320,192,130749,1,0,0:0:0:0:
64,192,131249,1,0,0:0:0:0:
448,192,131249,128,0,131583:0:0:0:0:
320,192,131416,1,0,0:0:0:0:
192,192,131416,1,0,0:0:0:0:
448,192,131833,1,0,0:0:0:0:
64,192,131833,1,0,0:0:0:0:
320,192,131999,1,0,0:0:0:0:
64,192,132249,128,0,132749:0:0:0:0:
448,192,132333,128,0,132833:0:0:0:0:
320,192,132666,1,0,0:0:0:0:
192,192,132666,1,0,0:0:0:0:
448,192,132999,128,0,133333:0:0:0:0:
64,192,133083,1,0,0:0:0:0:
320,192,133166,1,0,0:0:0:0:
192,192,133249,1,0,0:0:0:0:
448,192,133583,1,0,0:0:0:0:
64,192,133583,1,0,0:0:0:0:
320,192,133666,128,0,133999:0:0:0:0:
192,192,133749,1,0,0:0:0:0:
64,192,134083,1,0,0:0:0:0:
448,192,134166,1,0,0:0:0:0:
192,192,134333,1,0,0:0:0:0:
320,192,134333,1,0,0:0:0:0:
64,192,134666,1,0,0:0:0:0:
320,192,134749,1,0,0:0:0:0:
192,192,134833,1,0,0:0:0:0:
448,192,134916,1,0,0:0:0:0:
64,192,134916,1,0,0:0:0:0:
320,192,134999,1,0,0:0:0:0:
320,192,135249,1,0,0:0:0:0:
64,192,135333,1,0,0:0:0:0:
448,192,135583,1,0,0:0:0:0:
192,192,135666,1,0,0:0:0:0:
64,192,135749,1,0,0:0:0:0:
320,192,135749,1,0,0:0:0:0:
448,192,135833,1,0,0:0:0:0:
192,192,135916,1,0,0:0:0:0:
64,192,135999,1,0,0:0:0:0:
320,192,135999,1,0,0:0:0:0:
192,192,136083,1,0,0:0:0:0:
64,192,136166,1,0,0:0:0:0:
320,192,136166,1,0,0:0:0:0:
448,192,136249,1,0,0:0:0:0:
192,192,136333,1,0,0:0:0:0:
64,192,136416,1,0,0:0:0:0:
320,192,136416,1,0,0:0:0:0:
448,192,136499,1,0,0:0:0:0:
192,192,136499,1,0,0:0:0:0:
64,192,136583,1,0,0:0:0:0:
320,192,136666,1,0,0:0:0:0:
192,192,136666,1,0,0:0:0:0:
448,192,136666,1,0,0:0:0:0:
64,192,136749,1,0,0:0:0:0:
320,192,137249,1,0,0:0:0:0:
320,192,137416,1,0,0:0:0:0:
64,192,137583,1,0,0:0:0:0:
448,192,137666,1,0,0:0:0:0:
448,192,137833,1,0,0:0:0:0:
448,192,137999,1,0,0:0:0:0:
192,192,138166,1,0,0:0:0:0:
64,192,138166,1,0,0:0:0:0:
448,192,138416,1,0,0:0:0:0:
64,192,138499,1,0,0:0:0:0:
192,192,138499,1,0,0:0:0:0:
448,192,138749,1,0,0:0:0:0:
64,192,138833,1,0,0:0:0:0:
64,192,139083,1,0,0:0:0:0:
448,192,139083,1,0,0:0:0:0:
320,192,139749,1,0,0:0:0:0:
320,192,139916,1,0,0:0:0:0:
64,192,139999,1,0,0:0:0:0:
448,192,140166,1,0,0:0:0:0:
64,192,140333,1,0,0:0:0:0:
64,192,140583,1,0,0:0:0:0:
448,192,140583,1,0,0:0:0:0:
192,192,140833,1,0,0:0:0:0:
320,192,140833,1,0,0:0:0:0:
64,192,141166,1,0,0:0:0:0:
448,192,141166,1,0,0:0:0:0:
192,192,141499,1,0,0:0:0:0:
320,192,141499,1,0,0:0:0:0:
320,192,141916,1,0,0:0:0:0:
64,192,141999,1,0,0:0:0:0:
320,192,142166,1,0,0:0:0:0:
64,192,142333,1,0,0:0:0:0:
448,192,142499,1,0,0:0:0:0:
64,192,142666,1,0,0:0:0:0:
448,192,142833,1,0,0:0:0:0:
448,192,143249,128,0,143999:0:0:0:0:
192,192,143583,1,0,0:0:0:0:
64,192,143916,1,0,0:0:0:0:
320,192,144166,1,0,0:0:0:0:
64,192,144328,1,0,0:0:0:0:
320,192,144487,1,0,0:0:0:0:
64,192,144645,1,0,0:0:0:0:
320,192,144804,1,0,0:0:0:0:
448,192,144883,1,0,0:0:0:0:
320,192,145122,1,0,0:0:0:0:
192,192,145280,1,0,0:0:0:0:
320,192,145439,1,0,0:0:0:0:
448,192,145598,1,0,0:0:0:0:
64,192,145677,1,0,0:0:0:0:
320,192,145756,1,0,0:0:0:0:
64,192,145995,1,0,0:0:0:0:
448,192,146074,1,0,0:0:0:0:
320,192,146312,1,0,0:0:0:0:
448,192,146391,1,0,0:0:0:0:
192,192,146550,1,0,0:0:0:0:
320,192,146709,1,0,0:0:0:0:
448,192,146788,1,0,0:0:0:0:
64,192,146947,1,0,0:0:0:0:
320,192,147026,1,0,0:0:0:0:
448,192,147106,1,0,0:0:0:0:
320,192,147423,1,0,0:0:0:0:
448,192,147423,1,0,0:0:0:0:
64,192,147661,1,0,0:0:0:0:
320,192,147741,1,0,0:0:0:0:
448,192,147820,1,0,0:0:0:0:
192,192,148058,1,0,0:0:0:0:
320,192,148058,1,0,0:0:0:0:
448,192,148137,1,0,0:0:0:0:
320,192,148375,1,0,0:0:0:0:
192,192,148375,1,0,0:0:0:0:
64,192,148375,1,0,0:0:0:0:
448,192,148375,1,0,0:0:0:0:
320,192,148614,1,0,0:0:0:0:
192,192,148693,1,0,0:0:0:0:
448,192,148693,1,0,0:0:0:0:
64,192,148772,1,0,0:0:0:0:
320,192,148931,1,0,0:0:0:0:
448,192,149010,1,0,0:0:0:0:
192,192,149010,1,0,0:0:0:0:
64,192,149090,1,0,0:0:0:0:
320,192,149249,1,0,0:0:0:0:
448,192,149328,1,0,0:0:0:0:
320,192,149487,1,0,0:0:0:0:
64,192,149566,1,0,0:0:0:0:
448,192,149804,1,0,0:0:0:0:
192,192,149963,1,0,0:0:0:0:
320,192,150122,1,0,0:0:0:0:
64,192,150280,1,0,0:0:0:0:
448,192,150360,1,0,0:0:0:0:
192,192,150518,1,0,0:0:0:0:
320,192,150677,1,0,0:0:0:0:
64,192,150836,1,0,0:0:0:0:
448,192,150995,1,0,0:0:0:0:
192,192,151153,1,0,0:0:0:0:
320,192,151312,1,0,0:0:0:0:
64,192,151471,1,0,0:0:0:0:
448,192,151629,1,0,0:0:0:0:
64,192,151788,1,0,0:0:0:0:
320,192,151947,1,0,0:0:0:0:
192,192,152026,1,0,0:0:0:0:
320,192,152264,1,0,0:0:0:0:
64,192,152344,1,0,0:0:0:0:
448,192,152423,1,0,0:0:0:0:
320,192,152502,1,0,0:0:0:0:
192,192,152502,1,0,0:0:0:0:
448,192,152582,1,0,0:0:0:0:
64,192,152582,1,0,0:0:0:0:
320,192,152661,1,0,0:0:0:0:
192,192,152661,1,0,0:0:0:0:
448,192,152741,1,0,0:0:0:0:
64,192,152741,1,0,0:0:0:0:
192,192,152899,1,0,0:0:0:0:
320,192,152899,1,0,0:0:0:0:
64,192,152979,1,0,0:0:0:0:
448,192,152979,1,0,0:0:0:0:
192,192,153058,1,0,0:0:0:0:
320,192,153137,1,0,0:0:0:0:
64,192,153137,1,0,0:0:0:0:
448,192,153137,1,0,0:0:0:0:
192,192,153217,1,0,0:0:0:0:
64,192,153296,1,0,0:0:0:0:
320,192,153296,1,0,0:0:0:0:
448,192,153375,1,0,0:0:0:0:
192,192,153455,1,0,0:0:0:0:
64,192,153534,1,0,0:0:0:0:
320,192,153534,1,0,0:0:0:0:
192,192,153614,1,0,0:0:0:0:
448,192,153614,1,0,0:0:0:0:
64,192,153693,1,0,0:0:0:0:
320,192,153772,1,0,0:0:0:0:
192,192,153772,1,0,0:0:0:0:
448,192,153852,1,0,0:0:0:0:
64,192,153852,1,0,0:0:0:0:
320,192,154090,1,0,0:0:0:0:
192,192,154169,1,0,0:0:0:0:
64,192,154169,1,0,0:0:0:0:
448,192,154407,1,0,0:0:0:0:
320,192,154407,1,0,0:0:0:0:
64,192,154407,1,0,0:0:0:0:
192,192,154407,1,0,0:0:0:0:
320,192,154725,1,0,0:0:0:0:
448,192,154725,1,0,0:0:0:0:
64,192,154725,1,0,0:0:0:0:
192,192,154725,1,0,0:0:0:0:
64,192,154963,1,0,0:0:0:0:
192,192,154963,1,0,0:0:0:0:
320,192,154963,1,0,0:0:0:0:
448,192,154963,1,0,0:0:0:0:
192,192,155280,1,0,0:0:0:0:
320,192,155280,1,0,0:0:0:0:
320,192,155518,1,0,0:0:0:0:
64,192,155836,1,0,0:0:0:0:
448,192,156153,1,0,0:0:0:0:
192,192,156391,1,0,0:0:0:0:
320,192,156709,1,0,0:0:0:0:
64,192,157026,1,0,0:0:0:0:
448,192,157344,1,0,0:0:0:0:
192,192,157582,1,0,0:0:0:0:
320,192,157979,1,0,0:0:0:0:
192,192,158296,1,0,0:0:0:0:
448,192,158534,1,0,0:0:0:0:
64,192,158852,1,0,0:0:0:0:
448,192,159169,1,0,0:0:0:0:
192,192,159487,1,0,0:0:0:0:
320,192,159804,1,0,0:0:0:0:
64,192,160042,1,0,0:0:0:0:
448,192,160360,1,0,0:0:0:0:
192,192,160598,1,0,0:0:0:0:
448,192,160915,1,0,0:0:0:0:
192,192,161074,1,0,0:0:0:0:
448,192,161153,1,0,0:0:0:0:
192,192,161391,1,0,0:0:0:0:
448,192,161550,1,0,0:0:0:0:
64,192,161629,1,0,0:0:0:0:
320,192,161629,1,0,0:0:0:0:
192,192,161788,1,0,0:0:0:0:
448,192,161788,1,0,0:0:0:0:
64,192,161868,1,0,0:0:0:0:
320,192,161868,1,0,0:0:0:0:
192,192,161947,1,0,0:0:0:0:
448,192,161947,1,0,0:0:0:0:
64,192,162026,1,0,0:0:0:0:
320,192,162106,1,0,0:0:0:0:
192,192,162106,1,0,0:0:0:0:
448,192,162185,1,0,0:0:0:0:
64,192,162185,128,0,162502:0:0:0:0:
320,192,162264,1,0,0:0:0:0:
192,192,162344,1,0,0:0:0:0:
448,192,162344,1,0,0:0:0:0:
192,192,162502,1,0,0:0:0:0:
320,192,162502,1,0,0:0:0:0:
64,192,162582,1,0,0:0:0:0:
448,192,162582,1,0,0:0:0:0:
192,192,162741,1,0,0:0:0:0:
320,192,162741,1,0,0:0:0:0:
64,192,162820,1,0,0:0:0:0:
448,192,162820,1,0,0:0:0:0:
192,192,162899,1,0,0:0:0:0:
320,192,162899,1,0,0:0:0:0:
64,192,162979,1,0,0:0:0:0:
448,192,162979,1,0,0:0:0:0:
192,192,163058,1,0,0:0:0:0:
320,192,163137,1,0,0:0:0:0:
64,192,163137,1,0,0:0:0:0:
448,192,163217,1,0,0:0:0:0:
320,192,163455,1,0,0:0:0:0:
64,192,163693,1,0,0:0:0:0:
320,192,164010,1,0,0:0:0:0:
448,192,164010,1,0,0:0:0:0:
192,192,164090,1,0,0:0:0:0:
192,192,164328,1,0,0:0:0:0:
320,192,164328,1,0,0:0:0:0:
64,192,164328,1,0,0:0:0:0:
448,192,164328,1,0,0:0:0:0:
64,192,164566,1,0,0:0:0:0:
192,192,164566,1,0,0:0:0:0:
320,192,164566,1,0,0:0:0:0:
448,192,164566,1,0,0:0:0:0:
320,192,164883,1,0,0:0:0:0:
320,192,165201,1,0,0:0:0:0:
64,192,165439,1,0,0:0:0:0:
448,192,165756,1,0,0:0:0:0:
192,192,165915,1,0,0:0:0:0:
448,192,165995,1,0,0:0:0:0:
64,192,166153,1,0,0:0:0:0:
448,192,166312,1,0,0:0:0:0:
192,192,166471,1,0,0:0:0:0:
448,192,166629,1,0,0:0:0:0:
192,192,166709,1,0,0:0:0:0:
448,192,166788,1,0,0:0:0:0:
64,192,166947,1,0,0:0:0:0:
320,192,167106,1,0,0:0:0:0:
64,192,167264,1,0,0:0:0:0:
448,192,167423,1,0,0:0:0:0:
64,192,167582,1,0,0:0:0:0:
320,192,167820,1,0,0:0:0:0:
64,192,167979,1,0,0:0:0:0:
448,192,168137,1,0,0:0:0:0:
192,192,168217,1,0,0:0:0:0:
320,192,168375,1,0,0:0:0:0:
64,192,168534,1,0,0:0:0:0:
448,192,168693,1,0,0:0:0:0:
192,192,168772,1,0,0:0:0:0:
320,192,168931,1,0,0:0:0:0:
64,192,169090,1,0,0:0:0:0:
448,192,169248,1,0,0:0:0:0:
192,192,169407,1,0,0:0:0:0:
320,192,169487,1,0,0:0:0:0:
64,192,169645,1,0,0:0:0:0:
192,192,169963,1,0,0:0:0:0:
448,192,170201,1,0,0:0:0:0:
192,192,170360,1,0,0:0:0:0:
320,192,170439,1,0,0:0:0:0:
448,192,170518,1,0,0:0:0:0:
64,192,170598,1,0,0:0:0:0:
192,192,170598,1,0,0:0:0:0:
320,192,170677,1,0,0:0:0:0:
64,192,170756,1,0,0:0:0:0:
448,192,170756,1,0,0:0:0:0:
192,192,170836,1,0,0:0:0:0:
320,192,170915,1,0,0:0:0:0:
64,192,170915,1,0,0:0:0:0:
448,192,170995,1,0,0:0:0:0:
192,192,171074,1,0,0:0:0:0:
320,192,171074,1,0,0:0:0:0:
64,192,171153,1,0,0:0:0:0:
448,192,171153,1,0,0:0:0:0:
192,192,171233,1,0,0:0:0:0:
320,192,171233,1,0,0:0:0:0:
64,192,171312,1,0,0:0:0:0:
448,192,171391,1,0,0:0:0:0:
192,192,171471,1,0,0:0:0:0:
320,192,171471,1,0,0:0:0:0:
64,192,171550,1,0,0:0:0:0:
448,192,171550,1,0,0:0:0:0:
192,192,171629,1,0,0:0:0:0:
320,192,171709,1,0,0:0:0:0:
64,192,171709,1,0,0:0:0:0:
448,192,171788,1,0,0:0:0:0:
192,192,171868,1,0,0:0:0:0:
320,192,171868,1,0,0:0:0:0:
64,192,171947,1,0,0:0:0:0:
448,192,171947,1,0,0:0:0:0:
192,192,172026,1,0,0:0:0:0:
320,192,172106,1,0,0:0:0:0:
64,192,172106,1,0,0:0:0:0:
448,192,172185,1,0,0:0:0:0:
192,192,172264,1,0,0:0:0:0:
320,192,172344,1,0,0:0:0:0:
448,192,172423,1,0,0:0:0:0:
192,192,172423,1,0,0:0:0:0:
320,192,172502,1,0,0:0:0:0:
448,192,172582,1,0,0:0:0:0:
192,192,172582,1,0,0:0:0:0:
64,192,172661,1,0,0:0:0:0:
320,192,172741,1,0,0:0:0:0:
192,192,172820,1,0,0:0:0:0:
448,192,172820,1,0,0:0:0:0:
64,192,172820,1,0,0:0:0:0:
192,192,172899,1,0,0:0:0:0:
64,192,172979,1,0,0:0:0:0:
320,192,173137,1,0,0:0:0:0:
64,192,173217,1,0,0:0:0:0:
448,192,173375,1,0,0:0:0:0:
192,192,173534,1,0,0:0:0:0:
64,192,173614,1,0,0:0:0:0:
320,192,173614,1,0,0:0:0:0:
448,192,173693,1,0,0:0:0:0:
192,192,173772,1,0,0:0:0:0:
320,192,173852,1,0,0:0:0:0:
64,192,173852,1,0,0:0:0:0:
448,192,173852,1,0,0:0:0:0:
192,192,173931,1,0,0:0:0:0:
320,192,174010,1,0,0:0:0:0:
64,192,174090,1,0,0:0:0:0:
448,192,174090,1,0,0:0:0:0:
192,192,174169,1,0,0:0:0:0:
320,192,174169,1,0,0:0:0:0:
64,192,174248,1,0,0:0:0:0:
448,192,174248,1,0,0:0:0:0:
192,192,174328,1,0,0:0:0:0:
64,192,174407,1,0,0:0:0:0:
320,192,174407,1,0,0:0:0:0:
448,192,174487,1,0,0:0:0:0:
192,192,174487,1,0,0:0:0:0:
64,192,174566,1,0,0:0:0:0:
320,192,174645,1,0,0:0:0:0:
192,192,174725,1,0,0:0:0:0:
448,192,174725,1,0,0:0:0:0:
64,192,174804,1,0,0:0:0:0:
320,192,174804,1,0,0:0:0:0:
192,192,174883,1,0,0:0:0:0:
64,192,174963,1,0,0:0:0:0:
320,192,175042,1,0,0:0:0:0:
64,192,175201,1,0,0:0:0:0:
448,192,175360,1,0,0:0:0:0:
192,192,175439,1,0,0:0:0:0:
64,192,175518,1,0,0:0:0:0:
320,192,175598,1,0,0:0:0:0:
448,192,175677,1,0,0:0:0:0:
192,192,175677,1,0,0:0:0:0:
64,192,175756,1,0,0:0:0:0:
320,192,175836,1,0,0:0:0:0:
448,192,175836,1,0,0:0:0:0:
192,192,175915,1,0,0:0:0:0:
64,192,175995,1,0,0:0:0:0:
320,192,175995,1,0,0:0:0:0:
448,192,176074,1,0,0:0:0:0:
192,192,176074,1,0,0:0:0:0:
320,192,176233,1,0,0:0:0:0:
64,192,176233,1,0,0:0:0:0:
448,192,176312,1,0,0:0:0:0:
192,192,176312,1,0,0:0:0:0:
320,192,176391,1,0,0:0:0:0:
64,192,176471,1,0,0:0:0:0:
448,192,176471,1,0,0:0:0:0:
192,192,176550,1,0,0:0:0:0:
320,192,176629,1,0,0:0:0:0:
64,192,176709,1,0,0:0:0:0:
448,192,176709,1,0,0:0:0:0:
192,192,176788,1,0,0:0:0:0:
320,192,176868,1,0,0:0:0:0:
64,192,176868,1,0,0:0:0:0:
448,192,176868,1,0,0:0:0:0:
192,192,177026,1,0,0:0:0:0:
320,192,177106,1,0,0:0:0:0:
64,192,177106,1,0,0:0:0:0:
448,192,177106,1,0,0:0:0:0:
192,192,177185,1,0,0:0:0:0:
320,192,177264,1,0,0:0:0:0:
64,192,177344,1,0,0:0:0:0:
448,192,177344,1,0,0:0:0:0:
192,192,177423,1,0,0:0:0:0:
64,192,177502,1,0,0:0:0:0:
320,192,177502,1,0,0:0:0:0:
192,192,177582,1,0,0:0:0:0:
448,192,177582,1,0,0:0:0:0:
320,192,177741,1,0,0:0:0:0:
64,192,177899,1,0,0:0:0:0:
448,192,178058,1,0,0:0:0:0:
192,192,178217,1,0,0:0:0:0:
320,192,178296,1,0,0:0:0:0:
64,192,178296,1,0,0:0:0:0:
448,192,178375,1,0,0:0:0:0:
192,192,178455,1,0,0:0:0:0:
320,192,178534,1,0,0:0:0:0:
64,192,178534,1,0,0:0:0:0:
448,192,178614,1,0,0:0:0:0:
192,192,178614,1,0,0:0:0:0:
320,192,178693,1,0,0:0:0:0:
64,192,178772,1,0,0:0:0:0:
448,192,178772,1,0,0:0:0:0:
192,192,178852,1,0,0:0:0:0:
320,192,178931,1,0,0:0:0:0:
64,192,178931,1,0,0:0:0:0:
448,192,179010,1,0,0:0:0:0:
192,192,179090,1,0,0:0:0:0:
320,192,179169,1,0,0:0:0:0:
64,192,179248,1,0,0:0:0:0:
448,192,179248,1,0,0:0:0:0:
192,192,179328,1,0,0:0:0:0:
320,192,179407,1,0,0:0:0:0:
64,192,179407,1,0,0:0:0:0:
448,192,179487,1,0,0:0:0:0:
192,192,179566,1,0,0:0:0:0:
320,192,179645,1,0,0:0:0:0:
64,192,179645,1,0,0:0:0:0:
448,192,179725,1,0,0:0:0:0:
192,192,179804,1,0,0:0:0:0:
320,192,179883,1,0,0:0:0:0:
64,192,179883,1,0,0:0:0:0:
448,192,179963,1,0,0:0:0:0:
192,192,180042,1,0,0:0:0:0:
64,192,180122,1,0,0:0:0:0:
320,192,180122,1,0,0:0:0:0:
448,192,180201,1,0,0:0:0:0:
192,192,180280,1,0,0:0:0:0:
64,192,180360,1,0,0:0:0:0:
320,192,180360,1,0,0:0:0:0:
192,192,180439,1,0,0:0:0:0:
448,192,180439,1,0,0:0:0:0:
64,192,180518,1,0,0:0:0:0:
320,192,180598,1,0,0:0:0:0:
192,192,180598,1,0,0:0:0:0:
448,192,180677,1,0,0:0:0:0:
64,192,180677,1,0,0:0:0:0:
192,192,180836,1,0,0:0:0:0:
320,192,180836,1,0,0:0:0:0:
448,192,180915,1,0,0:0:0:0:
64,192,180915,1,0,0:0:0:0:
192,192,180995,1,0,0:0:0:0:
320,192,180995,1,0,0:0:0:0:
64,192,181153,1,0,0:0:0:0:
448,192,181153,1,0,0:0:0:0:
192,192,181233,1,0,0:0:0:0:
320,192,181233,1,0,0:0:0:0:
64,192,181312,1,0,0:0:0:0:
192,192,181391,1,0,0:0:0:0:
320,192,181471,1,0,0:0:0:0:
64,192,181550,1,0,0:0:0:0:
448,192,181550,1,0,0:0:0:0:
192,192,181629,1,0,0:0:0:0:
320,192,181629,1,0,0:0:0:0:
64,192,181709,1,0,0:0:0:0:
448,192,181709,1,0,0:0:0:0:
192,192,181868,1,0,0:0:0:0:
320,192,181868,1,0,0:0:0:0:
64,192,181947,1,0,0:0:0:0:
448,192,182026,1,0,0:0:0:0:
192,192,182106,1,0,0:0:0:0:
320,192,182106,1,0,0:0:0:0:
64,192,182185,1,0,0:0:0:0:
448,192,182185,1,0,0:0:0:0:
192,192,182264,1,0,0:0:0:0:
64,192,182344,1,0,0:0:0:0:
320,192,182661,1,0,0:0:0:0:
64,192,182899,1,0,0:0:0:0:
448,192,183217,1,0,0:0:0:0:
192,192,183296,1,0,0:0:0:0:
448,192,183455,1,0,0:0:0:0:
64,192,183534,1,0,0:0:0:0:
320,192,183614,1,0,0:0:0:0:
192,192,183693,1,0,0:0:0:0:
448,192,183693,1,0,0:0:0:0:
64,192,183772,1,0,0:0:0:0:
320,192,183852,1,0,0:0:0:0:
448,192,183931,1,0,0:0:0:0:
192,192,183931,1,0,0:0:0:0:
64,192,184010,1,0,0:0:0:0:
192,192,184090,1,0,0:0:0:0:
320,192,184090,1,0,0:0:0:0:
64,192,184169,1,0,0:0:0:0:
192,192,184328,1,0,0:0:0:0:
320,192,184328,1,0,0:0:0:0:
64,192,184407,1,0,0:0:0:0:
448,192,184407,1,0,0:0:0:0:
192,192,184487,1,0,0:0:0:0:
320,192,184566,1,0,0:0:0:0:
64,192,184645,1,0,0:0:0:0:
448,192,184645,1,0,0:0:0:0:
192,192,184725,1,0,0:0:0:0:
320,192,184804,1,0,0:0:0:0:
64,192,184883,1,0,0:0:0:0:
448,192,184883,1,0,0:0:0:0:
192,192,184963,1,0,0:0:0:0:
320,192,184963,1,0,0:0:0:0:
64,192,185122,1,0,0:0:0:0:
192,192,185201,1,0,0:0:0:0:
320,192,185201,1,0,0:0:0:0:
448,192,185280,1,0,0:0:0:0:
64,192,185280,1,0,0:0:0:0:
192,192,185439,1,0,0:0:0:0:
320,192,185439,1,0,0:0:0:0:
448,192,185518,1,0,0:0:0:0:
64,192,185518,1,0,0:0:0:0:
320,192,185677,1,0,0:0:0:0:
192,192,185677,1,0,0:0:0:0:
448,192,185756,1,0,0:0:0:0:
64,192,185756,1,0,0:0:0:0:
192,192,185915,1,0,0:0:0:0:
320,192,185915,1,0,0:0:0:0:
64,192,185995,1,0,0:0:0:0:
448,192,185995,1,0,0:0:0:0:
192,192,186074,1,0,0:0:0:0:
320,192,186153,1,0,0:0:0:0:
448,192,186153,1,0,0:0:0:0:
64,192,186153,1,0,0:0:0:0:
192,192,186312,1,0,0:0:0:0:
320,192,186312,1,0,0:0:0:0:
448,192,186391,1,0,0:0:0:0:
64,192,186391,1,0,0:0:0:0:
192,192,186550,1,0,0:0:0:0:
320,192,186550,1,0,0:0:0:0:
64,192,186629,1,0,0:0:0:0:
448,192,186629,1,0,0:0:0:0:
192,192,186709,1,0,0:0:0:0:
320,192,186709,1,0,0:0:0:0:
64,192,186868,1,0,0:0:0:0:
448,192,186868,1,0,0:0:0:0:
192,192,186947,1,0,0:0:0:0:
320,192,186947,1,0,0:0:0:0:
64,192,187026,1,0,0:0:0:0:
448,192,187106,1,0,0:0:0:0:
192,192,187106,1,0,0:0:0:0:
320,192,187185,1,0,0:0:0:0:
64,192,187264,1,0,0:0:0:0:
448,192,187344,1,0,0:0:0:0:
192,192,187344,1,0,0:0:0:0:
64,192,187423,1,0,0:0:0:0:
320,192,187423,1,0,0:0:0:0:
192,192,187661,1,0,0:0:0:0:
320,192,187661,1,0,0:0:0:0:
64,192,187979,1,0,0:0:0:0:
448,192,187979,1,0,0:0:0:0:
448,192,188217,1,0,0:0:0:0:
448,192,188534,1,0,0:0:0:0:
192,192,188693,1,0,0:0:0:0:
448,192,188852,1,0,0:0:0:0:
192,192,189010,1,0,0:0:0:0:
448,192,189169,1,0,0:0:0:0:
64,192,189248,1,0,0:0:0:0:
320,192,189487,1,0,0:0:0:0:
64,192,189645,1,0,0:0:0:0:
320,192,189725,1,0,0:0:0:0:
64,192,189963,1,0,0:0:0:0:
320,192,190201,1,0,0:0:0:0:
64,192,190360,1,0,0:0:0:0:
320,192,190598,1,0,0:0:0:0:
64,192,190756,1,0,0:0:0:0:
320,192,190915,1,0,0:0:0:0:
64,192,191074,1,0,0:0:0:0:
320,192,191233,1,0,0:0:0:0:
192,192,191233,1,0,0:0:0:0:
448,192,191312,1,0,0:0:0:0:
64,192,191312,1,0,0:0:0:0:
192,192,191471,1,0,0:0:0:0:
320,192,191471,1,0,0:0:0:0:
448,192,191550,1,0,0:0:0:0:
64,192,191550,1,0,0:0:0:0:
320,192,191629,1,0,0:0:0:0:
192,192,191709,1,0,0:0:0:0:
448,192,191709,1,0,0:0:0:0:
64,192,191788,1,0,0:0:0:0:
192,192,191868,1,0,0:0:0:0:
320,192,191868,1,0,0:0:0:0:
448,192,191947,1,0,0:0:0:0:
64,192,191947,1,0,0:0:0:0:
192,192,192106,1,0,0:0:0:0:
320,192,192106,1,0,0:0:0:0:
448,192,192185,1,0,0:0:0:0:
64,192,192185,1,0,0:0:0:0:
320,192,192264,1,0,0:0:0:0:
192,192,192264,1,0,0:0:0:0:
448,192,192344,1,0,0:0:0:0:
64,192,192344,1,0,0:0:0:0:
320,192,192423,1,0,0:0:0:0:
192,192,192502,1,0,0:0:0:0:
448,192,192502,1,0,0:0:0:0:
64,192,192582,1,0,0:0:0:0:
192,192,192661,1,0,0:0:0:0:
320,192,192661,1,0,0:0:0:0:
448,192,192741,1,0,0:0:0:0:
64,192,192820,1,0,0:0:0:0:
192,192,192899,1,0,0:0:0:0:
320,192,192899,1,0,0:0:0:0:
448,192,192979,1,0,0:0:0:0:
64,192,192979,1,0,0:0:0:0:
192,192,193058,1,0,0:0:0:0:
320,192,193137,1,0,0:0:0:0:
64,192,193217,1,0,0:0:0:0:
448,192,193217,1,0,0:0:0:0:
320,192,193296,1,0,0:0:0:0:
192,192,193296,1,0,0:0:0:0:
64,192,193455,1,0,0:0:0:0:
448,192,193455,1,0,0:0:0:0:
320,192,193534,1,0,0:0:0:0:
192,192,193534,1,0,0:0:0:0:
64,192,193614,1,0,0:0:0:0:
448,192,193614,1,0,0:0:0:0:
320,192,193693,1,0,0:0:0:0:
192,192,193693,1,0,0:0:0:0:
448,192,193772,1,0,0:0:0:0:
64,192,193852,1,0,0:0:0:0:
320,192,193852,1,0,0:0:0:0:
192,192,193931,1,0,0:0:0:0:
448,192,193931,1,0,0:0:0:0:
64,192,194010,1,0,0:0:0:0:
320,192,194090,1,0,0:0:0:0:
320,192,194169,1,0,0:0:0:0:
64,192,194328,1,0,0:0:0:0:
192,192,194725,1,0,0:0:0:0:
448,192,194725,1,0,0:0:0:0:
448,192,194883,1,0,0:0:0:0:
448,192,195122,1,0,0:0:0:0:
192,192,195122,1,0,0:0:0:0:
448,192,195360,1,0,0:0:0:0:
192,192,195360,1,0,0:0:0:0:
448,192,195518,1,0,0:0:0:0:
192,192,195598,1,0,0:0:0:0:
448,192,195677,1,0,0:0:0:0:
192,192,195756,1,0,0:0:0:0:
448,192,195756,1,0,0:0:0:0:
192,192,195915,1,0,0:0:0:0:
448,192,195995,1,0,0:0:0:0:
320,192,196074,1,0,0:0:0:0:
192,192,196153,1,0,0:0:0:0:
448,192,196153,1,0,0:0:0:0:
64,192,196233,1,0,0:0:0:0:
448,192,196312,1,0,0:0:0:0:
192,192,196312,1,0,0:0:0:0:
320,192,196391,1,0,0:0:0:0:
64,192,196471,1,0,0:0:0:0:
192,192,196550,1,0,0:0:0:0:
448,192,196550,1,0,0:0:0:0:
64,192,196629,1,0,0:0:0:0:
320,192,196709,1,0,0:0:0:0:
192,192,196788,1,0,0:0:0:0:
448,192,196788,1,0,0:0:0:0:
64,192,196868,1,0,0:0:0:0:
320,192,196947,1,0,0:0:0:0:
192,192,196947,1,0,0:0:0:0:
448,192,197026,1,0,0:0:0:0:
64,192,197026,1,0,0:0:0:0:
320,192,197264,1,0,0:0:0:0:
192,192,197344,1,0,0:0:0:0:
448,192,197423,1,0,0:0:0:0:
192,192,197582,1,0,0:0:0:0:
64,192,197582,1,0,0:0:0:0:
320,192,197582,1,0,0:0:0:0:
448,192,197582,1,0,0:0:0:0:
192,192,197899,1,0,0:0:0:0:
320,192,197899,1,0,0:0:0:0:
64,192,197899,1,0,0:0:0:0:
448,192,197899,1,0,0:0:0:0:
192,192,198137,1,0,0:0:0:0:
320,192,198137,1,0,0:0:0:0:
64,192,198217,1,0,0:0:0:0:
448,192,198217,1,0,0:0:0:0:
192,192,198455,1,0,0:0:0:0:
320,192,198455,1,0,0:0:0:0:
448,192,198455,1,0,0:0:0:0:
64,192,198455,1,0,0:0:0:0:
64,192,198772,1,0,0:0:0:0:
192,192,198772,1,0,0:0:0:0:
320,192,198772,1,0,0:0:0:0:
448,192,198772,1,0,0:0:0:0:
448,192,199010,1,0,0:0:0:0:
64,192,199010,1,0,0:0:0:0:
320,192,199010,1,0,0:0:0:0:
192,192,199090,1,0,0:0:0:0:
320,192,199328,1,0,0:0:0:0:
448,192,199328,1,0,0:0:0:0:
64,192,199328,1,0,0:0:0:0:
192,192,199328,1,0,0:0:0:0:
64,192,199645,1,0,0:0:0:0:
192,192,199645,1,0,0:0:0:0:
320,192,199645,1,0,0:0:0:0:
448,192,199645,1,0,0:0:0:0:
64,192,199963,1,0,0:0:0:0:
448,192,199963,1,0,0:0:0:0:
320,192,199963,1,0,0:0:0:0:
64,192,200201,1,0,0:0:0:0:
320,192,200280,1,0,0:0:0:0:
448,192,200280,1,0,0:0:0:0:
64,192,200518,1,0,0:0:0:0:
320,192,200598,1,0,0:0:0:0:
448,192,200598,1,0,0:0:0:0:
64,192,200836,1,0,0:0:0:0:
320,192,200915,1,0,0:0:0:0:
448,192,200915,1,0,0:0:0:0:
192,192,200915,1,0,0:0:0:0:
448,192,201153,1,0,0:0:0:0:
64,192,201233,1,0,0:0:0:0:
192,192,201233,1,0,0:0:0:0:
320,192,201233,1,0,0:0:0:0:
192,192,201471,1,0,0:0:0:0:
320,192,201550,1,0,0:0:0:0:
320,192,201788,1,0,0:0:0:0:
64,192,202106,1,0,0:0:0:0:
448,192,202423,1,0,0:0:0:0:
192,192,202661,1,0,0:0:0:0:
448,192,202820,1,0,0:0:0:0:
192,192,202979,1,0,0:0:0:0:
448,192,203137,1,0,0:0:0:0:
64,192,203296,1,0,0:0:0:0:
320,192,203375,1,0,0:0:0:0:
64,192,203614,1,0,0:0:0:0:
448,192,203772,1,0,0:0:0:0:
192,192,203931,1,0,0:0:0:0:
64,192,204010,1,0,0:0:0:0:
320,192,204090,1,0,0:0:0:0:
192,192,204090,1,0,0:0:0:0:
448,192,204169,1,0,0:0:0:0:
64,192,204248,1,0,0:0:0:0:
320,192,204248,1,0,0:0:0:0:
192,192,204328,1,0,0:0:0:0:
448,192,204328,1,0,0:0:0:0:
64,192,204407,1,0,0:0:0:0:
192,192,204487,1,0,0:0:0:0:
320,192,204725,1,0,0:0:0:0:
64,192,204883,1,0,0:0:0:0:
448,192,205042,1,0,0:0:0:0:
64,192,205280,1,0,0:0:0:0:
192,192,205439,1,0,0:0:0:0:
320,192,205598,1,0,0:0:0:0:
64,192,205756,1,0,0:0:0:0:
320,192,205915,1,0,0:0:0:0:
64,192,206074,1,0,0:0:0:0:
448,192,206233,1,0,0:0:0:0:
192,192,206391,1,0,0:0:0:0:
320,192,206550,1,0,0:0:0:0:
448,192,206550,1,0,0:0:0:0:
192,192,206550,1,0,0:0:0:0:
64,192,206550,128,0,206868:0:0:0:0:
320,192,207026,1,0,0:0:0:0:
64,192,207185,1,0,0:0:0:0:
448,192,207344,1,0,0:0:0:0:
64,192,207661,1,0,0:0:0:0:
320,192,207899,1,0,0:0:0:0:
192,192,208058,1,0,0:0:0:0:
64,192,208296,128,0,208772:0:0:0:0:
320,192,208455,1,0,0:0:0:0:
448,192,208614,1,0,0:0:0:0:
192,192,208614,1,0,0:0:0:0:
320,192,208852,1,0,0:0:0:0:
64,192,208931,1,0,0:0:0:0:
448,192,208931,1,0,0:0:0:0:
320,192,209169,1,0,0:0:0:0:
192,192,209169,1,0,0:0:0:0:
192,192,209487,1,0,0:0:0:0:
320,192,209566,1,0,0:0:0:0:
192,192,209804,1,0,0:0:0:0:
320,192,209804,1,0,0:0:0:0:
192,192,210042,1,0,0:0:0:0:
320,192,210122,1,0,0:0:0:0:
192,192,210360,1,0,0:0:0:0:
320,192,210360,1,0,0:0:0:0:
192,192,210598,1,0,0:0:0:0:
320,192,210598,1,0,0:0:0:0:
192,192,210836,1,0,0:0:0:0:
320,192,210915,1,0,0:0:0:0:
192,192,211074,1,0,0:0:0:0:
320,192,211153,1,0,0:0:0:0:
64,192,211153,1,0,0:0:0:0:
448,192,211233,1,0,0:0:0:0:
192,192,211312,1,0,0:0:0:0:
320,192,211312,1,0,0:0:0:0:
64,192,211391,1,0,0:0:0:0:
448,192,211391,1,0,0:0:0:0:
192,192,211550,1,0,0:0:0:0:
320,192,211550,1,0,0:0:0:0:
448,192,211550,1,0,0:0:0:0:
64,192,211629,1,0,0:0:0:0:
192,192,211709,1,0,0:0:0:0:
320,192,211945,1,0,0:0:0:0:
64,192,212103,1,0,0:0:0:0:
448,192,212340,1,0,0:0:0:0:
192,192,212498,1,0,0:0:0:0:
448,192,212735,1,0,0:0:0:0:
64,192,212893,1,0,0:0:0:0:
448,192,213209,1,0,0:0:0:0:
448,192,213445,1,0,0:0:0:0:
320,192,214077,1,0,0:0:0:0:
64,192,214314,1,0,0:0:0:0:
320,192,214709,1,0,0:0:0:0:
64,192,214945,1,0,0:0:0:0:
448,192,215182,1,0,0:0:0:0:
192,192,215498,1,0,0:0:0:0:
448,192,215814,1,0,0:0:0:0:
448,192,216130,1,0,0:0:0:0:
192,192,216524,1,0,0:0:0:0:
320,192,216761,1,0,0:0:0:0:
64,192,217077,1,0,0:0:0:0:
320,192,217314,1,0,0:0:0:0:
192,192,217630,1,0,0:0:0:0:
448,192,217945,1,0,0:0:0:0:
192,192,218261,1,0,0:0:0:0:
320,192,218498,1,0,0:0:0:0:
64,192,218814,1,0,0:0:0:0:
448,192,219130,1,0,0:0:0:0:
192,192,219445,1,0,0:0:0:0:
320,192,219761,1,0,0:0:0:0:
64,192,220077,1,0,0:0:0:0:
320,192,220314,1,0,0:0:0:0:
192,192,220314,1,0,0:0:0:0:
448,192,220314,1,0,0:0:0:0:
64,192,220393,1,0,0:0:0:0:
320,192,220945,1,0,0:0:0:0:
64,192,221261,1,0,0:0:0:0:
448,192,221577,1,0,0:0:0:0:
192,192,221893,1,0,0:0:0:0:
448,192,222130,1,0,0:0:0:0:
192,192,222445,1,0,0:0:0:0:
320,192,222761,1,0,0:0:0:0:
64,192,223077,1,0,0:0:0:0:
448,192,223314,1,0,0:0:0:0:
192,192,223630,1,0,0:0:0:0:
320,192,223945,1,0,0:0:0:0:
64,192,224182,1,0,0:0:0:0:
448,192,224498,1,0,0:0:0:0:
192,192,224735,1,0,0:0:0:0:
320,192,225130,1,0,0:0:0:0:
448,192,225130,1,0,0:0:0:0:
64,192,225209,1,0,0:0:0:0:
192,192,225209,1,0,0:0:0:0:
320,192,225445,1,0,0:0:0:0:
64,192,225524,1,0,0:0:0:0:
192,192,225524,1,0,0:0:0:0:
448,192,225524,1,0,0:0:0:0:
320,192,225761,1,0,0:0:0:0:
64,192,226077,1,0,0:0:0:0:
448,192,226393,1,0,0:0:0:0:
192,192,226630,1,0,0:0:0:0:
320,192,226945,1,0,0:0:0:0:
64,192,227261,1,0,0:0:0:0:
448,192,227577,1,0,0:0:0:0:
448,192,227814,1,0,0:0:0:0:
192,192,228130,1,0,0:0:0:0:
320,192,228524,1,0,0:0:0:0:
64,192,228761,1,0,0:0:0:0:
320,192,229077,1,0,0:0:0:0:
320,192,229393,1,0,0:0:0:0:
64,192,229709,1,0,0:0:0:0:
320,192,229945,1,0,0:0:0:0:
448,192,229945,1,0,0:0:0:0:
192,192,229945,1,0,0:0:0:0:
320,192,230261,1,0,0:0:0:0:
64,192,230261,1,0,0:0:0:0:
192,192,230261,1,0,0:0:0:0:
448,192,230261,1,0,0:0:0:0:
320,192,230577,1,0,0:0:0:0:
64,192,230893,1,0,0:0:0:0:
320,192,231209,1,0,0:0:0:0:
64,192,231445,1,0,0:0:0:0:
320,192,231682,1,0,0:0:0:0:
64,192,231840,1,0,0:0:0:0:
448,192,231998,1,0,0:0:0:0:
192,192,232235,1,0,0:0:0:0:
448,192,232314,1,0,0:0:0:0:
192,192,232551,1,0,0:0:0:0:
320,192,232709,1,0,0:0:0:0:
64,192,232788,1,0,0:0:0:0:
320,192,232945,1,0,0:0:0:0:
192,192,233182,1,0,0:0:0:0:
320,192,233340,1,0,0:0:0:0:
320,192,233577,1,0,0:0:0:0:
64,192,233814,1,0,0:0:0:0:
320,192,234130,1,0,0:0:0:0:
64,192,234288,1,0,0:0:0:0:
448,192,234445,1,0,0:0:0:0:
64,192,234603,1,0,0:0:0:0:
448,192,234761,1,0,0:0:0:0:
192,192,235077,1,0,0:0:0:0:
320,192,235472,1,0,0:0:0:0:
64,192,235630,1,0,0:0:0:0:
320,192,235788,1,0,0:0:0:0:
64,192,235945,1,0,0:0:0:0:
320,192,236103,1,0,0:0:0:0:
192,192,236261,1,0,0:0:0:0:
448,192,236419,1,0,0:0:0:0:
192,192,236577,1,0,0:0:0:0:
320,192,236656,1,0,0:0:0:0:
64,192,236814,1,0,0:0:0:0:
320,192,236972,1,0,0:0:0:0:
64,192,237209,1,0,0:0:0:0:
448,192,237366,1,0,0:0:0:0:
192,192,237524,1,0,0:0:0:0:
320,192,237603,1,0,0:0:0:0:
64,192,237761,1,0,0:0:0:0:
448,192,237919,1,0,0:0:0:0:
192,192,238156,1,0,0:0:0:0:
320,192,238235,1,0,0:0:0:0:
64,192,238393,1,0,0:0:0:0:
320,192,238551,1,0,0:0:0:0:
192,192,238788,1,0,0:0:0:0:
448,192,238945,1,0,0:0:0:0:
64,192,239103,1,0,0:0:0:0:
320,192,239261,1,0,0:0:0:0:
64,192,239419,1,0,0:0:0:0:
320,192,239656,1,0,0:0:0:0:
448,192,239656,1,0,0:0:0:0:
64,192,239656,1,0,0:0:0:0:
192,192,239656,1,0,0:0:0:0:
320,192,239893,1,0,0:0:0:0:
320,192,240130,1,0,0:0:0:0:
64,192,240445,1,0,0:0:0:0:
448,192,240761,1,0,0:0:0:0:
192,192,241077,1,0,0:0:0:0:
320,192,241314,1,0,0:0:0:0:
64,192,241630,1,0,0:0:0:0:
448,192,241945,1,0,0:0:0:0:
192,192,242261,1,0,0:0:0:0:
320,192,242577,1,0,0:0:0:0:
64,192,242893,1,0,0:0:0:0:
448,192,243130,1,0,0:0:0:0:
448,192,243445,1,0,0:0:0:0:
448,192,243682,1,0,0:0:0:0:
64,192,244077,1,0,0:0:0:0:
320,192,244314,1,0,0:0:0:0:
64,192,244551,1,0,0:0:0:0:
320,192,245024,1,0,0:0:0:0:
320,192,245261,1,0,0:0:0:0:
320,192,245577,1,0,0:0:0:0:
64,192,245893,1,0,0:0:0:0:
448,192,246209,1,0,0:0:0:0:
192,192,246445,1,0,0:0:0:0:
448,192,246761,1,0,0:0:0:0:
64,192,246998,1,0,0:0:0:0:
320,192,247314,1,0,0:0:0:0:
64,192,247788,1,0,0:0:0:0:
448,192,248024,1,0,0:0:0:0:
192,192,248261,1,0,0:0:0:0:
320,192,248577,1,0,0:0:0:0:
448,192,248656,1,0,0:0:0:0:
64,192,248656,1,0,0:0:0:0:
192,192,248814,1,0,0:0:0:0:
320,192,248814,1,0,0:0:0:0:
64,192,248893,1,0,0:0:0:0:
448,192,248893,1,0,0:0:0:0:
192,192,249051,1,0,0:0:0:0:
320,192,249051,1,0,0:0:0:0:
64,192,249130,1,0,0:0:0:0:
192,192,249209,1,0,0:0:0:0:
448,192,249288,1,0,0:0:0:0:
64,192,249288,1,0,0:0:0:0:
192,192,249366,1,0,0:0:0:0:
320,192,249445,1,0,0:0:0:0:
448,192,249524,1,0,0:0:0:0:
64,192,249524,1,0,0:0:0:0:
64,192,249761,128,0,250866:0:0:0:0:
