osu file format v14

[General]
AudioFilename: Teminite - Earthquake.mp3
AudioLeadIn: 0
PreviewTime: 65354
Countdown: 0
SampleSet: Soft
StackLeniency: 0.4
Mode: 0
LetterboxInBreaks: 0
WidescreenStoryboard: 0

[Editor]
Bookmarks: 22408,44477,66546,77584,88620,110689,132758
DistanceSpacing: 0.6
BeatDivisor: 4
GridSize: 4
TimelineZoom: 3.399999

[Metadata]
Title:Earthquake
TitleUnicode:Earthquake
Artist:Teminite
ArtistUnicode:Teminite
Creator:Yamicchi
Version:Collapse
Source:
Tags:inception drum and bass dnb drumstep wubs drop edm
BeatmapID:1118319
BeatmapSetID:526626

[Difficulty]
HPDrainRate:6
CircleSize:4
OverallDifficulty:8
ApproachRate:9
SliderMultiplier:1.7
SliderTickRate:1

[Events]
//Background and Video events
0,0,"background.jpg",0,0
//Break Periods
//Storyboard Layer 0 (Background)
//Storyboard Layer 1 (Fail)
//Storyboard Layer 2 (Pass)
//Storyboard Layer 3 (Foreground)
//Storyboard Sound Samples

[TimingPoints]
354,344.827586206897,4,2,1,80,1,0
22078,-100,4,2,1,5,0,0
22422,-100,4,2,1,70,0,0
22681,-100,4,2,1,5,0,0
22767,-100,4,2,1,70,0,0
24750,-100,4,2,1,5,0,0
24836,-100,4,2,1,70,0,0
25095,-100,4,2,1,5,0,0
25181,-100,4,2,1,70,0,0
27509,-100,4,2,1,5,0,0
27595,-100,4,2,1,70,0,0
28198,-100,4,2,1,5,0,0
28285,-100,4,2,1,70,0,0
30267,-100,4,2,1,5,0,0
30353,-100,4,2,1,70,0,0
30612,-100,4,2,1,5,0,0
30698,-100,4,2,1,70,0,0
33716,-100,4,2,1,5,0,0
33802,-100,4,2,1,70,0,0
35785,-100,4,2,1,5,0,0
35871,-100,4,2,1,70,0,0
36129,-100,4,2,1,5,0,0
36216,-100,4,2,1,70,0,0
38543,-100,4,2,1,5,0,0
38629,-100,4,2,1,70,0,0
39233,-100,4,2,1,5,0,0
39319,-100,4,2,1,70,0,0
41302,-100,4,2,1,5,0,0
41388,-100,4,2,1,70,0,0
44491,-125,4,2,1,50,0,0
55526,-100,4,2,1,80,0,0
62767,-83.3333333333333,4,2,1,80,0,0
63112,-62.5,4,2,1,80,0,0
66560,-83.3333333333333,4,2,1,80,0,1
68802,-66.6666666666667,4,2,1,80,0,1
68888,-66.6666666666667,4,2,1,5,0,1
68974,-66.6666666666667,4,2,1,80,0,1
69060,-66.6666666666667,4,2,1,5,0,1
69147,-66.6666666666667,4,2,1,80,0,1
69233,-66.6666666666667,4,2,1,5,0,1
69319,-83.3333333333333,4,2,1,80,0,1
69578,-83.3333333333333,4,2,1,5,0,1
69664,-83.3333333333333,4,2,1,80,0,1
70267,-83.3333333333333,4,2,1,5,0,1
70354,-66.6666666666667,4,2,1,80,0,1
70440,-66.6666666666667,4,2,1,5,0,1
70526,-66.6666666666667,4,2,1,80,0,1
70612,-66.6666666666667,4,2,1,5,0,1
70698,-66.6666666666667,4,2,1,80,0,1
70957,-66.6666666666667,4,2,1,5,0,1
71043,-66.6666666666667,4,2,1,80,0,1
71129,-66.6666666666667,4,2,1,5,0,1
71216,-66.6666666666667,4,2,1,80,0,1
71302,-66.6666666666667,4,2,1,5,0,1
71388,-66.6666666666667,4,2,1,80,0,1
71647,-66.6666666666667,4,2,1,5,0,1
71733,-66.6666666666667,4,2,1,80,0,1
72078,-83.3333333333333,4,2,1,80,0,1
79836,-66.6666666666667,4,2,1,80,0,1
79922,-66.6666666666667,4,2,1,5,0,1
80009,-66.6666666666667,4,2,1,80,0,1
80095,-66.6666666666667,4,2,1,5,0,1
80181,-66.6666666666667,4,2,1,80,0,1
80267,-66.6666666666667,4,2,1,5,0,1
80354,-83.3333333333333,4,2,1,80,0,1
80612,-83.3333333333333,4,2,1,5,0,1
80698,-83.3333333333333,4,2,1,80,0,1
81302,-83.3333333333333,4,2,1,5,0,1
81388,-66.6666666666667,4,2,1,80,0,1
81474,-66.6666666666667,4,2,1,5,0,1
81560,-66.6666666666667,4,2,1,80,0,1
81647,-66.6666666666667,4,2,1,5,0,1
81733,-66.6666666666667,4,2,1,80,0,1
81991,-66.6666666666667,4,2,1,5,0,1
82078,-66.6666666666667,4,2,1,80,0,1
82164,-66.6666666666667,4,2,1,5,0,1
82250,-66.6666666666667,4,2,1,80,0,1
82336,-66.6666666666667,4,2,1,5,0,1
82422,-66.6666666666667,4,2,1,80,0,1
82681,-66.6666666666667,4,2,1,5,0,1
82767,-66.6666666666667,4,2,1,80,0,1
83112,-83.3333333333333,4,2,1,80,0,1
85871,-133.333333333333,4,2,1,80,0,0
86129,-133.333333333333,4,2,1,5,0,0
86216,-100,4,2,1,80,0,0
86302,-100,4,2,1,5,0,0
86388,-100,4,2,1,80,0,0
86647,-100,4,2,1,5,0,0
86733,-100,4,2,1,80,0,0
86819,-100,4,2,1,5,0,0
86905,-100,4,2,1,80,0,0
86991,-100,4,2,1,5,0,0
87078,-100,4,2,1,80,0,0
87164,-100,4,2,1,5,0,0
87250,-100,4,2,1,80,0,0
88629,-83.3333333333333,4,2,1,80,0,1
90871,-66.6666666666667,4,2,1,80,0,1
90957,-66.6666666666667,4,2,1,5,0,1
91043,-66.6666666666667,4,2,1,80,0,1
91129,-66.6666666666667,4,2,1,5,0,1
91216,-66.6666666666667,4,2,1,80,0,1
91302,-66.6666666666667,4,2,1,5,0,1
91388,-83.3333333333333,4,2,1,80,0,1
92078,-200,4,2,1,80,0,1
92767,-133.333333333333,4,2,1,80,0,1
93457,-80,4,2,1,80,0,1
94147,-83.3333333333333,4,2,1,80,0,1
101905,-66.6666666666667,4,2,1,80,0,1
101991,-66.6666666666667,4,2,1,5,0,1
102078,-66.6666666666667,4,2,1,80,0,1
102164,-66.6666666666667,4,2,1,5,0,1
102250,-66.6666666666667,4,2,1,80,0,1
102336,-66.6666666666667,4,2,1,5,0,1
102422,-83.3333358764648,4,2,1,80,0,1
103112,-200,4,2,1,80,0,1
103802,-133.333333333333,4,2,1,80,0,1
104491,-80,4,2,1,80,0,1
107940,-133.333333333333,4,2,1,80,0,0
108198,-133.333333333333,4,2,1,5,0,0
108285,-100,4,2,1,80,0,0
108371,-100,4,2,1,5,0,0
108457,-100,4,2,1,80,0,0
108716,-100,4,2,1,5,0,0
108802,-100,4,2,1,80,0,0
108888,-100,4,2,1,5,0,0
108974,-100,4,2,1,80,0,0
109060,-100,4,2,1,5,0,0
109147,-100,4,2,1,80,0,0
109233,-100,4,2,1,5,0,0
109319,-100,4,2,1,80,0,0
110698,-100,4,2,1,80,0,0
132767,-200,4,2,1,50,0,0
134147,-200,4,2,1,10,0,0
134836,-200,4,2,1,50,0,0
136905,-200,4,2,1,10,0,0
137595,-200,4,2,1,50,0,0
140354,-200,4,2,1,10,0,0
141043,-200,4,2,1,50,0,0
145181,-200,4,2,1,10,0,0
145871,-200,4,2,1,50,0,0
147940,-200,4,2,1,10,0,0
148629,-200,4,2,1,50,0,0
151388,-200,4,2,1,10,0,0
152078,-200,4,2,1,50,0,0

[Colours]
Combo1 : 157,157,157
Combo2 : 153,77,77
Combo3 : 140,0,0
Combo4 : 149,149,74

[HitObjects]
256,192,19664,12,0,22078,0:0:0:0:
320,288,22422,6,0,B|352:272|392:288|392:288|416:280|416:280|456:296|496:280,1,170,4|0,0:1|0:0,0:0:0:0:
456,204,22940,1,0,0:0:0:0:
252,232,23112,2,0,P|232:288|264:356,2,127.5,8|0|0,0:0|0:0|0:0,0:0:0:0:
380,152,23802,5,8,0:0:0:0:
320,288,23974,1,0,0:0:0:0:
176,180,24147,1,0,0:0:0:0:
352,160,24319,1,0,0:0:0:0:
196,72,24491,2,0,B|236:64|236:64|288:72|288:72|332:64,1,127.5,8|0,0:0|0:0,0:0:0:0:
364,56,24836,1,0,0:0:0:0:
364,56,25009,1,0,0:0:0:0:
456,180,25181,5,4,0:1:0:0:
288,224,25354,1,0,0:0:0:0:
288,224,25440,1,0,0:0:0:0:
288,224,25526,2,0,B|280:268|280:268|288:312,1,85,0|0,0:0|0:0,0:0:0:0:
192,204,25871,2,0,B|180:268|180:268|192:340,2,127.5,8|0|0,0:0|0:0|0:0,0:0:0:0:
332,152,26560,6,0,L|424:156,1,85,8|0,0:0|0:0,0:0:0:0:
284,48,26905,1,0,0:0:0:0:
192,204,27078,1,0,0:0:0:0:
416,132,27250,2,0,L|232:124,1,170,8|0,0:0|0:0,0:0:0:0:
160,120,27767,1,0,0:0:0:0:
44,272,27940,6,0,P|92:252|176:324,1,170,4|0,0:1|0:0,0:0:0:0:
264,368,28457,1,0,0:0:0:0:
332,292,28629,2,0,B|340:248|340:248|308:208|328:156,2,127.5,8|0|0,0:0|0:0|0:0,0:0:0:0:
408,192,29319,5,8,0:0:0:0:
296,88,29491,1,0,0:0:0:0:
252,268,29664,1,0,0:0:0:0:
376,116,29836,1,0,0:0:0:0:
216,56,30009,2,0,B|184:48|152:64|152:64|112:56|112:56|64:64,1,127.5,8|0,0:0|0:0,0:0:0:0:
48,68,30354,1,0,0:0:0:0:
48,68,30526,1,0,0:0:0:0:
72,236,30698,5,4,0:1:0:0:
248,224,30871,1,0,0:0:0:0:
248,224,30957,1,0,0:0:0:0:
248,224,31043,2,0,P|188:224|156:232,1,85,0|0,0:0|0:0,0:0:0:0:
28,320,31388,2,0,P|76:316|176:344,2,127.5,8|0|0,0:0|0:0|0:0,0:0:0:0:
0,172,32078,6,0,P|0:120|12:80,1,85,8|0,0:0|0:0,0:0:0:0:
16,72,32336,1,0,0:0:0:0:
24,56,32422,1,0,0:0:0:0:
164,76,32595,2,0,L|180:32,2,42.5,0|0|8,0:0|0:0|0:0,0:0:0:0:
286,148,32940,5,0,0:0:0:0:
294,129,33026,1,0,0:0:0:0:
301,110,33112,1,0,0:0:0:0:
308,91,33198,1,0,0:0:0:0:
315,72,33285,1,0,0:0:0:0:
323,54,33371,1,0,0:0:0:0:
332,32,33457,6,0,B|376:24|376:24|464:36,1,127.5,4|0,0:3|0:0,0:0:0:0:
500,40,33802,1,0,0:0:0:0:
444,180,33974,1,0,0:0:0:0:
286,148,34147,2,0,B|258:136|226:148|226:148|194:160|158:148,2,127.5,8|0|0,0:0|0:0|0:0,0:0:0:0:
400,272,34836,6,0,P|408:316|404:360,1,85,8|0,0:0|0:0,0:0:0:0:
440,152,35181,2,0,P|474:123|514:104,1,85,0|0,0:0|0:0,0:0:0:0:
320,180,35526,2,0,P|276:156|248:72,1,127.5,8|0,0:0|0:0,0:0:0:0:
276,52,35871,2,0,B|320:56|320:56|364:48,1,85,0|0,0:0|0:0,0:0:0:0:
112,20,36216,5,4,0:1:0:0:
16,208,36388,1,0,0:0:0:0:
16,208,36474,1,0,0:0:0:0:
16,208,36560,2,0,L|124:220,1,85,0|0,0:0|0:0,0:0:0:0:
248,296,36905,2,0,P|268:244|264:168,2,127.5,8|0|0,0:0|0:0|0:0,0:0:0:0:
88,356,37595,5,8,0:0:0:0:
112,220,37767,1,0,0:0:0:0:
216,372,37940,2,0,P|264:376|312:348,1,85,0|0,0:0|0:0,0:0:0:0:
452,200,38285,2,0,P|372:212|328:292,1,170,8|0,0:0|0:0,0:0:0:0:
424,292,38802,1,0,0:0:0:0:
488,116,38974,6,0,B|436:96|436:96|392:112|328:100,1,127.5,4|0,0:1|0:0,0:0:0:0:
324,104,39319,1,0,0:0:0:0:
258,260,39491,1,0,0:0:0:0:
96,200,39664,2,0,B|92:248|92:248|104:288|104:288|100:336,2,127.5,8|0|0,0:0|0:0|0:0,0:0:0:0:
264,176,40354,6,0,L|258:266,1,85,8|0,0:0|0:0,0:0:0:0:
400,352,40698,2,0,L|394:262,1,85,0|0,0:0|0:0,0:0:0:0:
240,152,41043,2,0,L|228:320,1,127.5,8|0,0:0|0:0,0:0:0:0:
228,324,41388,1,0,0:0:0:0:
384,152,41560,1,0,0:0:0:0:
148,164,41733,6,0,L|142:254,1,85,4|0,0:1|0:0,0:0:0:0:
140,272,41991,1,0,0:0:0:0:
137,295,42078,1,0,0:0:0:0:
52,188,42250,1,0,0:0:0:0:
244,140,42422,2,0,B|296:132|296:132|380:140,2,127.5,8|0|0,0:0|0:0|0:0,0:0:0:0:
136,316,43112,6,0,L|141:231,1,85,8|0,0:0|0:0,0:0:0:0:
244,140,43457,1,0,0:0:0:0:
290,294,43629,2,0,L|286:354,2,42.5,0|0|8,0:0|0:0|0:0,0:0:0:0:
452,286,43974,2,0,L|448:346,2,42.5,0|0|0,0:0|0:0|0:0,0:0:0:0:
456,124,44319,1,0,0:0:0:0:
348,48,44491,6,0,L|264:48,1,68,4|0,3:3|0:0,0:0:0:0:
364,92,44836,2,0,L|280:92,1,68,0|0,0:0|3:0,0:0:0:0:
380,136,45181,2,0,L|296:136,1,68,0|0,0:0|0:0,0:0:0:0:
396,180,45526,2,0,L|312:180,1,68,0|0,3:0|0:0,0:0:0:0:
192,236,45871,6,0,P|176:272|176:304,1,68,0|0,3:0|0:0,0:0:0:0:
264,197,46216,2,0,P|303:192|330:176,1,68,0|0,0:0|3:0,0:0:0:0:
196,152,46560,2,0,P|172:120|145:104,1,68,0|0,0:0|0:0,0:0:0:0:
40,208,46905,1,0,3:0:0:0:
40,208,46991,1,0,3:0:0:0:
40,208,47078,1,0,3:0:0:0:
40,208,47164,1,0,3:0:0:0:
40,208,47250,6,0,L|44:284,1,68,0|0,3:0|0:0,0:0:0:0:
112,164,47595,2,0,L|108:88,1,68,0|0,0:0|3:0,0:0:0:0:
112,248,47940,2,0,L|116:324,1,68,0|0,0:0|0:0,0:0:0:0:
184,204,48285,2,0,L|180:128,1,68,0|0,3:0|0:0,0:0:0:0:
300,368,48629,6,0,P|344:368|372:352,1,68,0|0,3:0|0:0,0:0:0:0:
472,360,48974,2,0,P|450:321|422:305,1,68,0|0,0:0|3:0,0:0:0:0:
380,216,49319,2,0,P|358:254|357:286,1,68,0|0,0:0|0:0,0:0:0:0:
472,212,49664,1,0,3:0:0:0:
472,212,49750,1,0,3:0:0:0:
472,212,49836,1,0,3:0:0:0:
472,212,49922,1,0,3:0:0:0:
472,212,50009,6,0,L|476:144,1,68,0|0,3:0|0:0,0:0:0:0:
360,84,50354,2,0,L|368:152,1,68,0|0,0:0|3:0,0:0:0:0:
252,192,50698,2,0,L|259:124,1,68,0|0,0:0|0:0,0:0:0:0:
148,84,51043,2,0,L|152:152,1,68,0|0,3:0|0:0,0:0:0:0:
0,232,51388,6,0,L|72:224,1,68,0|0,3:0|0:0,0:0:0:0:
196,264,51733,2,0,L|124:272,1,68,0|0,0:0|3:0,0:0:0:0:
16,344,52078,2,0,L|88:336,1,68,0|0,0:0|0:0,0:0:0:0:
224,356,52422,1,0,3:0:0:0:
224,356,52509,1,0,3:0:0:0:
224,356,52595,1,0,3:0:0:0:
224,356,52681,1,0,3:0:0:0:
224,356,52767,6,0,L|300:360,1,68,0|0,3:0|0:0,0:0:0:0:
416,296,53112,2,0,L|340:300,1,68,0|0,0:0|3:0,0:0:0:0:
224,236,53457,2,0,L|300:240,1,68,0|0,0:0|0:0,0:0:0:0:
416,176,53802,2,0,L|340:180,1,68,0|0,3:0|0:0,0:0:0:0:
224,108,54147,5,0,3:0:0:0:
224,236,54319,1,0,0:0:0:0:
188,116,54491,1,0,0:0:0:0:
188,228,54663,1,0,3:0:0:0:
152,124,54836,1,0,0:0:0:0:
152,220,55008,1,0,0:0:0:0:
116,132,55181,5,0,3:0:0:0:
116,152,55267,1,0,3:0:0:0:
116,172,55353,1,0,3:0:0:0:
116,192,55439,1,0,3:0:0:0:
116,212,55526,5,2,1:3:0:0:
188,348,55698,2,0,P|228:348|268:324,1,85,0|0,0:0|0:0,0:0:0:0:
112,288,56043,2,0,P|92:322|92:369,1,85,2|0,0:3|1:0,0:0:0:0:
260,244,56388,1,0,0:0:0:0:
224,108,56560,1,2,0:3:0:0:
224,108,56733,1,0,0:0:0:0:
12,168,56905,5,2,1:3:0:0:
116,313,57078,2,0,L|116:217,1,85,0|0,0:0|0:0,0:0:0:0:
116,108,57422,2,0,L|116:12,1,85,2|0,0:3|1:0,0:0:0:0:
224,168,57767,1,0,0:0:0:0:
400,80,57940,5,2,0:3:0:0:
400,80,58026,1,0,0:0:0:0:
400,80,58112,1,0,0:0:0:0:
400,80,58198,1,0,0:0:0:0:
400,80,58285,5,2,1:3:0:0:
304,168,58457,2,0,P|296:116|304:80,1,85,0|0,0:0|0:0,0:0:0:0:
461,147,58802,2,0,P|427:172|404:208,1,85,2|0,0:3|1:0,0:0:0:0:
320,268,59147,1,0,0:0:0:0:
224,88,59319,1,2,0:3:0:0:
324,244,59491,1,0,0:0:0:0:
112,256,59664,5,2,1:3:0:0:
220,376,59836,2,0,L|224:276,1,85
364,232,60181,2,0,L|368:332,1,85,2|0,0:3|1:0,0:0:0:0:
494,336,60526,1,0,0:0:0:0:
428,176,60698,1,2,0:3:0:0:
296,352,60871,1,0,0:0:0:0:
296,352,60957,1,0,0:0:0:0:
296,352,61043,6,0,L|294:304,3,42.5,2|0|0|0,0:3|0:0|0:0|0:0,0:0:0:0:
244,236,61388,2,0,L|246:189,3,42.5,0|0|0|0,1:0|0:0|0:0|0:0,0:0:0:0:
312,136,61733,2,0,L|360:140,3,42.5,2|0|0|0,0:3|0:0|0:0|0:0,0:0:0:0:
420,200,62078,2,0,L|468:196,3,42.5,0|0|0|0,1:0|0:0|0:0|0:0,0:0:0:0:
492,120,62422,5,2,0:3:0:0:
470,99,62508,1,0,0:0:0:0:
456,72,62594,1,0,0:0:0:0:
449,42,62680,1,0,0:0:0:0:
424,60,62766,1,0,1:0:0:0:
397,74,62853,1,0,0:0:0:0:
368,84,62939,1,0,0:0:0:0:
338,87,63025,1,0,0:0:0:0:
296,80,63112,5,2,0:3:0:0:
265,110,63198,1,0,0:0:0:0:
249,150,63284,1,0,0:0:0:0:
253,194,63370,1,0,0:0:0:0:
280,228,63456,1,0,1:0:0:0:
321,216,63543,1,0,0:0:0:0:
364,223,63629,1,0,0:0:0:0:
400,248,63715,1,0,0:0:0:0:
256,192,63802,12,2,65181,0:0:0:0:
128,176,66560,6,0,P|112:120|184:192,1,305.999990661621,4|0,0:1|0:0,0:0:0:0:
72,232,67250,6,0,P|40:184|32:128,1,101.999996887207,0|0,1:0|0:0,0:0:0:0:
104,304,67595,2,0,P|78:355|33:390,1,101.999996887207,0|0,0:0|0:0,0:0:0:0:
152,240,67940,1,2,0:3:0:0:
304,296,68112,1,0,0:0:0:0:
168,240,68285,1,0,0:0:0:0:
296,160,68457,1,0,0:0:0:0:
308,384,68629,1,0,1:0:0:0:
184,240,68802,5,0,0:0:0:0:
404,268,68974,1,0,0:0:0:0:
184,240,69147,1,0,0:0:0:0:
404,268,69319,6,0,P|432:196|400:104,1,152.999995330811,4|0,0:1|0:0,0:0:0:0:
368,68,69664,1,0,0:0:0:0:
368,68,69750,1,0,0:0:0:0:
368,68,69836,1,0,0:0:0:0:
232,184,70009,2,0,L|124:192,1,101.999996887207,0|0,1:0|0:0,0:0:0:0:
92,76,70354,5,0,0:0:0:0:
132,292,70526,1,0,0:0:0:0:
100,120,70698,1,2,0:3:0:0:
48,336,70871,5,0,0:0:0:0:
260,272,71043,1,0,0:0:0:0:
48,336,71216,1,0,0:0:0:0:
296,360,71388,2,0,B|332:354|332:354|363:364|363:364|400:355|400:355|447:374|488:344,1,191.250007295609,0|0,1:0|0:0,0:0:0:0:
436,280,71733,1,0,0:0:0:0:
264,176,71905,1,0,0:0:0:0:
172,368,72078,6,0,B|164:320|164:320|176:248|176:248|168:172|168:172|124:208|124:208|132:272,1,305.999990661621,4|0,0:1|0:0,0:0:0:0:
274,277,72767,6,0,L|262:165,1,101.999996887207,0|0,1:0|0:0,0:0:0:0:
424,88,73112,2,0,L|412:200,1,101.999996887207,0|0,0:0|0:0,0:0:0:0:
260,152,73457,1,2,0:3:0:0:
412,212,73629,1,0,0:0:0:0:
184,228,73802,1,0,0:0:0:0:
236,52,73974,1,0,0:0:0:0:
284,252,74147,1,0,1:0:0:0:
164,120,74319,2,0,B|112:116|112:116|60:132,2,101.999996887207,0|0|0,0:0|0:0|0:0,0:0:0:0:
48,220,74836,6,0,B|120:196|120:196|208:200|208:200|120:212|104:300,1,305.999990661621,4|0,0:1|0:0,0:0:0:0:
216,311,75526,1,0,1:0:0:0:
268,128,75698,2,0,P|296:172|296:228,1,101.999996887207
412,324,76043,1,0,0:0:0:0:
412,324,76216,6,0,P|420:272|456:224,1,101.999996887207,2|0,0:3|0:0,0:0:0:0:
365,112,76560,2,0,P|315:131|256:123,1,101.999996887207
152,28,76905,1,0,1:0:0:0:
152,47,76991,1,0,0:0:0:0:
152,67,77078,1,0,0:0:0:0:
153,87,77164,1,0,0:0:0:0:
153,107,77250,1,0,0:0:0:0:
153,127,77336,1,0,0:0:0:0:
154,147,77422,1,0,0:0:0:0:
154,167,77509,1,0,0:0:0:0:
154,202,77595,6,0,B|155:237|155:237|104:224|64:256|68:312|104:356|156:344|176:312|176:312|212:324|260:304,1,305.999990661621,4|0,0:1|0:0,0:0:0:0:
216,144,78285,6,0,P|160:116|112:128,1,101.999996887207,0|0,1:0|0:0,0:0:0:0:
236,224,78629,2,0,P|239:286|274:322,1,101.999996887207,0|0,0:0|0:0,0:0:0:0:
296,168,78974,1,2,0:3:0:0:
154,202,79147,1,0,0:0:0:0:
316,248,79319,1,0,0:0:0:0:
134,122,79491,1,0,0:0:0:0:
116,343,79664,1,0,1:0:0:0:
216,144,79836,5,0,0:0:0:0:
20,288,80009,1,0,0:0:0:0:
216,144,80181,1,0,0:0:0:0:
268,356,80354,6,0,B|320:360|320:360|372:352|372:352|424:356,1,152.999995330811,4|0,0:1|0:0,0:0:0:0:
476,300,80698,1,0,0:0:0:0:
476,300,80785,1,0,0:0:0:0:
476,300,80871,1,0,0:0:0:0:
340,152,81043,2,0,P|348:204|340:256,1,101.999996887207,0|0,1:0|0:0,0:0:0:0:
195,153,81388,5,0,0:0:0:0:
456,96,81560,1,0,0:0:0:0:
268,136,81733,1,2,0:3:0:0:
420,300,81905,5,0,0:0:0:0:
388,60,82077,1,0,0:0:0:0:
420,300,82250,1,0,0:0:0:0:
320,128,82422,2,0,B|296:136|268:136|268:136|276:176|256:204|220:208|188:188|184:152|208:128,1,191.250007295609,0|0,1:0|0:0,0:0:0:0:
208,76,82767,1,0,0:0:0:0:
412,152,82940,1,0,0:0:0:0:
312,272,83112,6,0,B|280:288|232:272|232:272|264:304|260:352|220:376|160:368|144:324|152:276|208:260,1,305.999990661621,4|0,0:1|0:0,0:0:0:0:
276,168,83802,6,0,L|384:160,1,101.999996887207,0|0,1:0|0:0,0:0:0:0:
364,16,84147,2,0,L|256:24,1,101.999996887207,0|0,0:0|0:0,0:0:0:0:
120,32,84491,1,2,0:3:0:0:
260,144,84664,1,0,0:0:0:0:
32,116,84836,1,0,0:0:0:0:
228,40,85009,1,0,0:0:0:0:
195,247,85181,1,0,1:0:0:0:
60,112,85354,2,0,B|112:104|112:104|168:112,2,101.999996887207,0|0|0,0:0|0:0|0:0,0:0:0:0:
24,352,85871,6,0,L|12:240,1,95.6250036478044,0|0,0:0|0:0,0:0:0:0:
12,216,86216,1,2,0:0:0:0:
168,296,86388,1,0,0:0:0:0:
168,296,86474,1,0,0:0:0:0:
168,296,86560,6,0,L|164:204,1,85,0|0,0:0|0:0,0:0:0:0:
330,240,86905,2,0,L|327:324,1,85,2|0,0:0|0:0,0:0:0:0:
416,184,87250,5,0,0:0:0:0:
327,324,87422,1,0,0:0:0:0:
288,124,87595,1,2,0:0:0:0:
420,284,87767,1,0,0:0:0:0:
403,43,87940,5,0,1:0:0:0:
403,43,88629,6,0,B|352:56|352:56|280:40|280:40|304:112|240:168|180:156,1,305.999990661621,4|0,0:1|0:0,0:0:0:0:
112,24,89319,6,0,P|168:40|208:88,1,101.999996887207,0|0,1:0|0:0,0:0:0:0:
36,172,89664,2,0,P|21:115|43:56,1,101.999996887207,0|0,0:0|0:0,0:0:0:0:
185,156,90009,1,2,0:3:0:0:
80,280,90181,1,0,0:0:0:0:
116,120,90354,1,0,0:0:0:0:
254,192,90526,1,0,0:0:0:0:
40,192,90698,1,0,1:0:0:0:
250,114,90871,5,0,0:0:0:0:
240,356,91043,1,0,0:0:0:0:
250,114,91216,1,0,0:0:0:0:
84,300,91388,2,0,B|112:324|160:312|160:312|184:268|240:248|292:280,1,203.999993774414,4|0,0:1|0:0,0:0:0:0:
348,292,91905,1,0,0:0:0:0:
364,104,92078,6,0,P|392:96|360:136,1,127.5,0|0,1:0|0:0,0:0:0:0:
224,80,92767,6,0,P|203:59|253:67,1,127.5,2|0,0:3|0:0,0:0:0:0:
288,136,93285,1,2,3:0:0:0:
140,232,93457,6,0,B|196:208|244:232|244:232|292:256|348:224,1,212.5,0|0,1:0|0:0,0:0:0:0:
288,136,93974,1,2,0:3:0:0:
412,364,94147,6,0,B|420:324|412:288|412:288|440:256|440:256|440:224|456:192|456:192|380:192|360:116,1,305.999990661621,4|0,0:1|0:0,0:0:0:0:
456,0,94836,6,0,L|452:104,1,101.999996887207,0|0,1:0|0:0,0:0:0:0:
276,104,95181,2,0,L|272:0,1,101.999996887207
363,128,95526,1,2,0:3:0:0:
200,168,95698,1,0,0:0:0:0:
368,32,95871,1,0,0:0:0:0:
188,76,96043,1,0,0:0:0:0:
304,272,96216,1,0,1:0:0:0:
112,192,96388,5,0,0:0:0:0:
204,344,96560,1,0,0:0:0:0:
290,189,96733,1,0,0:0:0:0:
84,312,96905,6,0,B|68:264|68:264|112:240|112:192|112:192|80:160|96:84|96:84|116:104|156:112,1,305.999990661621,4|0,0:1|0:0,0:0:0:0:
280,116,97595,1,0,1:0:0:0:
412,36,97768,2,0,L|310:43,1,101.999996887207,0|0,0:0|0:0,0:0:0:0:
192,224,98112,1,0,0:0:0:0:
192,224,98285,2,0,P|176:172|184:120,1,101.999996887207,2|0,0:3|0:0,0:0:0:0:
360,108,98629,2,0,P|376:160|368:212,1,101.999996887207,0|0,0:0|0:0,0:0:0:0:
224,344,98974,5,0,1:0:0:0:
200,341,99060,1,0,0:0:0:0:
176,339,99147,1,0,0:0:0:0:
152,337,99233,1,0,0:0:0:0:
128,335,99319,1,0,0:0:0:0:
104,333,99405,1,0,0:0:0:0:
80,331,99491,1,0,0:0:0:0:
56,329,99578,1,0,0:0:0:0:
24,328,99664,6,0,B|16:272|16:272|32:212|32:212|24:128|24:128|64:168|128:148,1,305.999990661621,4|0,0:1|0:0,0:0:0:0:
308,64,100354,2,0,P|276:112|276:168,1,101.999996887207,0|0,1:0|0:0,0:0:0:0:
392,300,100698,2,0,P|366:248|317:220,1,101.999996887207,0|0,0:0|0:0,0:0:0:0:
140,272,101043,1,2,0:3:0:0:
273,155,101216,1,0,0:0:0:0:
244,344,101388,1,0,0:0:0:0:
252,168,101560,1,0,0:0:0:0:
48,240,101733,1,0,1:0:0:0:
248,256,101905,5,0,0:0:0:0:
180,36,102078,1,0,0:0:0:0:
248,256,102250,1,0,0:0:0:0:
356,64,102422,6,0,B|320:72|284:56|284:56|256:76|240:112|240:112|268:136|328:144,1,203.999993774414,4|0,0:1|0:0,0:0:0:0:
380,144,102940,1,0,0:0:0:0:
160,72,103112,6,0,B|144:100|144:124|144:124|160:168|200:196,1,127.5,0|0,1:0|0:0,0:0:0:0:
364,176,103802,6,0,B|347:148|326:136|326:136|280:128|236:148,1,127.5,2|0,0:3|0:0,0:0:0:0:
184,183,104319,1,2,3:0:0:0:
172,328,104491,6,0,B|204:327|225:315|225:315|255:279|261:221|261:221|244:256|209:265,1,212.5,0|0,1:0|0:0,0:0:0:0:
100,276,105009,1,2,0:3:0:0:
336,188,105181,6,0,B|404:200|484:176|484:176|432:200|428:232|436:272|484:280|516:240|488:212,1,318.75,4|0,0:1|0:0,0:0:0:0:
344,112,105871,6,0,P|400:112|460:100,1,106.25,0|0,1:0|0:0,0:0:0:0:
184,136,106216,2,0,P|128:136|68:148,1,106.25,0|0,0:0|0:0,0:0:0:0:
336,188,106560,1,2,0:3:0:0:
160,216,106733,1,0,0:0:0:0:
388,272,106905,1,0,0:0:0:0:
248,200,107078,1,0,0:0:0:0:
120,372,107250,1,0,1:0:0:0:
73,176,107422,2,0,P|117:128|165:120,2,106.25,0|0|0,0:0|0:0|0:0,0:0:0:0:
240,340,107940,6,0,L|246:214,1,95.6250036478044,0|0,0:0|0:0,0:0:0:0:
248,200,108285,1,2,0:0:0:0:
384,96,108457,1,0,0:0:0:0:
384,96,108543,1,0,0:0:0:0:
384,96,108629,6,0,L|388:184,1,85,0|0,0:0|0:0,0:0:0:0:
240,340,108974,2,0,L|244:252,1,85,2|0,0:0|0:0,0:0:0:0:
388,192,109319,1,2,0:0:0:0:
321,335,109491,6,0,P|283:347|231:335,1,85,0|0,0:0|0:0,0:0:0:0:
128,216,109836,2,0,P|90:204|38:216,1,85,2|0,0:0|0:0,0:0:0:0:
84,296,110181,1,0,0:0:0:0:
172,136,110354,1,2,1:2:0:0:
239,339,110526,1,0,0:0:0:0:
444,208,110698,6,0,B|304:200|304:200|340:224,1,170,4|0,0:1|0:0,0:0:0:0:
372,284,111216,1,0,0:0:0:0:
440,132,111388,2,0,L|288:124,2,127.5,0|0|0,1:0|0:0|0:0,0:0:0:0:
348,40,112078,6,0,L|264:44,1,85,2|0,0:3|0:0,0:0:0:0:
144,180,112422,1,0,0:0:0:0:
188,52,112595,1,0,0:0:0:0:
48,144,112767,2,0,B|32:192|56:232|56:232|80:272|64:328,2,170,0|0|4,1:0|0:0|0:1,0:0:0:0:
140,180,113629,5,0,0:0:0:0:
140,180,113716,1,0,0:0:0:0:
140,180,113802,1,0,0:0:0:0:
68,307,113974,1,0,0:0:0:0:
224,212,114147,2,0,B|272:200|272:200|360:208,2,127.5,0|0|0,1:0|0:0|0:0,0:0:0:0:
379,280,114836,6,0,P|413:255|428:215,1,85,2|0,0:3|0:0,0:0:0:0:
328,96,115181,1,0,0:0:0:0:
349,207,115354,1,2,0:3:0:0:
392,40,115526,2,0,P|316:12|248:68,1,170,0|0,1:0|0:0,0:0:0:0:
248,148,116043,1,2,0:3:0:0:
96,248,116216,6,0,B|224:236|224:236|200:244|184:260,1,170,4|0,0:1|0:0,0:0:0:0:
136,336,116733,1,0,0:0:0:0:
316,241,116905,2,0,P|301:182|241:146,2,127.5,0|0|0,1:0|0:0|0:0,0:0:0:0:
416,376,117595,6,0,P|456:380|508:352,1,85,2|0,0:3|0:0,0:0:0:0:
360,312,117940,1,0,0:0:0:0:
504,232,118112,1,0,0:0:0:0:
328,156,118285,2,0,L|336:332,2,170,0|0|4,1:0|0:0|0:1,0:0:0:0:
232,76,119147,5,0,0:0:0:0:
232,76,119233,1,0,0:0:0:0:
232,76,119319,1,0,0:0:0:0:
132,216,119491,1,0,0:0:0:0:
292,284,119664,2,0,L|284:144,2,127.5,0|0|0,1:0|0:0|0:0,0:0:0:0:
84,292,120354,5,2,0:3:0:0:
184,148,120526,1,0,0:0:0:0:
184,148,120612,1,0,0:0:0:0:
184,148,120698,1,0,0:0:0:0:
200,320,120871,2,0,L|196:372,2,42.5,2|2|0,0:3|0:3|1:0,0:0:0:0:
284,156,121216,5,0,0:0:0:0:
304,160,121302,1,0,0:0:0:0:
324,164,121388,1,0,0:0:0:0:
344,168,121474,1,0,0:0:0:0:
364,172,121560,1,0,1:0:0:0:
384,176,121647,1,0,0:0:0:0:
416,176,121733,6,0,B|448:136|436:84|436:84|392:104|344:76,1,170,4|0,0:1|0:0,0:0:0:0:
276,56,122250,1,0,0:0:0:0:
200,168,122422,2,0,P|216:212|304:236,2,127.5,0|0|0,1:0|0:0|0:0,0:0:0:0:
368,220,123112,6,0,P|368:268|340:308,1,85,2|0,0:3|0:0,0:0:0:0:
284,156,123457,1,0,0:0:0:0:
424,132,123629,1,0,0:0:0:0:
349,299,123802,2,0,B|277:311|277:311|181:299,2,170,0|0|4,1:0|0:0|0:1,0:0:0:0:
460,224,124664,5,0,0:0:0:0:
460,224,124750,1,0,0:0:0:0:
460,224,124836,1,0,0:0:0:0:
304,156,125009,1,0,0:0:0:0:
210,327,125181,2,0,B|277:335|277:335|337:325,2,127.5,0|0|0,1:0|0:0|0:0,0:0:0:0:
96,192,125871,6,0,L|88:108,1,85,2|0,0:3|0:0,0:0:0:0:
256,40,126216,1,0,0:0:0:0:
112,96,126388,1,2,0:3:0:0:
276,192,126560,2,0,P|320:192|360:180,1,85,0|0,1:0|0:0,0:0:0:0:
208,124,126905,1,0,0:0:0:0:
160,276,127078,1,2,0:3:0:0:
372,348,127250,6,0,B|432:352|432:352|488:312|472:244,1,170,4|0,0:1|0:0,0:0:0:0:
452,164,127767,1,0,0:0:0:0:
296,280,127940,2,0,B|288:224|288:224|292:132,2,127.5,0|0|0,1:0|0:0|0:0,0:0:0:0:
196,184,128629,6,0,B|194:233|194:233|201:279,1,85,2|0,0:3|0:0,0:0:0:0:
136,112,128974,1,0,0:0:0:0:
291,153,129147,1,0,0:0:0:0:
120,308,129319,2,0,B|108:232|108:232|115:139,2,170,0|0|4,1:0|0:0|0:1,0:0:0:0:
232,328,130181,5,0,0:0:0:0:
232,328,130267,1,0,0:0:0:0:
232,328,130354,1,0,0:0:0:0:
384,264,130526,1,0,0:0:0:0:
232,192,130698,2,0,L|392:180,2,127.5,0|0|0,1:0|0:0|0:0,0:0:0:0:
236,368,131388,6,0,L|328:360,1,85,2|0,0:3|0:0,0:0:0:0:
412,352,131733,1,0,0:0:0:0:
236,272,131905,1,2,0:3:0:0:
256,269,131991,1,2,0:3:0:0:
276,267,132078,1,0,1:0:0:0:
220,176,132250,1,0,0:0:0:0:
244,172,132336,1,0,0:0:0:0:
268,168,132423,1,0,1:0:0:0:
204,88,132595,1,0,1:0:0:0:
40,287,132767,6,0,B|72:263|116:279|116:279|160:295|232:271|232:271|304:303|376:279,1,340,4|0,0:3|0:0,0:0:0:0:
371,281,134836,6,0,L|375:225,2,42.5,2|0|0,0:0|0:0|0:0,0:0:0:0:
446,295,135354,6,8,P|366:151|298:295,1,382.5,0|0,0:0|0:0,0:0:0:0:
289,280,137595,5,2,0:0:0:0:
285,200,137767,1,0,0:0:0:0:
280,121,137940,1,0,0:0:0:0:
275,42,138112,1,0,0:0:0:0:
275,42,139319,6,0,B|237:24|198:34|198:34|153:72|153:72|101:40|34:58,1,255,2|0,0:0|0:0,0:0:0:0:
40,56,141043,6,0,B|48:112|88:128|88:128|32:152|17:205|17:205|36:236|32:272,2,255,2|2|2,0:0|0:0|0:0,0:0:0:0:
40,56,143802,6,0,B|104:8|200:48|216:152|144:200|144:200|136:236|144:264,1,340,4|0,0:3|0:0,0:0:0:0:
141,253,145871,6,0,P|140:278|145:301,2,42.5,2|0|0,0:0|0:0|0:0,0:0:0:0:
240,268,146388,6,0,B|248:200|189:162|189:162|236:112|312:128|312:128|360:192|440:160,1,382.5
422,166,148629,5,2,0:0:0:0:
343,151,148802,1,0,0:0:0:0:
277,197,148974,1,0,0:0:0:0:
198,182,149147,1,0,0:0:0:0:
198,182,150354,6,0,B|206:6|206:6|182:54|142:70,1,255,2|0,0:0|0:0,0:0:0:0:
154,64,152078,5,2,0:0:0:0:
25,376,153112,1,2,0:0:0:0:
361,330,154147,1,2,0:0:0:0:
211,140,154836,5,4,0:3:0:0:
