osu file format v14

[General]
AudioFilename: Teminite - Earthquake.mp3
AudioLeadIn: 0
PreviewTime: 65354
Countdown: 0
SampleSet: Soft
StackLeniency: 0.4
Mode: 0
LetterboxInBreaks: 0
WidescreenStoryboard: 0

[Editor]
Bookmarks: 22408,44477,66546,69922,77584,88620,110689,132758
DistanceSpacing: 1
BeatDivisor: 4
GridSize: 4
TimelineZoom: 2.5

[Metadata]
Title:Earthquake
TitleUnicode:Earthquake
Artist:Teminite
ArtistUnicode:Teminite
Creator:Yamicchi
Version:Calm
Source:
Tags:inception drum and bass dnb drumstep wubs drop edm
BeatmapID:1120013
BeatmapSetID:526626

[Difficulty]
HPDrainRate:4
CircleSize:3.5
OverallDifficulty:4
ApproachRate:5
SliderMultiplier:1
SliderTickRate:1

[Events]
//Background and Video events
0,0,"background.jpg",0,0
//Break Periods
2,44691,51567
//Storyboard Layer 0 (Background)
//Storyboard Layer 1 (Fail)
//Storyboard Layer 2 (Pass)
//Storyboard Layer 3 (Foreground)
//Storyboard Sound Samples

[TimingPoints]
354,344.827586206897,4,2,1,80,1,0
21733,-100,4,2,1,5,0,0
22422,-100,4,2,1,70,0,0
22681,-100,4,2,1,5,0,0
22767,-100,4,2,1,70,0,0
24750,-100,4,2,1,5,0,0
24836,-100,4,2,1,70,0,0
25095,-100,4,2,1,5,0,0
25181,-100,4,2,1,70,0,0
27509,-100,4,2,1,5,0,0
27595,-100,4,2,1,70,0,0
28198,-100,4,2,1,5,0,0
28285,-100,4,2,1,70,0,0
30267,-100,4,2,1,5,0,0
30353,-100,4,2,1,70,0,0
30612,-100,4,2,1,5,0,0
30698,-100,4,2,1,70,0,0
33716,-100,4,2,1,5,0,0
33802,-100,4,2,1,70,0,0
35785,-100,4,2,1,5,0,0
35871,-100,4,2,1,70,0,0
36129,-100,4,2,1,5,0,0
36216,-100,4,2,1,70,0,0
38543,-100,4,2,1,5,0,0
38629,-100,4,2,1,70,0,0
39233,-100,4,2,1,5,0,0
39319,-100,4,2,1,70,0,0
41302,-100,4,2,1,5,0,0
41388,-100,4,2,1,70,0,0
54836,-100,4,2,1,5,0,0
55526,-100,4,2,1,80,0,0
56216,-100,4,2,1,80,0,0
57078,-100,4,2,1,80,0,0
58285,-100,4,2,1,80,0,0
58974,-100,4,2,1,80,0,0
59836,-100,4,2,1,80,0,0
66560,-100,4,2,1,80,0,1
68802,-100,4,2,1,80,0,1
69319,-100,4,2,1,80,0,1
70009,-100,4,2,1,80,0,1
72078,-100,4,2,1,80,0,1
79836,-100,4,2,1,80,0,1
80354,-100,4,2,1,80,0,1
81043,-100,4,2,1,80,0,1
83112,-100,4,2,1,80,0,1
85871,-100,4,2,1,80,0,0
86129,-100,4,2,1,5,0,0
86216,-100,4,2,1,80,0,0
86302,-100,4,2,1,5,0,0
86388,-100,4,2,1,80,0,0
86647,-100,4,2,1,5,0,0
86733,-100,4,2,1,80,0,0
86819,-100,4,2,1,5,0,0
86905,-100,4,2,1,80,0,0
86991,-100,4,2,1,5,0,0
87078,-100,4,2,1,80,0,0
87164,-100,4,2,1,5,0,0
87250,-100,4,2,1,80,0,0
88629,-100,4,2,1,80,0,1
90871,-100,4,2,1,80,0,1
91388,-100,4,2,1,80,0,1
92078,-100,4,2,1,80,0,1
101905,-100,4,2,1,80,0,1
102422,-100,4,2,1,80,0,1
107940,-100,4,2,1,80,0,0
108198,-100,4,2,1,5,0,0
108285,-100,4,2,1,80,0,0
108371,-100,4,2,1,5,0,0
108457,-100,4,2,1,80,0,0
108716,-100,4,2,1,5,0,0
108802,-100,4,2,1,80,0,0
108888,-100,4,2,1,5,0,0
108974,-100,4,2,1,80,0,0
109060,-100,4,2,1,5,0,0
109147,-100,4,2,1,80,0,0
109233,-100,4,2,1,5,0,0
109319,-100,4,2,1,80,0,0
110698,-100,4,2,1,80,0,0
132767,-100,4,2,1,50,0,0
134147,-100,4,2,1,10,0,0
134836,-100,4,2,1,50,0,0
136905,-100,4,2,1,10,0,0
137595,-100,4,2,1,50,0,0
145181,-100,4,2,1,10,0,0
145871,-100,4,2,1,50,0,0
147940,-100,4,2,1,10,0,0
148629,-100,4,2,1,50,0,0

[Colours]
Combo1 : 157,157,157
Combo2 : 153,77,77
Combo3 : 140,0,0
Combo4 : 149,149,74

[HitObjects]
256,192,19664,12,0,21733,0:0:0:0:
92,108,22422,6,0,L|196:100,1,100,4|0,0:1|0:0,0:0:0:0:
244,100,22940,1,0,0:0:0:0:
280,136,23112,2,0,P|296:172|289:224,2,75,8|0|0,0:0|0:0|0:0,0:0:0:0:
196,192,23974,2,0,P|164:200|140:200,2,50
224,236,24491,2,0,L|228:352,1,100,8|0,0:0|0:0,0:0:0:0:
328,352,25181,6,0,L|324:252,1,100,4|0,0:1|0:0,0:0:0:0:
352,212,25698,1,0,0:0:0:0:
396,188,25871,2,0,L|492:184,2,75,8|0|0,0:0|0:0|0:0,0:0:0:0:
324,116,26733,2,0,P|316:88|316:64,2,50,0|0|0,0:0|0:0|0:0,0:0:0:0:
280,140,27250,2,0,L|180:143,1,100,8|0,0:0|0:0,0:0:0:0:
128,148,27767,1,0,0:0:0:0:
80,152,27940,6,0,P|64:200|72:252,1,100,4|0,0:1|0:0,0:0:0:0:
96,292,28457,1,0,0:0:0:0:
140,316,28629,2,0,B|168:308|168:308|224:312,2,75,8|0|0,0:0|0:0|0:0,0:0:0:0:
172,220,29491,2,0,L|232:224,2,50,0|0|0,0:0|0:0|0:0,0:0:0:0:
140,180,30009,2,0,P|128:132|152:72,1,100,8|0,0:0|0:0,0:0:0:0:
232,44,30698,6,0,L|344:48,1,100,4|0,0:1|0:0,0:0:0:0:
424,84,31388,2,0,P|404:116|352:144,2,75,8|0|0,0:0|0:0|0:0,0:0:0:0:
460,228,32422,2,0,P|420:240|344:232,2,100,0|8|0,0:0|0:0|0:0,0:0:0:0:
472,328,33457,6,0,P|424:340|364:336,1,100,4|0,0:3|0:0,0:0:0:0:
328,324,33974,1,0,0:0:0:0:
280,312,34147,2,0,P|252:308|196:328,2,75,8|0|0,0:0|0:0|0:0,0:0:0:0:
332,224,35009,1,0,0:0:0:0:
332,224,35181,2,0,L|336:168,1,50,0|0,0:0|0:0,0:0:0:0:
308,132,35526,2,0,P|260:144|200:128,1,100,8|0,0:0|0:0,0:0:0:0:
160,47,36216,6,0,P|124:80|112:144,1,100,4|0,0:1|0:0,0:0:0:0:
148,220,36905,2,0,P|112:228|56:208,2,75,8|0|0,0:0|0:0|0:0,0:0:0:0:
248,204,37767,1,0,0:0:0:0:
248,204,37940,2,0,P|274:208|304:208,1,50,0|0,0:0|0:0,0:0:0:0:
348,208,38285,2,0,P|360:256|344:316,1,100,8|0,0:0|0:0,0:0:0:0:
328,348,38802,1,0,0:0:0:0:
284,372,38974,6,0,P|232:360|176:376,1,100,4|0,0:1|0:0,0:0:0:0:
136,360,39491,1,0,0:0:0:0:
88,348,39664,2,0,P|52:345|5:314,2,75,8|0|0,0:0|0:0|0:0,0:0:0:0:
79,250,40526,2,0,P|112:252|136:264,2,50,0|0|0,0:0|0:0|0:0,0:0:0:0:
44,216,41043,2,0,L|36:100,1,100,8|0,0:0|0:0,0:0:0:0:
128,76,41733,6,0,L|134:175,1,100,4|0,0:1|0:0,0:0:0:0:
224,136,42422,2,0,L|218:41,2,75,8|0|0,0:0|0:0|0:0,0:0:0:0:
336,236,43457,2,0,B|368:240|368:240|400:232|400:232|448:240,2,100,0|8|0,0:0|0:0|0:0,0:0:0:0:
240,232,44491,5,4,0:3:0:0:
256,192,52767,12,0,54836,0:0:0:0:
80,96,55526,6,0,L|144:100,1,50,2|0,1:3|0:0,0:0:0:0:
228,100,56043,1,2,0:3:0:0:
328,100,56388,2,0,L|392:96,1,50,2|0,0:3|1:0,0:0:0:0:
428,184,56905,1,0,1:0:0:0:
400,228,57078,2,0,L|280:232,2,100,2|2|0,0:3|0:3|0:0,0:0:0:0:
436,260,57940,1,0,1:3:0:0:
380,344,58285,6,0,L|311:347,1,50,2|0,1:3|0:0,0:0:0:0:
236,311,58802,1,2,0:3:0:0:
140,344,59147,2,0,L|71:341,1,50,2|0,0:3|1:3,0:0:0:0:
44,252,59664,1,0,1:0:0:0:
68,208,59836,2,0,B|56:156|56:156|64:104,2,100,2|2|0,0:3|0:3|0:0,0:0:0:0:
116,220,60698,1,0,1:0:0:0:
196,164,61043,6,0,P|248:156|304:184,1,100,2|0,0:3|1:0,0:0:0:0:
383,131,61733,2,0,P|392:180|376:227,1,100,2|0,0:3|1:0,0:0:0:0:
416,320,62422,2,0,P|364:328|304:297,1,100,2|0,0:3|1:0,0:0:0:0:
228,352,63112,2,0,P|220:300|251:240,1,100,2|0,0:3|1:0,0:0:0:0:
256,192,63802,12,2,65181,0:0:0:0:
116,112,66560,6,0,B|144:120|168:112|168:112|192:104|220:112,1,100,4|0,0:1|0:0,0:0:0:0:
280,188,67250,2,0,L|276:240,2,50,0|0|0,1:0|0:0|0:0,0:0:0:0:
352,116,67940,2,0,L|356:64,2,50,2|0|0,0:3|0:0|0:0,0:0:0:0:
408,200,68629,1,0,1:0:0:0:
404,250,68802,2,0,L|400:302,2,50,0|0|0,0:0|0:0|0:0,0:0:0:0:
364,220,69319,6,0,P|316:208|260:224,1,100,4|0,0:1|0:0,0:0:0:0:
176,260,70009,2,0,P|127:271|79:259,1,100,0|0,1:0|0:0,0:0:0:0:
52,220,70526,1,0,0:0:0:0:
40,172,70698,2,0,L|44:120,1,50,2|0,0:3|0:0,0:0:0:0:
92,104,71043,2,0,L|88:52,1,50,0|0,0:0|0:0,0:0:0:0:
128,20,71388,2,0,P|176:32|240:16,1,100,0|0,1:0|0:0,0:0:0:0:
325,16,72078,6,0,L|321:128,1,100,4|0,0:1|0:0,0:0:0:0:
376,200,72767,2,0,L|436:204,2,50,0|0|0,1:0|0:0|0:0,0:0:0:0:
276,208,73457,2,0,L|216:204,2,50,2|0|0,0:3|0:0|0:0,0:0:0:0:
332,292,74147,1,0,1:0:0:0:
371,325,74319,2,0,L|431:329,2,50,0|0|0,0:0|0:0|0:0,0:0:0:0:
324,344,74836,6,0,L|208:336,1,100,4|0,0:1|0:0,0:0:0:0:
136,292,75526,1,0,1:0:0:0:
136,292,75698,2,0,P|116:248|136:184,1,100,0|0,0:0|0:0,0:0:0:0:
164,164,76216,2,0,L|263:170,1,100,2|0,0:3|0:0,0:0:0:0:
272,72,76905,2,0,L|172:65,1,100,0|0,1:0|0:0,0:0:0:0:
80,104,77595,6,0,P|62:164|81:219,1,100,4|0,0:1|0:0,0:0:0:0:
148,264,78285,2,0,P|148:288|144:320,2,50,0|0|0,1:0|0:0|0:0,0:0:0:0:
212,188,78974,2,0,P|212:164|216:132,2,50,2|0|0,0:3|0:0|0:0,0:0:0:0:
276,268,79664,1,0,1:0:0:0:
307,308,79836,2,0,P|307:332|303:364,2,50,0|0|0,0:0|0:0|0:0,0:0:0:0:
324,260,80354,6,0,B|368:252|368:252|432:260,1,100,4|0,0:1|0:0,0:0:0:0:
436,160,81043,2,0,B|381:154|381:154|339:136,1,100,0|0,1:0|0:0,0:0:0:0:
296,112,81560,1,0,0:0:0:0:
252,88,81733,2,0,P|208:84|184:88,1,50,2|0,0:3|0:0,0:0:0:0:
156,104,82078,2,0,P|112:108|88:104,1,50,0|0,0:0|0:0,0:0:0:0:
56,112,82422,2,0,B|60:156|60:156|56:224,1,100,0|0,1:0|0:0,0:0:0:0:
112,296,83112,6,0,P|152:320|224:312,1,100,4|0,0:1|0:0,0:0:0:0:
180,224,83802,2,0,P|176:200|180:164,2,50,0|0|0,1:0|0:0|0:0,0:0:0:0:
276,248,84491,2,0,P|280:272|276:312,2,50,2|0|0,0:3|0:0|0:0,0:0:0:0:
324,160,85181,1,0,1:0:0:0:
353,119,85354,2,0,P|349:95|353:59,2,50,0|0|0,0:0|0:0|0:0,0:0:0:0:
376,164,85871,6,0,B|408:172|408:172|484:168,1,100,0|2,0:0|0:0,0:0:0:0:
468,269,86560,2,0,B|400:273|400:273|352:257,1,100,0|2,0:0|0:0,0:0:0:0:
268,260,87250,2,0,B|237:270|237:270|169:266,1,100,0|2,0:0|0:0,0:0:0:0:
100,192,87940,1,0,1:0:0:0:
100,192,88629,6,0,P|88:144|112:84,1,100,4|0,0:1|0:0,0:0:0:0:
192,48,89319,2,0,P|232:48|252:40,2,50,0|0|0,1:0|0:0|0:0,0:0:0:0:
188,148,90009,2,0,P|188:188|196:208,2,50,2|0|0,0:3|0:0|0:0,0:0:0:0:
284,168,90698,1,0,1:0:0:0:
321,135,90871,2,0,P|321:95|313:75,2,50,0|0|0,0:0|0:0|0:0,0:0:0:0:
328,184,91388,6,0,P|372:208|440:192,1,100,4|0,0:1|0:0,0:0:0:0:
460,176,91905,1,0,0:0:0:0:
480,128,92078,2,0,L|484:20,1,100,0|0,1:0|0:0,0:0:0:0:
384,8,92767,2,0,L|387:107,1,100,2|0,0:3|0:0,0:0:0:0:
340,120,93285,1,2,3:0:0:0:
292,132,93457,2,0,L|295:32,1,100,0|0,1:0|0:0,0:0:0:0:
198,60,94147,6,0,P|150:68|90:48,1,100,4|0,0:1|0:0,0:0:0:0:
36,132,94836,2,0,L|32:192,2,50,0|0|0,1:0|0:0|0:0,0:0:0:0:
128,168,95526,2,0,L|124:228,2,50,2|0|0,0:3|0:0|0:0,0:0:0:0:
220,204,96216,1,0,1:0:0:0:
263,178,96388,2,0,L|267:118,2,50,0|0|0,0:0|0:0|0:0,0:0:0:0:
264,228,96905,6,0,B|296:240|296:240|372:232,1,100,4|0,0:1|0:0,0:0:0:0:
432,160,97595,1,0,1:0:0:0:
432,160,97767,2,0,P|444:112|428:56,1,100,0|0,0:0|0:0,0:0:0:0:
384,48,98285,2,0,B|356:52|356:52|312:44|312:44|284:48,1,100,2|0,0:3|0:0,0:0:0:0:
184,48,98974,2,0,B|156:44|156:44|112:52|112:52|84:48,1,100,0|0,1:0|0:0,0:0:0:0:
20,124,99664,6,0,P|8:176|32:232,1,100,4|0,0:1|0:0,0:0:0:0:
108,168,100354,2,0,L|160:164,2,50,0|0|0,1:0|0:0|0:0,0:0:0:0:
108,268,101043,2,0,L|112:320,2,50,2|0|0,0:3|0:0|0:0,0:0:0:0:
204,296,101733,1,0,1:0:0:0:
250,318,101905,2,0,L|253:367,2,50,0|0|0,0:0|0:0|0:0,0:0:0:0:
284,280,102422,6,0,P|332:264|388:276,1,100,4|0,0:1|0:0,0:0:0:0:
440,192,103112,2,0,L|444:84,1,100,0|0,1:0|0:0,0:0:0:0:
352,48,103802,2,0,L|356:156,1,100,2|0,0:3|0:0,0:0:0:0:
308,164,104319,1,2,3:0:0:0:
260,180,104491,2,0,L|264:72,1,100,0|0,1:0|0:0,0:0:0:0:
168,48,105181,6,0,B|116:48|116:48|60:72,1,100,4|0,0:1|0:0,0:0:0:0:
28,156,105871,2,0,L|32:208,2,50,0|0|0,1:0|0:0|0:0,0:0:0:0:
122,187,106560,2,0,L|126:239,2,50,2|0|0,0:3|0:0|0:0,0:0:0:0:
216,156,107250,1,0,1:0:0:0:
258,127,107422,2,0,L|254:77,2,50,0|0|0,0:0|0:0|0:0,0:0:0:0:
300,156,107940,6,0,L|400:152,1,100,0|2,0:0|0:0,0:0:0:0:
464,228,108629,2,0,P|478:281|459:341,1,100,0|2,0:0|0:0,0:0:0:0:
380,280,109319,2,0,B|340:272|308:288|308:288|276:304|228:288,2,150,2|2|2,0:0|0:0|1:2,0:0:0:0:
464,228,110698,6,0,B|472:180|472:180|464:128,1,100,4|0,0:1|0:0,0:0:0:0:
368,108,111388,2,0,L|380:192,2,75,0|0|0,1:0|0:0|0:0,0:0:0:0:
279,62,112250,2,0,L|271:10,2,50,0|0|0,0:0|0:0|0:0,0:0:0:0:
252,104,112767,2,0,P|204:120|144:108,1,100,0|0,1:0|0:0,0:0:0:0:
68,64,113457,6,0,P|56:112|72:168,1,100,4|0,0:1|0:0,0:0:0:0:
156,208,114147,2,0,L|240:204,2,75,0|0|0,1:0|0:0|0:0,0:0:0:0:
76,272,115009,2,0,L|4:276,2,50,0|0|2,0:0|0:0|0:3,0:0:0:0:
112,308,115526,2,0,L|224:304,1,100,0|0,1:0|0:0,0:0:0:0:
260,300,116043,1,2,0:3:0:0:
307,292,116216,6,0,P|328:246|325:197,1,100,4|0,0:1|0:0,0:0:0:0:
404,136,116905,2,0,P|372:108|320:96,2,75,0|0|0,1:0|0:0|0:0,0:0:0:0:
452,224,117767,2,0,P|480:232|512:232,2,50,0|0|0,0:0|0:0|0:0,0:0:0:0:
408,252,118285,2,0,P|412:304|392:356,1,100,0|0,1:0|0:0,0:0:0:0:
296,360,118974,6,0,L|192:364,1,100,4|0,0:1|0:0,0:0:0:0:
204,264,119664,2,0,L|296:260,2,75,0|0|0,1:0|0:0|0:0,0:0:0:0:
184,116,120698,2,0,L|283:112,2,100,0|0|0,0:0|1:0|0:0,0:0:0:0:
100,172,121733,6,0,P|80:236|96:284,1,100,4|0,0:1|0:0,0:0:0:0:
160,336,122422,2,0,P|128:360|72:364,2,75,0|0|0,1:0|0:0|0:0,0:0:0:0:
244,284,123285,2,0,P|256:320|256:344,2,50,0|0|0,0:0|0:0|0:0,0:0:0:0:
220,240,123802,2,0,P|204:196|220:132,1,100,0|0,1:0|0:0,0:0:0:0:
296,88,124491,6,0,L|400:83,1,100,4|0,0:1|0:0,0:0:0:0:
389,183,125181,2,0,L|314:186,2,75,0|0|0,1:0|0:0|0:0,0:0:0:0:
382,283,126043,2,0,L|310:286,2,50,0|0|2,0:0|0:0|0:3,0:0:0:0:
432,276,126560,2,0,P|472:248|492:200,1,100,0|0,1:0|0:0,0:0:0:0:
488,152,127078,1,2,0:3:0:0:
484,104,127250,6,0,B|436:112|436:112|376:104,1,100,4|0,0:1|0:0,0:0:0:0:
300,56,127940,2,0,P|288:104|296:144,2,75,0|0|0,1:0|0:0|0:0,0:0:0:0:
200,48,128802,2,0,P|156:44|140:48,2,50,0|0|0,0:0|0:0|0:0,0:0:0:0:
208,96,129319,2,0,P|208:132|232:192,1,100,0|0,1:0|0:0,0:0:0:0:
320,232,130009,6,0,L|424:228,1,100,4|0,0:1|0:0,0:0:0:0:
412,328,130698,2,0,L|332:332,2,75,0|0|0,1:0|0:0|0:0,0:0:0:0:
419,228,131560,1,0,0:0:0:0:
440,180,131733,2,0,B|444:144|444:144|436:116|436:116|440:76,2,100,0|0|0,0:0|1:0|1:0,0:0:0:0:
344,156,132767,6,0,B|336:124|336:124|344:60|344:60|288:68|248:32|248:32|260:96|206:127|206:127|164:104|112:124,1,400,4|0,0:3|0:0,0:0:0:0:
0,277,134836,2,0,L|4:326,2,50,2|0|0,0:0|0:0|0:0,0:0:0:0:
41,249,135354,6,0,B|50:366|50:366|83:356|117:378|117:378|159:390|190:366|190:366|226:332|237:287|204:241|141:261|143:309,1,450
253,139,137595,2,0,L|256:89,2,50,2|0|0,0:0|0:0|0:0,0:0:0:0:
266,187,138112,1,0,0:0:0:0:
266,187,139319,5,2,0:0:0:0:
266,187,141043,6,0,B|218:197|218:197|178:165|122:173|122:173|150:217|154:269|154:269|118:265|94:289,2,300,2|2|2,0:0|0:0|0:0,0:0:0:0:
266,187,143802,6,0,B|328:188|348:122|348:122|412:162|468:114|468:114|484:42|484:42|443:61|399:52,1,400,4|0,0:3|0:0,0:0:0:0:
208,42,145871,2,0,L|159:39,2,50,2|0|0,0:0|0:0|0:0,0:0:0:0:
257,47,146388,6,0,B|270:87|250:130|208:148|208:148|231:216|304:222|304:222|265:295|265:295|214:338|155:323,1,450
46,160,148629,2,0,L|41:100,2,50,2|0|0,0:0|0:0|0:0,0:0:0:0:
39,210,149147,1,0,0:0:0:0:
39,210,150354,5,2,0:0:0:0:
39,210,152078,6,0,B|94:227|138:191|138:191|190:219|234:195|234:195|278:171|330:195,2,300,2|2|2,0:0|0:0|0:0,0:0:0:0:
196,86,154836,5,4,0:3:0:0:
