osu file format v14

[General]
AudioFilename: audio.mp3
AudioLeadIn: 0
PreviewTime: 34966
Countdown: 0
SampleSet: Soft
StackLeniency: 0.5
Mode: 0
LetterboxInBreaks: 0
WidescreenStoryboard: 0

[Editor]
Bookmarks: 17447,52363,122239,139693,209511,244420
DistanceSpacing: 0.9
BeatDivisor: 2
GridSize: 4
TimelineZoom: 2

[Metadata]
Title:Aspiration
TitleUnicode:Aspiration
Artist:Teminite
ArtistUnicode:Teminite
Creator:pappl e 104
Version:Desire
Source:
Tags:
BeatmapID:1545028
BeatmapSetID:729038

[Difficulty]
HPDrainRate:6.5
CircleSize:4.5
OverallDifficulty:7.7
ApproachRate:8.5
SliderMultiplier:2
SliderTickRate:1

[Events]
//Background and Video events
0,0,"bg.png",0,0
//Break Periods
2,17711,34291
2,122438,139018
//Storyboard Layer 0 (Background)
//Storyboard Layer 1 (Fail)
//Storyboard Layer 2 (Pass)
//Storyboard Layer 3 (Foreground)
//Storyboard Sound Samples

[TimingPoints]
57,545.454545454546,4,2,1,60,1,0
57,-133.333333333333,4,2,1,60,0,0
34966,-100,4,2,1,100,0,1
52420,-100,4,2,2,100,0,1
52557,-100,4,2,2,25,0,1
52693,-100,4,2,2,100,0,1
53102,-100,4,2,2,25,0,1
53239,-100,4,2,2,100,0,1
53648,-100,4,2,2,25,0,1
53784,-100,4,2,2,100,0,1
55693,-100,4,2,2,25,0,1
55830,-100,4,2,2,100,0,1
55966,-100,4,2,2,25,0,1
56102,-100,4,2,2,100,0,1
56920,-100,4,2,2,25,0,1
57057,-100,4,2,2,100,0,1
57466,-100,4,2,2,25,0,1
57602,-100,4,2,2,100,0,1
58011,-100,4,2,2,25,0,1
58148,-100,4,2,2,100,0,1
60057,-100,4,2,2,25,0,1
60193,-100,4,2,2,100,0,1
60330,-100,4,2,2,25,0,1
60466,-100,4,2,2,100,0,1
61284,-100,4,2,2,25,0,1
61420,-100,4,2,2,100,0,1
61830,-100,4,2,2,25,0,1
61966,-100,4,2,2,100,0,1
62375,-100,4,2,2,25,0,1
62511,-100,4,2,2,100,0,1
64420,-100,4,2,2,25,0,1
64557,-100,4,2,2,100,0,1
64693,-100,4,2,2,25,0,1
64830,-100,4,2,2,100,0,1
65648,-100,4,2,2,25,0,1
65784,-100,4,2,2,100,0,1
66193,-100,4,2,2,25,0,1
66330,-100,4,2,2,100,0,1
66739,-100,4,2,2,25,0,1
66875,-100,4,2,2,100,0,1
68784,-100,4,2,2,25,0,1
68920,-100,4,2,2,100,0,1
69057,-100,4,2,2,25,0,1
69193,-100,4,2,2,100,0,1
69875,-147.058823529412,4,2,1,60,0,0
70966,-100,4,2,1,60,0,0
72057,-100,4,2,1,100,0,1
87330,-100,4,2,2,70,0,0
104784,-100,4,2,1,80,0,0
109011,-100,4,2,1,20,0,0
109148,-100,4,2,1,80,0,0
113511,-100,4,2,1,90,0,0
117739,-100,4,2,1,20,0,0
117875,-100,4,2,1,90,0,0
139693,-125,4,2,2,35,0,0
157148,-125,4,2,2,50,0,0
157966,-125,4,2,2,10,0,0
158239,-125,4,2,2,50,0,0
158511,-125,4,2,2,10,0,0
158784,-125,4,2,2,50,0,0
159057,-125,4,2,2,10,0,0
159330,-125,4,2,2,50,0,0
160148,-125,4,2,2,10,0,0
160420,-125,4,2,2,50,0,0
160693,-125,4,2,2,10,0,0
160966,-125,4,2,2,50,0,0
161239,-125,4,2,2,10,0,0
161511,-125,4,2,2,50,0,0
162330,-125,4,2,2,10,0,0
162602,-125,4,2,2,50,0,0
162875,-125,4,2,2,10,0,0
163148,-125,4,2,2,50,0,0
163420,-125,4,2,2,10,0,0
163693,-125,4,2,2,50,0,0
164511,-125,4,2,2,10,0,0
164784,-125,4,2,2,50,0,0
165057,-125,4,2,2,10,0,0
165330,-125,4,2,2,50,0,0
165602,-125,4,2,2,10,0,0
165875,-125,4,2,1,50,0,0
174602,-100,4,2,1,100,0,1
209511,-100,4,2,2,100,0,1
209648,-100,4,2,2,25,0,1
209784,-100,4,2,2,100,0,1
210193,-100,4,2,2,25,0,1
210330,-100,4,2,2,100,0,1
210739,-100,4,2,2,25,0,1
210875,-100,4,2,2,100,0,1
212784,-100,4,2,2,25,0,1
212921,-100,4,2,2,100,0,1
213057,-100,4,2,2,25,0,1
213193,-100,4,2,2,100,0,1
214011,-100,4,2,2,25,0,1
214148,-100,4,2,2,100,0,1
214557,-100,4,2,2,25,0,1
214693,-100,4,2,2,100,0,1
215102,-100,4,2,2,25,0,1
215239,-100,4,2,2,100,0,1
217148,-100,4,2,2,25,0,1
217284,-100,4,2,2,100,0,1
217421,-100,4,2,2,25,0,1
217557,-100,4,2,2,100,0,1
218375,-100,4,2,2,25,0,1
218511,-100,4,2,2,100,0,1
218921,-100,4,2,2,25,0,1
219057,-100,4,2,2,100,0,1
219466,-100,4,2,2,25,0,1
219602,-100,4,2,2,100,0,1
221511,-100,4,2,2,25,0,1
221648,-100,4,2,2,100,0,1
221784,-100,4,2,2,25,0,1
221921,-100,4,2,2,100,0,1
222739,-100,4,2,2,25,0,1
222875,-100,4,2,2,100,0,1
223284,-100,4,2,2,25,0,1
223421,-100,4,2,2,100,0,1
223830,-100,4,2,2,25,0,1
223966,-100,4,2,2,100,0,1
225875,-100,4,2,2,25,0,1
226011,-100,4,2,2,100,0,1
226148,-100,4,2,2,25,0,1
226284,-100,4,2,2,100,0,1
226966,-166.666666666667,4,2,1,60,0,0
229148,-100,4,2,1,100,0,1
229966,-100,4,2,2,100,0,1
231330,-100,4,2,1,100,0,1
232284,-100,4,2,2,100,0,1
235693,-100,4,2,1,100,0,1
236239,-100,4,2,2,100,0,1
236784,-100,4,2,1,100,0,1
236920,-100,4,2,2,100,0,1
237875,-100,4,2,1,100,0,1
238830,-100,4,2,2,100,0,1
238966,-100,4,2,1,100,0,1
240602,-100,4,2,2,100,0,1
241148,-100,4,2,1,100,0,1
241693,-100,4,2,2,100,0,1
242239,-100,4,2,1,100,0,1
243057,-100,4,2,2,100,0,1
244420,-100,4,2,1,100,0,1
261602,-100,4,2,1,100,0,0

[Colours]
Combo1 : 0,128,255
Combo2 : 132,104,242
Combo3 : 210,210,210
Combo4 : 0,210,210

[HitObjects]
451,257,57,5,6,0:0:0:0:
419,141,330,2,0,L|435:201,1,37.5000014305115
351,129,602,2,0,P|311:137|263:137,1,75.0000028610231
143,133,1148,1,2,0:0:0:0:
263,285,1557,1,0,0:0:0:0:
334,105,1966,1,0,0:0:0:0:
455,157,2239,6,0,P|423:173|371:177,1,75.0000028610231,2|0,0:0|0:0,0:0:0:0:
335,173,2648,1,0,0:0:0:0:
287,185,2784,2,0,L|263:269,1,75.0000028610231
227,369,3330,1,2,0:0:0:0:
75,281,3739,1,0,0:0:0:0:
171,209,4011,1,0,0:0:0:0:
175,201,4148,2,0,L|195:149,1,37.5000014305115
219,97,4420,5,2,0:0:0:0:
279,233,4693,2,0,L|279:297,1,37.5000014305115
307,169,4966,2,0,P|351:141|403:149,1,75.0000028610231
423,297,5511,1,2,0:0:0:0:
270,152,5920,1,0,0:0:0:0:
139,313,6330,1,0,0:0:0:0:
207,189,6602,6,0,P|239:161|287:153,1,75.0000028610231,2|0,0:0|0:0,0:0:0:0:
339,145,7011,1,0,0:0:0:0:
408,137,7148,2,0,P|443:125|470:100,1,75.0000028610231
455,225,7693,1,2,0:0:0:0:
447,289,7830,2,0,L|435:385,1,75.0000028610231
325,279,8375,1,0,0:0:0:0:
308,217,8511,2,0,L|292:141,1,75.0000028610231,0|6,0:0|0:0,0:0:0:0:
167,81,9057,6,0,P|143:77|115:65,1,37.5000014305115
199,141,9330,2,0,P|203:185|195:229,1,75.0000028610231
103,341,9875,1,2,0:0:0:0:
127,149,10284,1,0,0:0:0:0:
311,81,10693,1,0,0:0:0:0:
399,169,10966,6,0,P|399:221|407:277,1,75.0000028610231,2|0,0:0|0:0,0:0:0:0:
415,305,11375,1,0,0:0:0:0:
440,363,11511,1,0,0:0:0:0:
287,221,11784,1,0,0:0:0:0:
211,313,12057,2,0,P|159:345|87:353,1,112.500004291535,2|0,0:0|0:0,0:0:0:0:
121,177,12739,1,0,0:0:0:0:
122,152,12875,1,0,0:0:0:0:
124,127,13011,1,0,0:0:0:0:
126,102,13148,6,0,P|167:97|219:77,1,75.0000028610231,2|0,0:0|0:0,0:0:0:0:
263,65,13557,1,0,0:0:0:0:
320,101,13693,2,0,P|355:112|392:116,1,75.0000028610231
443,289,14239,1,2,0:0:0:0:
256,124,14648,1,0,0:0:0:0:
257,129,15057,1,0,0:0:0:0:
139,213,15330,6,0,L|147:293,1,75.0000028610231,2|0,0:0|0:0,0:0:0:0:
222,240,15739,1,0,0:0:0:0:
223,249,15875,2,0,L|231:329,1,75.0000028610231
267,197,16420,1,2,0:0:0:0:
320,155,16557,2,0,P|364:135|420:131,1,75.0000028610231
175,201,17102,1,0,0:0:0:0:
143,141,17239,2,0,P|133:101|129:49,1,75.0000028610231,0|6,0:0|0:0,0:0:0:0:
207,301,34966,5,6,0:0:0:0:
255,200,35239,2,0,L|247:256,1,50
175,245,35511,2,0,L|159:140,1,100
303,85,36057,2,0,P|359:81|411:45,1,100,2|0,0:0|0:0,0:0:0:0:
447,17,36466,1,0,0:0:0:0:
447,17,36602,1,0,0:0:0:0:
411,245,36875,1,0,0:0:0:0:
251,201,37148,6,0,P|199:197|151:225,1,100,2|0,0:0|0:0,0:0:0:0:
107,265,37557,1,0,0:0:0:0:
107,265,37693,2,0,L|99:157,1,100
258,101,38239,2,0,L|250:209,1,100,2|0,0:0|0:0,0:0:0:0:
223,273,38648,2,0,L|171:297,1,50
311,321,38920,1,0,0:0:0:0:
311,321,39057,2,0,L|363:345,1,50
423,373,39330,6,0,P|431:313|407:253,1,100,2|0,0:0|0:0,0:0:0:0:
395,213,39739,1,0,0:0:0:0:
369,150,39875,2,0,P|357:101|366:52,1,100
395,213,40420,2,0,P|339:213|303:161,1,100,2|0,0:0|0:0,0:0:0:0:
285,120,40830,1,0,0:0:0:0:
285,120,40966,1,0,0:0:0:0:
223,273,41239,1,0,0:0:0:0:
143,109,41511,6,0,P|135:57|135:9,1,100,2|0,0:0|0:0,0:0:0:0:
211,49,41920,1,0,0:0:0:0:
219,115,42057,2,0,P|199:161|151:185,1,100
35,75,42602,1,2,0:0:0:0:
101,82,42739,2,0,P|124:92|143:109,1,50
152,223,43011,2,0,P|149:198|154:173,1,50
249,108,43284,1,0,0:0:0:0:
249,108,43420,2,0,P|229:122|205:130,1,50
292,59,43693,6,0,P|347:77|375:121,1,100,6|0,0:0|0:0,0:0:0:0:
435,205,44102,1,0,0:0:0:0:
435,205,44239,2,0,L|451:93,1,100
292,59,44784,2,0,L|306:157,1,100,2|0,0:0|0:0,0:0:0:0:
315,223,45193,1,0,0:0:0:0:
325,290,45329,1,0,0:0:0:0:
204,130,45602,1,0,0:0:0:0:
81,256,45875,6,0,L|179:241,1,100,2|0,0:0|0:0,0:0:0:0:
252,270,46284,1,0,0:0:0:0:
325,290,46420,2,0,P|379:301|423:345,1,100
252,270,46966,2,0,P|263:215|307:172,1,100,2|0,0:0|0:0,0:0:0:0:
363,153,47375,2,0,L|415:145,1,50
263,109,47648,1,0,0:0:0:0:
263,109,47784,2,0,L|211:117,1,50
115,153,48057,6,0,P|107:209|123:269,1,100,2|0,0:0|0:0,0:0:0:0:
157,310,48466,1,0,0:0:0:0:
216,268,48602,2,0,L|316:248,1,100
467,100,49148,2,0,P|425:126|390:181,1,100,2|0,0:0|0:0,0:0:0:0:
381,233,49557,1,0,0:0:0:0:
381,233,49693,1,0,0:0:0:0:
247,157,49966,1,0,0:0:0:0:
136,321,50239,6,0,P|191:299|223:243,1,100,2|0,0:0|0:0,0:0:0:0:
239,204,50648,1,0,0:0:0:0:
307,208,50784,2,0,P|362:186|394:130,1,100
220,86,51330,1,2,0:0:0:0:
220,86,51466,2,0,L|230:149,1,50
314,158,51739,2,0,L|304:221,1,50
220,230,52011,1,0,0:0:0:0:
220,230,52148,2,0,L|230:293,1,50
314,302,52420,6,0,L|377:312,1,50,6|0,0:0|0:0,0:0:0:0:
303,233,52693,2,0,L|354:195,1,50,2|0,0:0|0:0,0:0:0:0:
248,193,52966,2,0,L|258:130,1,50,2|0,0:0|0:0,0:0:0:0:
207,68,53239,1,0,0:0:0:0:
207,68,53375,1,0,0:0:0:0:
120,45,53512,2,0,L|57:35,1,50,2|0,0:0|0:0,0:0:0:0:
131,114,53785,2,0,L|80:152,1,50,2|0,0:0|0:0,0:0:0:0:
186,154,54057,2,0,L|167:269,1,100
395,341,54602,6,0,L|414:226,1,100,2|0,0:0|0:0,0:0:0:0:
427,153,55011,1,0,0:0:0:0:
427,153,55148,2,0,P|375:153|335:113,1,100,2|0,0:0|0:0,0:0:0:0:
295,65,55557,2,0,L|243:57,1,50,2|0,0:0|0:0,0:0:0:0:
170,118,55830,2,0,L|120:137,1,50,2|0,0:0|0:0,0:0:0:0:
46,193,56102,1,0,0:0:0:0:
91,243,56239,1,0,0:0:0:0:
156,258,56375,1,0,0:0:0:0:
220,239,56511,1,0,0:0:0:0:
268,193,56648,1,0,0:0:0:0:
287,129,56784,6,0,L|295:65,1,50,2|0,0:0|0:0,0:0:0:0:
332,177,57057,2,0,L|340:241,1,50,2|0,0:0|0:0,0:0:0:0:
377,129,57330,2,0,L|385:65,1,50,2|0,0:0|0:0,0:0:0:0:
349,293,57602,1,0,0:0:0:0:
349,293,57739,1,0,0:0:0:0:
349,293,57875,2,0,L|285:301,1,50,2|0,0:0|0:0,0:0:0:0:
399,249,58148,2,0,L|463:257,1,50,2|0,0:0|0:0,0:0:0:0:
336,228,58420,2,0,P|287:205|263:145,1,100,2|0,0:0|0:0,0:0:0:0:
119,57,58966,6,0,L|103:177,1,100,2|0,0:0|0:0,0:0:0:0:
176,215,59375,1,0,0:0:0:0:
252,265,59511,2,0,L|268:145,1,100,2|0,0:0|0:0,0:0:0:0:
363,57,59920,2,0,P|399:53|439:61,1,50,2|0,0:0|0:0,0:0:0:0:
314,163,60193,2,0,P|278:167|238:159,1,50,2|0,0:0|0:0,0:0:0:0:
165,51,60466,1,0,0:0:0:0:
158,100,60602,1,0,0:0:0:0:
151,150,60738,1,0,0:0:0:0:
145,199,60875,1,0,0:0:0:0:
138,249,61011,1,0,0:0:0:0:
132,299,61148,6,0,L|126:349,1,50,6|0,0:0|0:0,0:0:0:0:
206,278,61420,2,0,L|237:317,1,50,2|0,0:0|0:0,0:0:0:0:
243,211,61693,2,0,L|293:216,1,50,2|0,0:0|0:0,0:0:0:0:
224,137,61966,1,0,0:0:0:0:
243,211,62102,1,0,0:0:0:0:
206,278,62239,2,0,P|177:289|144:284,1,50,2|0,0:0|0:0,0:0:0:0:
243,211,62511,2,0,P|267:230|279:261,1,50,2|0,0:0|0:0,0:0:0:0:
167,213,62784,2,0,P|183:165|233:135,1,100
356,300,63330,6,0,P|312:284|266:224,1,100,2|0,0:0|0:0,0:0:0:0:
288,154,63739,1,0,0:0:0:0:
375,121,63875,2,0,P|379:173|347:225,1,100,2|0,0:0|0:0,0:0:0:0:
309,227,64284,2,0,L|381:207,1,50,2|0,0:0|0:0,0:0:0:0:
235,281,64557,2,0,L|307:301,1,50,2|0,0:0|0:0,0:0:0:0:
161,227,64830,1,0,0:0:0:0:
102,217,64966,1,0,0:0:0:0:
60,176,65102,1,0,0:0:0:0:
50,118,65239,1,0,0:0:0:0:
76,65,65375,1,0,0:0:0:0:
127,36,65511,6,0,L|191:25,1,50,2|0,0:0|0:0,0:0:0:0:
295,65,65784,2,0,L|231:76,1,50,2|0,0:0|0:0,0:0:0:0:
146,148,66057,2,0,L|209:136,1,50,2|0,0:0|0:0,0:0:0:0:
365,104,66330,1,0,0:0:0:0:
365,104,66466,1,0,0:0:0:0:
365,104,66602,2,0,L|347:169,1,50,2|0,0:0|0:0,0:0:0:0:
245,74,66875,2,0,L|267:157,1,50,2|0,0:0|0:0,0:0:0:0:
146,148,67148,2,0,P|183:189|239:233,1,100,2|0,0:0|0:0,0:0:0:0:
358,349,67693,6,0,P|314:325|294:280,1,100,2|0,0:0|0:0,0:0:0:0:
391,172,68102,1,0,0:0:0:0:
391,172,68239,2,0,L|376:271,1,100,2|0,0:0|0:0,0:0:0:0:
303,195,68648,2,0,L|292:129,1,50,2|0,0:0|0:0,0:0:0:0:
215,218,68920,2,0,L|206:267,1,50,2|0,0:0|0:0,0:0:0:0:
127,241,69193,1,0,0:0:0:0:
94,204,69329,1,0,0:0:0:0:
96,155,69465,1,0,0:0:0:0:
129,119,69602,1,0,0:0:0:0:
178,115,69739,1,0,0:0:0:0:
216,145,69875,6,0,L|215:233,1,68.0000004150391,4|0,0:0|0:0,0:0:0:0:
129,119,70284,1,0,0:0:0:0:
129,119,70420,2,0,P|147:85|195:57,1,68.0000004150391
215,213,70966,2,0,P|111:245|39:209,1,150,2|0,0:0|0:0,0:0:0:0:
75,234,71784,1,0,0:0:0:0:
399,57,72057,6,0,L|379:189,1,100,2|0,0:0|0:0,0:0:0:0:
369,248,72466,1,0,0:0:0:0:
310,213,72602,2,0,P|262:200|215:213,1,100
87,323,73148,2,0,P|143:301|183:265,1,100,2|0,0:0|0:0,0:0:0:0:
214,213,73557,2,0,P|223:185|227:145,1,50
283,89,73830,1,0,0:0:0:0:
283,89,73966,2,0,P|287:113|294:137,1,50
357,258,74239,6,0,P|373:202|369:138,1,100,2|0,0:0|0:0,0:0:0:0:
368,92,74648,1,0,0:0:0:0:
303,71,74784,2,0,B|283:89|283:89|239:89|179:113,1,100
111,225,75330,2,0,P|165:193|215:173,1,100,2|0,0:0|0:0,0:0:0:0:
264,160,75739,1,0,0:0:0:0:
264,160,75875,1,0,0:0:0:0:
321,316,76148,1,0,0:0:0:0:
315,105,76420,6,0,P|287:61|231:41,1,100,2|0,0:0|0:0,0:0:0:0:
175,39,76830,1,0,0:0:0:0:
175,39,76966,1,0,0:0:0:0:
264,160,77239,1,0,0:0:0:0:
127,89,77511,1,2,0:0:0:0:
127,89,77648,2,0,P|111:66|107:28,1,50
127,154,77920,2,0,P|115:179|84:201,1,50
183,121,78193,1,0,0:0:0:0:
183,121,78330,2,0,P|210:118|245:134,1,50
387,165,78602,6,0,P|333:173|279:149,1,100,6|0,0:0|0:0,0:0:0:0:
346,73,79011,1,0,0:0:0:0:
438,114,79148,2,0,P|459:157|439:215,1,100
197,267,79693,2,0,L|227:172,1,100,2|0,0:0|0:0,0:0:0:0:
247,110,80102,1,0,0:0:0:0:
267,48,80239,1,0,0:0:0:0:
386,164,80511,1,0,0:0:0:0:
354,318,80784,6,0,P|341:270|353:222,1,100,2|0,0:0|0:0,0:0:0:0:
386,164,81193,1,0,0:0:0:0:
386,164,81330,1,0,0:0:0:0:
167,57,81602,1,0,0:0:0:0:
167,57,81875,2,0,P|180:105|168:153,1,100,2|0,0:0|0:0,0:0:0:0:
131,261,82284,2,0,P|125:237|132:213,1,50
191,297,82557,1,0,0:0:0:0:
191,297,82693,2,0,P|196:321|190:345,1,50
77,168,82966,6,0,P|119:143|168:152,1,100,2|0,0:0|0:0,0:0:0:0:
226,189,83375,1,0,0:0:0:0:
226,189,83511,2,0,L|347:169,1,100
212,302,84057,2,0,P|176:268|164:220,1,100,2|0,0:0|0:0,0:0:0:0:
167,151,84466,1,0,0:0:0:0:
167,151,84602,1,0,0:0:0:0:
277,328,84875,1,0,0:0:0:0:
429,194,85148,6,0,L|308:214,1,100,2|0,0:0|0:0,0:0:0:0:
252,224,85557,1,0,0:0:0:0:
252,224,85693,1,0,0:0:0:0:
314,55,85966,1,0,0:0:0:0:
483,117,86239,1,2,0:0:0:0:
483,117,86375,2,0,L|502:170,1,50
423,245,86648,2,0,L|375:228,1,50
311,137,86920,1,0,0:0:0:0:
311,137,87057,2,0,L|262:166,1,50
158,226,87330,5,6,0:0:0:0:
83,141,87602,2,0,P|130:117|179:115,1,100
311,137,88148,1,0,0:0:0:0:
158,226,88420,1,0,0:0:0:0:
275,293,88693,1,2,0:0:0:0:
284,153,88966,1,0,0:0:0:0:
191,305,89239,2,0,P|143:311|82:265,1,100,2|0,0:0|0:0,0:0:0:0:
272,238,89784,2,0,P|319:231|366:171,1,100
174,202,90330,5,0,0:0:0:0:
382,134,90602,1,0,0:0:0:0:
227,41,90875,1,2,0:0:0:0:
284,153,91148,1,0,0:0:0:0:
135,145,91420,2,0,L|35:113,1,100,2|0,0:0|0:0,0:0:0:0:
212,257,91966,2,0,L|234:359,1,100
271,135,92511,5,0,0:0:0:0:
354,258,92784,1,0,0:0:0:0:
423,81,93057,1,2,0:0:0:0:
299,175,93330,1,0,0:0:0:0:
398,324,93602,2,0,P|434:248|347:178,1,200,2|0,0:0|0:0,0:0:0:0:
187,221,94420,1,2,0:0:0:0:
135,289,94693,2,0,B|91:297|91:297|51:245|43:189|59:121,1,200
159,53,95511,1,2,0:0:0:0:
159,53,95784,2,0,P|215:57|271:37,1,100
419,73,96330,2,0,P|363:69|307:89,1,100
183,189,96875,5,0,0:0:0:0:
380,196,97148,1,0,0:0:0:0:
258,268,97420,1,2,0:0:0:0:
262,114,97693,1,0,0:0:0:0:
339,305,97966,2,0,P|309:341|251:357,1,100,2|0,0:0|0:0,0:0:0:0:
179,216,98511,2,0,P|226:230|258:268,1,100
59,261,99057,5,0,0:0:0:0:
186,129,99330,1,0,0:0:0:0:
178,304,99602,1,0,0:0:0:0:
46,122,99875,1,2,0:0:0:0:
46,122,100148,2,0,P|93:106|143:111,1,100,2|0,0:0|0:0,0:0:0:0:
267,215,100693,2,0,P|313:231|363:226,1,100,2|0,0:0|0:0,0:0:0:0:
463,93,101239,5,0,0:0:0:0:
215,85,101511,1,0,0:0:0:0:
282,329,101784,1,2,0:0:0:0:
327,121,102057,1,0,0:0:0:0:
127,163,102330,2,0,P|95:241|187:285,1,200,2|0,0:0|0:0,0:0:0:0:
337,249,103148,1,2,0:0:0:0:
401,193,103420,2,0,P|305:170|252:249,1,200
240,369,104239,1,2,0:0:0:0:
161,222,104511,1,0,0:0:0:0:
195,57,104784,6,0,L|214:161,1,100,2|0,0:0|0:0,0:0:0:0:
233,278,105330,1,0,0:0:0:0:
300,100,105602,1,0,0:0:0:0:
416,184,105875,2,0,P|371:242|303:272,1,150,2|0,0:0|0:0,0:0:0:0:
294,273,106693,1,0,0:0:0:0:
87,233,106966,6,0,L|211:217,1,100,2|0,0:0|0:0,0:0:0:0:
416,184,107511,2,0,L|292:168,1,100
87,135,108057,2,0,P|159:97|239:129,1,150,2|0,0:0|0:0,0:0:0:0:
339,233,108739,1,0,0:0:0:0:
339,233,108875,2,0,L|371:285,1,50
422,362,109148,5,2,0:0:0:0:
416,184,109420,1,0,0:0:0:0:
283,265,109693,2,0,L|183:249,1,100
31,169,110239,2,0,L|204:141,1,150,2|0,0:0|0:0,0:0:0:0:
440,99,111057,1,0,0:0:0:0:
440,99,111330,6,0,L|419:201,1,100,2|0,0:0|0:0,0:0:0:0:
283,343,111875,2,0,L|304:241,1,100
440,99,112420,1,2,0:0:0:0:
455,161,112557,2,0,L|434:263,1,100
283,343,113102,1,0,0:0:0:0:
268,281,113239,2,0,L|288:183,1,100,0|2,0:0|0:0,0:0:0:0:
425,37,113784,5,0,0:0:0:0:
491,145,114057,2,0,P|451:161|375:153,1,100
186,193,114602,2,0,P|258:174|328:199,1,150,2|0,0:0|0:0,0:0:0:0:
338,209,115420,1,0,0:0:0:0:
253,301,115693,5,2,0:0:0:0:
152,137,115966,1,0,0:0:0:0:
71,300,116238,1,0,0:0:0:0:
235,199,116511,1,0,0:0:0:0:
30,149,116784,2,0,L|198:133,1,150,2|0,0:0|0:0,0:0:0:0:
436,106,117466,1,0,0:0:0:0:
436,106,117602,2,0,P|402:113|374:133,1,50
291,209,117875,5,2,0:0:0:0:
392,351,118148,1,0,0:0:0:0:
432,182,118420,1,0,0:0:0:0:
301,308,118693,1,0,0:0:0:0:
301,144,118966,2,0,P|259:81|183:97,1,150,2|0,0:0|0:0,0:0:0:0:
59,293,119784,1,0,0:0:0:0:
176,225,120057,6,0,P|212:190|231:145,1,100,2|0,0:0|0:0,0:0:0:0:
42,132,120602,2,0,P|54:180|83:219,1,100
191,62,121148,1,2,0:0:0:0:
191,62,121284,2,0,P|143:48|93:54,1,100
231,145,121830,1,0,0:0:0:0:
231,145,121966,2,0,P|278:158|328:152,1,100,0|4,0:0|0:0,0:0:0:0:
139,185,139693,5,2,0:0:0:0:
211,277,139966,2,0,L|195:365,2,80
255,169,140784,1,2,0:0:0:0:
294,59,141057,1,0,0:0:0:0:
404,98,141330,1,0,0:0:0:0:
364,208,141602,1,0,0:0:0:0:
249,155,141875,5,2,0:0:0:0:
307,54,142148,1,0,0:0:0:0:
409,111,142421,1,0,0:0:0:0:
350,212,142693,1,0,0:0:0:0:
247,141,142966,2,0,P|339:105|347:217,1,240,2|0,0:0|0:0,0:0:0:0:
191,243,144057,6,0,L|79:259,1,80,2|0,0:0|0:0,0:0:0:0:
273,277,144602,2,0,L|385:293,1,80
87,252,145148,1,2,0:0:0:0:
182,238,145420,1,0,0:0:0:0:
376,292,145693,1,0,0:0:0:0:
281,279,145966,1,0,0:0:0:0:
88,252,146238,6,0,P|140:153|256:177,1,240,2|0,0:0|0:0,0:0:0:0:
332,265,147330,2,0,P|442:245|457:133,1,240,2|0,0:0|0:0,0:0:0:0:
248,113,148420,5,2,0:0:0:0:
183,238,148693,1,0,0:0:0:0:
307,303,148966,1,0,0:0:0:0:
373,179,149239,1,0,0:0:0:0:
248,113,149511,2,0,P|215:153|207:193,1,80,2|0,0:0|0:0,0:0:0:0:
307,303,150057,2,0,P|340:263|348:223,1,80
231,119,150602,6,0,B|219:137|215:157|215:157|147:153|91:193,1,160,2|0,0:0|0:0,0:0:0:0:
47,305,151420,1,0,0:0:0:0:
101,185,151693,2,0,B|118:172|138:168|138:168|134:100|174:44,1,160,2|0,0:0|0:0,0:0:0:0:
215,158,152511,1,0,0:0:0:0:
163,272,152784,5,2,0:0:0:0:
71,122,153057,1,0,0:0:0:0:
221,30,153330,1,0,0:0:0:0:
313,180,153602,1,0,0:0:0:0:
179,294,153875,1,2,0:0:0:0:
87,144,154148,1,0,0:0:0:0:
237,52,154421,1,0,0:0:0:0:
329,202,154693,1,0,0:0:0:0:
195,316,154966,6,0,L|95:293,1,80,2|0,0:0|0:0,0:0:0:0:
323,257,155511,2,0,L|400:239,1,80
195,198,156057,2,0,L|95:175,1,80,2|0,0:0|0:0,0:0:0:0:
323,139,156602,2,0,L|423:116,1,80
195,80,157148,5,4,0:0:0:0:
263,219,157420,1,2,0:0:0:0:
323,139,157693,2,0,P|283:121|243:121,1,80
302,310,158239,2,0,P|337:284|357:249,1,80
163,207,158784,2,0,P|167:250|187:285,1,80
263,219,159330,1,0,0:0:0:0:
179,109,159602,5,2,0:0:0:0:
102,46,159875,2,0,P|95:93|80:135,1,80
163,207,160420,2,0,P|207:189|251:181,1,80
271,73,160966,2,0,P|233:43|204:9,1,80
179,109,161511,1,0,0:0:0:0:
163,207,161784,5,2,0:0:0:0:
86,144,162057,2,0,P|83:90|94:59,1,80
146,305,162602,2,0,P|100:334|68:340,1,80
256,171,163148,2,0,P|304:195|325:220,1,80
163,207,163693,1,0,0:0:0:0:
249,74,163966,5,2,0:0:0:0:
321,214,164239,2,0,P|314:265|288:314,1,80
119,105,164784,2,0,P|166:84|221:83,1,80
125,333,165330,2,0,P|83:301|54:253,1,80
189,217,165875,1,4,0:0:0:0:
304,292,166148,6,0,P|310:312|314:332,1,40
299,274,166420,1,2,0:0:0:0:
184,199,166693,1,0,0:0:0:0:
184,199,167239,1,0,0:0:0:0:
82,256,167511,1,0,0:0:0:0:
42,146,167784,1,0,0:0:0:0:
149,99,168057,6,0,P|188:97|227:86,1,80
290,60,168466,1,0,0:0:0:0:
290,60,168602,1,2,0:0:0:0:
253,201,168875,1,0,0:0:0:0:
253,201,169420,1,0,0:0:0:0:
149,99,169693,1,0,0:0:0:0:
134,284,169966,1,0,0:0:0:0:
223,172,170239,5,0,0:0:0:0:
217,316,170511,2,0,P|208:333|196:349,1,40
238,296,170784,2,0,P|278:284|322:288,1,80,2|0,0:0|0:0,0:0:0:0:
315,286,171602,1,0,0:0:0:0:
226,120,171875,1,0,0:0:0:0:
156,212,172148,1,0,0:0:0:0:
329,172,172420,6,0,P|373:185|405:215,1,80
439,264,172830,1,0,0:0:0:0:
439,264,172966,1,2,0:0:0:0:
195,258,173239,1,0,0:0:0:0:
316,286,173511,1,2,0:0:0:0:
37,221,173920,1,2,0:0:0:0:
280,69,174330,1,2,0:0:0:0:
319,252,174602,6,0,P|279:221|254:178,1,100,6|0,0:0|0:0,0:0:0:0:
230,116,175011,1,0,0:0:0:0:
230,116,175148,1,0,0:0:0:0:
210,248,175420,1,0,0:0:0:0:
369,143,175693,2,0,P|386:208|388:256,1,100,2|0,0:0|0:0,0:0:0:0:
392,308,176102,1,0,0:0:0:0:
392,308,176239,1,0,0:0:0:0:
230,116,176511,1,0,0:0:0:0:
180,236,176784,6,0,P|230:244|282:236,1,100,2|0,0:0|0:0,0:0:0:0:
345,219,177193,1,0,0:0:0:0:
345,219,177330,2,0,P|357:275|341:323,1,100
181,237,177875,2,0,P|169:181|185:133,1,100,2|0,0:0|0:0,0:0:0:0:
242,108,178284,2,0,P|270:116|306:112,1,50
153,79,178557,1,0,0:0:0:0:
153,79,178693,2,0,P|125:71|89:75,1,50
206,164,178966,6,0,P|252:180|302:181,1,100,2|0,0:0|0:0,0:0:0:0:
372,173,179375,1,0,0:0:0:0:
372,173,179511,1,0,0:0:0:0:
206,164,179784,1,0,0:0:0:0:
53,142,180057,2,0,P|102:142|149:125,1,100,2|0,0:0|0:0,0:0:0:0:
213,93,180466,1,0,0:0:0:0:
213,93,180602,1,0,0:0:0:0:
111,286,180875,1,0,0:0:0:0:
52,141,181148,6,0,P|37:95|52:48,1,100,2|0,0:0|0:0,0:0:0:0:
112,78,181557,1,0,0:0:0:0:
147,134,181693,2,0,P|162:180|147:227,1,100
46,312,182239,1,2,0:0:0:0:
113,325,182375,2,0,L|161:335,1,50
211,274,182648,2,0,L|259:263,1,50
308,324,182920,1,0,0:0:0:0:
308,324,183057,2,0,P|362:312|422:336,1,100,0|6,0:0|0:0,0:0:0:0:
487,195,183602,5,0,0:0:0:0:
487,195,183739,1,0,0:0:0:0:
487,195,183875,2,0,L|466:293,1,100
364,206,184420,2,0,L|343:108,1,100,2|0,0:0|0:0,0:0:0:0:
289,64,184830,1,0,0:0:0:0:
256,125,184966,2,0,P|218:154|169:153,1,100
66,280,185511,6,0,L|87:182,1,100,2|0,0:0|0:0,0:0:0:0:
108,113,185920,1,0,0:0:0:0:
108,113,186057,2,0,P|147:83|196:86,1,100
240,209,186602,2,0,P|194:193|168:152,1,100,2|0,0:0|0:0,0:0:0:0:
239,138,187011,2,0,P|264:141|286:153,1,50
278,271,187284,1,0,0:0:0:0:
278,271,187420,2,0,P|254:280|230:280,1,50
322,215,187693,6,0,P|350:268|322:328,1,100,2|0,0:0|0:0,0:0:0:0:
240,209,188102,1,0,0:0:0:0:
240,209,188239,2,0,P|212:156|240:96,1,100
423,104,188784,2,0,P|374:112|326:100,1,100,2|0,0:0|0:0,0:0:0:0:
265,65,189193,1,0,0:0:0:0:
204,30,189330,2,0,P|156:18|107:26,1,100
160,212,189875,6,0,P|203:187|219:141,1,100,2|0,0:0|0:0,0:0:0:0:
151,144,190284,1,0,0:0:0:0:
151,144,190420,1,0,0:0:0:0:
81,310,190693,2,0,L|69:366,1,50
96,240,190966,1,2,0:0:0:0:
96,240,191102,1,0,0:0:0:0:
173,70,191375,2,0,L|183:118,1,50
228,177,191648,1,0,0:0:0:0:
264,240,191784,2,0,L|253:288,1,50
237,356,192057,5,6,0:0:0:0:
301,178,192330,2,0,P|326:202|334:221,1,50
264,240,192602,2,0,P|232:200|243:136,1,100
400,190,193148,2,0,L|389:316,1,100,2|0,0:0|0:0,0:0:0:0:
385,359,193557,1,0,0:0:0:0:
385,359,193693,1,0,0:0:0:0:
328,128,193966,1,0,0:0:0:0:
144,135,194239,6,0,P|193:136|237:159,1,100,2|0,0:0|0:0,0:0:0:0:
310,221,194648,1,0,0:0:0:0:
310,221,194784,1,0,0:0:0:0:
165,247,195057,1,0,0:0:0:0:
73,120,195330,2,0,L|39:15,1,100,2|0,0:0|0:0,0:0:0:0:
96,189,195739,2,0,P|71:203|55:223,1,50
119,260,196011,1,0,0:0:0:0:
167,245,196148,1,0,0:0:0:0:
215,230,196284,1,0,0:0:0:0:
262,215,196420,6,0,B|288:207|288:207|299:278,1,100,2|0,0:0|0:0,0:0:0:0:
312,352,196830,1,0,0:0:0:0:
208,324,196966,2,0,B|182:315|182:315|166:244,1,100
268,112,197511,2,0,P|287:157|288:207,1,100,2|0,0:0|0:0,0:0:0:0:
260,275,197920,1,0,0:0:0:0:
203,321,198057,1,0,0:0:0:0:
49,300,198330,1,0,0:0:0:0:
203,321,198602,6,0,P|252:348|307:331,1,100,2|0,0:0|0:0,0:0:0:0:
350,294,199011,1,0,0:0:0:0:
350,294,199148,2,0,P|308:268|259:274,1,100
101,348,199693,1,2,0:0:0:0:
101,347,199830,2,0,L|105:296,1,50
151,198,200102,2,0,L|149:248,1,50
196,148,200375,1,0,0:0:0:0:
200,98,200511,1,0,0:0:0:0:
204,48,200647,1,0,0:0:0:0:
204,48,200784,6,0,P|261:52|321:32,1,100,6|0,0:0|0:0,0:0:0:0:
373,92,201193,1,0,0:0:0:0:
373,92,201330,2,0,P|421:80|471:85,1,100
371,263,201875,2,0,P|336:227|315:181,1,100,2|0,0:0|0:0,0:0:0:0:
305,112,202284,1,0,0:0:0:0:
305,112,202420,1,0,0:0:0:0:
257,332,202693,1,0,0:0:0:0:
100,298,202966,6,0,L|197:272,1,100,2|0,0:0|0:0,0:0:0:0:
278,249,203375,1,0,0:0:0:0:
278,249,203511,1,0,0:0:0:0:
37,240,203784,1,0,0:0:0:0:
140,116,204057,2,0,L|119:214,1,100,2|0,0:0|0:0,0:0:0:0:
100,299,204466,2,0,L|89:347,1,50
145,287,204739,1,0,0:0:0:0:
193,273,204875,1,0,0:0:0:0:
240,260,205011,1,0,0:0:0:0:
289,247,205148,6,0,P|333:208|341:160,1,100,2|0,0:0|0:0,0:0:0:0:
340,99,205557,1,0,0:0:0:0:
340,99,205693,2,0,P|397:95|453:83,1,100
257,168,206239,2,0,P|200:172|144:184,1,100,2|0,0:0|0:0,0:0:0:0:
89,206,206648,1,0,0:0:0:0:
89,206,206784,1,0,0:0:0:0:
265,98,207057,1,0,0:0:0:0:
243,304,207330,6,0,P|300:308|356:320,1,100,2|0,0:0|0:0,0:0:0:0:
410,342,207739,1,0,0:0:0:0:
410,342,207875,1,0,0:0:0:0:
235,234,208148,1,0,0:0:0:0:
450,230,208420,1,2,0:0:0:0:
450,230,208557,2,0,P|452:255|445:279,1,50
400,178,208830,2,0,P|420:164|444:158,1,50
380,248,209102,1,0,0:0:0:0:
332,204,209238,1,0,0:0:0:0:
337,140,209374,1,0,0:0:0:0:
391,105,209511,6,0,L|449:80,1,50,6|0,0:0|0:0,0:0:0:0:
422,168,209784,2,0,L|480:143,1,50,2|0,0:0|0:0,0:0:0:0:
450,230,210057,2,0,L|495:210,1,50,2|0,0:0|0:0,0:0:0:0:
386,274,210330,1,0,0:0:0:0:
346,340,210466,1,0,0:0:0:0:
275,313,210602,2,0,L|213:328,1,50,2|0,0:0|0:0,0:0:0:0:
161,272,210875,2,0,L|223:257,1,50,2|0,0:0|0:0,0:0:0:0:
143,207,211148,2,0,L|46:232,1,100
209,191,211693,6,0,P|257:160|281:108,1,100,2|0,0:0|0:0,0:0:0:0:
337,64,212102,1,0,0:0:0:0:
337,64,212239,2,0,B|349:80|349:80|369:176,1,100,2|0,0:0|0:0,0:0:0:0:
410,214,212648,2,0,L|402:263,1,50,2|0,0:0|0:0,0:0:0:0:
469,288,212920,2,0,L|445:331,1,50,2|0,0:0|0:0,0:0:0:0:
373,328,213193,1,0,0:0:0:0:
310,321,213329,1,0,0:0:0:0:
248,314,213465,1,0,0:0:0:0:
186,307,213602,1,0,0:0:0:0:
124,300,213738,1,0,0:0:0:0:
109,240,213875,6,0,L|96:191,1,50,2|0,0:0|0:0,0:0:0:0:
165,172,214148,2,0,L|165:122,1,50,2|0,0:0|0:0,0:0:0:0:
236,120,214420,2,0,L|249:71,1,50,2|0,0:0|0:0,0:0:0:0:
318,88,214693,1,0,0:0:0:0:
318,88,214830,1,0,0:0:0:0:
337,155,214966,2,0,L|350:204,1,50,2|0,0:0|0:0,0:0:0:0:
281,223,215239,2,0,L|281:273,1,50,2|0,0:0|0:0,0:0:0:0:
210,275,215511,2,0,L|179:388,1,100,2|0,0:0|0:0,0:0:0:0:
230,210,216057,6,0,P|275:179|330:182,1,100,2|0,0:0|0:0,0:0:0:0:
185,148,216466,1,0,0:0:0:0:
185,148,216602,2,0,P|140:117|85:120,1,100,2|0,0:0|0:0,0:0:0:0:
67,193,217011,2,0,P|92:199|116:196,1,50,2|0,0:0|0:0,0:0:0:0:
347,255,217284,2,0,P|322:260|297:257,1,50,2|0,0:0|0:0,0:0:0:0:
67,316,217557,1,0,0:0:0:0:
126,320,217693,1,0,0:0:0:0:
186,325,217830,1,0,0:0:0:0:
246,329,217966,1,0,0:0:0:0:
306,334,218102,1,0,0:0:0:0:
366,338,218239,6,0,L|415:341,1,50,6|0,0:0|0:0,0:0:0:0:
321,268,218511,2,0,L|272:265,1,50,2|0,0:0|0:0,0:0:0:0:
382,205,218784,2,0,L|431:208,1,50,2|0,0:0|0:0,0:0:0:0:
337,135,219057,1,0,0:0:0:0:
265,131,219193,1,0,0:0:0:0:
193,127,219330,2,0,L|144:124,1,50,2|0,0:0|0:0,0:0:0:0:
41,185,219602,2,0,L|90:188,1,50,2|0,0:0|0:0,0:0:0:0:
185,262,219875,2,0,P|135:259|65:272,1,100
218,330,220420,6,0,P|255:293|256:235,1,100,2|0,0:0|0:0,0:0:0:0:
185,262,220830,1,0,0:0:0:0:
185,262,220966,2,0,P|149:228|143:179,1,100,2|0,0:0|0:0,0:0:0:0:
211,146,221375,2,0,P|220:169|218:194,1,50,2|0,0:0|0:0,0:0:0:0:
79,136,221648,2,0,P|94:116|117:106,1,50,2|0,0:0|0:0,0:0:0:0:
138,256,221920,2,0,P|113:251|93:237,1,50
143,179,222193,1,0,0:0:0:0:
188,197,222329,1,0,0:0:0:0:
213,240,222465,1,0,0:0:0:0:
207,288,222602,6,0,L|190:349,1,50,2|0,0:0|0:0,0:0:0:0:
230,224,222875,2,0,L|290:209,1,50,2|0,0:0|0:0,0:0:0:0:
163,237,223148,2,0,L|119:191,1,50,2|0,0:0|0:0,0:0:0:0:
83,149,223420,1,0,0:0:0:0:
83,149,223557,1,0,0:0:0:0:
83,149,223693,2,0,P|110:134|136:132,1,50,2|0,0:0|0:0,0:0:0:0:
173,251,223966,2,0,P|146:266|120:268,1,50,2|0,0:0|0:0,0:0:0:0:
128,200,224239,2,0,L|241:157,1,100,2|0,0:0|0:0,0:0:0:0:
444,167,224784,6,0,P|394:176|345:168,1,100,2|0,0:0|0:0,0:0:0:0:
284,141,225193,1,0,0:0:0:0:
221,163,225330,2,0,P|171:172|122:164,1,100,2|0,0:0|0:0,0:0:0:0:
65,126,225739,2,0,P|47:104|35:80,1,50,2|0,0:0|0:0,0:0:0:0:
117,232,226012,2,0,P|106:258|92:280,1,50,2|0,0:0|0:0,0:0:0:0:
183,132,226284,1,0,0:0:0:0:
222,126,226420,1,0,0:0:0:0:
261,134,226556,1,0,0:0:0:0:
295,154,226693,1,0,0:0:0:0:
321,184,226829,1,0,0:0:0:0:
336,221,226966,6,0,L|342:298,1,59.9999981689454,4|0,0:0|0:0,0:0:0:0:
347,348,227375,1,0,0:0:0:0:
270,298,227511,1,0,0:0:0:0:
182,328,227648,2,0,L|172:352,2,14.9999995422363
208,152,227920,1,0,0:0:0:0:
200,216,228057,2,0,B|176:236|176:236|140:228,1,59.9999981689454,2|0,0:0|0:0,0:0:0:0:
54,208,228466,1,0,0:0:0:0:
54,208,228875,1,0,0:0:0:0:
113,164,229011,1,0,0:0:0:0:
147,229,229148,6,0,L|152:284,1,50,2|0,0:0|0:0,0:0:0:0:
206,185,229420,2,0,L|211:130,1,50
240,250,229693,1,0,0:0:0:0:
244,299,229829,1,0,0:0:0:0:
249,349,229965,1,2,0:0:0:0:
249,349,230102,2,0,L|304:354,1,50
240,250,230375,5,0,0:0:0:0:
190,245,230511,1,0,0:0:0:0:
140,240,230648,2,0,L|85:235,1,50,2|0,0:0|0:0,0:0:0:0:
231,151,230920,1,0,0:0:0:0:
280,155,231057,1,0,0:0:0:0:
330,160,231193,1,0,0:0:0:0:
330,160,231330,6,0,P|336:185|334:210,1,50,2|0,0:0|0:0,0:0:0:0:
231,151,231602,2,0,P|225:119|233:87,1,50
258,224,231875,5,0,0:0:0:0:
208,225,232011,1,0,0:0:0:0:
168,197,232147,1,0,0:0:0:0:
153,150,232284,2,0,P|156:126|167:104,1,50,2|0,0:0|0:0,0:0:0:0:
231,151,232557,5,0,0:0:0:0:
289,153,232693,1,0,0:0:0:0:
329,195,232830,2,0,P|335:218|333:243,1,50,2|0,0:0|0:0,0:0:0:0:
187,292,233102,5,0,0:0:0:0:
122,254,233238,1,0,0:0:0:0:
88,189,233375,2,0,L|81:120,2,50
93,322,233784,5,0,0:0:0:0:
122,254,233920,1,0,0:0:0:0:
166,313,234057,2,0,L|209:333,2,25,2|0|0,0:0|0:0|0:0,0:0:0:0:
50,263,234330,1,0,0:0:0:0:
226,267,234466,6,0,L|268:265,2,25,2|0|0,0:0|0:0|0:0,0:0:0:0:
52,271,234738,1,2,0:0:0:0:
122,223,234875,1,0,0:0:0:0:
200,258,235011,1,0,0:0:0:0:
262,200,235148,5,2,0:0:0:0:
270,190,235216,1,0,0:0:0:0:
278,181,235284,2,0,P|308:168|341:170,2,50
237,280,235693,6,0,L|225:344,1,50,2|0,0:0|0:0,0:0:0:0:
165,273,235966,2,0,L|115:230,1,50
206,213,236239,1,0,0:0:0:0:
218,209,236307,1,0,0:0:0:0:
230,205,236375,1,0,0:0:0:0:
242,201,236443,1,0,0:0:0:0:
254,197,236511,2,0,L|301:180,1,50,2|0,0:0|0:0,0:0:0:0:
377,154,236784,6,0,P|392:176|398:203,1,50,2|2,0:0|0:0,0:0:0:0:
328,105,237057,2,0,L|332:66,4,25,0|0|0|0|2,0:0|0:0|0:0|0:0|0:0,0:0:0:0:
318,209,237466,1,0,0:0:0:0:
232,148,237602,2,0,P|202:142|174:144,1,50
150,200,237875,6,0,P|201:213|269:206,1,100,2|0,0:0|0:0,0:0:0:0:
264,90,238284,2,0,P|213:77|145:84,1,100
57,279,238830,1,2,0:0:0:0:
118,238,238966,2,0,L|182:228,1,50,2|0,0:0|0:0,0:0:0:0:
200,284,239239,2,0,L|171:325,1,50
270,349,239511,2,0,L|259:284,1,50
315,266,239784,2,0,L|356:296,1,50
417,341,240057,5,2,0:0:0:0:
472,144,240330,2,0,L|508:110,2,33.3333333333333
441,174,240602,1,2,0:0:0:0:
268,316,240875,2,0,L|279:364,2,33.3333333333333
257,274,241148,5,2,0:0:0:0:
88,96,241420,2,0,L|40:81,2,33.3333333333333
129,107,241692,1,2,0:0:0:0:
388,44,241966,2,0,L|435:29,2,33.3333333333333
347,55,242239,6,0,P|336:112|354:164,1,100,2|0,0:0|0:0,0:0:0:0:
381,360,242784,1,0,0:0:0:0:
369,290,242920,1,0,0:0:0:0:
358,221,243056,1,2,0:0:0:0:
346,151,243193,2,0,L|223:143,1,100
130,114,243602,2,0,L|138:163,1,50
193,251,243875,2,0,L|201:201,1,50,2|0,0:0|0:0,0:0:0:0:
115,240,244148,1,0,0:0:0:0:
115,240,244284,1,0,0:0:0:0:
115,240,244420,6,0,P|132:301|175:328,1,100,6|0,0:0|0:0,0:0:0:0:
228,344,244830,1,0,0:0:0:0:
265,283,244966,2,0,P|304:255|353:259,1,100
174,197,245511,2,0,P|135:169|86:173,1,100,2|0,0:0|0:0,0:0:0:0:
31,218,245920,1,0,0:0:0:0:
31,218,246057,1,0,0:0:0:0:
240,168,246330,1,0,0:0:0:0:
394,206,246602,6,0,P|345:197|296:209,1,100,2|0,0:0|0:0,0:0:0:0:
233,239,247011,1,0,0:0:0:0:
233,239,247148,1,0,0:0:0:0:
444,152,247420,1,0,0:0:0:0:
390,320,247693,1,2,0:0:0:0:
390,320,247966,1,0,0:0:0:0:
390,320,248239,1,0,0:0:0:0:
358,300,248375,1,0,0:0:0:0:
321,292,248511,1,0,0:0:0:0:
284,296,248648,1,0,0:0:0:0:
251,313,248784,6,0,L|143:324,1,100,2|0,0:0|0:0,0:0:0:0:
84,348,249193,1,0,0:0:0:0:
84,348,249330,2,0,P|68:300|70:250,1,100
260,148,249875,2,0,P|275:195|273:245,1,100,2|0,0:0|0:0,0:0:0:0:
251,313,250284,1,0,0:0:0:0:
251,313,250420,1,0,0:0:0:0:
92,182,250693,1,0,0:0:0:0:
260,148,250966,6,0,P|320:112|352:68,1,100,2|0,0:0|0:0,0:0:0:0:
366,28,251375,1,0,0:0:0:0:
366,28,251511,1,0,0:0:0:0:
416,179,251784,1,0,0:0:0:0:
261,62,252057,1,2,0:0:0:0:
261,62,252193,2,0,P|231:65|209:77,1,50
333,191,252466,2,0,P|345:163|346:138,1,50
187,190,252739,1,0,0:0:0:0:
187,190,252875,2,0,P|204:214|225:227,1,50
260,148,253148,5,6,0:0:0:0:
260,148,253420,2,0,L|273:196,1,50
316,292,253693,2,0,L|344:196,1,100
183,97,254239,2,0,P|212:137|259:148,1,100,2|0,0:0|0:0,0:0:0:0:
251,80,254648,1,0,0:0:0:0:
251,80,254784,1,0,0:0:0:0:
201,255,255057,1,0,0:0:0:0:
116,115,255330,6,0,L|88:211,1,100,2|0,0:0|0:0,0:0:0:0:
68,281,255739,1,0,0:0:0:0:
67,281,255875,2,0,P|115:268|164:280,1,100
307,334,256420,1,2,0:0:0:0:
322,159,256693,1,0,0:0:0:0:
313,259,256966,1,0,0:0:0:0:
312,277,257102,1,0,0:0:0:0:
310,296,257238,1,0,0:0:0:0:
308,315,257375,1,0,0:0:0:0:
306,333,257511,6,0,P|258:323|208:329,1,100,2|0,0:0|0:0,0:0:0:0:
141,355,257920,1,0,0:0:0:0:
141,355,258057,2,0,L|130:255,1,100
285,198,258602,2,0,P|239:217|190:209,1,100,2|0,0:0|0:0,0:0:0:0:
122,180,259011,1,0,0:0:0:0:
122,180,259148,1,0,0:0:0:0:
209,329,259420,1,0,0:0:0:0:
229,125,259693,6,0,P|183:106|134:113,1,100,2|0,0:0|0:0,0:0:0:0:
74,159,260102,1,0,0:0:0:0:
74,159,260239,2,0,L|63:59,1,100
171,202,260784,1,2,0:0:0:0:
171,202,260920,2,0,L|165:259,1,50
74,248,261193,1,0,0:0:0:0:
76,272,261329,1,0,0:0:0:0:
79,297,261465,1,0,0:0:0:0:
82,322,261602,2,0,L|88:379,1,50
