osu file format v14

[General]
AudioFilename: audio.mp3
AudioLeadIn: 0
PreviewTime: 57015
Countdown: 0
SampleSet: Soft
StackLeniency: 0.5
Mode: 0
LetterboxInBreaks: 0
WidescreenStoryboard: 1

[Editor]
Bookmarks: 4515,21969,39424,56878,74333,91787,109242,131060,148515,157242,165969,183424,200878,209605,213969,218333,235787,253242
DistanceSpacing: 1.7
BeatDivisor: 4
GridSize: 4
TimelineZoom: 1.899999

[Metadata]
Title:Ascent
TitleUnicode:Ascent
Artist:Teminite
ArtistUnicode:Teminite
Creator:Stack
Version:Hard
Source:osu!
Tags:frozz fall _tranquility xChorse gottagof4st ggf electronic edm glitch hop featured artist fa
BeatmapID:2295079
BeatmapSetID:1094838

[Difficulty]
HPDrainRate:5
CircleSize:3.5
OverallDifficulty:7
ApproachRate:8.5
SliderMultiplier:1.6
SliderTickRate:1

[Events]
//Background and Video events
0,0,"Konachan.com - 284570 sample.jpg",0,0
//Break Periods
2,113605,130310
2,148714,156492
2,201078,208855
//Storyboard Layer 0 (Background)
//Storyboard Layer 1 (Fail)
//Storyboard Layer 2 (Pass)
//Storyboard Layer 3 (Foreground)
//Storyboard Layer 4 (Overlay)
//Storyboard Sound Samples

[TimingPoints]
4515,545.454545454546,4,2,1,60,1,0
4515,-125,4,2,1,60,0,0
21969,-100,4,2,1,60,0,0
30696,-100,4,2,3,60,0,0
30833,-100,4,2,1,60,0,0
35605,-142.857142857143,4,2,1,60,0,0
39424,-83.3333333333333,4,2,1,85,0,0
56878,-83.3333333333333,4,2,1,75,0,0
74333,-83.3333333333333,4,2,1,80,0,0
91787,-83.3333333333333,4,2,1,75,0,0
92060,-76.9230769230769,4,2,1,75,0,0
109242,-76.9230769230769,4,2,1,50,0,0
113605,-76.9230769230769,4,2,2,60,0,0
131060,-111.111111111111,4,2,2,65,0,0
148515,-111.111111111111,4,2,1,60,0,0
157242,-249.999999999999,4,2,3,50,0,0
157378,-249.999999999999,4,2,1,50,0,0
159969,-142.857142857142,4,2,1,50,0,0
165424,-142.857142857142,4,2,1,65,0,0
165969,-83.3333333333331,4,2,1,80,0,0
183424,-83.3333333333331,4,2,1,85,0,1
200878,-83.3333333333331,4,2,1,65,0,0
209605,-166.666666666667,4,2,1,65,0,0
217787,-166.666666666667,4,2,2,50,0,0
218333,-111.111111111111,4,2,1,85,0,0
218878,-83.3333333333334,4,2,1,85,0,0
235787,-83.3333333333334,4,2,1,75,0,0
253242,-83.3333333333334,4,2,1,65,0,0

[Colours]
Combo1 : 85,202,240
Combo2 : 247,170,94
Combo3 : 234,91,91

[HitObjects]
62,55,4515,5,4,1:0:0:0:
62,55,4787,1,2,0:0:0:0:
139,112,5060,1,2,0:0:0:0:
220,60,5333,2,0,L|224:24,2,32,2|2|2,0:0|0:0|0:0,0:0:0:0:
276,137,5878,2,0,L|283:204,1,64,2|2,0:0|0:0,0:0:0:0:
61,298,7242,6,0,B|88:276|88:276|156:291,1,96,2|2,0:0|0:0,0:0:0:0:
174,306,7787,2,0,L|180:377,2,64,2|2|2,0:0|0:0|0:0,0:0:0:0:
446,198,9424,6,0,B|419:176|419:176|351:191,1,96,2|2,0:0|0:0,0:0:0:0:
333,206,9969,2,0,L|327:277,2,64,2|2|2,0:0|0:0|0:0,0:0:0:0:
30,67,11605,6,0,B|57:45|57:45|125:60,1,96,2|2,0:0|0:0,0:0:0:0:
145,66,12151,1,2,0:0:0:0:
240,52,12424,1,2,0:0:0:0:
334,39,12696,1,2,0:0:0:0:
429,25,12969,2,0,L|442:59,1,32,2|2,0:0|0:0,0:0:0:0:
459,99,13242,1,2,0:0:0:0:
414,184,13515,6,0,L|413:261,1,64,2|2,0:0|0:0,0:0:0:0:
447,337,14060,2,0,L|479:358,2,32,2|2|2,0:0|0:0|0:0,0:0:0:0:
354,364,14605,1,2,0:0:0:0:
276,307,14878,2,0,P|223:288|151:306,1,128,2|2,0:0|0:0,0:0:0:0:
35,153,15969,6,0,L|141:146,1,96,2|2,0:0|0:0,0:0:0:0:
172,121,16515,2,0,P|177:87|168:58,2,64,2|2|2,0:0|0:0|0:0,0:0:0:0:
172,121,17605,1,2,0:0:0:0:
418,227,18151,6,0,L|312:220,1,96,2|2,0:0|0:0,0:0:0:0:
281,195,18697,2,0,P|276:161|285:132,2,64,2|2|2,0:0|0:0|0:0,0:0:0:0:
281,195,19787,1,2,0:0:0:0:
94,326,20333,6,0,L|200:319,1,96,2|2,0:0|0:0,0:0:0:0:
224,328,20878,1,2,0:0:0:0:
318,342,21151,1,2,0:0:0:0:
412,357,21424,1,2,0:0:0:0:
506,372,21696,2,0,P|512:353|514:333,1,32,2|2,0:0|0:0,0:0:0:0:
504,304,21969,6,0,L|494:216,1,80,6|2,1:0|0:0,0:0:0:0:
468,193,22378,2,0,L|478:105,1,80,0|0,1:2|0:0,0:0:0:0:
456,70,22787,2,0,P|423:61|408:59,1,40,2|2,1:2|0:0,0:0:0:0:
375,64,23060,1,2,0:0:0:0:
375,64,23333,1,2,1:2:0:0:
280,22,23605,1,2,0:0:0:0:
189,74,23878,1,0,1:2:0:0:
69,16,24151,6,0,P|86:69|70:129,1,120,0|0,1:2|1:2,0:0:0:0:
84,169,24696,2,0,P|67:222|83:282,1,120,2|2,0:0|0:0,0:0:0:0:
69,306,25242,1,2,0:0:0:0:
144,378,25515,1,2,1:2:0:0:
229,319,25787,1,2,0:0:0:0:
323,366,26060,2,0,L|412:360,1,80,0|0,1:2|1:2,0:0:0:0:
407,364,26742,5,0,1:2:0:0:
407,364,26878,2,0,L|388:245,1,120,2|2,0:0|0:0,0:0:0:0:
379,208,27424,1,2,0:0:0:0:
415,111,27696,1,2,1:2:0:0:
356,24,27969,1,2,0:0:0:0:
254,1,28242,2,0,L|157:4,1,80,0|0,1:2|1:2,0:0:0:0:
174,3,28924,5,0,1:2:0:0:
178,7,29060,2,0,L|165:142,1,120,2|2,0:0|0:0,0:0:0:0:
163,156,29605,1,2,0:0:0:0:
90,230,29878,1,2,1:2:0:0:
180,178,30151,1,2,0:0:0:0:
260,252,30424,1,2,1:2:0:0:
260,252,30560,2,0,L|270:306,1,40,2|4,0:0|0:3,0:0:0:0:
343,361,30969,5,2,0:0:0:0:
446,356,31242,1,2,0:0:0:0:
387,269,31515,2,0,L|381:228,2,40,2|2|2,1:2|0:0|0:0,0:0:0:0:
343,361,32060,1,2,1:2:0:0:
267,291,32333,2,0,P|230:285|189:292,1,80,2|0,0:0|1:2,0:0:0:0:
114,365,32878,1,0,1:2:0:0:
118,369,33287,5,0,1:2:0:0:
118,369,33424,2,0,B|97:330|97:330|111:252,1,120,2|2,0:0|0:0,0:0:0:0:
117,216,33969,1,2,0:0:0:0:
48,137,34242,1,2,1:2:0:0:
92,43,34515,1,2,0:0:0:0:
32,127,34787,6,0,L|24:178,1,40,0|0,1:2|0:0,0:0:0:0:
19,207,35060,1,6,1:0:0:0:
19,207,35605,6,0,P|53:192|125:213,1,111.999996582031,2|2,0:0|0:0,0:0:0:0:
122,210,36424,2,0,L|125:277,1,55.9999982910157,2|2,0:0|0:0,0:0:0:0:
397,344,37787,6,0,P|363:359|291:338,1,111.999996582031,2|2,0:0|0:0,0:0:0:0:
293,340,38606,2,0,L|290:273,1,55.9999982910157,2|2,0:0|0:0,0:0:0:0:
338,203,39151,1,6,0:3:0:0:
338,203,39287,1,2,0:0:0:0:
338,203,39424,6,0,B|321:176|296:176|296:176|270:208|212:197,1,143.999995605469,6|0,1:2|0:0,0:0:0:0:
156,144,39969,1,10,0:0:0:0:
156,144,40105,2,0,P|116:140|92:143,1,47.9999985351563,2|2,0:0|0:0,0:0:0:0:
44,191,40378,1,2,0:0:0:0:
24,210,40651,5,2,0:0:0:0:
102,246,40787,1,2,0:0:0:0:
55,319,40924,1,2,0:0:0:0:
119,368,41060,2,0,L|219:358,1,95.9999970703126,10|2,0:0|0:0,0:0:0:0:
264,293,41469,1,2,0:0:0:0:
327,380,41605,6,0,B|317:349|317:349|328:339|328:339|307:298|326:239,1,143.999995605469,0|0,1:2|0:0,0:0:0:0:
376,182,42151,1,10,0:0:0:0:
376,182,42287,1,2,0:0:0:0:
338,109,42424,1,2,0:0:0:0:
403,61,42560,2,0,L|473:56,1,47.9999985351563,2|0,0:0|1:2,0:0:0:0:
285,2,42833,2,0,L|229:-1,2,47.9999985351563,2|2|2,0:0|0:0|0:0,0:0:0:0:
173,67,43242,2,0,B|190:113|190:113|178:161,1,95.9999970703126,10|2,0:0|0:0,0:0:0:0:
115,226,43651,1,2,0:0:0:0:
0,266,43787,6,0,B|48:255|48:255|70:266|70:266|97:255|97:255|153:243,1,143.999995605469,0|0,1:2|0:0,0:0:0:0:
203,302,44333,2,0,P|231:307|268:305,1,47.9999985351563,10|2,0:0|0:0,0:0:0:0:
331,282,44605,1,2,0:0:0:0:
407,310,44742,1,2,0:0:0:0:
431,329,45015,2,0,L|428:388,1,47.9999985351563,2|2,0:0|0:0,0:0:0:0:
483,257,45287,1,2,0:0:0:0:
422,184,45424,2,0,B|405:152|405:152|419:87,1,95.9999970703126,10|2,0:0|0:0,0:0:0:0:
357,16,45833,1,2,0:0:0:0:
281,121,45969,6,0,B|249:131|249:131|223:122|223:122|192:145|141:129,1,143.999995605469,0|0,1:2|0:0,0:0:0:0:
65,77,46515,2,0,P|52:109|51:139,1,47.9999985351563,10|2,0:0|0:0,0:0:0:0:
87,193,46787,1,2,0:0:0:0:
47,266,46924,1,2,0:0:0:0:
55,290,47196,6,0,L|2:295,2,47.9999985351563,2|2|2,0:0|0:0|0:0,0:0:0:0:
64,312,47742,1,2,0:0:0:0:
154,309,47878,1,2,0:0:0:0:
245,306,48015,1,2,0:0:0:0:
277,380,48151,6,0,B|258:338|258:338|293:245,1,143.999995605469,6|0,1:2|0:0,0:0:0:0:
365,207,48696,1,10,0:0:0:0:
365,207,48832,2,0,L|421:211,1,47.9999985351563,2|2,0:0|0:0,0:0:0:0:
480,164,49105,1,2,0:0:0:0:
496,144,49378,5,2,0:0:0:0:
467,61,49514,1,2,0:0:0:0:
385,78,49651,1,2,0:0:0:0:
336,13,49787,2,0,L|236:23,1,95.9999970703126,10|2,0:0|0:0,0:0:0:0:
194,92,50196,1,2,0:0:0:0:
97,0,50333,6,0,B|131:38|131:38|109:73|109:73|108:125,1,143.999995605469,0|0,1:2|0:0,0:0:0:0:
64,194,50878,1,10,0:0:0:0:
64,194,51014,1,2,0:0:0:0:
62,275,51151,1,2,0:0:0:0:
62,356,51287,2,0,L|132:351,1,47.9999985351563,2|0,0:0|1:2,0:0:0:0:
173,301,51560,2,0,B|177:277|177:277|171:252,2,47.9999985351563,2|2|2,0:0|0:0|0:0,0:0:0:0:
234,355,51969,2,0,B|280:338|280:338|328:350,1,95.9999970703126,10|2,0:0|0:0,0:0:0:0:
391,301,52378,1,2,0:0:0:0:
486,383,52514,6,0,B|475:335|475:335|475:286|475:286|463:230,1,143.999995605469,0|0,1:2|0:0,0:0:0:0:
421,172,53060,2,0,L|426:119,1,47.9999985351563,10|2,0:0|0:0,0:0:0:0:
476,60,53332,1,2,0:0:0:0:
416,3,53469,1,2,0:0:0:0:
396,18,53742,2,0,L|337:15,1,47.9999985351563,2|2,0:0|0:0,0:0:0:0:
263,15,54014,1,2,0:0:0:0:
234,92,54151,2,0,L|135:97,1,95.9999970703126,10|2,0:0|0:0,0:0:0:0:
85,159,54560,1,2,0:0:0:0:
3,234,54696,6,0,P|44:205|134:239,1,143.999995605469,0|0,1:2|0:0,0:0:0:0:
188,285,55242,2,0,L|191:346,1,47.9999985351563,10|2,0:0|0:0,0:0:0:0:
256,226,55514,1,2,0:0:0:0:
329,273,55651,1,2,0:0:0:0:
329,273,55787,2,0,L|336:374,1,95.9999970703126,0|0,1:2|3:0,0:0:0:0:
335,368,56333,2,0,L|388:362,1,47.9999985351563,10|2,0:0|0:0,0:0:0:0:
454,294,56605,2,0,L|507:300,1,47.9999985351563,2|2,0:0|0:0,0:0:0:0:
398,198,56878,5,6,1:2:0:0:
375,214,57151,2,0,L|323:210,1,47.9999985351563,2|0,0:0|0:0,0:0:0:0:
291,136,57424,2,0,L|283:35,1,95.9999970703126,10|2,0:0|0:0,0:0:0:0:
208,6,57833,1,2,0:0:0:0:
120,80,57969,2,0,P|75:89|26:77,2,95.9999970703126,2|2|10,1:2|0:0|0:0,0:0:0:0:
120,79,58787,2,0,P|131:106|133:127,1,47.9999985351563,0|0,0:0|0:0,0:0:0:0:
65,228,59060,6,0,B|63:335|63:335|85:296,1,143.999995605469,2|0,1:2|0:0,0:0:0:0:
155,333,59605,2,0,B|193:318|193:318|307:349,1,143.999995605469,10|2,0:0|0:0,0:0:0:0:
365,382,60151,2,0,P|376:348|372:317,1,47.9999985351563,2|0,1:2|0:0,0:0:0:0:
428,273,60424,2,0,P|417:239|421:208,1,47.9999985351563,2|0,0:0|0:0,0:0:0:0:
471,166,60696,2,0,P|482:132|478:101,1,47.9999985351563,10|0,0:0|0:0,0:0:0:0:
441,48,60969,1,0,0:0:0:0:
441,48,61105,1,0,0:0:0:0:
346,122,61242,6,0,B|309:128|309:128|248:107|248:107|200:116,1,143.999995605469,2|0,1:2|0:0,0:0:0:0:
140,57,61787,2,0,P|164:110|187:215,1,143.999995605469,10|2,0:0|0:0,0:0:0:0:
149,267,62333,2,0,L|99:263,1,47.9999985351563,2|0,1:2|0:0,0:0:0:0:
173,347,62605,2,0,L|223:343,1,47.9999985351563,2|0,0:0|0:0,0:0:0:0:
283,270,62878,2,0,L|392:279,1,95.9999970703126,10|0,0:0|0:0,0:0:0:0:
445,325,63287,1,0,0:0:0:0:
512,220,63424,6,0,B|532:161|532:161|505:83,1,143.999995605469,2|0,1:2|0:0,0:0:0:0:
451,22,63969,2,0,L|354:25,1,95.9999970703126,10|0,0:0|0:0,0:0:0:0:
304,89,64378,1,2,0:0:0:0:
304,89,64515,2,0,L|208:86,2,95.9999970703126,2|2|10,1:2|0:0|0:0,0:0:0:0:
404,217,65333,1,2,0:0:0:0:
360,285,65469,1,2,0:0:0:0:
403,353,65605,5,6,1:2:0:0:
426,364,65878,2,0,P|404:378|373:384,1,47.9999985351563,2|0,0:0|0:0,0:0:0:0:
301,351,66151,2,0,P|257:336|200:335,1,95.9999970703126,10|2,0:0|0:0,0:0:0:0:
121,365,66560,1,2,0:0:0:0:
38,279,66696,2,0,L|29:176,2,95.9999970703126,2|2|10,1:2|0:0|0:0,0:0:0:0:
38,279,67514,2,0,L|90:275,1,47.9999985351563,0|0,0:0|0:0,0:0:0:0:
194,206,67787,6,0,B|256:204|256:204|272:195|272:195|338:193,1,143.999995605469,2|0,1:2|0:0,0:0:0:0:
406,233,68332,2,0,B|421:195|421:195|390:81,1,143.999995605469,10|2,0:0|0:0,0:0:0:0:
343,31,68878,2,0,L|273:33,1,47.9999985351563,2|0,1:2|0:0,0:0:0:0:
244,96,69151,2,0,L|174:94,1,47.9999985351563,2|0,0:0|0:0,0:0:0:0:
158,21,69424,2,0,L|88:23,1,47.9999985351563,10|0,0:0|0:0,0:0:0:0:
47,73,69696,1,0,0:0:0:0:
47,73,69832,1,0,0:0:0:0:
117,173,69969,6,0,P|144:238|127:307,1,143.999995605469,2|0,1:2|0:0,0:0:0:0:
56,361,70514,2,0,L|205:354,1,143.999995605469,10|2,0:0|0:0,0:0:0:0:
271,314,71060,1,2,1:2:0:0:
427,361,71333,1,2,0:0:0:0:
283,285,71605,2,0,P|265:238|262:193,1,95.9999970703126,10|0,0:0|0:0,0:0:0:0:
310,126,72014,1,0,0:0:0:0:
397,228,72151,6,0,B|422:256|422:256|421:146,1,143.999995605469,2|0,1:2|0:0,0:0:0:0:
469,84,72696,2,0,B|424:68|424:68|374:80,1,95.9999970703126,10|0,0:0|0:0,0:0:0:0:
310,126,73105,1,2,0:0:0:0:
194,96,73242,2,0,L|187:-7,2,95.9999970703126,2|2|10,1:2|0:0|0:0,0:0:0:0:
212,115,74060,1,2,0:0:0:0:
205,196,74196,1,2,0:0:0:0:
199,277,74333,5,6,1:2:0:0:
199,277,74878,5,10,0:0:0:0:
100,273,75015,2,0,P|54:305|27:338,2,95.9999970703126,2|2|2,0:0|0:0|0:0,0:0:0:0:
199,277,75696,1,2,0:0:0:0:
199,277,75833,1,2,0:0:0:0:
265,330,75969,2,0,B|310:312|310:312|338:329|338:329|366:318|398:338,1,143.999995605469,8|0,0:0|0:0,0:0:0:0:
480,364,76515,5,2,1:2:0:0:
480,364,76651,2,0,L|488:301,1,47.9999985351563,2|2,0:0|0:0,0:0:0:0:
456,245,76924,1,2,0:0:0:0:
456,245,77060,2,0,L|448:182,1,47.9999985351563,10|2,0:0|0:0,0:0:0:0:
504,136,77333,2,0,L|366:131,1,95.9999970703126,2|2,0:0|1:2,0:0:0:0:
408,132,77878,2,0,L|399:79,1,47.9999985351563,2|0,0:0|0:0,0:0:0:0:
329,178,78151,2,0,L|320:125,1,47.9999985351563,10|0,0:0|0:0,0:0:0:0:
261,82,78424,1,2,0:0:0:0:
261,82,78560,1,2,0:0:0:0:
183,145,78696,6,0,P|94:152|57:75,1,167.999994873047,2|0,1:2|0:0,0:0:0:0:
80,50,79242,2,0,L|94:220,1,167.999994873047,10|0,0:0|0:0,0:0:0:0:
68,266,79787,2,0,B|101:234|101:234|222:262,1,167.999994873047,2|0,1:2|0:0,0:0:0:0:
244,311,80333,2,0,P|257:261|362:253,1,167.999994873047,10|0,0:0|0:0,0:0:0:0:
375,283,80878,6,0,L|382:338,2,47.9999985351563,2|0|2,1:2|0:0|0:0,0:0:0:0:
435,227,81287,1,2,0:0:0:0:
435,227,81424,2,0,L|442:172,2,47.9999985351563,10|0|2,0:0|0:0|0:0,0:0:0:0:
375,283,81833,1,2,0:0:0:0:
303,211,81969,6,0,L|208:209,1,95.9999970703126,0|2,1:2|0:0,0:0:0:0:
150,268,82378,1,2,0:0:0:0:
105,351,82515,2,0,P|119:292|107:255,1,95.9999970703126,8|2,0:0|0:0,0:0:0:0:
52,199,82924,1,2,0:0:0:0:
98,94,83060,6,0,B|124:118|124:118|235:93,1,143.999995605469,6|0,1:2|0:0,0:0:0:0:
305,63,83605,1,10,0:0:0:0:
406,115,83742,2,0,B|421:163|421:163|407:211,2,95.9999970703126,2|2|2,0:0|0:0|0:0,0:0:0:0:
342,163,84423,1,2,0:0:0:0:
342,163,84560,1,2,0:0:0:0:
274,213,84696,2,0,B|231:183|231:183|224:188|224:188|138:208,1,143.999995605469,8|0,0:0|0:0,0:0:0:0:
83,262,85242,5,2,1:2:0:0:
83,262,85378,2,0,P|78:282|82:308,1,47.9999985351563,2|2,0:0|0:0,0:0:0:0:
133,379,85651,1,2,0:0:0:0:
133,379,85787,2,0,L|196:371,1,47.9999985351563,10|2,0:0|0:0,0:0:0:0:
244,325,86060,2,0,L|339:328,1,95.9999970703126,2|2,0:0|1:2,0:0:0:0:
339,328,86605,2,0,L|330:275,1,47.9999985351563,2|0,0:0|0:0,0:0:0:0:
412,270,86878,2,0,L|403:217,1,47.9999985351563,10|0,0:0|0:0,0:0:0:0:
453,155,87151,1,2,0:0:0:0:
453,155,87287,1,2,0:0:0:0:
512,96,87423,6,0,P|439:68|372:120,1,167.999994873047,2|0,1:2|0:0,0:0:0:0:
360,153,87969,2,0,B|312:127|312:127|201:156,1,167.999994873047,10|0,0:0|0:0,0:0:0:0:
171,184,88515,2,0,P|190:135|111:64,1,167.999994873047,2|0,1:2|0:0,0:0:0:0:
77,86,89060,2,0,B|68:152|68:152|83:181|83:181|75:251,1,167.999994873047,10|0,0:0|0:0,0:0:0:0:
70,288,89605,6,0,L|63:343,2,47.9999985351563,2|0|2,1:2|0:0|0:0,0:0:0:0:
149,337,90014,1,2,0:0:0:0:
149,337,90151,2,0,L|142:392,2,47.9999985351563,10|0|2,0:0|0:0|0:0,0:0:0:0:
213,286,90560,1,2,0:0:0:0:
271,342,90696,2,0,P|316:353|363:342,1,95.9999970703126,0|2,1:2|0:0,0:0:0:0:
420,283,91105,1,2,0:0:0:0:
469,217,91242,2,0,L|460:120,1,95.9999970703126,8|2,0:0|0:0,0:0:0:0:
426,46,91651,1,2,0:0:0:0:
426,46,91787,5,6,1:2:0:0:
401,24,92060,2,0,L|343:20,1,51.999997619629,2|0,0:0|0:0,0:0:0:0:
302,94,92333,2,0,L|194:102,1,103.999995239258,10|2,0:0|0:0,0:0:0:0:
128,156,92742,1,2,0:0:0:0:
218,229,92878,2,0,P|237:283|223:336,2,103.999995239258,2|2|10,1:2|0:0|0:0,0:0:0:0:
218,229,93696,2,0,L|276:226,1,51.999997619629,0|0,0:0|0:0,0:0:0:0:
364,176,93969,6,0,P|327:227|339:322,1,155.999992858887,2|0,1:2|0:0,0:0:0:0:
380,384,94515,2,0,L|493:378,1,103.999995239258,10|0,0:0|0:0,0:0:0:0:
512,297,94924,1,2,0:0:0:0:
512,297,95060,2,0,L|509:240,1,51.999997619629,2|0,1:2|0:0,0:0:0:0:
458,172,95333,2,0,L|461:115,1,51.999997619629,2|0,0:0|0:0,0:0:0:0:
413,45,95605,2,0,B|364:33|364:33|311:42,1,103.999995239258,10|0,0:0|0:0,0:0:0:0:
244,101,96015,1,0,0:0:0:0:
122,55,96151,5,2,1:2:0:0:
122,55,96696,2,0,P|141:103|131:157,1,103.999995239258,10|0,0:0|0:0,0:0:0:0:
76,222,97105,1,2,0:0:0:0:
76,222,97242,2,0,P|57:270|67:324,2,103.999995239258,2|2|10,1:2|0:0|0:0,0:0:0:0:
90,248,98060,1,0,0:0:0:0:
176,262,98196,1,0,0:0:0:0:
256,271,98333,6,0,B|215:302|215:302|233:197,1,155.999992858887,2|0,1:2|0:0,0:0:0:0:
285,113,98878,2,0,P|325:101|386:119,1,103.999995239258,10|0,0:0|0:0,0:0:0:0:
455,177,99287,1,2,0:0:0:0:
455,177,99424,2,0,L|463:246,1,51.999997619629,2|0,1:2|0:0,0:0:0:0:
379,262,99696,2,0,L|371:331,1,51.999997619629,2|0,0:0|0:0,0:0:0:0:
308,375,99969,1,10,0:0:0:0:
288,352,100242,1,2,0:0:0:0:
207,319,100378,1,2,0:0:0:0:
138,370,100515,5,6,1:2:0:0:
114,384,100787,2,0,P|108:353|113:323,1,51.999997619629,2|0,0:0|0:0,0:0:0:0:
87,259,101060,2,0,P|97:207|87:155,1,103.999995239258,10|2,0:0|0:0,0:0:0:0:
17,102,101469,1,2,0:0:0:0:
117,20,101605,2,0,L|228:12,2,103.999995239258,2|2|10,1:2|0:0|0:0,0:0:0:0:
117,20,102423,2,0,L|121:79,1,51.999997619629,0|0,0:0|0:0,0:0:0:0:
186,149,102696,6,0,B|225:118|225:118|279:130|279:130|325:93,1,155.999992858887,2|0,1:2|0:0,0:0:0:0:
362,20,103242,2,0,P|401:62|404:113,1,103.999995239258,10|0,0:0|0:0,0:0:0:0:
358,183,103651,1,2,0:0:0:0:
358,183,103787,2,0,L|351:238,1,51.999997619629,2|0,1:2|0:0,0:0:0:0:
277,283,104060,2,0,L|270:338,1,51.999997619629,2|0,0:0|0:0,0:0:0:0:
196,382,104332,2,0,B|147:370|147:370|94:379,1,103.999995239258,10|0,0:0|0:0,0:0:0:0:
13,340,104742,1,0,0:0:0:0:
74,244,104878,5,2,1:2:0:0:
74,244,105423,2,0,L|65:134,1,103.999995239258,10|0,0:0|0:0,0:0:0:0:
114,59,105832,1,2,0:0:0:0:
114,59,105969,2,0,P|66:43|9:62,2,103.999995239258,2|2|10,1:2|0:0|0:0,0:0:0:0:
132,42,106787,1,0,0:0:0:0:
196,100,106923,1,0,0:0:0:0:
269,58,107060,6,0,B|291:43|295:23|295:23|282:76|295:137,1,155.999992858887,2|0,1:2|0:0,0:0:0:0:
345,205,107605,2,0,B|398:212|398:180|455:186,1,103.999995239258,10|0,0:0|0:0,0:0:0:0:
499,262,108014,1,2,0:0:0:0:
499,262,108151,2,0,L|513:379,2,103.999995239258,2|2|10,1:2|0:0|0:0,0:0:0:0:
449,189,108833,1,0,0:0:0:0:
449,189,108969,1,2,0:0:0:0:
495,114,109105,1,2,0:0:0:0:
451,36,109242,5,4,1:0:0:0:
68,52,131060,5,6,1:2:0:0:
68,52,131333,2,0,L|120:47,1,35.9999989013672,2|0,0:0|0:0,0:0:0:0:
24,124,131605,2,0,P|18:161|26:194,1,71.9999978027344,10|2,0:0|0:0,0:0:0:0:
89,256,132015,1,2,1:2:0:0:
89,256,132151,2,0,L|184:246,2,71.9999978027344,2|2|10,0:0|1:2|0:0,0:0:0:0:
313,355,133242,5,0,1:2:0:0:
313,355,133787,2,0,P|294:314|308:249,1,107.999996704102,10|2,0:0|1:2,0:0:0:0:
336,237,134333,2,0,L|411:244,2,71.9999978027344,2|2|10,0:0|1:2|0:0,0:0:0:0:
263,87,135151,2,0,P|283:82|308:79,1,35.9999989013672,4|8,0:3|0:3,0:0:0:0:
332,83,135424,6,0,L|178:67,1,143.999995605469,0|10,1:2|0:0,0:0:0:0:
188,68,136378,1,2,1:2:0:0:
134,131,136515,2,0,L|144:210,2,71.9999978027344,2|2|10,0:0|1:2|0:0,0:0:0:0:
1,31,137333,2,0,L|-3:-5,2,35.9999989013672,4|8|0,0:3|0:3|1:2,0:0:0:0:
39,104,137742,1,8,0:0:0:0:
39,104,137878,1,0,1:2:0:0:
54,119,138151,6,0,P|71:170|61:227,1,107.999996704102,10|2,0:0|1:2,0:0:0:0:
39,247,138696,2,0,P|31:291|39:326,1,71.9999978027344,2|2,0:0|1:2,0:0:0:0:
152,384,139242,1,10,0:0:0:0:
258,319,139515,2,0,P|285:313|308:311,1,35.9999989013672,10|10,0:0|0:0,0:0:0:0:
329,315,139787,5,0,1:2:0:0:
351,332,140060,2,0,L|355:378,1,35.9999989013672,2|0,0:0|0:0,0:0:0:0:
404,264,140333,2,0,L|410:191,1,71.9999978027344,10|2,0:0|0:0,0:0:0:0:
366,121,140742,1,2,1:2:0:0:
366,121,140878,2,0,P|331:110|297:117,2,71.9999978027344,2|2|10,0:0|1:2|0:0,0:0:0:0:
483,362,141969,5,0,0:0:0:0:
483,362,142514,2,0,P|464:321|478:256,1,107.999996704102,10|2,0:0|1:2,0:0:0:0:
503,237,143060,2,0,L|422:237,2,71.9999978027344,2|2|10,0:0|1:2|0:0,0:0:0:0:
366,143,143878,2,0,P|362:127|361:108,1,35.9999989013672,4|8,0:3|0:3,0:0:0:0:
383,70,144151,6,0,B|314:88|314:88|241:63,1,143.999995605469,0|10,1:2|0:0,0:0:0:0:
245,64,145105,1,2,1:2:0:0:
175,18,145242,2,0,L|96:28,2,71.9999978027344,2|2|10,0:0|1:2|0:0,0:0:0:0:
245,169,146060,2,0,P|247:188|249:205,2,35.9999989013672,4|8|0,0:3|0:3|1:2,0:0:0:0:
159,119,146469,1,8,0:0:0:0:
159,119,146605,1,0,1:2:0:0:
145,139,146878,6,0,B|133:173|133:173|152:247,1,107.999996704102,10|2,0:0|1:2,0:0:0:0:
161,276,147423,2,0,L|84:271,1,71.9999978027344,2|10,0:0|0:0,0:0:0:0:
7,160,147969,1,14,0:0:0:0:
67,45,148242,2,0,P|94:39|117:37,1,35.9999989013672,2|2,0:0|0:0,0:0:0:0:
141,36,148514,5,6,1:0:0:0:
78,38,157242,6,0,B|192:28|190:139|321:117,1,256,4|0,0:3|0:0,0:0:0:0:
312,118,159969,6,0,L|304:72,2,27.9999991455078,2|2|2,0:0|0:0|0:0,0:0:0:0:
365,185,160378,1,2,0:0:0:0:
363,212,160651,2,0,L|359:250,1,27.9999991455078,2|2,0:0|0:0,0:0:0:0:
436,286,160924,1,2,0:0:0:0:
436,286,161060,2,0,L|441:349,1,55.9999982910157,2|2,0:0|0:0,0:0:0:0:
365,380,161469,1,2,0:0:0:0:
365,380,162151,6,0,L|405:374,2,27.9999991455078,2|2|2,0:0|0:0|0:0,0:0:0:0:
302,323,162560,1,2,0:0:0:0:
308,292,162833,2,0,L|299:253,1,27.9999991455078,2|2,0:0|0:0,0:0:0:0:
232,232,163105,1,2,0:0:0:0:
232,232,163242,2,2,L|248:162,1,55.9999982910157,2|2,0:0|0:0,0:0:0:0:
188,111,163651,1,2,0:0:0:0:
188,111,164333,6,0,L|145:103,1,27.9999991455078,2|2,0:0|0:0,0:0:0:0:
100,155,164605,2,0,L|57:163,1,27.9999991455078,2|2,0:0|0:0,0:0:0:0:
41,169,165015,1,2,0:0:0:0:
34,209,165151,1,2,0:0:0:0:
27,249,165287,1,2,0:0:0:0:
20,285,165424,6,0,L|67:282,1,27.9999991455078,10|2,0:0|0:0,0:0:0:0:
108,335,165696,6,0,L|155:332,1,27.9999991455078,2|2,0:0|0:0,0:0:0:0:
202,384,165969,5,6,1:2:0:0:
202,384,166515,1,10,0:0:0:0:
268,319,166652,2,0,L|262:215,2,95.9999970703126,2|2|0,0:0|0:0|0:0,0:0:0:0:
342,378,167333,1,2,0:0:0:0:
342,378,167470,1,2,0:0:0:0:
415,343,167606,2,0,B|433:298|433:298|416:270|416:270|427:242|407:210,1,143.999995605469,8|0,0:0|0:0,0:0:0:0:
359,150,168152,5,2,1:2:0:0:
359,150,168288,2,0,L|296:142,1,47.9999985351563,2|2,0:0|0:0,0:0:0:0:
258,89,168560,1,2,0:0:0:0:
258,89,168696,2,0,L|195:81,1,47.9999985351563,10|2,0:0|0:0,0:0:0:0:
134,51,168970,2,0,P|155:97|148:151,1,95.9999970703126,2|2,0:0|1:2,0:0:0:0:
151,141,169515,2,0,L|103:138,1,47.9999985351563,2|0,0:0|0:0,0:0:0:0:
198,212,169787,2,0,L|246:209,1,47.9999985351563,10|0,0:0|0:0,0:0:0:0:
145,287,170061,1,2,0:0:0:0:
145,287,170197,1,2,0:0:0:0:
198,348,170333,6,0,B|282:363|278:302|362:305,1,167.999994873047,2|0,1:2|0:0,0:0:0:0:
391,325,170879,2,0,P|363:243|414:179,1,167.999994873047,10|0,0:0|0:0,0:0:0:0:
446,191,171424,2,0,B|375:175|375:175|362:163|362:163|284:145,1,167.999994873047,2|0,1:2|0:0,0:0:0:0:
253,168,171969,2,0,P|260:124|163:81,1,167.999994873047,10|0,0:0|0:0,0:0:0:0:
127,98,172515,6,0,P|102:99|71:96,2,47.9999985351563,2|0|2,1:2|0:0|0:0,0:0:0:0:
73,181,172924,1,2,0:0:0:0:
73,181,173060,2,0,P|48:180|17:183,2,47.9999985351563,10|0|2,0:0|0:0|0:0,0:0:0:0:
24,262,173470,1,2,0:0:0:0:
75,325,173606,6,0,B|120:307|120:307|170:323,1,95.9999970703126,0|2,1:2|0:0,0:0:0:0:
234,276,174015,1,2,0:0:0:0:
297,327,174151,2,0,B|342:345|342:345|392:329,1,95.9999970703126,8|2,0:0|0:0,0:0:0:0:
446,272,174561,1,2,0:0:0:0:
395,208,174696,6,0,B|415:174|399:144|399:144|404:139|404:139|379:106|403:71,1,143.999995605469,6|0,1:2|0:0,0:0:0:0:
348,11,175242,1,10,0:0:0:0:
286,63,175378,2,0,P|226:74|190:58,2,95.9999970703126,2|2|2,0:0|0:0|0:0,0:0:0:0:
348,11,176060,1,2,0:0:0:0:
348,11,176197,1,2,0:0:0:0:
400,74,176333,6,0,B|418:108|450:126|450:126|443:147|443:147|450:168|442:208,1,143.999995605469,8|0,0:0|0:0,0:0:0:0:
415,274,176879,5,2,1:2:0:0:
415,274,177015,2,0,B|397:285|397:285|368:278,1,47.9999985351563,2|2,0:0|0:0,0:0:0:0:
311,231,177287,1,2,0:0:0:0:
311,231,177423,2,0,B|293:220|293:220|264:227,1,47.9999985351563,10|2,0:0|0:0,0:0:0:0:
208,284,177697,2,0,L|113:287,1,95.9999970703126,2|2,0:0|1:2,0:0:0:0:
112,287,178242,2,0,L|103:234,1,47.9999985351563,2|0,0:0|0:0,0:0:0:0:
50,177,178515,2,0,L|71:132,1,47.9999985351563,10|0,0:0|0:0,0:0:0:0:
40,62,178788,1,2,0:0:0:0:
40,62,178924,1,2,0:0:0:0:
104,12,179060,6,0,P|194:12|208:77,1,167.999994873047,2|0,1:2|0:0,0:0:0:0:
185,108,179605,2,0,B|155:85|155:85|290:89,1,167.999994873047,10|0,0:0|0:0,0:0:0:0:
319,65,180151,2,0,P|297:101|370:205,1,167.999994873047,2|0,1:2|0:0,0:0:0:0:
385,219,180696,2,0,B|339:198|339:198|223:243,1,167.999994873047,10|0,0:0|0:0,0:0:0:0:
203,272,181242,6,0,P|198:296|196:327,2,47.9999985351563,2|0|2,1:2|0:0|0:0,0:0:0:0:
109,240,181651,1,2,0:0:0:0:
109,240,181787,2,0,P|114:264|116:295,2,47.9999985351563,10|0|2,0:0|0:0|0:0,0:0:0:0:
166,180,182197,1,2,0:0:0:0:
100,131,182333,2,0,P|89:86|100:39,1,95.9999970703126,0|2,1:2|0:0,0:0:0:0:
176,8,182742,1,2,0:0:0:0:
245,51,182879,2,0,L|342:42,1,95.9999970703126,8|2,0:0|0:0,0:0:0:0:
424,28,183288,1,2,0:0:0:0:
490,75,183424,6,0,L|497:125,1,47.9999985351563,6|2,1:2|0:0,0:0:0:0:
449,188,183696,2,0,L|442:238,1,47.9999985351563,2|2,0:0|0:0,0:0:0:0:
441,263,184105,5,2,0:0:0:0:
369,222,184242,1,2,0:0:0:0:
294,254,184378,2,0,P|288:273|279:311,1,47.9999985351563,2|2,0:0|1:2,0:0:0:0:
204,343,184651,5,2,0:0:0:0:
132,384,184788,1,2,0:0:0:0:
57,352,184924,2,0,P|51:333|42:295,1,47.9999985351563,2|10,0:0|0:0,0:0:0:0:
89,226,185196,1,0,0:0:0:0:
89,226,185333,2,0,P|95:207|104:169,1,47.9999985351563,2|2,0:0|0:0,0:0:0:0:
65,106,185605,5,2,1:2:0:0:
42,91,185878,2,0,L|12:98,2,23.9999992675781,2|2|2,0:0|0:0|0:0,0:0:0:0:
75,70,186151,2,0,L|128:73,1,47.9999985351563,10|2,0:0|0:0,0:0:0:0:
206,34,186424,2,0,L|259:31,1,47.9999985351563,2|2,0:0|0:0,0:0:0:0:
338,82,186696,1,2,1:2:0:0:
338,82,186833,1,2,0:0:0:0:
402,32,186969,1,2,0:0:0:0:
466,82,187105,2,0,B|448:110|448:110|460:174,1,95.9999970703126,2|0,0:0|0:0,0:0:0:0:
482,251,187515,1,2,0:0:0:0:
504,329,187651,1,2,0:0:0:0:
425,309,187787,6,0,P|380:279|330:271,1,95.9999970703126,2|2,1:2|0:0,0:0:0:0:
257,269,188196,1,2,0:0:0:0:
199,326,188333,2,0,P|154:356|104:364,1,95.9999970703126,10|2,0:0|0:0,0:0:0:0:
31,366,188742,1,2,0:0:0:0:
1,290,188878,2,0,L|9:234,1,47.9999985351563,2|2,1:2|0:0,0:0:0:0:
70,189,189151,2,0,L|62:133,1,47.9999985351563,2|2,0:0|0:0,0:0:0:0:
0,89,189424,1,10,0:0:0:0:
16,66,189696,5,2,0:0:0:0:
16,66,189833,1,2,0:0:0:0:
94,44,189969,2,0,L|113:-7,2,47.9999985351563,2|2|2,1:2|0:0|0:0,0:0:0:0:
157,95,190378,1,2,0:0:0:0:
223,47,190515,2,0,L|242:-4,2,47.9999985351563,10|2|2,0:0|0:0|0:0,0:0:0:0:
278,107,190924,1,2,0:0:0:0:
338,161,191060,6,0,P|368:167|397:170,1,47.9999985351563,2|2,1:2|0:0,0:0:0:0:
281,225,191333,2,0,P|251:231|222:234,1,47.9999985351563,2|2,0:0|0:0,0:0:0:0:
354,269,191605,1,10,0:0:0:0:
352,350,191742,1,2,0:0:0:0:
277,382,191878,2,0,P|247:376|218:373,1,47.9999985351563,2|2,0:0|0:0,0:0:0:0:
118,384,192151,1,2,1:2:0:0:
139,361,192424,6,0,L|146:327,3,23.9999992675781,2|2|2|2,0:0|0:0|0:0|0:0,0:0:0:0:
114,307,192696,2,0,L|108:255,1,47.9999985351563,10|2,0:0|0:0,0:0:0:0:
27,236,192969,2,0,L|33:184,1,47.9999985351563,2|2,0:0|0:0,0:0:0:0:
4,114,193242,1,2,1:2:0:0:
4,114,193378,1,2,0:0:0:0:
49,45,193515,1,2,0:0:0:0:
129,57,193651,2,0,B|174:75|174:75|267:48,1,143.999995605469,2|2,0:0|0:0,0:0:0:0:
334,92,194196,1,2,0:0:0:0:
422,33,194333,5,2,1:2:0:0:
474,95,194469,2,0,L|479:123,5,23.9999992675781,2|2|2|2|2|2,0:0|0:0|0:0|0:0|0:0|0:0,0:0:0:0:
496,138,194878,2,0,L|491:188,1,47.9999985351563,10|2,0:0|0:0,0:0:0:0:
445,253,195151,1,2,0:0:0:0:
498,330,195287,6,0,B|461:298|461:298|368:319,1,143.999995605469,2|2,0:0|0:0,0:0:0:0:
290,343,195833,1,2,0:0:0:0:
220,299,195969,2,0,B|199:257|199:257|218:209,1,95.9999970703126,10|2,0:0|0:0,0:0:0:0:
250,136,196378,1,2,0:0:0:0:
190,49,196515,6,0,B|126:53|128:102|61:105,1,143.999995605469,2|2,1:2|0:0,0:0:0:0:
3,162,197060,2,0,P|-2:185|2:209,1,47.9999985351563,10|2,0:0|0:0,0:0:0:0:
75,245,197333,2,0,P|80:268|75:292,1,47.9999985351563,2|2,0:0|0:0,0:0:0:0:
30,358,197605,2,0,L|-24:362,2,47.9999985351563,2|2|2,1:2|0:0|0:0,0:0:0:0:
76,291,198015,1,2,0:0:0:0:
150,323,198151,2,0,P|172:326|200:321,1,47.9999985351563,10|2,0:0|0:0,0:0:0:0:
262,272,198424,1,2,0:0:0:0:
262,272,198560,1,2,0:0:0:0:
368,323,198696,5,2,1:2:0:0:
356,297,198969,1,2,0:0:0:0:
358,215,199105,2,0,L|359:163,1,47.9999985351563,2|10,0:0|0:0,0:0:0:0:
460,225,199378,1,2,0:0:0:0:
458,143,199514,2,0,L|457:91,1,47.9999985351563,2|2,0:0|0:0,0:0:0:0:
404,32,199787,2,0,P|370:21|348:18,2,47.9999985351563,2|2|2,1:2|0:0|0:0,0:0:0:0:
457,95,200196,2,0,P|491:87|512:79,2,47.9999985351563,2|10|2,0:0|0:0|0:0,0:0:0:0:
406,159,200605,1,2,0:0:0:0:
406,159,200742,1,2,0:0:0:0:
460,225,200878,5,6,1:2:0:0:
55,62,209605,6,0,B|185:62|148:202|299:183,1,287.999991210938,6|10,1:2|0:1,0:0:0:0:
282,75,211787,2,0,P|219:107|259:288,1,287.999991210938,0|10,1:2|0:1,0:0:0:0:
354,362,213969,6,0,B|399:346|399:346|445:359,3,95.9999970703126,0|8|8|8,1:2|0:1|0:1|0:1,0:0:0:0:
255,286,216151,2,0,B|210:270|210:270|163:283,1,95.9999970703126,0|8,1:2|0:1,0:0:0:0:
33,368,217242,1,0,0:0:0:0:
33,368,217787,2,0,P|46:337|42:316,1,47.9999985351563,2|2,0:1|0:1,0:0:0:0:
27,285,218333,2,0,P|66:308|133:289,1,107.999996704102,6|0,1:2|0:0,0:0:0:0:
150,269,218878,6,0,L|146:217,2,47.9999985351563,10|2|2,0:0|0:0|0:0,0:0:0:0:
203,331,219287,1,2,0:0:0:0:
264,277,219424,2,0,P|308:265|355:281,1,95.9999970703126,2|0,1:2|0:0,0:0:0:0:
419,331,219833,1,0,0:0:0:0:
484,282,219969,2,0,P|496:238|480:191,1,95.9999970703126,10|2,0:0|0:0,0:0:0:0:
423,132,220378,1,2,0:0:0:0:
471,66,220515,5,2,1:2:0:0:
471,66,221060,2,0,L|464:17,1,47.9999985351563,10|2,0:0|0:0,0:0:0:0:
423,132,221333,2,0,L|416:181,1,47.9999985351563,2|2,0:0|0:0,0:0:0:0:
361,71,221605,1,2,1:2:0:0:
287,107,221742,1,0,0:0:0:0:
209,81,221878,1,0,0:0:0:0:
209,81,222015,1,0,0:0:0:0:
150,137,222151,2,0,P|125:94|130:46,1,95.9999970703126,10|2,0:0|0:0,0:0:0:0:
60,4,222560,1,2,0:0:0:0:
0,106,222696,6,0,B|21:164|21:164|16:171|16:171|21:180|21:180|5:245,1,143.999995605469,2|0,1:2|0:0,0:0:0:0:
62,301,223242,2,0,L|110:295,1,47.9999985351563,10|2,0:0|0:0,0:0:0:0:
166,353,223515,2,0,L|214:347,1,47.9999985351563,2|2,0:0|0:0,0:0:0:0:
281,301,223787,1,2,1:2:0:0:
350,344,223924,1,0,0:0:0:0:
393,275,224060,1,0,0:0:0:0:
393,275,224196,1,0,0:0:0:0:
324,232,224333,2,0,P|307:185|317:142,1,95.9999970703126,10|2,0:0|0:0,0:0:0:0:
385,96,224742,1,2,0:0:0:0:
326,2,224878,5,2,1:2:0:0:
326,2,225424,2,0,L|378:4,1,47.9999985351563,10|2,0:0|0:0,0:0:0:0:
444,44,225696,1,2,0:0:0:0:
444,44,225833,1,2,0:0:0:0:
370,124,225969,2,0,P|357:173|372:217,2,95.9999970703126,2|2|10,1:2|0:0|0:0,0:0:0:0:
376,106,226787,1,2,0:0:0:0:
294,116,226924,1,2,0:0:0:0:
212,129,227060,6,0,B|194:24|194:24|161:55,1,143.999995605469,6|0,1:2|0:0,0:0:0:0:
113,131,227605,1,10,0:0:0:0:
45,84,227742,1,2,0:0:0:0:
3,153,227878,1,2,0:0:0:0:
3,153,228015,1,2,0:0:0:0:
54,241,228151,6,0,P|61:299|66:341,1,95.9999970703126,2|0,1:2|0:0,0:0:0:0:
147,365,228560,1,0,0:0:0:0:
147,365,228696,2,0,P|160:308|169:266,1,95.9999970703126,10|2,0:0|0:0,0:0:0:0:
242,235,229105,1,2,0:0:0:0:
307,330,229242,6,0,P|349:363|434:345,1,143.999995605469,2|0,1:2|0:0,0:0:0:0:
449,266,229787,2,0,L|442:217,1,47.9999985351563,10|2,0:0|0:0,0:0:0:0:
490,152,230060,2,0,L|483:103,1,47.9999985351563,2|2,0:0|0:0,0:0:0:0:
415,59,230332,1,2,1:2:0:0:
333,56,230469,1,0,0:0:0:0:
255,54,230605,1,0,0:0:0:0:
255,54,230742,1,0,0:0:0:0:
180,20,230878,2,0,P|203:92|204:112,1,95.9999970703126,10|2,0:0|0:0,0:0:0:0:
136,158,231287,1,2,0:0:0:0:
45,108,231424,6,0,B|20:145|20:145|49:246,1,143.999995605469,2|0,1:2|0:0,0:0:0:0:
110,291,231969,2,0,L|158:285,1,47.9999985351563,10|2,0:0|0:0,0:0:0:0:
249,218,232242,2,0,L|201:212,1,47.9999985351563,2|2,0:0|0:0,0:0:0:0:
136,158,232514,1,2,1:2:0:0:
136,76,232651,1,0,0:0:0:0:
210,39,232787,1,0,0:0:0:0:
210,39,232923,1,0,0:0:0:0:
272,91,233060,2,0,B|318:102|318:102|371:88,1,95.9999970703126,10|2,0:0|0:0,0:0:0:0:
421,29,233469,1,2,0:0:0:0:
501,95,233605,5,2,1:2:0:0:
501,95,234151,2,0,L|499:147,1,47.9999985351563,10|2,0:0|0:0,0:0:0:0:
464,218,234423,1,2,0:0:0:0:
464,218,234560,1,2,0:0:0:0:
496,292,234696,5,2,1:2:0:0:
489,320,234969,5,2,0:0:0:0:
482,348,235242,6,0,L|420:341,1,47.9999985351563,10|2,0:0|0:0,0:0:0:0:
350,300,235515,2,0,L|288:307,1,47.9999985351563,2|2,0:0|0:0,0:0:0:0:
214,349,235787,5,6,1:2:0:0:
186,363,236060,2,0,P|188:342|182:315,1,47.9999985351563,2|0,0:0|0:0,0:0:0:0:
145,240,236333,2,0,P|129:194|141:148,1,95.9999970703126,10|2,0:0|0:0,0:0:0:0:
203,92,236742,1,2,0:0:0:0:
278,121,236878,2,0,L|380:124,2,95.9999970703126,2|2|10,1:2|0:0|0:0,0:0:0:0:
278,121,237696,2,0,L|284:174,1,47.9999985351563,0|0,0:0|0:0,0:0:0:0:
182,72,237969,6,0,B|138:63|138:63|112:50|112:50|87:64|87:64|45:71,1,143.999995605469,2|0,1:2|0:0,0:0:0:0:
8,143,238515,2,0,P|49:189|47:269,1,143.999995605469,10|2,0:0|0:0,0:0:0:0:
5,337,239060,2,0,L|55:347,1,47.9999985351563,2|0,1:2|0:0,0:0:0:0:
130,321,239333,2,0,L|180:331,1,47.9999985351563,2|0,0:0|0:0,0:0:0:0:
255,305,239605,2,0,L|305:315,1,47.9999985351563,10|0,0:0|0:0,0:0:0:0:
369,361,239878,1,0,0:0:0:0:
369,361,240014,1,0,0:0:0:0:
459,283,240151,6,0,B|453:246|453:246|474:185|474:185|465:137,1,143.999995605469,2|0,1:2|0:0,0:0:0:0:
495,51,240696,2,0,P|457:105|388:92,1,143.999995605469,10|2,0:0|0:0,0:0:0:0:
323,41,241242,2,0,L|274:47,1,47.9999985351563,2|0,1:2|0:0,0:0:0:0:
230,115,241515,2,0,L|236:164,1,47.9999985351563,2|0,0:0|0:0,0:0:0:0:
190,230,241787,2,0,L|81:221,1,95.9999970703126,10|0,0:0|0:0,0:0:0:0:
24,179,242196,1,0,0:0:0:0:
23,63,242333,6,0,B|94:58|94:58|99:62|99:62|165:57,1,143.999995605469,2|0,1:2|0:0,0:0:0:0:
230,115,242878,2,0,L|330:122,1,95.9999970703126,10|0,0:0|0:0,0:0:0:0:
395,174,243287,1,2,0:0:0:0:
395,174,243424,2,0,P|411:217|400:264,2,95.9999970703126,2|2|10,1:2|0:0|0:0,0:0:0:0:
395,174,244242,1,2,0:0:0:0:
318,200,244378,1,2,0:0:0:0:
240,223,244514,5,6,1:2:0:0:
215,216,244787,2,0,L|162:209,1,47.9999985351563,2|0,0:0|0:0,0:0:0:0:
279,298,245060,2,0,L|375:285,1,95.9999970703126,10|2,0:0|0:0,0:0:0:0:
210,345,245469,1,2,0:0:0:0:
135,295,245605,2,0,B|115:338|115:338|130:387,2,95.9999970703126,2|2|10,1:2|0:0|0:0,0:0:0:0:
135,295,246423,2,0,L|83:291,1,47.9999985351563,0|0,0:0|0:0,0:0:0:0:
18,193,246696,6,0,B|16:131|16:131|7:115|7:115|5:49,1,143.999995605469,2|0,1:2|0:0,0:0:0:0:
76,12,247241,2,0,B|114:27|114:27|166:3|166:3|211:21,1,143.999995605469,10|2,0:0|0:0,0:0:0:0:
257,85,247787,2,0,L|263:134,1,47.9999985351563,2|0,1:2|0:0,0:0:0:0:
228,207,248060,2,0,L|222:256,1,47.9999985351563,2|0,0:0|0:0,0:0:0:0:
266,323,248333,2,0,L|332:318,1,47.9999985351563,10|0,0:0|0:0,0:0:0:0:
377,378,248605,1,0,0:0:0:0:
377,378,248741,1,0,0:0:0:0:
474,293,248878,6,0,B|477:223|440:225|438:153,1,143.999995605469,2|0,1:2|0:0,0:0:0:0:
510,118,249423,2,0,L|361:111,1,143.999995605469,10|2,0:0|0:0,0:0:0:0:
292,147,249969,2,0,P|258:132|241:119,1,47.9999985351563,2|0,1:2|0:0,0:0:0:0:
180,81,250242,2,0,P|146:96|129:109,1,47.9999985351563,2|0,0:0|0:0,0:0:0:0:
83,163,250514,2,0,B|99:207|99:207|91:260,1,95.9999970703126,10|0,0:0|0:0,0:0:0:0:
33,313,250923,1,0,0:0:0:0:
122,374,251060,6,0,B|165:372|190:356|190:356|215:374|260:375,1,143.999995605469,2|0,1:2|0:0,0:0:0:0:
323,324,251605,2,0,P|334:276|322:231,1,95.9999970703126,10|0,0:0|0:0,0:0:0:0:
263,175,252014,1,2,0:0:0:0:
307,106,252151,5,2,1:2:0:0:
289,80,252424,5,2,0:0:0:0:
271,54,252696,6,0,L|224:50,1,47.9999985351563,10|0,0:0|0:0,0:0:0:0:
141,42,252969,1,2,0:0:0:0:
60,33,253105,1,2,0:0:0:0:
0,89,253242,5,6,1:0:0:0:
