osu file format v14

[General]
AudioFilename: audio.mp3
AudioLeadIn: 0
PreviewTime: 62416
Countdown: 1
SampleSet: None
StackLeniency: 0.2
Mode: 0
LetterboxInBreaks: 0
WidescreenStoryboard: 0

[Editor]
Bookmarks: 66,12866,25666,38466,51266,64066,76866,89666,102466,115266,128066
DistanceSpacing: 2.1
BeatDivisor: 4
GridSize: 32
TimelineZoom: 2.1

[Metadata]
Title:Senses Overload (EH!DE x Skyloud Remix)
TitleUnicode:Senses Overload (EH!DE x Skyloud Remix)
Artist:Teminite & Psognar
ArtistUnicode:Teminite & Psognar
Creator:Emboriar
Version:Overflow
Source:
Tags:
BeatmapID:1872754
BeatmapSetID:896367

[Difficulty]
HPDrainRate:5
CircleSize:4
OverallDifficulty:8
ApproachRate:9.3
SliderMultiplier:1.5
SliderTickRate:1

[Events]
//Background and Video events
0,0,"ehmhm.png",0,0
//Break Periods
//Storyboard Layer 0 (Background)
//Storyboard Layer 1 (Fail)
//Storyboard Layer 2 (Pass)
//Storyboard Layer 3 (Foreground)
//Storyboard Sound Samples

[TimingPoints]
66.2347179394158,400,4,1,0,100,1,0
25666,-50,4,1,0,100,0,0
27266,-36.3636363636364,4,1,0,100,0,0
27466,-50,4,1,0,100,0,0
27666,-80,4,1,0,100,0,0
27866,-200,4,1,0,100,0,0
28266,-80,4,1,0,100,0,0
28466,-50,4,1,0,100,0,0
28666,-50,4,1,0,100,0,0
29266,-125,4,1,0,100,0,0
29666,-50,4,1,0,100,0,0
30466,-36.3636363636364,4,1,0,100,0,0
30666,-50,4,1,0,100,0,0
30866,-80,4,1,0,100,0,0
31066,-200,4,1,0,100,0,0
31266,-50,4,1,0,100,0,0
32066,-50,4,1,0,100,0,0
33666,-36.3636363636364,4,1,0,100,0,0
33866,-50,4,1,0,100,0,0
34066,-80,4,1,0,100,0,0
34266,-200,4,1,0,100,0,0
34666,-80,4,1,0,100,0,0
34866,-50,4,1,0,100,0,0
35066,-36.3636363636364,4,1,0,100,0,0
35266,-50,4,1,0,100,0,0
35666,-100,4,1,0,100,0,0
36066,-50,4,1,0,100,0,0
36866,-36.3636363636364,4,1,0,100,0,0
37066,-50,4,1,0,100,0,0
37266,-80,4,1,0,100,0,0
37466,-200,4,1,0,100,0,0
38466,-50,4,1,0,100,0,0
40066,-36.3636363636364,4,1,0,100,0,0
40266,-50,4,1,0,100,0,0
40466,-80,4,1,0,100,0,0
40666,-200,4,1,0,100,0,0
41066,-80,4,1,0,100,0,0
41266,-50,4,1,0,100,0,0
41466,-36.3636363636364,4,1,0,100,0,0
41666,-50,4,1,0,100,0,0
42066,-100,4,1,0,100,0,0
42466,-50,4,1,0,100,0,0
43266,-36.3636363636364,4,1,0,100,0,0
43466,-50,4,1,0,100,0,0
43666,-80,4,1,0,100,0,0
43866,-200,4,1,0,100,0,0
44066,-50,4,1,0,100,0,0
44866,-50,4,1,0,100,0,0
46466,-36.3636363636364,4,1,0,100,0,0
46666,-50,4,1,0,100,0,0
46866,-80,4,1,0,100,0,0
47066,-200,4,1,0,100,0,0
47266,-50,4,1,0,100,0,0
47666,-36.3636363636364,4,1,0,100,0,0
48066,-50,4,1,0,100,0,0
48466,-100,4,1,0,100,0,0
48866,-50,4,1,0,100,0,0
49266,-66.6666666666667,4,1,0,100,0,0
50066,-100,4,1,0,100,0,0
50466,-200,4,1,0,100,0,0
50866,-400,4,1,0,100,0,0
51266,-125,4,1,0,100,0,0
52866,-83.3333333333333,4,1,0,100,0,0
54466,-62.5,4,1,0,100,0,0
56066,-50,4,1,0,100,0,0
57666,-285.714285714286,4,1,0,100,0,0
59266,-200,4,1,0,100,0,0
59666,-100,4,1,0,100,0,0
60066,-66.6666666666667,4,1,0,100,0,0
60466,-50,4,1,0,100,0,0
60866,-33.3333333333333,4,1,0,100,0,0
62066,-28.5714285714286,4,1,0,100,0,0
62266,-22,4,1,0,100,0,0
63266,-166.666666666667,4,1,0,100,0,0
64066,-33.3333333333333,4,1,0,100,0,1
64466,-20,4,1,0,100,0,1
64866,-50,4,1,0,100,0,1
66866,-33.3333333333333,4,1,0,100,0,1
67266,-33.3333333333333,4,1,0,100,0,1
67666,-20,4,1,0,100,0,1
68066,-36.3636363636364,4,1,0,100,0,1
68866,-80,4,1,0,100,0,1
69266,-36.3636363636364,4,1,0,100,0,1
69666,-200,4,1,0,100,0,1
70066,-33.3333333333333,4,1,0,100,0,1
70866,-20,4,1,0,100,0,1
71266,-100,4,1,0,100,0,1
71666,-50,4,1,0,100,0,1
71866,-100,4,1,0,100,0,1
72266,-50,4,1,0,100,0,1
72866,-142.857142857143,4,1,0,100,0,0
73666,-153.846153846154,4,1,0,100,0,0
74466,-76.9230769230769,4,1,0,100,0,0
74866,-333.333333333333,4,1,0,100,0,0
76066,-200,4,1,0,100,0,0
76266,-100,4,1,0,100,0,0
76466,-66.6666666666667,4,1,0,100,0,0
76666,-50,4,1,0,100,0,0
76866,-33.3333333333333,4,1,0,100,0,1
77666,-166.666666666667,4,1,0,100,0,1
77866,-50,4,1,0,100,0,1
78066,-25,4,1,0,100,0,1
78466,-50,4,1,0,100,0,1
78866,-25,4,1,0,100,0,1
79066,-50,4,1,0,100,0,1
79666,-33.3333333333333,4,1,0,100,0,1
80466,-20,4,1,0,100,0,1
80866,-100,4,1,0,100,0,1
82466,-200,4,1,0,100,0,1
82866,-33.3333333333333,4,1,0,100,0,1
84066,-166.666666666667,4,1,0,100,0,1
84266,-50,4,1,0,100,0,1
84466,-33.3333333333333,4,1,0,100,0,1
84566,-66.6666666666667,4,1,0,100,0,1
85066,-90.9090909090909,4,1,0,100,0,1
85266,-142.857142857143,4,1,0,100,0,1
85466,-333.333333333333,4,1,0,100,0,1
85666,-100,4,1,0,100,0,1
85866,-57.1428571428571,4,1,0,100,0,1
86066,-40,4,1,0,100,0,1
86266,-30.7692307692308,4,1,0,100,0,1
86466,-153.846153846154,4,1,0,100,0,0
87266,-76.9230769230769,4,1,0,100,0,0
87666,-333.333333333333,4,1,0,100,0,0
89666,-142.857142857143,4,1,0,100,0,0
102466,-33.3333333333333,4,1,0,100,0,1
102866,-66.6666666666667,4,1,0,100,0,1
103132,-100,4,1,0,100,0,1
103266,-50,4,1,0,100,0,1
105266,-100,4,1,0,100,0,1
105666,-33.3333333333333,4,1,0,100,0,1
106066,-20,4,1,0,100,0,1
106466,-36.3636363636364,4,1,0,100,0,1
107266,-80,4,1,0,100,0,1
107666,-36.3636363636364,4,1,0,100,0,1
107932,-166.666666666667,4,1,0,100,0,1
108066,-200,4,1,0,100,0,1
108466,-50,4,1,0,100,0,1
108866,-33.3333333333333,4,1,0,100,0,1
109266,-20,4,1,0,100,0,1
109666,-50,4,1,0,100,0,1
110066,-100,4,1,0,100,0,1
111266,-100,4,1,0,100,0,0
112066,-153.846153846154,4,1,0,100,0,0
112866,-76.9230769230769,4,1,0,100,0,0
113266,-333.333333333333,4,1,0,100,0,0
114466,-200,4,1,0,100,0,0
114732,-100,4,1,0,100,0,0
114866,-66.6666666666667,4,1,0,100,0,0
115132,-50,4,1,0,100,0,0
115266,-33.3333333333333,4,1,0,100,0,1
116199,-50,4,1,0,100,0,1
116866,-100,4,1,0,100,0,1
117266,-50,4,1,0,100,0,1
117666,-100,4,1,0,100,0,1
118066,-33.3333333333333,4,1,0,100,0,1
118466,-33.3333333333333,4,1,0,100,0,1
118866,-20,4,1,0,100,0,1
119266,-100,4,1,0,100,0,1
120866,-200,4,1,0,100,0,1
121266,-33.3333333333333,4,1,0,100,0,1
122066,-100,4,1,0,100,0,1
122466,-166.666666666667,4,1,0,100,0,1
122666,-50,4,1,0,100,0,1
122866,-50,4,1,0,100,0,1
122999,-66.6666666666667,4,1,0,100,0,1
124066,-142.857142857143,4,1,0,100,0,0
124866,-153.846153846154,4,1,0,100,0,0
125666,-76.9230769230769,4,1,0,100,0,0
126066,-333.333333333333,4,1,0,100,0,0

[Colours]
Combo1 : 73,203,245
Combo2 : 243,18,159
Combo3 : 10,98,245
Combo4 : 164,32,101

[HitObjects]
256,192,24066,12,0,25566,0:0:0:0:
33,225,25666,6,0,B|51:161|141:144|200:189|159:251|99:211,1,225
86,363,26066,6,0,P|78:318|86:274,1,75
236,197,26266,1,0,0:0:0:0:
236,197,26366,1,0,0:0:0:0:
279,126,26466,6,0,B|241:104|241:66|241:66|232:102|193:122,1,150
194,121,26866,6,0,B|138:152|138:210|138:210|124:156|66:126,1,225
119,67,27266,6,0,P|130:31|130:65,1,103.125000983477
299,13,27466,2,0,P|323:0|305:18,1,75
417,115,27666,6,0,P|407:134|389:151,1,46.875
402,231,27866,2,0,P|392:234|380:234,1,18.75
402,231,28066,6,0,P|392:234|380:234,1,18.75
417,115,28266,2,0,P|407:134|389:151,1,46.875
299,13,28466,6,0,P|323:0|305:18,1,75
119,67,28666,2,0,P|130:31|130:65,1,103.125000983477
171,335,28866,6,0,B|214:311|238:249|238:249|250:313|303:348,1,225
469,151,29266,6,0,L|442:146,1,20
415,218,29399,2,0,L|424:243,1,20
500,231,29532,2,0,L|517:210,1,20
378,107,29666,6,0,B|290:68|290:68|311:124,1,150
308,118,30066,6,0,B|277:35|277:35|408:91,1,225
303,202,30466,6,0,B|275:244|275:244|282:192,1,103.125000983477
356,304,30666,2,0,B|363:340|363:340|339:309,1,75
472,268,30866,6,0,L|417:257,1,46.875
512,342,31066,2,0,L|484:347,1,18.75
480,257,31266,6,0,L|398:241,1,75
400,128,31466,2,0,P|437:140|463:177,1,75
345,192,31666,5,0,0:0:0:0:
318,123,31766,1,0,0:0:0:0:
340,207,31866,1,0,0:0:0:0:
304,121,31966,1,0,0:0:0:0:
293,283,32066,6,0,B|218:324|156:268|156:268|191:293|240:280,1,225
99,63,32466,6,0,P|130:43|179:39,1,75
102,211,32666,1,0,0:0:0:0:
102,211,32766,1,0,0:0:0:0:
54,137,32866,6,0,B|11:199|11:199|47:290,1,150
38,268,33266,6,0,B|28:337|28:337|178:261,1,225
146,132,33666,6,0,B|196:143|196:143|181:203,1,103.125000983477
243,263,33866,2,0,B|261:293|261:293|225:315,1,75
165,384,34066,6,0,B|166:360|166:360|174:383,1,46.875
96,342,34266,2,0,L|99:318,1,18.75
96,342,34466,6,0,L|99:318,1,18.75
165,384,34666,2,0,B|166:360|166:360|174:383,1,46.875
243,263,34866,6,0,B|261:293|261:293|225:315,1,75
146,132,35066,2,0,B|196:143|196:143|181:203,1,103.125000983477
413,128,35266,6,0,B|257:90|257:90|301:147,1,225
469,272,35666,6,0,L|475:237,1,25
393,258,35799,2,0,L|399:223,1,25
317,244,35932,2,0,L|323:209,1,25
425,334,36066,6,0,B|452:369|452:369|344:343,1,150
349,344,36466,6,0,B|193:306|193:306|237:363,1,225
121,339,36866,6,0,B|100:329|70:329|70:329|99:319|114:295,1,103.125000983477
25,215,37066,2,0,B|19:199|4:185|4:185|24:194|43:190,1,75
82,59,37266,6,0,P|94:82|95:108,1,46.875
162,6,37466,2,0,P|158:18|149:27,1,18.75
191,95,37666,6,0,P|203:92|216:95,1,18.75
253,25,37866,2,0,P|244:15|240:3,1,18.75
268,149,38066,5,0,0:0:0:0:
270,161,38166,1,0,0:0:0:0:
275,154,38266,1,0,0:0:0:0:
263,156,38366,1,0,0:0:0:0:
331,96,38466,6,0,B|361:65|363:19|363:19|367:102|423:158,1,225
488,293,38866,6,0,P|495:249|485:207,1,75
356,206,39066,1,0,0:0:0:0:
356,206,39166,1,0,0:0:0:0:
420,249,39266,6,0,B|398:287|414:319|414:319|393:289|346:282,1,150
349,283,39666,6,0,B|287:300|270:350|270:350|279:297|237:241,1,225
272,165,40066,6,0,P|285:138|266:165,1,103.125000983477
81,140,40266,2,0,P|74:120|78:143,1,75
0,275,40466,6,0,P|24:284|55:280,1,46.875
69,363,40666,2,0,P|82:357|92:343,1,18.75
69,363,40866,6,0,P|82:357|92:343,1,18.75
0,275,41066,2,0,P|24:284|55:280,1,46.875
81,140,41266,6,0,P|74:120|78:143,1,75
272,165,41466,2,0,P|285:138|266:165,1,103.125000983477
165,380,41666,6,0,B|197:322|146:249|146:249|129:210|167:151,1,225
15,33,42066,6,0,L|6:75,1,25
85,90,42199,2,0,L|108:126,1,25
174,80,42332,2,0,L|216:88,1,25
18,136,42466,6,0,B|7:240|7:240|43:199,1,150
36,205,42866,6,0,B|109:186|109:186|175:221|175:221|274:194,1,225
295,132,43266,6,0,B|295:81|295:81|267:124,1,103.125000983477
413,180,43466,2,0,B|439:153|439:153|402:160,1,75
444,327,43666,6,0,L|403:274,1,46.875
368,384,43866,2,0,L|372:350,1,18.75
461,328,44066,6,0,L|413:266,1,75
291,274,44266,2,0,L|339:212,1,75
422,76,44466,5,0,0:0:0:0:
496,98,44566,1,0,0:0:0:0:
415,59,44666,1,0,0:0:0:0:
512,91,44766,1,0,0:0:0:0:
379,139,44866,6,0,B|272:103|152:91,1,225
17,221,45266,6,0,P|55:217|100:199,1,75
95,40,45466,1,0,0:0:0:0:
95,40,45566,1,0,0:0:0:0:
37,99,45666,6,0,B|69:167|69:167|15:222,1,150
16,220,46066,6,0,B|5:378|5:378|54:317,1,225
161,278,46466,6,0,B|134:233|134:233|85:261,1,103.125000983477
241,112,46666,2,0,B|250:75|250:75|210:64,1,75
380,178,46866,6,0,L|430:154,1,46.875
477,215,47066,2,0,L|503:224,1,18.75
414,345,47266,6,0,P|377:341|344:311,1,75
265,317,47466,2,0,P|241:288|239:243,1,75
474,29,47666,6,0,P|427:44|394:92,1,103.125000983477
320,119,47866,2,0,P|298:162|308:220,1,103.125000983477
65,319,48066,6,0,B|113:292|113:292|165:320|165:320|114:353|114:353|63:332,1,225
7,42,48466,6,0,L|4:17,1,25
18,143,48599,2,0,L|15:118,1,25
29,244,48732,2,0,L|26:219,1,25
119,127,48866,6,0,B|135:21|135:21|97:66,1,150
107,54,49266,6,0,B|183:22|192:106|269:73,1,168.750006437302
346,34,49666,6,0,B|349:5|349:5|333:30,1,56.2500021457673
409,102,49866,2,0,B|426:78|426:78|399:92,1,56.2500021457673
451,183,50066,6,0,L|404:177,1,37.5
451,202,50266,2,0,L|404:196,1,37.5
499,288,50466,6,0,L|494:264,1,18.75
502,306,50666,2,0,L|497:282,1,18.75
448,369,50866,6,0,L|450:355,3,9.375
327,161,51266,5,0,0:0:0:0:
334,190,51466,6,0,L|325:153,1,30
298,152,51666,2,0,L|333:162,1,30
348,140,51866,2,0,L|321:165,1,30
272,340,52066,5,0,0:0:0:0:
182,352,52466,6,0,L|282:338,1,90
115,300,52866,5,0,0:0:0:0:
80,269,53066,6,0,L|113:298,1,44.999998626709
157,285,53266,2,0,L|114:299,1,44.999998626709
105,343,53467,2,0,L|113:298,1,44.999998626709
37,75,53666,5,0,0:0:0:0:
170,92,54066,6,0,L|25:73,1,134.999995880127
228,163,54466,5,0,0:0:0:0:
252,108,54666,6,0,L|218:185,1,60
263,210,54866,2,0,L|212:142,1,60
168,170,55066,2,0,L|251:159,1,60
441,35,55266,5,0,0:0:0:0:
419,207,55666,6,0,P|408:136|448:24,1,180
361,281,56066,5,0,0:0:0:0:
329,213,56266,6,0,L|361:280,1,75
318,342,56466,2,0,L|360:280,1,75
436,286,56666,2,0,L|361:280,1,75
125,214,56866,5,0,0:0:0:0:
51,318,57266,6,0,P|14:260|133:224,1,225
154,285,57666,6,0,L|152:304,1,13.1249995994568
118,123,57866,1,0,0:0:0:0:
171,295,58066,6,0,L|169:314,1,13.1249995994568
217,56,58266,1,0,0:0:0:0:
188,305,58466,6,0,L|186:324,1,13.1249995994568
369,82,58666,1,0,0:0:0:0:
205,315,58866,6,0,L|203:334,1,13.1249995994568
497,219,59066,1,0,0:0:0:0:
309,34,59266,6,0,L|311:5,1,18.75
424,244,59466,2,0,L|426:273,1,18.75
233,56,59666,6,0,L|235:17,1,37.5
351,266,59866,2,0,L|353:304,1,37.5
156,77,60066,6,0,L|161:18,1,56.2500021457673
278,288,60266,2,0,L|281:344,1,56.2500021457673
78,97,60466,6,0,L|84:21,1,75
205,310,60666,2,0,L|210:385,1,75
0,227,60866,6,0,P|16:189|50:167,2,75.000002861023
102,310,61066,2,0,P|77:277|75:236,2,75.000002861023
201,51,61266,6,0,P|225:83|227:124,2,75.000002861023
78,97,61466,2,0,P|118:92|154:110,2,75.000002861023
252,313,61666,6,0,P|211:317|175:299,2,75.000002861023
274,183,61866,2,0,P|257:220|223:242,2,75.000002861023
150,212,62066,6,0,P|143:183|158:211,2,87.500000834465
332,69,62266,6,0,P|340:31|319:66,2,113.636363636364
355,343,62466,5,0,0:0:0:0:
355,343,63266,6,0,L|363:266,1,67.4999979400635
416,219,63666,2,0,L|447:211,1,22.4999993133545
354,167,63866,2,0,L|323:159,1,22.4999993133545
40,316,64066,6,0,B|91:229|181:224|239:268|250:319|219:364|156:374|115:345,1,337.500012874604
70,241,64466,6,0,P|61:201|56:137,6,93.75
331,108,64866,5,0,0:0:0:0:
220,113,64999,2,0,B|264:106|264:106|272:101|272:101|319:93,1,100
396,307,65266,5,0,0:0:0:0:
285,302,65399,2,0,B|329:309|329:309|337:314|337:314|384:322,1,100
149,147,65666,5,0,0:0:0:0:
154,36,65799,2,0,B|147:80|147:80|142:88|142:88|134:135,1,100
39,356,66066,5,0,0:0:0:0:
34,245,66199,2,0,B|41:289|41:289|46:297|46:297|54:344,1,100
240,225,66466,5,0,0:0:0:0:
139,218,66599,2,0,P|197:249|250:215,1,100
473,80,66866,6,0,B|484:48|481:24|481:24|460:43|456:75,1,112.500004291535
425,279,67066,2,0,B|446:304|468:313|468:313|463:286|438:268,1,112.500004291535
246,68,67266,6,0,B|316:33|316:33|394:200|394:200|317:249,1,337.500012874604
167,115,67666,6,0,B|157:88|169:63|169:63|167:90|181:113,6,93.75
53,343,68066,5,0,0:0:0:0:
0,284,68166,2,0,B|-7:258|-7:258|15:282,1,51.5625004917383
92,274,68266,2,0,B|114:258|114:258|98:288,1,51.5625004917383
130,358,68366,2,0,B|151:374|151:374|118:368,1,51.5625004917383
185,292,68466,6,0,B|212:292|212:292|181:307,1,51.5625004917383
178,215,68566,2,0,B|186:189|186:189|191:222,1,51.5625004917383
103,185,68666,2,0,B|61:151|61:151|94:96,1,103.125000983477
283,352,68866,6,0,B|314:353|333:320|333:320|301:347|236:346,1,140.625
403,347,69266,6,0,B|419:326|419:326|413:357,1,51.5625004917383
482,285,69366,2,0,B|472:259|472:259|496:281,1,51.5625004917383
467,185,69466,2,0,B|440:180|440:180|471:170,1,51.5625004917383
372,147,69566,2,0,B|355:167|355:167|361:136,1,51.5625004917383
378,254,69666,6,0,P|390:257|376:245,1,56.25
299,224,70066,6,0,B|268:211|259:185|259:185|264:212|241:236,1,112.500004291535
115,344,70266,2,0,B|84:356|75:382|75:382|80:355|57:331,1,112.500004291535
15,132,70466,6,0,B|42:106|53:39|53:39|39:176|109:283,1,337.500012874604
182,188,70866,6,0,P|145:181|170:202,6,93.75
255,22,71266,5,0,0:0:0:0:
242,110,71366,2,0,L|267:101,1,18.75
242,110,71466,2,0,L|237:136,1,18.75
242,110,71566,2,0,L|221:92,1,18.75
328,58,71666,6,0,B|339:45|362:48|362:48|348:66|330:68,1,75
334,340,71866,6,0,L|313:357,1,18.75
334,340,71966,2,0,L|328:313,1,18.75
410,356,72066,1,0,0:0:0:0:
463,298,72166,2,0,L|477:277,1,18.75
424,219,72266,6,0,B|433:203|427:181|427:181|411:197|414:214,1,75
288,255,72466,6,0,P|302:221|354:210,1,75
228,349,72666,2,0,B|218:333|224:311|224:311|240:327|237:344,1,75
107,161,72866,6,0,L|21:153,1,78.7499975967408
20,160,73266,2,0,P|41:178|28:152,1,78.7499975967408
405,53,73666,6,0,B|301:43|301:43|329:81,1,146.249993305207
91,233,74466,6,0,B|194:223|194:223|167:261,1,146.249993305207
261,366,74866,6,0,L|269:240,1,123.74999622345
327,188,76066,6,0,L|345:177,1,18.75
374,277,76266,2,0,L|415:288,1,37.5
262,125,76466,6,0,B|283:105|283:105|275:132,1,56.2500021457673
342,363,76666,2,0,B|369:388|369:388|358:353,1,75
7,210,76866,6,0,B|95:134|184:243|125:246|226:350|306:289,1,337.500012874604
63,262,77266,6,0,B|49:290|54:317|54:317|71:295|69:264,1,112.500004291535
186,85,77466,2,0,B|172:57|177:30|177:30|194:52|192:83,1,112.500004291535
462,189,77666,6,0,L|427:182,1,22.4999993133545
452,113,77866,6,0,L|463:216,1,75
293,297,78066,6,0,L|283:384,1,75
311,292,78166,2,0,L|301:379,1,75
390,258,78266,6,0,L|380:345,1,75
408,253,78366,2,0,L|398:340,1,75
461,188,78466,6,0,L|452:113,1,75
268,103,78666,2,0,L|259:28,1,75
129,281,78866,6,0,L|119:368,1,75
147,276,78966,2,0,L|137:363,1,75
208,222,79066,6,0,L|199:147,1,75
473,163,79266,2,0,L|464:88,1,75
132,74,79466,2,0,L|123:-1,1,75
247,288,79666,6,0,B|272:304|285:328|285:328|281:301|299:268,1,112.500004291535
414,75,79866,2,0,B|439:58|452:34|452:34|448:61|464:89,1,112.500004291535
504,365,80066,6,0,B|416:375|369:238|422:286|374:125|253:159,1,337.500012874604
208,352,80466,6,0,P|170:320|171:276,6,93.75
96,256,80866,6,0,P|91:270|90:283,1,25
200,142,80999,2,0,P|190:130|179:123,1,25
247,288,81132,2,0,P|261:285|273:279,1,25
91,166,81266,6,0,P|72:160|50:160,1,37.5
56,144,81466,2,0,P|74:144|92:150,1,37.5
284,362,81666,6,0,P|303:368|325:368,1,37.5
319,384,81866,2,0,P|301:384|283:378,1,37.5
353,275,82066,6,0,P|347:255|336:236,1,37.5
353,233,82266,2,0,P|361:248|365:267,1,37.5
447,40,82466,6,0,B|459:26|459:26|457:64,1,56.25
396,118,82866,6,0,P|349:150|265:146,1,112.500004291535
126,274,83066,2,0,P|79:242|-5:246,1,112.500004291535
167,66,83266,6,0,B|239:45|239:45|204:235|204:235|129:171,1,337.500012874604
38,65,83666,6,0,P|77:123|72:193,1,112.500004291535
23,345,83866,2,0,P|56:319|40:358,1,112.500004291535
296,266,84066,6,0,L|269:261,1,22.4999993133545
304,340,84266,6,0,L|294:254,1,75
476,126,84466,6,0,P|449:116|416:121,1,56.2500021457673
352,94,84566,2,0,P|341:105|335:123,1,28.1250010728836
269,149,84666,2,0,P|269:164|278:180,1,28.1250010728836
250,246,84766,2,0,P|261:256|279:262,1,28.1250010728836
377,312,84866,6,0,L|444:305,1,56.2500021457673
489,368,85066,2,0,L|511:316,1,41.2500012588501
384,297,85266,2,0,L|417:293,1,26.2499991989136
472,231,85466,2,0,L|477:244,1,11.2499996566773
444,159,85666,6,0,B|445:140|445:140|455:158,1,37.5
326,49,85866,2,0,B|298:30|298:30|334:31,1,65.6250006258488
134,103,86066,2,0,B|92:124|92:124|118:80,1,93.75
49,312,86266,2,0,B|45:374|45:374|12:315,1,121.875003486872
17,115,86466,6,0,B|2:12|2:12|38:48,1,146.249993305207
210,318,87266,6,0,B|224:214|224:214|176:255,1,146.249993305207
419,251,87666,6,0,L|294:270,1,123.74999622345
232,225,88866,6,0,P|246:206|298:192,1,78.7499975967408
217,384,89666,6,0,P|221:345|228:304,1,78.7499975967408
161,262,90066,2,0,L|155:236,1,26.2499991989136
91,190,90266,1,0,0:0:0:0:
91,190,90366,1,0,0:0:0:0:
67,221,90466,5,0,0:0:0:0:
12,30,90766,1,0,0:0:0:0:
41,55,90866,6,0,P|84:53|132:56,1,78.7499975967408
183,7,91266,5,0,0:0:0:0:
194,30,91466,1,0,0:0:0:0:
197,56,91666,1,0,0:0:0:0:
192,81,91866,1,0,0:0:0:0:
261,136,92066,5,0,0:0:0:0:
240,184,92266,1,0,0:0:0:0:
251,235,92466,1,0,0:0:0:0:
284,275,92666,1,0,0:0:0:0:
363,384,92866,6,0,P|358:339|359:291,1,78.7499975967408
401,245,93266,2,0,P|416:244|437:240,2,34.9999989318848
408,168,93666,2,0,P|411:141|411:107,1,52.4999983978272
495,3,94066,6,0,P|465:19|469:73,1,78.7499975967408
411,115,94466,5,0,0:0:0:0:
391,132,94666,1,0,0:0:0:0:
364,135,94866,1,0,0:0:0:0:
340,123,95066,1,0,0:0:0:0:
301,51,95266,5,0,0:0:0:0:
253,29,95466,1,0,0:0:0:0:
205,50,95666,1,0,0:0:0:0:
203,65,95766,1,0,0:0:0:0:
201,80,95866,1,0,0:0:0:0:
199,95,95966,1,0,0:0:0:0:
166,132,96066,5,0,0:0:0:0:
46,113,96266,1,0,0:0:0:0:
197,213,96466,1,0,0:0:0:0:
91,322,96666,5,0,0:0:0:0:
88,269,96766,1,0,0:0:0:0:
85,216,96866,1,0,0:0:0:0:
26,372,97066,5,0,0:0:0:0:
193,233,97266,1,0,0:0:0:0:
324,370,97466,5,0,0:0:0:0:
259,358,97566,1,0,0:0:0:0:
194,346,97666,1,0,0:0:0:0:
318,175,97866,5,0,0:0:0:0:
404,384,98066,1,0,0:0:0:0:
443,125,98266,5,0,0:0:0:0:
436,203,98366,1,0,0:0:0:0:
429,281,98466,1,0,0:0:0:0:
274,247,98666,5,0,0:0:0:0:
500,65,98866,1,0,0:0:0:0:
171,62,99066,5,0,0:0:0:0:
262,51,99166,1,0,0:0:0:0:
353,40,99266,5,0,0:0:0:0:
359,23,99399,1,0,0:0:0:0:
352,6,99532,1,0,0:0:0:0:
219,117,99666,5,0,0:0:0:0:
207,156,99799,1,0,0:0:0:0:
221,190,99932,1,0,0:0:0:0:
499,97,100066,5,0,0:0:0:0:
429,73,100199,1,0,0:0:0:0:
376,123,100332,1,0,0:0:0:0:
298,309,100466,5,0,0:0:0:0:
158,357,100599,1,0,0:0:0:0:
52,257,100732,1,0,0:0:0:0:
82,181,100866,5,0,0:0:0:0:
82,181,101132,6,0,P|88:126|67:66,1,104.999996795654
53,51,101666,2,0,P|69:69|80:98,1,34.9999989318848
60,208,101932,2,0,P|76:190|87:161,1,34.9999989318848
74,78,102199,1,0,0:0:0:0:
81,180,102332,1,0,0:0:0:0:
147,37,102466,6,0,B|232:-3|335:110|279:110|357:217|472:168,1,375.000014305115
374,71,102866,6,0,P|414:100|458:98,1,75.000002861023
438,102,103132,2,0,L|448:79,1,25
300,251,103266,5,0,0:0:0:0:
300,251,103399,2,0,B|294:206|294:206|297:200|297:200|288:135,1,100
150,343,103666,5,0,0:0:0:0:
150,343,103799,2,0,B|156:298|156:298|153:292|153:292|162:227,1,100
370,178,104066,5,0,0:0:0:0:
370,178,104199,2,0,B|364:133|364:133|367:127|367:127|358:62,1,100
85,243,104466,5,0,0:0:0:0:
85,243,104599,2,0,B|91:198|91:198|88:192|88:192|97:127,1,100
437,101,104866,5,0,0:0:0:0:
437,101,104999,2,0,B|431:56|431:56|434:50|434:50|425:-15,1,100
171,175,105266,6,0,P|193:147|244:138,1,75
296,175,105532,2,0,L|301:221,1,25
302,312,105666,6,0,B|355:272|415:282|415:282|358:229|286:305|309:270|244:382|161:288,1,375.000014305115
122,259,106066,6,0,P|104:296|116:347,6,93.75
43,239,106466,5,0,0:0:0:0:
88,151,106599,2,0,B|72:121|72:121|101:141,1,68.7500006556511
185,166,106732,2,0,B|208:141|208:141|198:175,1,68.7500006556511
227,271,106866,5,0,0:0:0:0:
272,359,106999,2,0,B|257:370|256:388|256:388|276:386|285:369,1,68.7500006556511
369,344,107132,2,0,B|374:361|391:368|391:368|395:348|382:334,1,68.7500006556511
385,249,107266,6,0,B|399:224|387:185|387:185|412:228|396:258,1,125
443,37,107666,5,0,0:0:0:0:
359,102,107799,2,0,B|336:129|336:129|343:95,1,68.7500006556511
264,35,107932,2,0,L|237:30,1,14.9999995422363
141,181,108066,6,0,P|135:158|150:177,1,62.5
54,195,108466,6,0,L|-8:214,1,50
159,82,108599,2,0,L|174:18,1,50
204,229,108732,2,0,L|252:274,1,50
135,380,108866,6,0,B|55:370|54:300|54:300|111:247|183:323|160:288|225:400|308:306,1,375.000014305115
337,185,109266,6,0,P|314:227|331:275,6,93.75
396,237,109666,6,0,B|430:199|488:225|499:292|440:358|351:339,1,250
406,149,110066,5,0,0:0:0:0:
482,92,110199,2,0,L|511:103,1,25
482,92,110332,2,0,L|477:61,1,25
337,185,110466,5,0,0:0:0:0:
348,280,110599,2,0,L|323:299,1,25
348,280,110732,2,0,L|377:291,1,25
340,107,110866,5,0,0:0:0:0:
252,69,110999,2,0,L|247:38,1,25
252,69,111132,2,0,L|227:88,1,25
71,175,111266,6,0,L|191:161,1,112.5
173,173,111666,2,0,P|186:197|178:164,1,112.5
14,23,112066,6,0,B|6:130|6:130|30:91,1,146.249993305207
122,362,112866,6,0,B|114:255|114:255|138:294,1,146.249993305207
303,221,113266,6,0,P|276:207|188:239,1,123.74999622345
253,281,114466,6,0,L|259:324,1,37.5
321,380,114732,2,0,L|327:339,1,25
376,228,114866,6,0,P|424:216|486:253,1,112.500004291535
437,322,115132,2,0,P|413:325|387:310,1,50
300,197,115266,6,0,B|341:116|313:19|313:19|366:106|474:134,1,375.000014305115
300,197,115666,6,0,P|232:245|86:222,1,225.000008583069
78,157,115932,2,0,P|89:193|99:245,1,75.000002861023
17,342,116066,5,0,0:0:0:0:
57,371,116199,2,0,L|16:341,1,50
21,291,116332,2,0,L|16:340,1,50
101,303,116466,6,0,P|160:284|256:172,1,200
306,7,116866,6,0,L|310:41,1,25
405,73,116999,2,0,L|373:59,1,25
298,125,117132,2,0,L|325:104,1,25
224,74,117266,6,0,P|157:67|33:119,1,200
243,302,117666,6,0,L|239:268,1,25
144,236,117799,2,0,L|175:249,1,25
251,184,117932,2,0,L|223:204,1,25
323,288,118066,6,0,L|415:307,1,75.000002861023
371,188,118199,2,0,L|463:207,1,75.000002861023
419,88,118332,2,0,L|511:107,1,75.000002861023
302,123,118466,6,0,B|346:114|346:114|216:81|216:81|192:92|192:92|81:69|81:69|141:48,1,375.000014305115
10,104,118866,6,0,B|-4:56|-4:56|25:16,6,93.75
81,172,119266,6,0,P|78:159|75:148,1,25
116,260,119399,2,0,P|122:249|128:238,1,25
78,346,119532,2,0,P|90:343|102:339,1,25
22,291,119666,6,0,P|21:260|15:222,1,50
183,366,119866,2,0,P|184:335|190:297,1,50
458,285,120066,6,0,P|452:273|445:263,1,25
365,269,120199,2,0,P|352:265|340:262,1,25
288,324,120332,2,0,P|276:329|265:335,1,25
263,245,120466,6,0,P|262:214|256:176,1,50
357,26,120666,2,0,P|354:50|353:75,1,50
485,116,120866,6,0,P|455:114|421:131,1,62.5
365,269,121266,6,0,P|355:237|359:192,1,75.000002861023
259,195,121399,2,0,P|269:163|298:128,1,75.000002861023
215,74,121532,2,0,P|241:53|285:42,1,75.000002861023
181,202,121666,6,0,B|154:264|74:272|24:213|24:213|22:151|67:113|67:113|70:148|105:176,1,375.000014305115
127,278,122066,6,0,P|136:317|124:361,1,75
32,324,122332,2,0,L|65:315,1,25
287,331,122466,6,0,L|295:368,1,22.4999993133545
212,322,122666,6,0,L|296:332,1,75
353,253,122866,6,0,B|329:247|329:247|341:272,1,50
377,338,122999,2,0,L|373:383,1,37.5000014305115
395,333,123132,2,0,L|391:378,1,37.5000014305115
476,266,123266,6,0,L|515:257,1,37.5000014305115
432,200,123399,2,0,L|435:162,1,37.5000014305115
417,191,123532,2,0,L|420:153,1,37.5000014305115
339,137,123666,6,0,L|300:128,1,37.5000014305115
383,71,123799,2,0,L|380:33,1,37.5000014305115
398,62,123932,2,0,L|395:24,1,37.5000014305115
219,180,124066,6,0,L|228:84,1,87.499997329712
154,67,124466,2,0,P|191:61|229:102,1,87.499997329712
9,148,124866,6,0,B|112:136|112:136|74:112,1,146.249993305207
262,276,125666,6,0,B|155:263|155:263|195:238,1,146.249993305207
322,227,126066,6,0,P|344:284|316:337,1,123.74999622345
94,297,127266,6,0,P|86:281|107:298,1,78.7499975967408
112,372,128066,5,0,0:0:0:0:
