osu file format v14

[General]
AudioFilename: audio.mp3
AudioLeadIn: 0
PreviewTime: 232852
Countdown: 0
SampleSet: Soft
StackLeniency: 0.4
Mode: 0
LetterboxInBreaks: 0
WidescreenStoryboard: 1

[Editor]
Bookmarks: 1301,155783,277163
DistanceSpacing: 0.9
BeatDivisor: 4
GridSize: 8
TimelineZoom: 1.8

[Metadata]
Title:Senses Overload
TitleUnicode:Senses Overload
Artist:Teminite & PsoGnar
ArtistUnicode:Teminite & PsoGnar
Creator:Daycore
Version:Easy feat. TheShadowOfDark
Source:osu!
Tags:fa featured artist dubstep electronic mg mappers' guild english edm hypercute m2usonek theshadowofdark marmowka minorsonek hypercyte
BeatmapID:2312881
BeatmapSetID:1095934

[Difficulty]
HPDrainRate:2
CircleSize:3
OverallDifficulty:3
ApproachRate:4
SliderMultiplier:1
SliderTickRate:1

[Events]
//Background and Video events
0,0,"senses.jpg",0,0
//Break Periods
2,133914,143429
//Storyboard Layer 0 (Background)
//Storyboard Layer 1 (Fail)
//Storyboard Layer 2 (Pass)
//Storyboard Layer 3 (Foreground)
//Storyboard Layer 4 (Overlay)
//Storyboard Sound Samples

[TimingPoints]
1301,344.827586206897,4,2,1,60,1,0
10956,-100,4,2,1,60,0,0
11818,-100,4,2,1,65,0,0
23369,-100,4,2,1,70,0,0
34404,-100,4,2,1,75,0,0
56473,-100,4,2,1,80,0,0
64749,-100,4,2,1,65,0,0
65094,-100,4,2,1,50,0,0
65438,-100,4,2,1,35,0,0
65783,-100,4,2,1,20,0,0
65869,-100,4,2,1,17,0,0
65956,-100,4,2,1,14,0,0
66042,-100,4,2,1,10,0,0
66128,-100,4,2,1,85,0,0
67507,-90.9090909090909,4,2,2,92,0,1
69921,-90.9090909090909,4,2,2,92,0,1
70266,-90.9090909090909,4,2,2,92,0,1
72680,-90.9090909090909,4,2,2,92,0,1
73025,-90.9090909090909,4,2,2,92,0,1
75438,-90.9090909090909,4,2,2,92,0,1
75783,-90.9090909090909,4,2,2,92,0,1
78197,-90.9090909090909,4,2,2,92,0,1
78542,-90.9090909090909,4,2,2,92,0,1
80956,-90.9090909090909,4,2,2,92,0,1
81301,-90.9090909090909,4,2,2,92,0,1
83714,-90.9090909090909,4,2,2,92,0,1
84059,-90.9090909090909,4,2,2,92,0,1
86473,-90.9090909090909,4,2,2,92,0,1
86818,-90.9090909090909,4,2,2,92,0,1
89232,-90.9090909090909,4,2,2,92,0,1
89576,-90.9090909090909,4,2,2,92,0,1
94921,-90.9090909090909,4,2,2,92,0,1
95094,-90.9090909090909,4,2,2,92,0,1
100438,-90.9090909090909,4,2,2,92,0,1
100611,-90.9090909090909,4,2,2,92,0,1
105956,-90.9090909090909,4,2,2,92,0,1
106128,-90.9090909090909,4,2,2,92,0,1
111473,-100,4,2,2,92,0,0
111645,-100,4,2,2,92,0,0
122163,-100,4,2,2,62,0,0
122335,-100,4,2,2,92,0,0
122507,-100,4,2,2,77,0,0
122680,-100,4,2,2,92,0,0
133714,-100,4,2,1,65,0,0
144749,-100,4,2,1,70,0,0
145611,-100,4,2,1,70,0,0
155783,-100,4,2,1,75,0,0
177852,-100,4,2,1,80,0,0
186128,-100,4,2,1,65,0,0
186473,-100,4,2,1,50,0,0
186817,-100,4,2,1,35,0,0
187162,-100,4,2,1,20,0,0
187248,-100,4,2,1,17,0,0
187335,-100,4,2,1,14,0,0
187421,-100,4,2,1,10,0,0
187507,-100,4,2,1,85,0,0
188887,-90.9090909090909,4,2,3,92,0,1
232163,-90.9090909090909,4,2,3,92,0,1
232507,-100,4,2,3,62,0,0
232680,-100,4,2,3,72,0,0
232852,-100,4,2,3,82,0,0
233025,-100,4,2,3,92,0,0
277163,-100,4,2,1,60,0,0
277507,-100,4,2,1,5,0,0

[Colours]
Combo1 : 255,0,0
Combo2 : 0,128,255
Combo3 : 255,128,192
Combo4 : 0,0,160

[HitObjects]
95,64,23369,5,8,0:3:0:0:
95,64,24232,2,0,P|142:61|223:101,1,100,0|2,0:0|0:2,0:0:0:0:
248,146,24921,2,0,P|295:162|345:159,1,100,2|2,0:0|0:2,0:0:0:0:
435,149,25611,1,0,0:0:0:0:
435,149,25956,2,0,P|398:187|460:315,1,200,0|2,0:0|0:2,0:0:0:0:
217,304,27507,6,0,P|166:312|111:289,1,100,0|2,0:0|0:2,0:0:0:0:
72,220,28197,2,0,P|64:169|87:114,1,100,0|2,0:0|0:2,0:0:0:0:
161,86,28887,2,0,P|127:48|21:53,2,150,0|2|2,0:0|0:2|0:2,0:0:0:0:
158,176,30266,1,0,0:0:0:0:
292,178,30783,2,0,P|371:171|413:172,1,100,2|0,0:2|0:0,0:0:0:0:
470,215,31473,1,2,0:2:0:0:
256,192,31645,12,2,33025,0:0:0:0:
401,54,34404,6,0,P|405:103|279:191,1,200,6|2,3:2|0:0,0:0:0:0:
215,185,35438,1,2,0:0:0:0:
215,185,35783,2,0,B|121:174|121:174|86:188|87:226,2,150,8|2|2,0:3|0:0|0:0,0:0:0:0:
298,218,37163,6,0,B|374:225|374:225|408:251|408:251|494:264,1,200,8|2,0:3|0:0,0:0:0:0:
506,178,38197,1,2,0:0:0:0:
506,178,38542,2,0,P|523:102|503:14,2,150,8|2|2,0:3|0:0|0:0,0:0:0:0:
417,192,39921,6,0,B|347:141|273:153|273:153|259:178|218:195,1,200,6|2,3:2|0:0,0:0:0:0:
150,168,40956,1,2,0:0:0:0:
150,168,41301,2,0,B|89:123|89:123|23:175,2,150,8|2|2,0:3|0:0|0:0,0:0:0:0:
154,257,42680,6,0,P|167:309|290:293,1,200,8|2,0:3|0:0,0:0:0:0:
323,215,43714,1,2,0:0:0:0:
323,215,44059,2,0,P|375:180|463:202,2,150,8|2|2,0:3|0:0|0:0,0:0:0:0:
251,159,45438,6,0,B|269:103|240:53|240:53|282:25|341:48,1,200,6|2,3:2|0:0,0:0:0:0:
411,72,46473,1,2,0:0:0:0:
411,72,46818,2,0,B|434:100|430:138|430:138|452:185|419:222,2,150,8|2|2,0:3|0:0|0:0,0:0:0:0:
340,127,48197,6,0,P|330:210|373:324,1,200,8|2,0:3|0:0,0:0:0:0:
287,358,49232,1,2,0:0:0:0:
287,358,49576,2,0,B|231:351|231:351|197:360|197:360|133:352,2,150,8|2|2,0:3|0:0|0:0,0:0:0:0:
364,311,50956,6,0,P|430:312|419:207,1,200,6|2,3:2|0:0,0:0:0:0:
337,183,51990,1,2,0:0:0:0:
337,183,52335,2,0,B|261:186|261:186|256:263,2,150,8|2|2,0:3|0:0|0:0,0:0:0:0:
384,106,53714,6,0,B|396:53|345:20|345:20|290:9|256:74,1,200,8|2,0:3|0:0,0:0:0:0:
176,87,54749,1,2,0:0:0:0:
176,87,55094,2,0,B|97:84|105:147|27:145,2,150,8|2|2,0:3|0:0|0:0,0:0:0:0:
172,176,56473,6,0,B|137:237|150:304|150:304|188:288|224:310,1,200,0|0,3:2|3:2,0:0:0:0:
390,347,57852,2,0,B|412:279|377:201|377:201|346:205|333:251,1,200,0|0,3:2|3:2,0:0:0:0:
285,59,59232,2,0,B|408:54|381:112|485:108,1,200,0|0,3:2|3:2,0:0:0:0:
302,158,60611,2,0,B|247:162|209:128|209:128|168:175|105:168,1,200,0|0,3:2|3:2,0:0:0:0:
43,331,61990,5,8,3:1:0:0:
125,367,62335,2,0,B|206:361|206:361|223:367|223:367|330:377,1,200,8|8,3:1|3:1,0:0:0:0:
402,333,63369,1,8,3:1:0:0:
490,318,63714,2,0,P|449:258|325:281,1,200,8|8,3:1|3:1,0:0:0:0:
256,192,64749,12,2,66128,0:0:0:0:
104,72,67507,6,0,P|162:50|227:173,1,220.000006713867,4|10,3:2|0:0,0:0:0:0:
183,248,68542,1,0,0:0:0:0:
232,333,68887,2,0,P|288:312|359:329,1,110.000003356934,0|2,3:0|0:0,0:0:0:0:
369,224,69576,2,0,P|429:255|488:237,1,110.000003356934,8|2,0:0|0:0,0:0:0:0:
495,342,70266,6,0,B|518:258|491:186|491:186|462:153|415:169,1,220.000006713867,0|10,3:3|0:0,0:0:0:0:
373,86,71301,1,0,0:0:0:0:
275,103,71645,2,0,P|229:125|166:106,1,110.000003356934,0|2,3:0|0:0,0:0:0:0:
95,50,72335,1,8,0:0:0:0:
50,138,72680,1,2,0:3:0:0:
80,232,73025,6,0,B|128:210|186:228|186:228|220:274|219:342,1,220.000006713867,4|10,3:2|0:0,0:0:0:0:
315,353,74059,1,0,0:0:0:0:
381,279,74404,2,0,L|366:163,2,110.000003356934,0|2|8,3:3|0:0|0:0,0:0:0:0:
449,350,75438,1,2,0:0:0:0:
489,259,75783,6,0,B|464:201|499:150|499:150|444:143|421:62,1,220.000006713867,0|10,3:3|0:0,0:0:0:0:
330,59,76818,1,0,0:0:0:0:
231,52,77163,2,0,P|208:-3|149:0,2,110.000003356934,0|2|8,3:3|0:0|0:0,0:0:0:0:
196,145,78197,1,8,0:2:0:0:
119,208,78542,6,0,P|180:243|294:158,1,220.000006713867,4|10,3:2|0:0,0:0:0:0:
388,189,79576,1,0,0:0:0:0:
469,132,79921,2,0,P|488:188|473:243,1,110.000003356934,0|2,3:3|0:0,0:0:0:0:
388,189,80611,2,0,P|369:133|384:78,1,110.000003356934,8|2,0:0|0:0,0:0:0:0:
464,31,81301,6,0,B|365:33|365:33|334:49|334:49|227:53,1,220.000006713867,0|10,3:3|0:0,0:0:0:0:
152,26,82335,1,0,0:0:0:0:
60,63,82680,2,0,P|42:119|36:192,1,110.000003356934,0|2,3:3|0:0,0:0:0:0:
132,190,83369,2,0,P|150:246|156:319,1,110.000003356934,8|2,0:0|0:3,0:0:0:0:
66,339,84059,6,0,P|160:323|300:311,1,220.000006713867,4|10,3:2|0:0,0:0:0:0:
378,341,85094,1,0,0:0:0:0:
452,275,85438,2,0,P|458:225|446:152,2,110.000003356934,0|2|8,3:3|0:0|0:0,0:0:0:0:
378,341,86473,1,2,0:0:0:0:
299,280,86818,6,0,B|317:228|274:177|274:177|233:116|286:57,1,220.000006713867,0|10,3:3|0:0,0:0:0:0:
180,37,87852,1,0,0:0:0:0:
84,64,88197,2,0,P|38:38|0:-19,2,110.000003356934,0|2|8,3:0|0:0|0:0,0:0:0:0:
99,162,89232,1,0,0:0:0:0:
30,232,89576,6,0,P|78:258|141:250,1,110.000003356934,4|2,3:2|0:0,0:0:0:0:
218,206,90266,1,8,0:0:0:0:
218,206,90611,1,2,0:0:0:0:
311,240,90956,2,0,B|327:189|298:147|298:147|366:166|360:125|433:140,1,220.000006713867,0|8,3:2|0:0,0:0:0:0:
467,223,91990,1,2,0:3:0:0:
483,320,92335,5,0,3:0:0:0:
483,320,92680,2,0,P|431:334|378:309,1,110.000003356934,2|8,0:3|0:0,0:0:0:0:
311,240,93369,1,2,0:0:0:0:
216,211,93714,2,0,P|177:172|119:168,1,110.000003356934,0|2,3:3|0:0,0:0:0:0:
32,206,94404,1,8,0:0:0:0:
14,108,94749,1,2,0:3:0:0:
100,60,95094,6,0,P|162:47|221:70,1,110.000003356934,4|2,3:2|0:0,0:0:0:0:
266,138,95783,1,8,0:0:0:0:
266,138,96128,1,2,0:0:0:0:
342,74,96473,2,0,P|363:130|256:240,1,220.000006713867,0|8,3:2|0:0,0:0:0:0:
172,257,97507,1,2,0:3:0:0:
85,300,97852,5,0,3:0:0:0:
85,300,98197,2,0,P|74:256|103:191,1,110.000003356934,2|8,0:3|0:0,0:0:0:0:
83,93,98887,1,2,0:0:0:0:
146,16,99232,2,0,B|192:32|192:32|260:20,1,110.000003356934,0|2,3:3|0:0,0:0:0:0:
351,30,99921,1,8,0:0:0:0:
428,92,100266,1,8,0:0:0:0:
475,178,100611,6,0,P|427:190|363:165,1,110.000003356934,4|2,3:2|0:0,0:0:0:0:
271,174,101301,1,8,0:0:0:0:
271,174,101645,1,2,0:0:0:0:
178,138,101990,2,0,P|175:202|316:263,1,220.000006713867,0|8,3:2|0:0,0:0:0:0:
395,265,103025,1,2,0:3:0:0:
378,172,103369,5,0,3:0:0:0:
378,172,103714,2,0,P|334:181|258:170,1,110.000003356934,2|8,0:3|0:0,0:0:0:0:
178,138,104404,1,2,0:0:0:0:
82,162,104749,2,0,B|74:4|74:4|96:31|138:43,1,220.000006713867,0|8,3:3|0:0,0:0:0:0:
218,6,105783,1,2,0:3:0:0:
313,30,106128,6,0,P|355:53|428:29,1,110.000003356934,4|2,3:2|0:0,0:0:0:0:
490,103,106818,1,8,0:0:0:0:
449,193,107163,1,2,0:0:0:0:
371,253,107507,2,0,B|344:219|318:240|318:240|263:326|263:326|228:330|202:298,1,220.000006713867,0|8,3:2|0:0,0:0:0:0:
157,225,108542,1,2,0:3:0:0:
65,253,108887,5,0,3:0:0:0:
65,253,109232,2,0,L|29:145,1,110.000003356934,2|8,0:3|0:0,0:0:0:0:
82,64,109921,1,2,0:0:0:0:
177,92,110266,1,0,3:3:0:0:
256,192,110352,12,4,111645,3:2:0:0:
65,48,113025,6,0,B|148:35|148:35|196:52|196:52|284:57,1,200,0|8,3:3|0:0,0:0:0:0:
349,40,114059,1,2,0:0:0:0:
388,120,114404,2,0,L|390:236,1,100,2|2,3:2|0:0,0:0:0:0:
437,303,115094,1,10,0:0:0:0:
437,303,115438,2,0,P|399:315|326:291,1,100,2|0,0:0|3:0,0:0:0:0:
267,250,116128,5,2,0:0:0:0:
182,279,116473,2,0,L|73:278,1,100,8|2,0:0|0:0,0:0:0:0:
22,210,117163,2,0,P|35:169|20:102,1,100,2|2,3:2|0:0,0:0:0:0:
88,48,117852,1,8,0:0:0:0:
153,109,118197,2,0,P|226:133|321:47,1,200,2|2,0:0|0:0,0:0:0:0:
401,32,119232,5,8,0:0:0:0:
401,32,119576,2,0,P|409:66|387:141,1,100,2|2,0:0|3:2,0:0:0:0:
389,218,120266,1,2,0:0:0:0:
426,300,120611,2,0,P|380:308|319:277,1,100,8|2,0:0|0:0,0:0:0:0:
253,243,121301,1,0,3:0:0:0:
253,243,121645,2,0,P|277:285|167:359,1,200,2|2,0:0|0:0,0:0:0:0:
97,333,122680,6,0,P|80:283|95:233,1,100,0|0,3:0|0:0,0:0:0:0:
158,178,123369,1,8,0:0:0:0:
88,120,123714,2,0,B|164:131|164:131|193:148|193:148|300:162,1,200,2|2,0:0|0:0,0:0:0:0:
352,216,124749,2,0,P|373:166|362:118,1,100,8|2,0:0|0:0,0:0:0:0:
437,70,125438,6,0,L|423:291,1,200,0|8,3:0|0:0,0:0:0:0:
466,349,126473,2,0,B|435:304|384:314|384:314|268:351,1,200,2|2,0:0|0:0,0:0:0:0:
196,325,127507,1,10,0:0:0:0:
111,355,127852,1,2,0:0:0:0:
28,318,128197,6,0,P|23:268|22:204,1,100,0|2,3:0|0:0,0:0:0:0:
108,192,128887,2,0,P|112:142|114:78,1,100,8|2,0:0|0:0,0:0:0:0:
180,31,129576,1,0,0:0:0:0:
268,47,129921,1,0,0:0:0:0:
311,126,130266,2,0,P|356:113|415:115,1,100,8|0,0:0|0:0,0:0:0:0:
486,160,130956,5,2,3:0:0:0:
486,160,131301,2,0,P|497:198|478:264,1,100,2|8,0:0|0:0,0:0:0:0:
398,286,131990,1,2,0:0:0:0:
316,324,132335,2,0,P|262:312|200:324,1,100,0|2,3:0|0:0,0:0:0:0:
177,237,133025,2,0,P|126:240|61:237,1,100,8|2,0:0|0:0,0:0:0:0:
26,164,133714,5,4,0:0:0:0:
152,250,144749,5,4,3:2:0:0:
152,250,145611,2,0,P|144:212|162:147,1,100,0|2,0:0|0:2,0:0:0:0:
222,90,146301,2,0,P|260:82|325:100,1,100,2|2,0:0|0:2,0:0:0:0:
354,178,146990,1,0,0:0:0:0:
354,178,147335,2,0,B|391:159|452:169|452:169|475:232|445:281,1,200,0|2,0:0|0:2,0:0:0:0:
229,295,148887,6,0,P|171:285|124:284,1,100,0|2,0:0|0:2,0:0:0:0:
53,332,149576,2,0,P|40:288|60:223,1,100,0|2,0:0|0:2,0:0:0:0:
113,170,150266,2,0,B|146:154|157:112|157:112|132:73|92:70,2,150,0|2|2,0:0|0:2|0:2,0:0:0:0:
51,236,151645,1,0,0:0:0:0:
125,349,152163,2,0,P|186:333|241:335,1,100,2|0,0:2|0:0,0:0:0:0:
311,347,152852,1,2,0:2:0:0:
256,192,153025,12,2,154404,0:0:0:0:
357,140,155783,6,0,P|293:79|164:69,1,200,6|2,3:2|0:0,0:0:0:0:
101,94,156818,1,2,0:0:0:0:
49,168,157163,2,0,P|12:108|35:32,2,150,8|2|2,0:3|0:0|0:0,0:0:0:0:
115,228,158542,6,0,P|210:204|301:242,1,200,8|2,0:3|0:0,0:0:0:0:
374,294,159576,1,2,0:0:0:0:
453,251,159921,2,0,B|467:152|467:152|441:107,2,150,8|2|2,0:3|0:0|0:0,0:0:0:0:
374,294,161301,6,0,B|319:275|286:324|286:324|258:366|187:344,1,200,6|2,3:2|0:0,0:0:0:0:
114,311,162335,1,2,0:0:0:0:
53,244,162680,2,0,P|23:310|51:377,2,150,8|2|2,0:3|0:0|0:0,0:0:0:0:
54,153,164059,6,0,P|136:167|241:110,1,200,8|2,0:3|0:0,0:0:0:0:
289,42,165094,1,2,0:0:0:0:
365,88,165438,2,0,P|436:106|507:82,2,150,8|2|2,0:3|0:0|0:0,0:0:0:0:
289,42,166818,6,0,P|325:115|287:238,1,200,6|2,3:2|0:0,0:0:0:0:
232,288,167852,1,2,0:0:0:0:
152,245,168197,2,0,L|2:253,1,150,8|2,0:3|0:0,0:0:0:0:
42,123,169232,1,2,0:0:0:0:
131,131,169576,6,0,L|335:140,1,200,8|2,0:3|0:0,0:0:0:0:
405,190,170611,1,2,0:0:0:0:
486,151,170956,2,0,P|499:78|465:13,2,150,8|2|2,0:3|0:0|0:0,0:0:0:0:
405,190,172335,6,0,P|303:179|233:111,1,200,6|2,3:2|0:0,0:0:0:0:
177,44,173369,1,2,0:0:0:0:
94,79,173714,2,0,L|90:244,1,150,8|2,0:3|0:0,0:0:0:0:
86,364,174749,1,2,0:0:0:0:
162,316,175094,6,0,B|257:310|257:310|266:318|266:318|368:311,1,200,8|2,0:3|0:0,0:0:0:0:
421,246,176128,1,2,0:0:0:0:
348,193,176473,2,0,B|196:203,2,150,8|2|2,0:3|0:0|0:0,0:0:0:0:
421,245,177852,6,0,P|427:151|346:101,1,200,0|0,3:2|3:2,0:0:0:0:
168,131,179232,2,0,L|157:338,1,200,0|0,3:2|3:2,0:0:0:0:
335,359,180611,6,0,P|431:346|494:270,1,200,0|0,3:2|3:2,0:0:0:0:
434,101,181990,2,0,L|226:111,1,200,0|0,3:2|3:2,0:0:0:0:
112,242,183369,5,8,3:1:0:0:
64,318,183714,2,0,P|161:318|201:228,1,200,8|8,3:1|3:1,0:0:0:0:
177,147,184749,1,8,3:1:0:0:
252,97,185094,2,0,B|345:100|345:100|352:106|352:106|452:109,1,200,8|8,3:1|3:1,0:0:0:0:
256,192,186128,12,2,187507,0:0:0:0:
183,351,188887,6,0,B|185:264|185:264|154:230|154:230|157:142,1,220.000006713867,4|8,3:2|0:0,0:0:0:0:
161,43,189921,1,0,0:0:0:0:
249,88,190266,2,0,B|296:108|296:108|374:84,1,110.000003356934,0|0,3:2|0:0,0:0:0:0:
443,51,190956,2,2,B|437:130|437:130|444:139|444:139|442:179|442:179|433:186|433:186|427:274,1,220.000006713867,10|0,0:0|3:3,0:1:0:0:
432,362,191990,6,0,B|380:347|380:347|325:360,1,110.000003356934,0|8,0:0|0:0,0:0:0:0:
231,328,192680,1,0,0:0:0:0:
147,381,193025,2,0,B|133:322|133:322|151:266,1,110.000003356934,0|2,3:0|0:0,0:0:0:0:
198,189,193714,2,2,B|237:230|237:230|363:219,1,165.000005035401,10|0,0:0|0:0,0:1:0:0:
394,218,194404,6,0,B|396:127|396:127|367:90|367:90|369:8,1,220.000006713867,4|8,3:2|0:0,0:0:0:0:
277,42,195438,1,0,0:0:0:0:
184,6,195783,2,0,B|128:4|128:4|70:46,1,110.000003356934,0|0,3:2|0:0,0:0:0:0:
15,106,196473,2,2,B|54:144|54:144|54:255|54:255|8:285,1,220.000006713867,10|0,0:0|3:3,0:1:0:0:
52,374,197507,6,0,L|154:309,1,110.000003356934,0|8,0:0|0:0,0:0:0:0:
228,261,198197,1,0,0:0:0:0:
166,183,198542,2,0,B|151:128|151:128|170:77,1,110.000003356934,0|0,3:0|0:0,0:0:0:0:
268,67,199232,2,0,B|286:116|286:116|271:171,1,110.000003356934,8|2,0:0|0:0,0:0:0:0:
228,261,199921,6,0,B|326:255|326:255|345:268|345:268|448:261,1,220.000006713867,4|8,3:2|0:0,0:0:0:0:
508,186,200956,1,0,0:0:0:0:
431,123,201301,2,0,B|321:130,1,110.000003356934,0|0,3:2|0:0,0:0:0:0:
237,76,201990,2,2,B|153:81|153:81|133:124|133:124|42:130,1,220.000006713867,10|0,0:0|3:3,0:1:0:0:
16,225,203025,6,0,B|139:216,1,110.000003356934,0|8,0:0|0:0,0:0:0:0:
224,211,203714,1,0,0:0:0:0:
303,152,204059,2,0,B|326:202|326:202|307:268,1,110.000003356934,0|2,3:0|0:0,0:0:0:0:
272,346,204749,2,2,B|233:309|233:309|120:318,1,165.000005035401,10|0,0:0|0:0,0:1:0:0:
72,322,205438,6,0,B|76:221|76:221|65:205|65:205|69:90,1,220.000006713867,4|8,3:2|0:0,0:0:0:0:
129,26,206473,1,0,0:0:0:0:
218,67,206818,2,0,B|271:89|271:89|322:79,1,110.000003356934,0|0,3:2|0:0,0:0:0:0:
421,68,207507,2,2,B|402:119|402:119|451:219|451:219|505:225,1,220.000006713867,10|0,0:0|3:3,0:1:0:0:
472,322,208542,5,0,0:0:0:0:
374,303,208887,2,0,B|233:280|233:280|119:344|119:344|-7:313|-7:313|119:239,1,550.000016784668,12|0,0:0|0:0,0:0:0:0:
202,185,210956,6,0,B|302:202|302:202|318:192|318:192|437:212,1,220.000006713867,4|8,3:2|0:0,0:0:0:0:
495,149,211990,1,2,0:0:0:0:
431,73,212335,2,0,L|322:54,1,110.000003356934,0|2,3:2|0:0,0:0:0:0:
235,6,213025,2,0,B|221:60|221:60|239:110,1,110.000003356934,8|2,0:0|0:3,0:0:0:0:
276,202,213714,5,0,3:0:0:0:
200,266,214059,1,2,0:3:0:0:
115,213,214404,2,0,L|4:223,1,110.000003356934,8|2,0:0|0:0,0:0:0:0:
5,322,215094,2,0,L|114:312,1,110.000003356934,0|2,3:3|0:0,0:0:0:0:
200,266,215783,1,8,0:0:0:0:
238,358,216128,1,2,0:3:0:0:
337,350,216473,6,0,B|443:341|443:341|498:239,1,220.000006713867,4|8,3:2|0:0,0:0:0:0:
508,142,217507,1,2,0:0:0:0:
409,151,217852,2,0,B|356:247,1,110.000003356934,0|2,3:2|0:0,0:0:0:0:
267,205,218542,2,0,B|294:155|294:155|269:108,1,110.000003356934,8|2,0:0|0:3,0:0:0:0:
211,27,219232,5,0,3:0:0:0:
112,35,219576,1,2,0:3:0:0:
70,127,219921,2,0,L|82:241,1,110.000003356934,8|2,0:0|0:0,0:0:0:0:
48,330,220611,2,0,B|104:335|104:335|150:307,1,110.000003356934,0|2,3:3|0:0,0:0:0:0:
232,252,221301,1,8,0:0:0:0:
303,319,221645,1,8,0:0:0:0:
382,260,221990,6,0,B|384:161|384:161|372:142|372:142|374:43,1,220.000006713867,4|8,3:2|0:0,0:0:0:0:
465,4,223025,1,2,0:0:0:0:
507,93,223369,2,0,L|504:212,1,110.000003356934,0|2,3:2|0:0,0:0:0:0:
477,299,224059,2,0,B|422:298|422:298|382:260,1,110.000003356934,8|2,0:0|0:3,0:0:0:0:
307,195,224749,5,0,3:0:0:0:
355,108,225094,1,2,0:3:0:0:
303,22,225438,2,0,B|248:12|248:12|194:24,1,110.000003356934,8|2,0:0|0:0,0:0:0:0:
111,77,226128,2,0,B|56:87|56:87|2:74,1,110.000003356934,0|2,3:3|0:0,0:0:0:0:
9,173,226818,1,8,0:0:0:0:
65,254,227163,1,2,0:3:0:0:
16,339,227507,6,0,B|117:341|117:341|132:331|132:331|252:332,1,220.000006713867,4|8,3:2|0:0,0:0:0:0:
332,334,228542,1,2,0:0:0:0:
419,380,228887,2,0,B|433:328|433:328|410:276,1,110.000003356934,0|2,3:2|0:0,0:0:0:0:
323,229,229576,2,0,L|213:228,1,110.000003356934,8|2,0:0|0:3,0:0:0:0:
113,228,230266,5,0,3:0:0:0:
163,142,230611,1,2,0:3:0:0:
108,59,230956,2,0,B|164:45|164:45|214:59,1,110.000003356934,8|2,0:0|0:0,0:0:0:0:
310,81,231645,1,0,3:3:0:0:
398,36,231990,1,2,0:0:0:0:
511,281,233025,6,0,B|456:273|456:273|398:306,1,100,4|2,3:2|0:0,0:0:0:0:
341,343,233714,2,0,P|247:366|164:315,2,200,8|0|10,0:0|3:0|0:0,0:0:0:0:
417,294,235438,1,2,0:0:0:0:
371,216,235783,6,0,L|373:115,1,100,0|2,3:0|0:0,0:0:0:0:
402,30,236473,2,0,P|321:85|223:81,1,200,8|0,0:0|3:0,0:0:0:0:
57,11,237852,2,0,B|102:55|102:55|86:191,1,200,8|0,0:0|3:2,0:0:0:0:
70,280,238887,5,2,0:0:0:0:
134,342,239232,2,0,P|232:347|318:299,2,200,8|0|10,0:0|3:0|0:0,0:0:0:0:
70,280,240956,1,2,0:0:0:0:
120,205,241301,6,0,L|125:98,1,100,0|2,3:0|0:0,0:0:0:0:
83,24,241990,2,0,B|155:20|155:20|261:106,1,200,8|0,0:0|3:0,0:0:0:0:
401,203,243369,2,0,B|450:219|450:219|509:203,1,100,8|2,0:0|0:3,0:0:0:0:
452,127,244059,6,0,B|403:111|403:111|344:127,1,100,4|2,3:2|0:0,0:0:0:0:
279,171,244749,2,0,B|276:264|276:264|283:277|283:277|280:369,2,200,8|0|10,0:0|3:0|0:0,0:0:0:0:
207,115,246473,1,2,0:0:0:0:
121,143,246818,6,0,L|21:138,1,100,0|2,3:0|0:0,0:0:0:0:
34,227,247507,2,0,L|244:236,1,200,8|0,0:0|3:0,0:0:0:0:
413,253,248887,2,0,P|336:176|365:92,1,200,8|0,0:0|3:2,0:0:0:0:
423,35,249921,5,2,0:0:0:0:
336,11,250266,2,0,L|119:17,2,200,8|0|10,0:0|3:0|0:0,0:0:0:0:
423,35,251990,1,2,0:0:0:0:
358,98,252335,6,0,L|370:211,1,100,0|2,3:0|0:0,0:0:0:0:
421,268,253025,2,0,P|326:242|231:269,1,200,8|0,0:0|3:0,0:0:0:0:
73,355,254404,2,0,B|91:302|91:302|82:250,1,100,8|2,0:0|0:3,0:0:0:0:
39,179,255094,6,0,B|93:169|93:169|139:190,1,100,4|2,3:2|0:0,0:0:0:0:
214,226,255783,2,0,P|305:258|395:220,1,200,8|0,0:0|3:0,0:0:0:0:
448,145,256818,1,2,0:0:0:0:
498,70,257163,2,0,P|448:53|402:66,1,100,10|2,0:0|0:0,0:0:0:0:
319,98,257852,5,0,3:0:0:0:
238,57,258197,1,2,0:0:0:0:
157,96,258542,2,0,L|169:306,1,200,8|0,0:0|3:0,0:0:0:0:
108,362,259576,1,2,0:0:0:0:
29,318,259921,2,0,L|22:200,1,100,8|2,0:0|0:0,0:0:0:0:
68,140,260611,6,0,B|66:92|66:92|71:84|71:84|69:32,1,100,2|2,3:3|0:0,0:0:0:0:
156,16,261301,2,0,P|252:39|321:109,1,200,8|0,0:0|3:0,0:0:0:0:
346,196,262335,1,2,0:0:0:0:
397,269,262680,2,0,P|349:284|302:273,1,100,10|2,0:0|0:0,0:0:0:0:
223,228,263369,5,0,3:0:0:0:
142,268,263714,1,2,0:0:0:0:
72,210,264059,2,0,P|56:303|135:361,1,200,8|0,0:0|3:0,0:0:0:0:
223,364,265094,1,2,0:0:0:0:
297,314,265438,2,0,B|343:314|343:314|356:321|356:321|404:321,1,100,8|2,0:0|0:3,0:0:0:0:
473,365,266128,6,0,B|485:316|485:316|467:269,1,100,4|2,3:2|0:0,0:0:0:0:
414,196,266818,2,0,B|352:179|318:206|318:206|276:238|195:207,1,200,8|0,0:0|3:0,0:0:0:0:
138,183,267852,1,2,0:0:0:0:
70,243,268197,2,0,P|47:199|53:150,1,100,10|2,0:0|0:0,0:0:0:0:
102,74,268887,5,0,3:0:0:0:
188,97,269232,1,2,0:0:0:0:
260,43,269576,2,0,P|357:24|448:63,1,200,8|0,0:0|3:0,0:0:0:0:
497,137,270611,1,2,0:0:0:0:
431,198,270956,2,0,P|385:217|336:211,1,100,8|2,0:0|0:0,0:0:0:0:
252,178,271645,6,0,B|203:162|203:162|145:182,1,100,2|2,3:3|0:0,0:0:0:0:
100,107,272335,2,0,P|66:191|134:267,1,200,8|0,0:0|3:0,0:0:0:0:
217,290,273369,1,2,0:0:0:0:
299,253,273714,2,0,L|404:252,1,100,10|2,0:0|0:0,0:0:0:0:
474,202,274404,5,0,3:0:0:0:
442,117,274749,1,2,0:0:0:0:
479,35,275094,2,0,P|423:27|377:51,1,100,8|2,0:0|0:0,0:0:0:0:
307,89,275783,1,2,0:0:0:0:
225,51,276128,1,2,0:0:0:0:
150,101,276473,2,0,B|160:196|160:196|153:207|153:207|166:317,1,200,8|8,0:0|0:3,0:0:0:0:
256,192,277335,12,0,281990,0:0:0:0:
