osu file format v14

[General]
AudioFilename: audio.mp3
AudioLeadIn: 0
PreviewTime: 103510
Countdown: 0
SampleSet: Soft
StackLeniency: 0.4
Mode: 0
LetterboxInBreaks: 0
WidescreenStoryboard: 0

[Editor]
Bookmarks: 132310,285910,289810,299110,325510,328110
DistanceSpacing: 1.7
BeatDivisor: 4
GridSize: 4
TimelineZoom: 1.98

[Metadata]
Title:Rally The Troops
TitleUnicode:Rally The Troops
Artist:Teminite & PsoGnar
ArtistUnicode:Teminite & PsoGnar
Creator:Agent_James
Version:All Out Attack
Source:
Tags:dubstep electronic ep wub wubs edm
BeatmapID:1518683
BeatmapSetID:719147

[Difficulty]
HPDrainRate:6
CircleSize:4
OverallDifficulty:8
ApproachRate:9
SliderMultiplier:2.1
SliderTickRate:1

[Events]
//Background and Video events
0,0,"Girls.Frontline.full.2109516.jpg",0,0
//Break Periods
2,79310,84910
2,85710,89710
2,181510,194510
2,258510,264110
2,264910,268910
//Storyboard Layer 0 (Background)
//Storyboard Layer 1 (Fail)
//Storyboard Layer 2 (Pass)
//Storyboard Layer 3 (Foreground)
//Storyboard Sound Samples

[TimingPoints]
2310,400,4,2,1,50,1,0
2310,-200,4,1,1,40,0,0
14310,-166.666666666667,4,1,1,40,0,0
14710,-142.857142857143,4,1,1,45,0,0
15110,-133.333333333333,4,1,1,50,0,0
27910,-133.333333333333,4,2,1,50,0,0
33910,-100,4,2,1,50,0,0
34110,-133.333333333333,4,2,1,50,0,0
40310,-100,4,2,1,50,0,0
40710,-133.333333333333,4,2,1,50,0,0
46710,-100,4,2,1,50,0,0
47110,-133.333333333333,4,2,1,50,0,0
47910,-133.333333333333,4,2,1,50,0,0
49510,-200,4,2,1,50,0,0
49910,-133.333333333333,4,2,1,50,0,0
50310,-133.333333333333,4,2,1,50,0,0
53510,-133.333333333333,4,2,1,60,0,0
56710,-200,4,2,1,60,0,0
59110,-133.333333333333,4,2,1,60,0,0
63110,-200,4,2,1,60,0,0
65510,-133.333333333333,4,2,1,60,0,0
69510,-200,4,2,1,60,0,0
70710,-200,4,2,1,60,0,0
71310,-133.333333333333,4,2,1,60,0,0
75910,-200,4,2,1,60,0,0
78310,-133.333333333333,4,2,1,60,0,0
85510,-133.333333333333,4,2,1,50,0,0
90310,-166.666666666667,4,2,1,60,0,0
91910,-200,4,2,1,50,0,0
93510,-166.666666666667,4,2,1,55,0,0
95110,-142.857142857143,4,2,1,60,0,0
96710,-125,4,2,1,65,0,0
98310,-133.333333333333,4,2,1,70,0,0
98710,-200,4,2,1,50,0,0
99110,-117.647058823529,4,2,1,70,0,0
99510,-166.666666666667,4,2,1,50,0,0
99910,-105.263157894737,4,2,1,70,0,0
100310,-142.857142857143,4,2,1,50,0,0
100710,-95.2380952380952,4,2,1,70,0,0
101110,-125,4,2,1,50,0,0
101510,-100,4,2,1,70,0,0
103110,-83.3333333333333,4,2,1,70,0,0
104310,-133.333333333333,4,2,1,70,0,0
104710,-83.3333333333333,4,2,1,75,0,1
105110,-66.6666666666667,4,2,1,75,0,1
105910,-133.333333333333,4,2,1,75,0,1
106310,-83.3333333333333,4,2,1,75,0,1
106710,-66.6666666666667,4,2,1,75,0,1
107510,-133.333333333333,4,2,1,75,0,1
107910,-83.3333333333333,4,2,1,75,0,1
108310,-66.6666666666667,4,2,1,75,0,1
111110,-83.3333333333333,4,2,1,75,0,1
111510,-66.6666666666667,4,2,1,75,0,1
112310,-133.333333333333,4,2,1,75,0,1
112710,-83.3333333333333,4,2,1,75,0,1
113110,-66.6666666666667,4,2,1,75,0,1
113910,-133.333333333333,4,2,1,75,0,1
114310,-100,4,2,1,75,0,1
117110,-100,4,2,1,75,0,1
117510,-83.3333333333333,4,2,1,75,0,1
118710,-133.333333333333,4,2,1,75,0,1
119110,-83.3333333333333,4,2,1,75,0,1
120310,-133.333333333333,4,2,1,75,0,1
120710,-83.3333333333333,4,2,1,75,0,1
121110,-66.6666666666667,4,2,1,75,0,1
123910,-83.3333333333333,4,2,1,75,0,1
124310,-66.6666666666667,4,2,1,75,0,1
125110,-133.333333333333,4,2,1,75,0,1
125510,-83.3333333333333,4,2,1,75,0,1
125910,-66.6666666666667,4,2,1,75,0,1
126710,-133.333333333333,4,2,1,75,0,1
127110,-100,4,2,1,75,0,1
130310,-133.333333333333,4,2,1,75,0,1
130710,-100,4,2,1,75,0,1
131110,-66.6666666666667,4,2,1,75,0,1
132510,-66.6666666666667,4,2,1,75,0,1
133510,-100,4,2,1,75,0,1
133910,-66.6666666666667,4,2,1,75,0,1
136710,-133.333333333333,4,2,1,75,0,1
137110,-100,4,2,1,75,0,1
137510,-66.6666666666667,4,2,1,75,0,1
139910,-100,4,2,1,75,0,1
140310,-83.3333333333333,4,2,1,75,0,1
141310,-100,4,2,1,75,0,1
143110,-83.3333333333333,4,2,1,75,0,1
143510,-100,4,2,1,75,0,1
143910,-66.6666666666667,4,2,1,75,0,1
144710,-66.6666666666667,4,2,1,75,0,1
146310,-83.3333333333333,4,2,1,75,0,1
146710,-66.6666666666667,4,2,1,75,0,1
149510,-133.333333333333,4,2,1,75,0,1
149910,-100,4,2,1,75,0,1
150310,-66.6666666666667,4,2,1,75,0,1
151110,-133.333333333333,4,2,1,75,0,1
151510,-66.6666666666667,4,2,1,75,0,1
151910,-133.333333333333,4,2,1,75,0,1
152710,-100,4,2,1,75,0,1
154510,-100,4,2,2,75,0,1
154610,-100,4,2,1,75,0,1
155910,-133.333333333333,4,2,1,60,0,0
195110,-166.666666666667,4,2,1,50,0,0
198710,-200,4,2,1,20,0,0
200710,-416.666666666667,4,2,1,20,0,0
203510,-416.666666666667,4,2,1,10,0,0
203910,-333.333333333333,4,2,1,20,0,0
205510,-333.333333333333,4,2,1,50,0,0
206310,-133.333333333333,4,2,1,50,0,0
207110,-133.333333333333,4,2,1,50,0,0
213110,-100,4,2,1,50,0,0
213510,-133.333333333333,4,2,1,50,0,0
219510,-100,4,2,1,50,0,0
220310,-133.333333333333,4,2,1,50,0,0
225910,-100,4,2,1,50,0,0
226310,-133.333333333333,4,2,1,50,0,0
228710,-200,4,2,1,50,0,0
229110,-133.333333333333,4,2,1,50,0,0
232710,-133.333333333333,4,2,1,60,0,0
235910,-200,4,2,1,60,0,0
238310,-133.333333333333,4,2,1,60,0,0
242310,-200,4,2,1,60,0,0
244710,-133.333333333333,4,2,1,60,0,0
248710,-200,4,2,1,60,0,0
251110,-133.333333333333,4,2,1,60,0,0
256310,-200,4,2,1,60,0,0
257510,-133.333333333333,4,2,1,60,0,0
269510,-200,4,2,1,50,0,0
271110,-200,4,2,1,50,0,0
272710,-166.666666666667,4,2,1,55,0,0
274310,-142.857142857143,4,2,1,60,0,0
275910,-125,4,2,1,65,0,0
277510,-133.333333333333,4,2,1,70,0,0
277910,-200,4,2,1,50,0,0
278310,-117.647058823529,4,2,1,70,0,0
278710,-166.666666666667,4,2,1,50,0,0
279110,-105.263157894737,4,2,1,70,0,0
279510,-142.857142857143,4,2,1,50,0,0
279910,-95.2380952380951,4,2,1,70,0,0
280310,-125,4,2,1,50,0,0
280710,-100,4,2,1,70,0,0
282310,-83.3333333333333,4,2,1,70,0,0
283510,-133.333333333333,4,2,1,70,0,0
283910,-83.3333333333333,4,2,1,75,0,1
284310,-100,4,2,1,75,0,1
284710,-50,4,2,1,75,0,1
285110,-50,4,2,1,75,0,1
285510,-50,4,2,1,75,0,1
285910,-50,4,2,1,75,0,1
286310,-50,4,2,1,75,0,1
286710,-50,4,2,1,75,0,1
287110,-83.3333333333333,4,2,1,75,0,1
287910,-50,4,2,1,75,0,1
288310,-50,4,2,1,75,0,1
288710,-50,4,2,1,75,0,1
289110,-50,4,2,1,75,0,1
289510,-57.1428571428571,4,2,1,75,0,1
290310,-83.3333333333333,4,2,1,75,0,1
290710,-100,4,2,1,75,0,1
291110,-50,4,2,1,75,0,1
291510,-50,4,2,1,75,0,1
291910,-50,4,2,1,75,0,1
292710,-50,4,2,1,75,0,1
293510,-83.3333333333333,4,2,1,75,0,1
294310,-100,4,2,1,75,0,1
296710,-83.3333333333333,4,2,1,75,0,1
297110,-100,4,2,1,75,0,1
297510,-50,4,2,1,75,0,1
299110,-50,4,2,1,75,0,1
299910,-83.3333333333333,4,2,1,75,0,1
300710,-133.333333333333,4,2,1,75,0,1
301110,-100,4,2,1,75,0,1
301510,-83.3333333333333,4,2,1,75,0,1
302610,-66.6666666666667,4,2,1,75,0,1
302910,-66.6666666666667,4,2,1,75,0,1
303110,-83.3333333333333,4,2,1,75,0,1
303510,-100,4,2,1,75,0,1
303910,-50,4,2,1,75,0,1
305510,-50,4,2,1,75,0,1
306310,-100,4,2,1,75,0,1
309510,-133.333333333333,4,2,1,75,0,1
309910,-100,4,2,1,75,0,1
310310,-66.6666666666667,4,2,1,75,0,1
312710,-100,4,2,1,75,0,1
313110,-66.6666666666667,4,2,1,75,0,1
315910,-83.3333333333333,4,2,1,75,0,1
316310,-100,4,2,1,75,0,1
316710,-66.6666666666667,4,2,1,75,0,1
319110,-100,4,2,1,75,0,1
319510,-83.3333333333333,4,2,1,75,0,1
320510,-100,4,2,1,75,0,1
322310,-83.3333333333333,4,2,1,75,0,1
322710,-100,4,2,1,75,0,1
323110,-66.6666666666667,4,2,1,75,0,1
325510,-83.3333333333333,4,2,1,75,0,1
325910,-66.6666666666667,4,2,1,75,0,1
328710,-83.3333333333333,4,2,1,75,0,1
329110,-100,4,2,1,75,0,1
329510,-66.6666666666667,4,2,1,75,0,1
330310,-133.333333333333,4,2,1,75,0,1
330710,-66.6666666666667,4,2,1,75,0,1
331110,-133.333333333333,4,2,1,75,0,1
331910,-100,4,2,1,75,0,1
333710,-100,4,2,2,75,0,1
333810,-100,4,2,1,75,0,1
335110,-100,4,2,1,60,0,0
339710,-133.333333333333,4,2,1,60,0,0
340710,-100,4,2,1,60,0,0
352510,-133.333333333333,4,2,1,60,0,0
353310,-100,4,2,1,60,0,0

[Colours]
Combo1 : 151,19,82
Combo2 : 0,98,170
Combo3 : 202,202,0
Combo4 : 65,126,106
Combo5 : 156,35,14

[HitObjects]
123,195,2310,5,4,0:0:0:0:
123,275,2510,2,0,P|122:309|131:339,2,52.5
123,195,3110,1,0,0:0:0:0:
192,154,3310,2,0,P|221:137|243:115,2,52.5
123,195,3910,1,0,0:0:0:0:
52,157,4110,2,0,P|23:139|-7:131,2,52.5
123,195,4710,1,0,0:0:0:0:
192,154,4910,2,0,P|221:137|243:115,1,52.5
120,112,5310,1,0,0:0:0:0:
123,275,5510,5,4,0:0:0:0:
191,232,5710,1,0,0:0:0:0:
194,313,5910,2,0,B|225:322|225:322|247:316,1,52.5
123,275,6310,2,0,B|91:265|91:265|69:271,1,52.5
194,313,6710,1,0,0:0:0:0:
123,275,6910,1,0,0:0:0:0:
262,269,7110,5,6,0:0:0:0:
191,232,7310,1,0,0:0:0:0:
258,189,7510,2,0,L|312:184,1,52.5
188,153,7910,2,0,L|134:158,1,52.5
258,189,8310,1,0,0:0:0:0:
191,232,8510,1,0,0:0:0:0:
254,115,8710,5,4,0:0:0:0:
320,148,8910,1,0,0:0:0:0:
254,115,9110,2,0,L|264:64,1,52.5
320,148,9510,2,0,L|310:199,1,52.5
192,232,9910,1,0,0:0:0:0:
188,153,10110,1,0,0:0:0:0:
320,148,10510,5,0,0:0:0:0:
323,227,10710,2,0,B|354:236|354:236|376:230,1,52.5
257,264,11110,2,0,B|248:295|248:295|254:317,1,52.5
323,227,11510,1,0,0:0:0:0:
257,264,11710,1,0,0:0:0:0:
188,153,11910,5,4,0:0:0:0:
258,189,12110,1,0,0:0:0:0:
192,232,12310,2,0,L|120:224,1,52.5
200,304,12710,2,0,L|272:312,1,52.5
258,189,13110,1,0,0:0:0:0:
188,153,13310,1,0,0:0:0:0:
192,232,13510,5,6,0:0:0:0:
258,189,13710,1,0,0:0:0:0:
256,112,13910,2,0,L|262:40,1,52.5
328,152,14310,2,0,L|336:232,1,62.9999980773926
400,112,14710,2,0,L|408:24,1,73.4999977569581
283,228,15110,5,6,0:0:0:0:
328,152,15310,1,0,0:0:0:0:
283,228,15510,2,0,P|288:272|328:312,1,78.7500030040742
239,151,15910,2,0,L|136:152,1,78.7500030040742,2|0,0:0|0:0,0:0:0:0:
189,230,16310,1,0,0:0:0:0:
240,152,16510,1,0,0:0:0:0:
104,224,16710,6,0,P|109:268|149:308,1,78.7500030040742,2|0,0:0|0:0,0:0:0:0:
152,152,17110,1,0,0:0:0:0:
189,230,17310,1,0,0:0:0:0:
200,72,17510,2,0,L|101:74,1,78.7500030040742,2|0,0:0|0:0,0:0:0:0:
152,152,17910,1,0,0:0:0:0:
121,73,18110,1,0,0:0:0:0:
104,224,18310,5,4,0:0:0:0:
189,230,18510,1,0,0:0:0:0:
136,304,18710,2,0,P|141:348|181:388,1,78.7500030040742
104,224,19110,2,0,P|63:206|8:220,1,78.7500030040742,2|0,0:0|0:0,0:0:0:0:
136,304,19510,1,0,0:0:0:0:
189,230,19710,1,0,0:0:0:0:
49,294,19910,6,0,P|17:317|0:352,1,78.7500030040742,2|0,0:0|0:0,2:0:0:0:
189,230,20310,1,0,0:0:0:0:
144,144,20510,1,0,0:0:0:0:
136,304,20710,2,0,P|171:320|209:317,1,78.7500030040742,2|0,0:0|0:0,0:0:0:0:
189,230,21110,1,0,0:0:0:0:
232,152,21310,1,0,0:0:0:0:
136,304,21510,5,4,0:0:0:0:
224,312,21710,1,0,0:0:0:0:
189,230,21910,2,0,P|154:212|115:213,1,78.7500030040742
320,160,22310,2,0,L|272:243,1,78.7500030040742,2|0,0:0|0:0,0:0:0:0:
280,228,22710,1,0,0:0:0:0:
232,152,22910,1,0,0:0:0:0:
359,91,23110,6,0,L|311:174,1,78.7500030040742,2|0,0:0|0:0,0:0:0:0:
319,159,23510,1,0,0:0:0:0:
271,83,23710,1,0,0:0:0:0:
408,8,23910,2,0,P|438:31|453:67,1,78.7500030040742,2|0,0:0|0:0,0:0:0:0:
359,91,24310,1,0,0:0:0:0:
424,236,24510,1,0,0:0:0:0:
232,152,24910,5,0,0:0:0:0:
320,16,25110,1,0,0:0:0:0:
392,160,25310,1,0,0:0:0:0:
232,152,25510,2,0,L|128:144,1,78.7500030040742,2|0,0:0|0:0,0:0:0:0:
200,232,25910,1,0,0:0:0:0:
320,160,26110,1,0,0:0:0:0:
104,224,26310,2,0,L|58:318,1,78.7500030040742,2|0,0:0|0:0,0:0:0:0:
200,232,26710,5,0,0:0:0:0:
320,160,26910,1,0,0:0:0:0:
200,232,27110,2,0,L|154:326,1,78.7500030040742,2|0,0:0|0:0,0:0:0:0:
296,240,27510,1,0,0:0:0:0:
416,168,27710,1,0,0:0:0:0:
440,304,27910,5,4,0:0:0:0:
320,304,28310,2,0,L|312:408,1,78.7500030040742
200,240,28710,2,0,L|193:318,1,78.7500030040742
81,280,29110,2,0,L|73:358,1,78.7500030040742
104,152,29510,2,0,L|39:106,1,78.7500030040742
207,161,29910,2,0,L|199:239,1,78.7500030040742
160,64,30310,2,0,L|231:30,1,78.7500030040742
360,136,30710,2,0,L|289:102,1,78.7500030040742
376,144,31110,5,2,3:0:0:0:
440,264,31510,2,0,B|456:304|456:304|448:352,1,78.7500030040742
304,256,31910,2,0,B|320:296|320:296|312:344,1,78.7500030040742
208,256,32310,2,0,B|192:296|192:296|197:331,1,78.7500030040742
72,264,32710,2,0,B|56:304|56:304|62:339,1,78.7500030040742
52,136,33110,2,0,B|92:123|92:123|127:131,1,78.7500030040742
198,180,33510,2,0,B|214:220|214:220|208:254,1,78.7500030040742
210,93,33910,2,0,B|256:81|256:81|311:95,1,105
188,100,34310,5,2,3:0:0:0:
312,96,34710,2,0,P|351:97|387:82,1,78.7500030040742,0|0,2:0|0:0,0:0:0:0:
496,72,35110,2,0,P|475:104|469:143,1,78.7500030040742,0|0,2:0|0:0,0:0:0:0:
416,248,35510,2,0,P|397:213|366:189,1,78.7500030040742,0|0,2:0|0:0,0:0:0:0:
400,352,35910,2,0,P|439:353|476:338,1,78.7500030040742,0|0,2:0|0:0,0:0:0:0:
320,288,36310,2,0,P|281:287|245:302,1,78.7500030040742,0|0,2:0|0:0,0:0:0:0:
169,287,36710,2,0,P|205:302|244:301,1,78.7500030040742,0|0,2:0|0:0,0:0:0:0:
106,232,37110,2,0,P|85:265|80:304,1,78.7500030040742,0|0,2:0|0:0,0:0:0:0:
120,216,37510,5,2,3:0:0:0:
196,50,37910,2,0,L|283:57,1,78.7500030040742
368,136,38310,2,0,L|289:142,1,78.7500030040742
448,56,38710,2,0,L|481:127,1,78.7500030040742
322,200,39110,2,0,L|367:135,1,78.7500030040742
507,242,39510,2,0,L|428:235,1,78.7500030040742
320,328,39910,2,0,L|398:321,1,78.7500030040742
216,256,40310,2,0,B|176:352,1,105
224,240,40710,5,2,3:0:0:0:
224,56,41110,2,0,P|203:88|197:127,1,78.7500030040742,0|0,2:0|0:0,0:0:0:0:
360,200,41510,2,0,P|341:165|310:141,1,78.7500030040742,0|0,2:0|0:0,0:0:0:0:
148,254,41910,2,0,P|187:255|223:240,1,78.7500030040742,0|0,2:0|0:0,0:0:0:0:
80,152,42310,2,0,P|40:150|4:165,1,78.7500030040742,0|0,2:0|0:0,0:0:0:0:
197,127,42710,2,0,P|181:90|152:64,1,78.7500030040742,0|0,2:0|0:0,0:0:0:0:
56,264,43109,2,0,P|64:302|112:344,1,78.7500030040742,0|0,2:0|0:0,0:0:0:0:
224,260,43510,2,0,P|186:248|147:253,1,78.7500030040742,0|0,2:0|0:0,0:0:0:0:
240,264,43910,5,2,3:0:0:0:
227,91,44310,2,0,B|192:99|192:99|151:87,1,78.7500030040742
336,88,44710,2,0,B|371:80|371:80|412:92,1,78.7500030040742
261,158,45110,2,0,B|236:131|236:131|226:90,1,78.7500030040742
367,188,45510,2,0,B|356:222|356:222|325:251,1,78.7500030040742
284,316,45910,2,0,B|294:281|294:281|325:252,1,78.7500030040742
456,328,46310,2,0,B|421:336|421:336|379:323,1,78.7500030040742
224,248,46710,2,0,B|279:237|279:237|334:255,1,105
224,248,47110,6,0,P|160:160|256:64,1,236.250009012223
256,160,47910,2,0,B|208:144|160:168|160:168|128:144|128:144|80:168|32:152,1,236.250009012223
80,296,48710,2,0,B|168:320|216:248|216:248|240:272|288:280,1,236.250009012223
384,304,49510,6,0,L|440:312,1,52.5
440,232,49910,2,0,L|512:184,1,78.7500030040742
400,64,50310,6,0,L|409:142,1,78.7500030040742,2|0,3:0|0:0,0:0:0:0:
265,81,50710,2,0,L|256:160,1,78.7500030040742
112,64,51110,2,0,L|102:142,1,78.7500030040742
6,188,51510,2,0,L|72:232,1,78.7500030040742
232,344,51910,5,0,0:0:0:0:
256,160,52110,1,0,0:0:0:0:
72,232,52310,1,0,0:0:0:0:
336,296,52510,2,0,P|408:248|408:176,1,157.500006008148
256,160,53110,2,0,L|328:208,1,78.7500030040742,8|0,0:0|0:0,0:0:0:0:
120,48,53510,6,0,L|8:57,1,78.7500030040742,2|0,0:0|0:0,0:0:0:0:
177,166,53910,2,0,L|288:156,1,78.7500030040742,2|0,0:0|0:0,0:0:0:0:
64,144,54310,2,0,P|69:230|131:266,1,157.500006008148,8|0,0:0|0:0,0:0:0:0:
177,166,54910,1,0,0:0:0:0:
335,94,55110,6,0,P|352:129|353:168,1,78.7500030040742,2|0,2:0|0:0,0:0:0:0:
274,233,55510,2,0,P|256:197|255:158,1,78.7500030040742,2|0,2:0|0:0,0:0:0:0:
368,320,55910,2,0,P|333:338|294:340,1,78.7500030040742,8|0,0:0|0:0,0:0:0:0:
274,233,56310,1,0,0:0:0:0:
294,340,56510,1,0,0:0:0:0:
64,296,56710,6,0,P|78:246|121:217,1,105,2|0,0:0|0:0,0:0:0:0:
188,372,57310,2,0,P|137:384|91:362,1,105,2|0,0:0|0:0,0:0:0:0:
192,224,57910,2,0,P|228:261|231:312,1,105,2|0,0:0|0:0,0:0:0:0:
148,300,58510,1,2,0:0:0:0:
148,300,58710,1,2,0:0:0:0:
192,224,58910,1,0,0:0:0:0:
184,376,59110,2,0,P|146:383|107:373,1,78.7500030040742,8|0,2:0|0:0,0:0:0:0:
192,224,59510,1,2,0:0:0:0:
148,300,59710,1,8,0:0:0:0:
309,172,59910,6,0,P|317:133|310:94,1,78.7500030040742,2|0,2:0|0:0,0:0:0:0:
136,120,60310,2,0,L|231:128,1,78.7500030040742,2|0,0:0|0:0,0:0:0:0:
459,64,60710,2,0,B|411:96|411:96|307:96,1,157.500006008148,8|0,0:0|0:0,0:0:0:0:
368,16,61310,1,0,0:0:0:0:
472,184,61510,6,0,B|480:219|480:219|467:261,1,78.7500030040742,2|0,0:0|0:0,0:0:0:0:
320,320,61910,2,0,B|346:295|346:295|389:285,1,78.7500030040742,2|0,0:0|0:0,0:0:0:0:
320,320,62310,2,0,L|232:312,1,78.7500030040742,8|0,0:0|0:0,0:0:0:0:
152,272,62710,1,0,0:0:0:0:
241,312,62910,1,0,0:0:0:0:
40,256,63110,6,0,P|55:207|99:181,1,105,2|0,0:0|0:0,0:0:0:0:
159,106,63710,2,0,P|143:154|99:180,1,105,2|0,0:0|0:0,0:0:0:0:
80,104,64310,2,0,L|208:96,1,105,2|0,0:0|0:0,0:0:0:0:
272,88,64910,1,2,0:0:0:0:
192,24,65110,1,2,0:0:0:0:
216,168,65310,1,2,0:0:0:0:
448,136,65510,2,0,P|437:98|413:67,1,78.7500030040742,8|0,2:0|0:0,0:0:0:0:
360,136,65910,1,2,0:0:0:0:
492,340,66110,1,2,0:0:0:0:
492,340,66210,1,2,0:0:0:0:
492,340,66310,6,0,P|454:345|416:335,1,78.7500030040742,2|0,2:0|0:0,0:0:0:0:
347,280,66710,2,0,L|391:215,1,78.7500030040742,2|0,0:0|0:0,0:0:0:0:
416,336,67110,2,0,P|339:374|276:338,1,157.500006008148,8|0,0:0|0:0,0:0:0:0:
281,344,67710,1,0,0:0:0:0:
152,248,67910,6,0,P|190:238|229:244,1,78.7500030040742,2|0,2:0|0:0,0:0:0:0:
281,344,68310,2,0,P|243:354|204:348,1,78.7500030040742,2|0,2:0|0:0,0:0:0:0:
312,184,68710,2,0,L|320:272,1,78.7500030040742,8|0,0:0|0:0,0:0:0:0:
228,243,69110,1,0,0:0:0:0:
312,184,69310,1,0,0:0:0:0:
209,107,69510,6,0,P|161:87|113:104,1,105,2|0,0:0|0:0,0:0:0:0:
64,187,70110,2,0,P|104:155|113:105,1,105,2|0,0:0|0:0,0:0:0:0:
209,107,70710,2,0,P|209:158|243:196,1,105,2|0,0:0|0:0,0:0:0:0:
296,128,71310,1,2,0:0:0:0:
296,128,71510,1,2,0:0:0:0:
296,24,71710,1,2,0:0:0:0:
130,100,71910,2,0,L|232:112,1,78.7500030040742,8|0,0:0|0:0,0:0:0:0:
296,128,72310,1,2,0:0:0:0:
184,216,72510,1,8,0:0:0:0:
328,232,72710,6,0,P|365:243|403:238,1,78.7500030040742,2|0,2:0|0:0,0:0:0:0:
464,149,73110,2,0,P|425:137|387:143,1,78.7500030040742,2|0,2:0|0:0,0:0:0:0:
272,328,73510,2,0,B|320:360|320:360|424:360,1,157.500006008148,8|0,0:0|0:0,0:0:0:0:
373,273,74110,1,0,0:0:0:0:
272,328,74310,6,0,P|234:338|195:332,1,78.7500030040742,2|0,0:0|0:0,3:0:0:0:
128,232,74710,2,0,P|166:226|204:236,1,78.7500030040742,2|0,0:0|0:0,3:0:0:0:
128,232,75110,2,0,L|162:161,1,78.7500030040742,8|0,0:0|0:0,0:0:0:0:
208,56,75510,1,0,0:0:0:0:
208,56,75710,1,0,0:0:0:0:
392,80,75910,6,0,B|352:80|352:80|320:96|320:96|272:96,1,105,2|0,0:0|0:0,0:0:0:0:
368,168,76510,2,0,L|480:168,1,105,2|0,0:0|0:0,0:0:0:0:
344,256,77110,2,0,L|232:256,1,105,2|0,0:0|0:0,0:0:0:0:
192,328,77710,1,2,0:0:0:0:
192,328,77910,1,2,0:0:0:0:
148,256,78110,1,2,0:0:0:0:
24,264,78310,6,0,L|16:342,1,78.7500030040742,8|0,0:0|0:0,0:0:0:0:
148,256,78710,2,0,L|140:177,1,78.7500030040742,2|8,0:0|0:0,0:0:0:0:
24,120,79110,1,4,0:0:0:0:
256,192,85510,5,2,3:0:0:0:
112,200,90310,5,2,0:0:0:0:
112,200,90510,1,2,0:0:0:0:
80,312,90710,5,8,0:0:0:0:
208,152,90910,1,0,0:0:0:0:
112,96,91110,5,8,0:0:0:0:
160,272,91310,1,2,0:0:0:0:
168,295,91410,1,2,0:0:0:0:
175,320,91510,1,8,0:0:0:0:
108,76,91710,1,2,0:0:0:0:
331,231,91910,6,0,L|388:224,1,52.5,2|0,0:0|0:0,0:0:0:0:
456,168,92310,1,0,0:0:0:0:
408,88,92510,2,0,P|376:120|372:144,1,52.5,2|0,0:0|0:0,0:0:0:0:
456,168,92910,1,0,0:0:0:0:
408,88,93110,2,0,L|352:96,1,52.5,2|0,0:0|0:0,0:0:0:0:
208,152,93510,6,0,L|280:144,1,62.9999980773926,2|0,0:0|0:0,0:0:0:0:
264,48,93910,1,0,0:0:0:0:
160,32,94110,2,0,L|97:25,1,62.9999980773926,2|0,0:0|0:0,0:0:0:0:
208,152,94510,2,0,L|200:224,1,62.9999980773926,2|0,0:0|0:0,0:0:0:0:
192,304,94910,1,0,0:0:0:0:
56,248,95110,6,0,L|136:240,1,73.4999977569581,2|0,0:0|0:0,0:0:0:0:
192,304,95510,1,0,0:0:0:0:
360,288,95710,2,0,L|280:296,1,73.4999977569581,2|0,0:0|0:0,0:0:0:0:
200,208,96110,1,0,0:0:0:0:
280,112,96310,2,0,L|368:104,1,73.4999977569581,2|0,0:0|0:0,0:0:0:0:
160,64,96710,6,0,L|64:72,1,84,2|0,0:0|0:0,0:0:0:0:
280,112,97110,1,2,0:0:0:0:
152,143,97310,2,0,P|144:103|160:63,1,84,2|0,0:0|0:0,0:0:0:0:
277,229,97710,2,0,P|235:229|198:206,1,84,2|0,0:0|0:0,0:0:0:0:
280,112,98110,1,0,0:0:0:0:
392,168,98310,6,0,P|430:173|468:163,1,78.7500030040742,8|0,0:3|0:0,0:0:0:0:
416,32,98710,2,0,L|424:104,1,52.5,2|0,0:0|0:3,0:3:0:0:
320,318,99110,6,0,L|328:224,1,89.2500017023087,8|0,0:3|0:0,0:0:0:0:
224,320,99510,2,0,L|232:398,1,62.9999980773926,2|0,0:0|0:0,0:0:0:0:
208,200,99910,6,0,P|160:208|104:192,1,99.7499973363877,8|0,0:3|0:0,0:0:0:0:
316,156,100310,2,0,L|330:249,1,73.4999977569581,2|0,0:0|0:0,0:0:0:0:
232,112,100710,6,0,L|248:0,1,110.249996635437,8|0,0:3|0:0,0:0:0:0:
137,142,101110,2,0,L|128:240,1,84,2|0,0:0|0:0,0:0:0:0:
40,312,101510,6,0,L|112:320,1,52.5,8|0,0:3|0:0,0:0:0:0:
232,328,101710,1,0,0:0:0:0:
137,142,101910,5,8,0:3:0:0:
40,312,102110,1,0,0:0:0:0:
296,176,102310,5,8,0:3:0:0:
72,8,102510,1,0,0:0:0:0:
40,312,102710,5,8,0:3:0:0:
288,80,102910,1,0,0:0:0:0:
192,104,103110,6,8,L|184:56,6,31.4999990386963
216,232,103510,5,4,3:0:0:0:
32,192,103710,1,2,0:0:0:0:
328,144,103910,1,2,0:0:0:0:
144,320,104110,1,2,0:0:0:0:
384,232,104310,6,0,B|401:231|417:246|417:246|440:231|440:231|465:246|489:239,1,118.125004506111,8|0,0:3|0:0,0:0:0:0:
264,216,104710,6,0,P|220:131|292:59,1,188.999994232178,0|0,3:0|0:0,0:0:0:0:
496,80,105110,6,0,P|476:113|441:131,1,78.7500030040742,8|0,0:0|0:0,0:0:0:0:
328,144,105310,1,8,0:0:0:0:
376,32,105510,1,8,0:3:0:0:
400,272,105710,1,8,0:0:0:0:
72,264,105910,6,0,B|64:200|64:200|80:144,1,118.125004506111,8|0,0:0|0:0,0:0:0:0:
120,112,106310,6,0,B|96:208|96:208|112:312,1,188.999994232178,0|0,3:0|0:0,0:0:0:0:
40,88,106710,6,0,P|59:54|94:36,1,78.7500030040742,8|0,0:0|0:0,0:0:0:0:
304,88,106910,1,8,0:0:0:0:
109,296,107110,1,8,0:3:0:0:
120,112,107310,1,8,0:0:0:0:
360,200,107510,6,0,P|408:168|424:104,1,118.125004506111,8|0,0:0|0:0,0:0:0:0:
456,96,107910,6,0,P|440:176|336:232,1,188.999994232178,0|0,3:0|0:0,0:0:0:0:
264,80,108310,6,0,B|232:72|200:96|200:96|160:88|160:88|128:64|128:64|96:72|80:80|80:80|32:64,1,236.250009012223,2|0,0:3|0:0,0:0:0:0:
45,68,108710,5,8,0:3:0:0:
379,113,108910,2,0,P|417:106|455:95,1,78.7500030040742,8|0,0:0|0:0,0:0:0:0:
368,216,109110,2,0,P|406:209|444:198,1,78.7500030040742,8|0,0:0|0:0,0:0:0:0:
357,319,109310,2,0,P|395:312|433:301,1,78.7500030040742,8|0,0:0|0:0,0:0:0:0:
256,256,109510,5,0,3:0:0:0:
155,319,109710,2,0,P|117:312|79:301,1,78.7500030040742,8|0,0:0|0:0,0:0:0:0:
144,216,109910,2,0,P|106:209|68:198,1,78.7500030040742,8|0,0:0|0:0,0:0:0:0:
133,113,110110,2,0,P|95:106|57:95,1,78.7500030040742,8|0,0:0|0:0,0:0:0:0:
256,168,110310,5,8,0:3:0:0:
455,94,110510,2,0,P|417:105|378:113,1,78.7500030040742,8|0,0:0|0:0,0:0:0:0:
367,216,110710,2,0,P|406:208|444:197,1,78.7500030040742,8|0,0:0|0:0,0:0:0:0:
433,300,110910,2,0,P|395:311|356:319,1,78.7500030040742,8|0,0:0|0:0,0:0:0:0:
155,319,111110,6,0,P|123:247|191:293,1,188.999994232178,0|0,3:0|0:0,0:0:0:0:
32,312,111510,6,0,P|25:272|33:236,1,78.7500030040742,8|0,0:0|0:0,0:0:0:0:
256,128,111710,1,8,0:0:0:0:
155,319,111910,1,8,0:3:0:0:
72,128,112110,1,8,0:0:0:0:
256,128,112310,6,0,L|264:0,1,118.125004506111,8|0,0:0|0:0,0:0:0:0:
256,128,112710,6,0,B|224:200|136:192|136:192|168:128,1,188.999994232178,0|0,3:0|0:0,0:0:0:0:
400,96,113110,6,0,L|496:104,1,78.7500030040742,8|0,0:0|0:0,0:0:0:0:
256,128,113310,1,8,0:0:0:0:
356,12,113510,1,8,0:3:0:0:
360,280,113710,1,8,0:0:0:0:
88,200,113910,6,0,P|48:152|88:96,1,118.125004506111,8|0,0:0|0:0,0:0:0:0:
88,200,114310,6,0,L|96:328,1,105,0|0,3:0|0:0,0:0:0:0:
184,232,114710,2,0,L|176:360,1,105
272,240,115110,2,0,L|286:367,1,105,8|0,0:3|0:0,0:0:0:0:
376,240,115510,2,0,L|361:367,1,105,0|0,3:0|0:0,0:0:0:0:
376,136,115910,6,0,L|364:31,1,105,0|0,0:0|3:0,0:0:0:0:
364,31,116310,1,0,0:0:0:0:
216,144,116510,1,0,3:0:0:0:
216,144,116610,1,0,3:0:0:0:
216,144,116710,1,8,0:3:0:0:
376,240,116910,1,0,3:0:0:0:
224,56,117110,1,8,0:3:0:0:
80,240,117310,1,0,3:0:0:0:
376,240,117510,6,0,B|454:241|484:158|484:158|413:160,1,188.999994232178,0|0,3:0|0:0,0:0:0:0:
296,304,117910,6,0,P|323:331|360:340,1,62.9999980773926,8|0,0:0|0:0,0:0:0:0:
488,300,118110,1,8,0:0:0:0:
268,144,118310,1,8,0:3:0:0:
441,159,118510,1,8,0:0:0:0:
109,304,118710,6,0,P|84:255|100:191,1,118.125004506111,8|0,0:0|0:0,0:0:0:0:
108,304,119110,6,0,B|175:304|175:304|199:312|199:312|223:304|223:304|295:304,1,188.999994232178,0|0,3:0|0:0,0:0:0:0:
441,159,119510,6,0,L|441:96,1,62.9999980773926,8|0,0:0|0:0,0:0:0:0:
272,40,119710,1,8,0:0:0:0:
200,224,119910,1,8,0:3:0:0:
328,148,120110,1,8,0:0:0:0:
108,204,120310,2,0,B|84:148|84:148|100:84,1,118.125004506111,8|0,0:0|0:0,0:0:0:0:
108,204,120710,6,0,B|84:252|100:284|100:284|116:316|92:348|92:348|68:324|60:292,1,188.999994232178,0|0,3:0|0:0,0:0:0:0:
4,280,121110,6,0,B|84:272|84:272|148:312|148:312|260:304,1,236.250009012223,2|0,0:3|0:0,0:0:0:0:
392,272,121510,5,8,0:3:0:0:
248,208,121710,2,0,L|136:216,1,78.7500030040742,8|0,0:0|0:0,0:0:0:0:
144,312,121910,2,0,L|256:304,1,78.7500030040742,8|0,0:0|0:0,0:0:0:0:
176,120,122110,2,0,L|64:128,1,78.7500030040742,8|0,0:0|0:0,0:0:0:0:
248,208,122310,5,0,3:0:0:0:
432,224,122510,2,0,P|453:192|473:157,1,78.7500030040742,8|0,0:0|0:0,0:0:0:0:
400,96,122710,2,0,P|392:58|381:19,1,78.7500030040742,8|0,0:0|0:0,0:0:0:0:
296,56,122910,2,0,P|264:35|228:15,1,78.7500030040742,8|0,0:0|0:0,0:0:0:0:
304,176,123110,5,8,0:3:0:0:
304,280,123310,2,0,L|296:392,1,78.7500030040742,8|0,0:0|0:0,0:0:0:0:
106,374,123510,2,0,L|112:296,1,78.7500030040742,8|0,0:0|0:0,0:0:0:0:
208,288,123710,2,0,L|202:366,1,78.7500030040742,8|0,0:0|0:0,0:0:0:0:
160,200,123910,6,0,B|160:128|160:128|136:80|136:80|136:16,1,188.999994232178,0|0,3:0|0:0,0:0:0:0:
56,160,124310,6,0,L|56:264,1,78.7500030040742,8|0,0:0|0:0,0:0:0:0:
112,295,124510,1,8,0:0:0:0:
56,68,124710,1,8,0:3:0:0:
160,200,124910,1,8,0:0:0:0:
280,120,125110,6,0,P|331:92|387:103,1,118.125004506111,8|0,0:0|0:0,0:0:0:0:
414,86,125510,6,0,P|325:62|246:109,1,188.999994232178,0|0,3:0|0:0,0:0:0:0:
348,180,125910,6,0,L|412:228,1,78.7500030040742,8|0,0:0|0:0,0:0:0:0:
252,212,126110,1,8,0:0:0:0:
414,86,126310,1,8,0:3:0:0:
192,40,126510,1,8,0:0:0:0:
484,136,126710,6,0,P|497:79|471:27,1,118.125004506111,8|0,0:0|0:0,0:0:0:0:
376,248,127110,6,0,L|384:368,1,105,0|0,3:0|0:0,0:0:0:0:
240,256,127510,2,0,L|232:136,1,105
408,248,127910,2,0,L|416:368,1,105,8|0,0:3|0:0,0:0:0:0:
208,256,128310,2,0,L|200:136,1,105,0|0,3:0|0:0,0:0:0:0:
440,248,128710,5,0,0:0:0:0:
120,176,129510,6,0,L|80:168,6,26.25
208,256,129910,2,0,L|194:294,6,26.25
224,128,130310,6,0,P|288:104|352:144,1,118.125004506111,0|0,3:0|0:0,0:0:0:0:
384,176,130710,6,0,L|376:336,1,157.5,2|0,0:3|0:0,0:0:0:0:
288,320,131110,6,0,B|240:336|208:320|208:320|168:344|168:344|128:320|128:320|96:336|48:320,1,236.250009012223,8|0,0:3|0:0,0:0:0:0:
12,236,131510,6,0,L|100:244,1,78.7500030040742,10|0,0:0|0:0,0:0:0:0:
167,102,131710,2,0,L|79:110,1,78.7500030040742,8|0,0:0|0:0,0:0:0:0:
160,188,131910,2,0,P|232:161|260:79,1,157.500006008148,0|0,3:0|0:0,0:0:0:0:
160,24,132310,2,0,L|168:112,1,78.7500030040742,8|0,0:0|0:0,0:0:0:0:
192,256,132510,5,8,0:0:0:0:
254,302,132610,1,8,0:0:0:0:
331,309,132710,1,8,0:3:0:0:
401,276,132810,1,8,0:0:0:0:
444,211,132910,1,8,0:0:0:0:
447,133,133010,1,8,0:0:0:0:
416,64,133110,6,0,L|311:71,1,78.7500030040742,8|0,0:0|0:0,0:0:0:0:
160,176,133310,2,0,L|265:169,1,78.7500030040742,8|0,0:0|0:0,0:0:0:0:
176,40,133510,6,0,B|128:40|128:40|104:56|104:56|72:40|72:40|28:40,1,157.5,4|0,3:3|0:0,0:0:0:0:
176,40,133910,6,0,B|216:72|216:72|232:136|232:136|208:208|208:208|160:232,1,236.250009012223,2|0,0:3|0:0,0:0:0:0:
96,168,134310,5,8,0:3:0:0:
304,64,134510,2,0,P|341:74|370:101,1,78.7500030040742,8|0,0:0|0:0,0:0:0:0:
392,248,134710,2,0,P|382:210|391:172,1,78.7500030040742,8|0,0:0|0:0,0:0:0:0:
504,80,134910,2,0,P|475:106|438:118,1,78.7500030040742,8|0,0:0|0:0,0:0:0:0:
312,152,135110,5,0,3:0:0:0:
480,200,135310,2,0,L|472:312,1,78.7500030040742,8|0,0:0|0:0,0:0:0:0:
386,326,135510,2,0,L|394:214,1,78.7500030040742,8|0,0:0|0:0,0:0:0:0:
312,152,135710,2,0,L|304:264,1,78.7500030040742,8|0,0:0|0:0,0:0:0:0:
296,368,135910,5,8,0:3:0:0:
152,272,136110,2,0,B|104:264|104:264|40:272,1,78.7500030040742,8|0,0:0|0:0,0:0:0:0:
234,187,136310,2,0,B|282:195|282:195|346:187,1,78.7500030040742,8|0,0:0|0:0,0:0:0:0:
152,104,136510,2,0,B|104:96|104:96|40:104,1,78.7500030040742,8|0,0:0|0:0,0:0:0:0:
248,32,136710,6,0,B|336:40|336:40|312:72,1,118.125004506111,0|0,3:0|0:0,0:0:0:0:
234,187,137110,6,0,P|252:248|297:175,1,157.5,2|0,0:3|0:0,0:0:0:0:
152,104,137510,6,0,B|88:160|120:264|120:264|80:256|64:216,1,236.250009012223,8|0,0:3|0:0,0:0:0:0:
152,104,137910,6,0,P|200:96|240:112,1,78.7500030040742,8|0,0:0|0:0,0:0:0:0:
389,210,138110,2,0,P|341:218|301:202,1,78.7500030040742,8|0,0:0|0:0,0:0:0:0:
464,164,138310,2,0,P|473:238|417:301,1,157.500006008148,0|0,3:0|0:0,0:0:0:0:
416,76,138710,2,0,P|464:68|504:84,1,78.7500030040742,8|0,0:0|0:0,0:0:0:0:
464,164,138910,2,8,L|480:220,2,52.5000020027161
416,76,139110,5,8,0:3:0:0:
344,48,139210,1,8,0:0:0:0:
276,82,139310,1,0,0:0:0:0:
255,156,139410,1,8,0:0:0:0:
339,127,139510,5,8,0:0:0:0:
276,82,139610,1,0,0:0:0:0:
201,97,139710,1,8,0:0:0:0:
162,163,139810,1,8,0:0:0:0:
184,240,139910,6,0,B|192:284|228:300|228:300|196:332|196:372,1,157.5,0|0,3:0|0:0,0:0:0:0:
304,364,140310,6,0,P|334:310|318:250,1,125.999996154785
201,97,140710,1,8,0:3:0:0:
228,300,140910,1,0,0:0:0:0:
372,180,141110,1,0,3:0:0:0:
88,88,141310,2,0,B|88:136|88:136|72:160|72:160|88:192|88:192|88:236,1,157.5
86,280,141710,1,0,3:0:0:0:
162,163,141910,5,8,3:0:0:0:
292,192,142110,1,2,0:0:0:0:
340,175,142210,1,2,0:0:0:0:
370,133,142310,1,8,3:0:0:0:
256,60,142510,1,2,0:0:0:0:
424,256,142710,1,8,3:0:0:0:
234,31,142910,1,2,0:0:0:0:
504,232,143110,6,0,P|480:320|384:336,1,188.999994232178,0|0,3:0|0:0,0:0:0:0:
319,288,143510,6,0,B|302:256|302:256|437:256,1,157.5,2|0,0:3|0:0,0:0:0:0:
248,328,143910,6,0,B|216:320|184:344|184:344|144:336|144:336|112:312|112:312|80:320|64:328|64:328|16:312,1,236.250009012223,8|0,0:3|0:3,0:3:0:0:
192,80,144310,6,0,P|229:90|258:117,1,78.7500030040742,8|0,0:0|0:0,0:0:0:0:
184,256,144510,2,0,P|174:218|183:180,1,78.7500030040742,8|0,0:0|0:0,0:0:0:0:
376,152,144710,2,0,B|400:152|432:128|432:128|408:216|296:208,1,236.250009012223,0|0,3:0|0:0,0:0:0:0:
192,80,145110,2,0,P|229:90|258:117,1,78.7500030040742,8|0,0:0|0:0,0:0:0:0:
295,207,145310,2,8,L|303:247,2,39.3750015020371
258,117,145510,6,0,B|235:49|274:-1|274:-1|325:37,1,157.500006008148,8|0,0:3|0:0,0:0:0:0:
258,117,145810,5,8,0:0:0:0:
179,119,145910,1,8,0:0:0:0:
100,122,146010,1,8,0:0:0:0:
21,124,146110,1,8,0:0:0:0:
296,208,146310,6,0,B|376:192|384:112|384:112|432:168,1,188.999994232178,0|0,3:0|0:0,0:0:0:0:
380,292,146710,2,0,B|368:336|368:336|224:336|224:336|208:288,1,236.250009012223,2|0,0:3|0:0,0:0:0:0:
296,208,147110,5,8,0:3:0:0:
416,136,147310,2,0,P|455:135|494:137,1,78.7500030040742,8|0,0:0|0:0,0:0:0:0:
288,80,147510,2,0,P|248:79|209:81,1,78.7500030040742,8|0,0:0|0:0,0:0:0:0:
416,216,147710,2,0,P|455:215|494:217,1,78.7500030040742,8|0,0:0|0:0,0:0:0:0:
296,208,147910,5,0,3:0:0:0:
416,312,148110,2,0,P|455:311|494:313,1,78.7500030040742,8|0,0:0|0:0,0:0:0:0:
296,208,148310,2,0,P|256:207|217:209,1,78.7500030040742,8|0,0:0|0:0,0:0:0:0:
416,136,148510,2,0,P|455:135|494:137,1,78.7500030040742,8|0,0:0|0:0,0:0:0:0:
288,80,148710,5,8,0:3:0:0:
416,136,148910,2,0,P|455:135|494:137,1,78.7500030040742,8|0,0:0|0:0,0:0:0:0:
296,208,149110,2,0,P|256:207|217:209,1,78.7500030040742,8|0,0:0|0:0,0:0:0:0:
88,80,149310,2,0,P|127:79|166:81,1,78.7500030040742,8|0,0:0|0:0,0:0:0:0:
24,208,149510,6,0,B|24:240|24:240|8:264|8:264|24:296|24:296|24:336,1,118.125004506111,0|0,3:0|0:0,0:0:0:0:
64,332,149910,6,0,B|64:288|64:288|48:256|48:256|64:232|64:232|64:184,1,157.5,2|0,0:3|0:0,0:0:0:0:
88,80,150310,6,0,B|173:83|173:83|224:112|224:112|336:112,1,236.250009012223,8|0,0:3|0:0,0:0:0:0:
328,16,150710,2,0,L|249:16,1,78.7500030040742,8|0,0:0|0:0,0:0:0:0:
64,183,150909,2,0,L|168:184,1,78.7500030040742,8|0,0:0|0:0,0:0:0:0:
434,104,151110,6,0,L|316:111,1,118.125004506111,0|0,3:0|0:0,0:0:0:0:
168,312,151510,2,0,P|205:302|234:275,1,78.7500030040742,8|0,0:0|0:0,0:0:0:0:
192,160,151710,1,8,0:0:0:0:
168,120,151810,1,8,0:0:0:0:
144,80,151910,6,0,B|104:80|88:56|88:56|48:96|48:152|48:152|80:200|56:264,1,275.62501051426,4|0,0:0|0:0,0:0:0:0:
16,336,152710,6,0,P|72:352|120:328,1,105,2|0,0:0|0:0,0:0:0:0:
176,160,153110,2,0,L|168:264,1,105,2|0,0:0|0:0,0:0:0:0:
224,336,153510,2,0,P|280:352|328:328,1,105,2|0,0:0|0:0,0:0:0:0:
352,152,153910,2,0,L|344:256,1,105,0|2,0:0|0:0,0:0:0:0:
472,176,154310,6,0,L|463:112,1,52.5,2|0,0:0|0:0,0:0:0:0:
376,40,154510,1,8,0:3:0:0:
256,120,154710,2,0,P|184:144|104:104,1,157.5,8|0,0:0|0:0,0:0:0:0:
88,80,155110,1,8,0:0:0:0:
192,40,155310,1,2,0:0:0:0:
288,248,155510,1,8,0:0:0:0:
376,40,155710,1,2,0:0:0:0:
376,264,155910,6,0,P|344:320|256:328,1,157.500006008148,2|0,0:0|0:0,0:0:0:0:
257,328,156510,1,2,0:0:0:0:
120,256,156710,2,0,L|208:264,1,78.7500030040742,8|0,0:0|0:0,0:0:0:0:
288,248,157110,1,2,0:0:0:0:
288,248,157310,1,2,0:0:0:0:
406,183,157510,6,0,P|330:184|287:247,1,157.500006008148,2|0,0:0|0:0,0:0:0:0:
376,264,158110,1,2,0:0:0:0:
264,144,158310,1,8,0:0:0:0:
232,144,158510,1,0,0:0:0:0:
152,240,158710,1,0,0:0:0:0:
184,240,158910,1,0,0:0:0:0:
96,144,159110,6,0,B|-24:144|-24:144|8:168,1,157.500006008148,2|0,0:0|0:0,0:0:0:0:
120,240,159710,1,2,0:0:0:0:
160,88,159910,2,0,L|248:80,1,78.7500030040742,8|0,0:0|0:0,0:0:0:0:
312,24,160310,1,2,0:0:0:0:
336,120,160510,6,0,B|344:176|312:216|312:216|336:256|336:256|304:320|336:352,1,236.250009012223,2|0,0:0|0:0,0:0:0:0:
432,312,161310,1,2,0:0:0:0:
326,339,161510,1,8,0:0:0:0:
240,272,161710,1,0,0:0:0:0:
328,352,161910,1,0,0:0:0:0:
440,304,162110,1,0,0:0:0:0:
464,208,162310,6,0,P|388:207|344:269,1,157.500006008148,2|0,0:0|0:0,0:0:0:0:
328,352,162910,1,0,0:0:0:0:
464,208,163110,2,0,B|456:128,1,78.7500030040742,8|0,0:0|0:0,0:0:0:0:
320,224,163510,1,0,0:0:0:0:
440,304,163710,1,0,0:0:0:0:
344,120,163910,6,0,B|272:96|272:96|192:128,1,157.500006008148,2|0,0:0|0:0,0:0:0:0:
196,126,164510,1,2,0:0:0:0:
152,232,164710,1,8,0:0:0:0:
82,140,164910,1,0,0:0:0:0:
152,248,165110,1,0,0:0:0:0:
208,120,165310,1,2,0:0:0:0:
400,296,165510,6,0,B|360:296|344:280|344:280|320:280|296:296|296:296|272:280|240:280,1,157.500006008148,2|0,0:0|0:0,0:0:0:0:
136,328,166110,1,2,0:0:0:0:
152,232,166310,1,8,0:0:0:0:
152,232,166510,1,0,0:0:0:0:
40,80,166710,2,0,L|32:248,1,157.500006008148,2|0,0:0|0:0,0:0:0:0:
72,72,167310,2,0,L|160:64,1,78.7500030040742,2|0,0:0|0:0,0:0:0:0:
304,48,167710,5,2,0:0:0:0:
343,44,167810,1,2,0:0:0:0:
382,41,167910,1,8,0:0:0:0:
184,56,168110,1,2,0:0:0:0:
424,40,168310,1,8,0:0:0:0:
312,232,168510,1,2,0:0:0:0:
165,234,168710,6,0,B|213:210|213:210|269:210|269:210|323:237,1,157.500006008148,2|0,0:0|0:0,0:0:0:0:
284,316,169310,1,2,0:0:0:0:
88,280,169510,2,0,P|72:248|80:200,1,78.7500030040742,8|0,0:0|0:0,0:0:0:0:
165,234,169910,1,2,0:0:0:0:
96,112,170110,1,2,0:0:0:0:
184,128,170310,6,0,P|242:69|229:-5,1,157.500006008148,2|0,0:0|0:0,0:0:0:0:
232,0,170910,1,2,0:0:0:0:
72,32,171110,1,8,0:0:0:0:
184,128,171310,1,0,0:0:0:0:
152,48,171510,1,2,0:0:0:0:
96,112,171710,1,0,0:0:0:0:
272,152,171910,6,0,B|392:144|392:144|360:112,1,157.500006008148,2|0,0:0|0:0,0:0:0:0:
272,152,172510,1,2,0:0:0:0:
472,168,172710,2,0,P|477:129|460:94,1,78.7500030040742,8|0,0:0|0:0,0:0:0:0:
344,40,173110,1,0,0:0:0:0:
272,152,173310,6,0,B|184:184|96:144|96:144|136:200,1,236.250009012223,2|0,0:0|0:0,0:0:0:0:
192,272,174110,1,2,0:0:0:0:
88,128,174310,1,8,0:0:0:0:
208,296,174510,1,0,0:0:0:0:
72,104,174710,1,0,0:0:0:0:
224,320,174910,1,0,0:0:0:0:
60,84,175110,6,0,P|131:43|200:75,1,157.500006008148,2|0,0:0|0:0,0:0:0:0:
224,160,175710,1,2,0:0:0:0:
304,112,175910,2,0,L|299:27,1,78.7500030040742,8|0,0:0|0:0,0:0:0:0:
299,33,176310,1,0,0:0:0:0:
407,120,176510,1,0,0:0:0:0:
407,120,176710,2,0,L|400:280,1,157.500006008148,2|0,0:0|0:0,0:0:0:0:
400,277,177310,1,2,0:0:0:0:
328,208,177510,1,8,0:0:0:0:
472,208,177710,1,0,0:0:0:0:
296,304,177910,1,2,0:0:0:0:
504,304,178110,1,2,0:0:0:0:
240,212,178310,6,0,P|189:281|200:359,1,157.500006008148,2|0,0:0|0:0,0:0:0:0:
296,304,178910,1,2,0:0:0:0:
128,208,179110,2,0,L|48:208,1,78.7500030040742,8|0,0:0|0:0,0:0:0:0:
184,112,179510,2,0,P|257:89|327:121,1,157.500006008148,2|0,0:0|0:0,0:0:0:0:
128,208,180110,5,2,0:0:0:0:
96,224,180510,1,2,0:0:0:0:
60,241,180610,1,2,0:0:0:0:
25,259,180710,1,8,0:0:0:0:
327,121,180910,1,2,0:0:0:0:
312,296,181110,1,8,0:0:0:0:
351,113,181310,1,2,0:0:0:0:
56,104,195110,6,0,B|100:104|100:104|140:84|180:104|180:104|255:99|272:168|272:168|336:168|336:168|336:176|336:176|336:168|336:168|392:168|392:168|392:88|392:88|472:88|472:88|472:188|472:188|457:225|442:240|412:252|380:248|380:248|337:271|296:248|296:248|208:252|192:184|192:184|140:184|140:184|140:176|140:176|140:184|140:184|60:184,1,1133.99996539307,2|0,0:3|0:0,0:0:0:0:
56,104,199110,6,0,B|99:104|99:104|137:86|177:102,1,105
226,115,199910,2,0,P|250:163|232:216,1,105
112,144,200710,6,0,P|232:120|120:208,1,378.000009228516,0|0,3:0|3:0,3:0:0:0:
112,144,203910,6,0,P|208:72|328:104,1,251.999992309571,0|2,3:0|3:0,3:0:0:0:
240,192,206310,5,8,0:0:0:0:
176,328,206510,2,0,P|137:322|104:301,1,78.7500030040742,2|0,2:0|0:0,0:0:0:0:
72,144,206910,1,2,0:0:0:0:
376,96,207110,6,0,P|390:132|388:171,1,78.7500030040742,0|0,2:0|0:0,0:0:0:0:
240,192,207510,2,0,P|264:161|299:143,1,78.7500030040742,0|0,2:0|0:0,0:0:0:0:
396,256,207910,2,0,P|357:250|324:229,1,78.7500030040742,0|0,2:0|0:0,0:0:0:0:
376,96,208310,6,0,P|390:132|388:171,1,78.7500030040742,0|0,2:0|0:0,0:0:0:0:
240,192,208710,2,0,P|264:161|299:143,1,78.7500030040742,0|0,2:0|0:0,0:0:0:0:
396,256,209110,2,0,P|357:250|324:229,1,78.7500030040742,0|0,2:0|0:0,0:0:0:0:
376,96,209510,6,0,P|390:132|388:171,1,78.7500030040742,0|0,2:0|0:0,0:0:0:0:
240,192,209910,2,0,P|264:161|299:143,1,78.7500030040742,0|0,2:0|0:0,0:0:0:0:
396,256,210310,5,2,3:0:0:0:
212,80,210710,2,0,L|166:144,1,78.7500030040742
84,224,211110,2,0,L|162:231,1,78.7500030040742
270,264,211510,2,0,L|236:184,1,78.7500030040742
212,80,211910,6,0,L|166:144,1,78.7500030040742
84,224,212310,2,0,L|162:231,1,78.7500030040742
270,264,212710,2,0,L|236:184,1,78.7500030040742
196,60,213110,2,0,L|132:156,1,105
84,224,213510,5,2,3:0:0:0:
300,241,213910,2,0,B|335:249|335:249|376:237,1,78.75
410,169,214310,2,0,B|385:195|385:195|375:236,1,78.75
416,300,214710,2,0,B|405:265|405:265|374:236,1,78.75
300,241,215110,6,0,B|292:276|292:276|304:317,1,78.75
410,169,215510,2,0,B|383:144|383:144|342:134,1,78.75
416,300,215910,2,0,B|450:289|450:289|479:258,1,78.7500030040742
300,241,216310,2,0,B|292:276|292:276|304:317,1,78.75
410,169,216710,5,2,3:0:0:0:
300,241,217110,2,0,P|261:240|225:255,1,78.7500030040742,0|0,2:0|0:0,0:0:0:0:
149,241,217510,2,0,P|188:240|224:255,1,78.7500030040742,0|0,2:0|0:0,0:0:0:0:
332,171,217910,2,0,P|323:210|300:241,1,78.7500030040742,0|0,2:0|0:0,0:0:0:0:
116,171,218310,2,0,P|124:209|148:240,1,78.7500030040742,0|0,2:0|0:0,0:0:0:0:
276,91,218710,6,0,P|245:115|227:149,1,78.7500030040742,0|0,2:0|0:0,0:0:0:0:
178,90,219110,2,0,P|208:114|226:148,1,78.7500030040742,0|0,2:0|0:0,0:0:0:0:
224,255,219510,2,0,L|228:145,1,105
228,57,219910,5,2,3:0:0:0:
224,255,220310,2,0,P|261:265|300:259,1,78.7500030040742,0|0,2:0|0:0,0:0:0:0:
343,195,220710,2,0,P|315:222|300:258,1,78.7500030040742,0|0,2:0|0:0,0:0:0:0:
334,326,221110,2,0,P|324:288|299:257,1,78.7500030040742,0|0,2:0|0:0,0:0:0:0:
224,255,221510,6,0,P|196:282|181:318,1,78.7500030040742,0|0,2:0|0:0,0:0:0:0:
334,326,221910,2,0,P|371:336|410:330,1,78.7500030040742,0|0,2:0|0:0,0:0:0:0:
340,193,222310,2,0,P|330:155|305:124,1,78.7500030040742,0|0,2:0|0:0,0:0:0:0:
224,255,222710,2,0,P|196:282|181:318,1,78.7500030040742,0|0,2:0|0:0,0:0:0:0:
334,326,223110,5,2,3:0:0:0:
340,193,223510,2,0,L|275:147,1,78.7500030040742
204,181,223910,2,0,L|284:143,1,78.7500030040742
283,69,224310,2,0,L|275:147,1,78.7500030040742
340,193,224710,6,0,L|411:159,1,78.7500030040742
204,180,225110,2,0,L|196:267,1,78.7500030040742
283,69,225510,2,0,L|218:24,1,78.7500030040742
340,193,225910,2,0,L|440:144,1,105
96,96,226310,6,0,B|128:192|56:248|56:248|88:288|64:320|64:320,1,236.250009012223
16,168,227110,2,0,B|62:183|110:159|110:159|142:183|142:183|190:159|238:175,1,236.250009012223
288,88,227910,2,0,P|352:176|280:272,1,236.250009012223
184,168,228710,6,0,L|256:176,1,52.5
368,280,229110,2,0,L|275:266,1,78.7500030040742
288,88,229510,6,0,L|380:74,1,78.7500030040742,2|0,3:0|0:0,0:0:0:0:
184,168,229910,2,0,L|106:156,1,78.7500030040742
290,268,230310,2,0,L|367:279,1,78.7500030040742
184,349,230710,2,0,L|91:362,1,78.7500030040742
290,268,231110,5,0,0:0:0:0:
184,168,231310,1,0,0:0:0:0:
184,349,231510,1,0,0:0:0:0:
368,376,231710,2,0,P|442:331|446:259,1,157.500006008148
307,217,232310,2,0,L|356:278,1,78.7500030040742,8|0,0:0|0:0,0:0:0:0:
352,88,232710,6,0,P|314:78|275:86,1,78.7500030040742,2|0,2:0|0:0,0:0:0:0:
231,217,233110,2,0,P|268:226|307:218,1,78.7500030040742,2|0,2:0|0:0,0:0:0:0:
160,152,233510,2,0,L|-8:160,1,157.500006008148,8|0,0:0|0:0,0:0:0:0:
160,152,234110,1,2,0:0:0:0:
168,24,234310,5,2,0:0:0:0:
275,86,234510,1,2,0:0:0:0:
160,152,234710,2,0,P|121:145|88:124,1,78.7500030040742,2|0,2:0|0:0,0:0:0:0:
275,86,235110,2,0,L|361:91,1,78.7500030040742,8|0,0:0|0:0,0:0:0:0:
436,92,235510,1,0,0:0:0:0:
396,16,235710,1,0,0:0:0:0:
432,184,235910,6,0,L|304:208,1,105,2|0,0:0|0:0,0:0:0:0:
248,272,236510,2,0,L|368:296,1,105,2|0,0:0|0:0,0:0:0:0:
440,352,237110,2,0,L|326:372,1,105,2|0,0:0|0:0,0:0:0:0:
248,272,237710,1,2,0:0:0:0:
248,272,237910,1,2,0:0:0:0:
350,292,238110,1,2,0:0:0:0:
216,184,238310,2,0,P|182:203|160:236,1,78.7500030040742,8|0,2:0|0:0,0:0:0:0:
248,272,238710,1,2,0:0:0:0:
172,336,238910,1,8,0:0:0:0:
304,208,239110,6,0,L|296:96,1,78.7500030040742,2|0,0:0|0:0,0:0:0:0:
248,272,239510,2,0,L|256:384,1,78.7500030040742,2|0,0:0|0:0,0:0:0:0:
400,304,239910,2,0,B|432:256|432:256|432:152,1,157.500006008148,8|0,0:0|0:0,0:0:0:0:
384,40,240510,1,2,0:0:0:0:
304,128,240710,5,2,0:0:0:0:
432,156,240910,1,0,0:0:0:0:
216,88,241110,2,0,P|207:126|214:164,1,78.7500030040742,2|0,2:0|0:0,0:0:0:0:
216,88,241510,2,0,L|120:92,1,78.7500030040742,8|0,0:0|0:0,0:0:0:0:
48,96,241910,1,0,0:0:0:0:
96,16,242110,1,0,0:0:0:0:
40,200,242310,6,0,L|160:192,1,105,2|0,0:0|0:0,0:0:0:0:
120,268,242910,2,0,L|219:201,1,105,2|0,0:0|0:0,0:0:0:0:
223,286,243510,2,0,L|276:178,1,105,2|0,0:0|0:0,0:0:0:0:
320,80,244110,1,2,0:0:0:0:
320,80,244310,1,2,0:0:0:0:
248,0,244510,1,2,0:0:0:0:
273,171,244710,2,0,B|352:215|352:132|424:167,1,157.500006008148,8|0,0:0|0:0,0:0:0:0:
392,256,245310,1,2,0:0:0:0:
392,256,245410,1,2,0:0:0:0:
392,256,245510,6,0,L|384:352,1,78.7500030040742,2|0,0:0|0:0,0:0:0:0:
266,249,245910,2,0,L|274:153,1,78.7500030040742,2|0,0:0|0:0,0:0:0:0:
389,18,246310,2,0,B|421:66|421:66|421:170,1,157.500006008148,8|0,0:0|0:0,0:0:0:0:
421,165,246910,1,2,0:0:0:0:
272,170,247110,5,2,0:0:0:0:
336,80,247310,1,2,0:0:0:0:
360,256,247510,2,0,L|368:336,1,78.7500030040742,2|0,0:0|0:0,0:0:0:0:
271,169,247910,2,0,P|233:160|195:170,1,78.7500030040742,8|0,0:0|0:0,0:0:0:0:
195,169,248310,1,0,0:0:0:0:
240,264,248510,1,0,0:0:0:0:
407,190,248710,6,0,L|344:88,1,105,2|0,0:0|0:0,0:0:0:0:
386,292,249310,2,0,L|409:177,1,105,2|0,0:0|0:0,0:0:0:0:
298,350,249910,2,0,L|395:285,1,105,2|0,0:0|0:0,0:0:0:0:
256,272,250510,1,2,0:0:0:0:
256,272,250710,1,2,0:0:0:0:
192,352,250910,1,2,0:0:0:0:
76,256,251110,2,0,L|167:264,1,78.7500030040742,8|0,0:0|0:0,0:0:0:0:
192,352,251510,1,2,0:0:0:0:
154,262,251710,1,8,0:0:0:0:
296,344,251910,6,0,P|334:352|372:344,1,78.7500030040742,2|0,2:0|0:0,0:0:0:0:
230,286,252310,2,0,P|203:314|191:351,1,78.7500030040742,2|0,2:0|0:0,0:0:0:0:
100,128,252710,2,0,B|148:96|148:96|252:96,1,157.500006008148,8|0,0:0|0:0,0:0:0:0:
336,80,253310,1,2,0:0:0:0:
240,200,253510,5,2,0:0:0:0:
260,24,253710,1,2,0:0:0:0:
400,160,253910,2,0,P|426:130|437:92,1,78.7500030040742,2|0,2:0|0:0,0:0:0:0:
400,160,254310,2,0,L|404:252,1,78.7500030040742,8|0,0:0|0:0,0:0:0:0:
406,317,254710,1,0,0:0:0:0:
406,317,254910,1,0,0:0:0:0:
296,312,255110,6,0,P|256:256|328:264,1,157.500006008148,2|0,0:0|0:0,0:0:0:0:
176,336,255710,2,0,P|160:240|216:168,1,157.500006008148,2|0,0:0|0:0,0:0:0:0:
224,104,256310,6,0,P|268:129|283:179,1,105,2|0,0:0|0:0,0:0:0:0:
192,200,256910,1,2,0:0:0:0:
192,200,257110,1,2,0:0:0:0:
224,104,257310,1,2,0:0:0:0:
94,209,257510,6,0,L|16:216,1,78.7500030040742,8|0,0:0|0:3,0:3:0:0:
56,120,257910,2,0,L|135:127,1,78.7500030040742,2|8,0:0|0:0,0:0:0:0:
192,200,258310,1,2,0:0:0:0:
256,192,264710,5,2,3:0:0:0:
400,160,269510,5,2,0:0:0:0:
400,160,269710,1,2,0:0:0:0:
280,128,269910,5,8,0:0:0:0:
396,284,270110,1,2,0:0:0:0:
367,40,270310,5,8,0:0:0:0:
288,232,270510,1,2,0:0:0:0:
276,255,270610,1,2,0:0:0:0:
264,278,270710,1,8,0:0:0:0:
376,24,270910,1,2,0:0:0:0:
176,184,271110,6,0,L|112:176,1,52.5,2|0,0:0|0:0,0:0:0:0:
32,168,271510,1,2,0:0:0:0:
230,110,271710,2,0,L|166:102,1,52.5,2|0,0:0|0:0,0:0:0:0:
86,94,272110,1,2,0:0:0:0:
272,32,272310,2,0,L|310:83,1,52.5,2|0,0:0|0:0,0:0:0:0:
152,242,272710,6,0,L|183:164,1,62.9999980773926,2|0,0:0|0:0,0:0:0:0:
230,110,273110,1,2,0:0:0:0:
264,240,273310,2,0,L|295:162,1,62.9999980773926,2|0,0:0|0:0,0:0:0:0:
392,96,273710,2,0,L|361:174,1,62.9999980773926,2|0,0:0|0:0,0:0:0:0:
402,229,274110,1,2,0:0:0:0:
272,32,274310,6,0,P|232:24|196:36,1,73.4999977569581,2|0,0:0|0:0,0:0:0:0:
128,96,274710,1,2,0:0:0:0:
288,184,274910,2,0,P|265:150|231:133,1,73.4999977569581,2|0,0:0|0:0,0:0:0:0:
128,96,275310,1,0,0:0:0:0:
156,268,275510,2,0,P|189:245|206:211,1,73.4999977569581,2|0,0:0|0:0,0:0:0:0:
88,320,275910,6,0,P|118:346|176:348,1,84,2|0,0:0|0:0,0:0:0:0:
264,312,276310,1,2,0:0:0:0:
176,143,276510,2,0,P|178:182|218:225,1,84,2|0,0:0|0:0,0:0:0:0:
344,188,276910,2,0,P|316:159|258:152,1,84,2|0,0:0|0:0,0:0:0:0:
204,217,277310,1,2,0:0:0:0:
440,220,277510,6,0,P|445:182|435:144,1,78.7500030040742,8|0,3:0|0:0,0:0:0:0:
344,188,277910,2,0,L|352:260,1,52.5
324,80,278310,6,0,P|292:48|244:40,1,89.2500017023087,8|0,3:0|0:0,0:0:0:0:
324,80,278710,2,0,L|404:72,1,62.9999980773926
160,0,279110,6,0,P|148:43|168:96,1,99.7499973363877,8|0,3:0|0:0,0:0:0:0:
166,93,279510,2,0,P|118:109|102:133,1,73.4999977569581
188,304,279910,6,0,L|180:176,1,110.249996635437,8|0,3:0|0:0,0:0:0:0:
117,272,280310,2,0,P|142:297|189:304,1,84
405,173,280710,6,0,L|317:181,1,52.5,8|0,3:0|0:0,0:0:0:0:
181,193,280910,1,0,0:0:0:0:
472,296,281110,5,8,0:3:0:0:
376,80,281310,1,0,0:0:0:0:
188,304,281510,5,8,0:3:0:0:
480,164,281710,1,0,0:0:0:0:
180,72,281910,5,8,0:3:0:0:
340,344,282110,1,0,0:0:0:0:
448,80,282310,6,8,L|452:28,6,31.4999990386963
440,196,282710,5,4,0:3:0:0:
188,304,282910,1,0,0:0:0:0:
280,76,283110,1,0,0:0:0:0:
340,344,283310,1,0,0:0:0:0:
280,76,283510,6,0,P|304:20|360:4,1,118.125004506111,8|0,0:3|0:0,0:0:0:0:
280,76,283910,6,0,B|256:112|272:156|272:156|288:188|264:220|264:220|240:196|232:164,1,188.999994232178,0|0,3:0|0:0,0:0:0:0:
352,120,284310,6,0,L|512:112,1,157.5,2|0,0:3|0:0,0:0:0:0:
471,331,284710,6,0,B|421:347|387:335|387:335|355:331|319:359|319:359|235:355|195:251,1,315,8|0,0:3|0:0,0:0:0:0:
88,132,285110,2,0,P|59:85|153:130,1,315
72,224,285510,2,0,B|52:260|-4:276|-4:276|64:272|100:292|100:292|168:324|224:244,1,315,0|0,3:0|0:0,0:0:0:0:
377,227,285910,2,0,P|289:143|213:287,1,315
472,216,286310,6,0,P|448:144|418:103,1,105,8|0,0:3|0:0,0:0:0:0:
272,40,286510,1,8,0:0:0:0:
288,232,286710,1,0,0:0:0:0:
480,32,286910,1,8,0:0:0:0:
380,232,287110,5,8,0:0:0:0:
380,232,287210,2,8,L|409:265,4,31.4999990386963
288,232,287510,2,8,L|224:240,1,62.9999980773926
148,252,287710,1,8,0:0:0:0:
336,332,287910,6,0,P|484:304|424:160,1,315,8|0,0:3|0:0,0:0:0:0:
288,232,288310,2,0,B|164:292|88:196|88:196|144:216|201:187,1,315
456,168,288710,2,0,P|357:53|263:177,1,315,0|0,3:0|0:0,0:0:0:0:
336,332,289110,2,0,B|404:272|360:148|360:148|344:220|276:236,1,315
77,155,289510,6,0,L|273:139,1,183.750001752377,8|0,0:3|0:0,0:0:0:0:
470,247,289810,2,0,L|286:232,1,183.750001752377,8|0,0:0|0:0,0:0:0:0:
104,296,290110,2,0,L|176:224,1,91.8750008761883,8|0,0:0|0:0,0:0:0:0:
312,64,290310,6,0,B|382:29|445:92|445:92|379:120,1,188.999994232178,0|0,3:0|0:0,0:0:0:0:
312,64,290710,6,0,L|136:56,1,157.5,2|0,0:3|0:0,0:0:0:0:
72,148,291110,6,0,B|208:155|208:155|208:167|208:167|208:155|208:155|392:162,1,315,8|0,0:3|0:0,0:0:0:0:
364,252,291510,2,0,B|256:248|256:248|200:272|148:240|148:240|48:236,1,315
40,328,291910,2,0,B|116:332|116:332|192:372|280:340|280:340|361:342,1,315,0|0,3:0|0:0,0:0:0:0:
448,336,292310,2,0,B|448:300|448:300|472:252|448:208|448:208|472:152|444:108|444:108|472:72|452:12,1,315
280,48,292710,6,0,P|216:40|168:64,1,105,8|0,0:3|0:0,0:0:0:0:
72,152,292910,1,8,0:0:0:0:
270,231,293110,1,0,0:0:0:0:
240,128,293310,1,8,0:0:0:0:
136,304,293510,5,8,0:0:0:0:
136,304,293610,2,8,L|112:352,4,31.4999990386963
208,224,293910,2,8,L|272:232,1,62.9999980773926
336,304,294110,1,8,0:0:0:0:
342,154,294310,5,8,0:3:0:0:
208,224,294510,1,0,0:0:0:0:
444,316,294710,1,0,3:0:0:0:
440,144,294910,2,0,P|385:64|306:73,1,157.5
304,72,295310,1,0,3:0:0:0:
408,240,295510,5,8,0:3:0:0:
208,224,295710,1,2,0:0:0:0:
155,220,295810,1,2,0:0:0:0:
103,216,295910,1,8,0:3:0:0:
432,240,296110,1,2,0:0:0:0:
224,48,296310,1,8,0:3:0:0:
456,240,296510,1,2,0:0:0:0:
200,32,296710,6,0,P|148:105|193:183,1,188.999994232178,0|0,3:0|0:0,0:0:0:0:
240,112,297110,6,0,L|56:104,1,157.5,2|0,0:3|0:0,0:0:0:0:
90,313,297510,6,0,P|242:241|98:201,1,315,8|0,0:3|0:3,0:3:0:0:
156,260,297910,2,0,B|208:328|284:336|284:336|284:344|284:344|284:336|284:336|360:332|432:264,1,315
384,196,298310,2,0,P|349:327|485:326,1,315,0|0,3:0|0:0,0:0:0:0:
488,160,298710,2,0,B|448:64|340:96|340:96|304:124|304:124|252:136|196:92,1,315
136,28,299110,6,0,P|99:80|97:134,1,105,8|0,0:3|0:0,0:0:0:0:
284,340,299310,1,8,0:0:0:0:
219,107,299510,1,0,0:0:0:0:
96,312,299710,1,8,0:0:0:0:
408,224,299910,5,8,0:0:0:0:
408,224,300010,2,8,L|456:208,4,31.4999990386963
304,224,300310,2,8,P|263:229|244:216,1,62.9999980773926
219,107,300510,1,8,0:0:0:0:
96,312,300710,6,0,B|120:304|144:320|144:320|168:304|168:304|180:324|216:316,1,118.125004506111,8|0,0:3|0:0,0:0:0:0:
304,224,301110,2,0,B|264:240|248:218|248:218|216:224|216:224|184:200|140:220,1,157.5,0|0,3:0|0:0,0:0:0:0:
8,120,301510,2,0,B|48:104|96:136|96:136|124:120|168:112|196:116|232:128|232:128|268:120|304:140|304:140|346:120|368:128|400:120|400:120|440:128,1,440.999986541748,0|0,3:0|0:0,0:0:0:0:
419,267,302310,6,0,P|347:251|283:203,1,125.999996154785,8|0,3:0|0:0,0:0:0:0:
228,280,302610,2,0,P|300:264|380:208,1,157.500006008148,0|0,3:0|0:0,0:0:0:0:
407,332,302910,2,0,P|361:292|331:248,1,78.7500030040742,8|0,0:3|0:0,0:0:0:0:
216,152,303110,6,0,B|179:90|111:77|111:77|151:67|197:72,1,188.999994232178,0|0,3:0|0:0,0:0:0:0:
288,208,303510,6,0,P|208:240|144:208,1,157.5,2|0,0:3|0:0,0:0:0:0:
314,66,303910,6,0,P|426:154|334:282,1,315,8|0,0:3|0:0,0:0:0:0:
230,234,304310,2,0,P|250:93|407:108,1,315,0|0,0:3|0:0,0:0:0:0:
417,224,304710,2,0,P|284:276|219:133,1,315,0|0,3:0|0:0,0:0:0:0:
314,66,305110,2,0,P|426:154|334:282,1,315,0|0,0:3|0:0,0:0:0:0:
232,232,305510,6,0,P|212:172|228:120,1,105,8|0,0:3|0:0,0:0:0:0:
416,224,305710,1,0,0:0:0:0:
314,66,305910,1,0,0:0:0:0:
124,232,306110,1,8,0:0:0:0:
314,66,306310,6,0,L|434:58,1,105,0|0,3:0|0:0,0:0:0:0:
312,176,306710,2,0,L|320:296,1,105
128,128,307110,2,0,L|248:120,1,105,8|0,0:3|0:0,0:0:0:0:
124,232,307510,2,0,L|132:352,1,105,0|0,3:0|0:0,0:0:0:0:
40,176,307910,5,0,0:0:0:0:
336,72,308710,6,0,L|384:64,6,26.25
232,64,309110,2,0,L|214:18,6,26.25
272,168,309510,6,0,P|219:192|164:175,1,118.125004506111,0|0,3:0|0:0,0:0:0:0:
88,152,309910,6,0,L|80:320,1,157.5,2|0,0:3|0:0,0:0:0:0:
360,224,310310,6,0,B|384:144|384:144|344:48|344:48|304:112,1,236.250009012223,8|0,0:3|0:0,0:0:0:0:
456,248,310710,6,0,L|484:160,1,78.7500030040742,8|0,0:0|0:0,0:0:0:0:
272,168,310910,2,0,L|244:256,1,78.7500030040742,8|0,0:0|0:0,0:0:0:0:
192,120,311110,2,0,L|32:112,1,157.500006008148,0|0,3:0|0:0,0:0:0:0:
272,168,311510,2,0,P|288:120|272:72,1,78.7500030040742,8|0,0:0|0:0,0:0:0:0:
192,120,311710,5,8,0:0:0:0:
181,197,311810,1,8,0:0:0:0:
214,267,311910,1,8,0:3:0:0:
280,308,312010,1,8,0:0:0:0:
358,307,312110,1,8,0:0:0:0:
423,265,312210,1,8,0:0:0:0:
454,194,312310,6,0,L|368:192,1,78.7500030040742,8|0,0:0|0:0,0:0:0:0:
136,265,312510,2,0,L|222:267,1,78.7500030040742,8|0,0:0|0:0,0:0:0:0:
280,88,312710,6,0,P|230:30|154:35,1,157.5,0|0,3:0|0:0,0:0:0:0:
280,88,313110,6,0,B|400:120|400:120|448:72|512:96,1,236.250009012223,2|0,0:3|0:0,0:0:0:0:
472,176,313510,5,8,0:3:0:0:
328,304,313710,2,0,P|291:294|262:267,1,78.7500030040742,8|0,0:0|0:0,0:0:0:0:
168,344,313910,2,0,P|148:310|147:271,1,78.7500030040742,8|0,0:0|0:0,0:0:0:0:
26,259,314110,2,0,P|35:220|62:192,1,78.7500030040742,8|0,0:0|0:0,0:0:0:0:
176,160,314310,5,0,3:0:0:0:
296,192,314510,2,0,P|334:186|366:164,1,78.7500030040742,8|0,0:0|0:0,0:0:0:0:
464,56,314710,2,0,P|431:34|392:28,1,78.7500030040742,8|0,0:0|0:0,0:0:0:0:
304,80,314910,2,0,L|216:72,1,78.7500030040742,8|0,0:0|0:0,0:0:0:0:
144,16,315110,5,8,0:3:0:0:
296,192,315310,2,0,P|298:230|284:267,1,78.7500030040742,8|0,0:0|0:0,0:0:0:0:
184,336,315510,2,0,P|169:299|172:260,1,78.7500030040742,8|0,0:0|0:0,0:0:0:0:
383,215,315710,2,0,P|385:176|371:140,1,78.7500030040742,8|0,0:0|0:0,0:0:0:0:
176,160,315910,6,0,B|128:136|96:152|96:152|64:168|32:144|32:144|56:120|88:112,1,188.999994232178,0|0,3:0|0:0,0:0:0:0:
176,160,316310,6,0,L|168:320,1,157.5,2|0,0:3|0:0,0:0:0:0:
168,72,316710,6,0,B|195:61|227:77|227:77|267:53|267:53|307:77|307:77|339:61|387:77,1,236.250009012223,8|0,0:3|0:0,0:0:0:0:
456,152,317110,2,0,P|427:178|389:189,1,78.7500030040742,8|0,0:0|0:0,0:0:0:0:
184,248,317310,2,0,P|212:221|250:210,1,78.7500030040742,8|0,0:0|0:0,0:0:0:0:
456,152,317510,6,0,P|488:221|459:292,1,157.500006008148,0|0,3:0|0:0,0:0:0:0:
297,236,317910,6,0,L|399:217,1,78.7500030040742,8|0,0:0|0:0,0:0:0:0:
458,292,318110,2,8,L|463:345,2,52.5000020027161
374,221,318310,5,8,0:3:0:0:
297,236,318410,1,8,0:0:0:0:
256,301,318510,1,0,0:0:0:0:
277,375,318610,1,8,0:0:0:0:
339,304,318710,5,8,0:0:0:0:
297,236,318810,1,0,0:0:0:0:
221,220,318910,1,8,0:0:0:0:
159,265,319010,1,8,0:0:0:0:
160,340,319110,6,0,P|220:368|256:300,1,157.5,0|0,3:0|0:0,0:0:0:0:
221,220,319510,6,0,P|205:116|237:12,1,188.999994232178,2|0,0:3|0:0,0:0:0:0:
240,16,319910,1,8,0:3:0:0:
328,192,320110,1,0,0:0:0:0:
408,72,320310,1,0,3:0:0:0:
384,308,320510,2,0,P|322:351|250:327,1,157.5
235,298,320910,1,0,3:0:0:0:
444,216,321110,5,8,0:3:0:0:
288,192,321310,1,0,0:0:0:0:
262,187,321410,1,0,0:0:0:0:
236,183,321510,1,8,0:3:0:0:
471,219,321710,1,0,0:0:0:0:
210,179,321910,1,8,0:3:0:0:
498,222,322110,1,0,0:0:0:0:
239,262,322310,6,0,P|151:242|129:155,1,188.999994232178,0|0,3:0|0:0,0:0:0:0:
178,74,322710,6,0,B|210:57|210:57|210:192,1,157.5,2|0,0:3|0:0,0:0:0:0:
122,342,323110,6,0,B|82:310|82:310|66:246|66:246|90:174|90:174|138:150,1,236.250009012223,8|0,0:3|0:0,0:0:0:0:
352,96,323510,6,0,P|390:86|428:95,1,78.7500030040742,8|0,0:0|0:0,0:0:0:0:
285,177,323710,2,0,P|247:187|209:178,1,78.7500030040742,8|0,0:0|0:0,0:0:0:0:
392,176,323910,2,0,P|421:246|388:316,1,157.500006008148,0|0,3:0|0:0,0:0:0:0:
264,80,324310,2,0,L|272:0,1,78.7500030040742,8|0,0:0|0:0,0:0:0:0:
285,177,324510,2,0,L|336:192,2,39.3750015020371,8|8|8,0:0|0:0|0:0,0:0:0:0:
176,112,324710,6,0,B|120:96|72:112|72:112|80:88|112:64,1,157.500006008148,8|0,0:3|0:0,0:0:0:0:
176,112,325010,5,8,0:0:0:0:
173,190,325110,1,8,0:0:0:0:
170,269,325210,1,8,0:0:0:0:
168,348,325310,1,8,0:0:0:0:
285,177,325510,6,0,P|359:163|322:229,1,188.999994232178,0|0,3:0|0:0,0:0:0:0:
296,64,325910,6,0,P|400:80|456:192,1,236.250009012223,2|0,0:3|0:0,0:0:0:0:
456,188,326310,5,8,0:3:0:0:
200,216,326510,2,0,P|192:177|205:140,1,78.7500030040742,8|0,0:0|0:0,0:0:0:0:
322,229,326710,2,0,P|329:267|316:304,1,78.7500030040742,8|0,0:0|0:0,0:0:0:0:
200,384,326910,2,0,P|192:345|205:308,1,78.7500030040742,8|0,0:0|0:0,0:0:0:0:
322,229,327110,5,0,3:0:0:0:
432,160,327310,2,0,P|444:123|436:84,1,78.7500030040742,8|0,0:0|0:0,0:0:0:0:
304,16,327510,2,0,P|291:52|299:91,1,78.7500030040742,8|0,0:0|0:0,0:0:0:0:
431,159,327710,2,0,P|439:198|427:235,1,78.7500030040742,8|0,0:0|0:0,0:0:0:0:
320,320,327910,5,8,0:3:0:0:
216,224,328110,2,0,P|178:231|139:242,1,78.7500030040742,8|0,0:0|0:0,0:0:0:0:
192,88,328310,2,0,P|171:120|151:155,1,78.7500030040742,8|0,0:0|0:0,0:0:0:0:
88,8,328510,2,0,P|95:45|106:84,1,78.7500030040742,8|0,0:0|0:0,0:0:0:0:
340,211,328710,6,0,B|413:239|470:171|470:171|402:148,1,188.999994232178,0|0,3:0|0:0,0:0:0:0:
340,211,329110,6,0,B|340:259|340:259|324:283|324:283|340:315|340:315|340:359,1,157.5,2|0,0:3|0:0,0:0:0:0:
344,128,329510,6,0,B|312:120|280:144|280:144|240:136|240:136|208:112|208:112|176:120|160:128|160:128|112:112,1,236.250009012223,8|0,0:3|0:0,0:0:0:0:
40,208,329910,2,0,L|136:200,1,78.7500030040742,8|0,0:0|0:0,0:0:0:0:
240,32,330110,2,0,L|144:40,1,78.7500030040742,8|0,0:0|0:0,0:0:0:0:
424,176,330310,2,0,B|437:120|437:120|413:64,1,118.125004506111,0|0,3:0|0:0,0:0:0:0:
340,211,330710,2,0,L|373:282,1,78.7500030040742,8|0,0:0|0:0,0:0:0:0:
344,128,330910,1,8,0:0:0:0:
298,129,331010,1,8,0:0:0:0:
256,144,331110,6,0,B|200:184|192:256|240:312|240:312|192:296|152:312,1,275.62501051426,4|0,0:0|0:0,0:0:0:0:
112,240,331910,6,0,L|0:248,1,105,2|0,0:0|0:0,0:0:0:0:
128,144,332310,2,8,L|16:136,1,105,2|0,0:0|0:0,0:0:0:0:
136,40,332710,2,0,L|31:47,1,105,2|0,0:0|0:0,0:0:0:0:
312,112,333110,2,0,L|207:104,1,105,2|2,0:0|0:0,0:0:0:0:
408,120,333510,1,2,0:0:0:0:
240,24,333710,1,8,0:3:0:0:
256,224,333910,1,8,0:0:0:0:
360,24,334110,2,0,L|288:72,1,52.5,2|0,0:0|0:0,0:0:0:0:
176,136,334310,5,8,0:0:0:0:
264,340,334510,1,2,0:0:0:0:
408,120,334710,5,8,0:0:0:0:
228,236,334910,1,2,0:0:0:0:
464,336,335110,6,0,L|456:208,1,105,2|0,0:0|0:0,0:0:0:0:
313,207,335510,2,0,L|321:335,1,105,2|0,0:0|0:0,0:0:0:0:
408,120,335910,2,0,B|360:88|360:88|200:88,1,210,8|0,0:0|0:0,0:0:0:0:
88,96,336510,1,2,0:0:0:0:
216,200,336710,5,2,0:0:0:0:
216,40,336910,1,2,0:0:0:0:
112,192,337110,2,0,P|112:248|144:288,1,105,2|0,0:0|0:0,0:0:0:0:
320,193,337510,2,0,L|200:201,1,105,8|0,0:0|0:0,0:0:0:0:
416,192,337910,1,2,0:0:0:0:
368,96,338110,1,8,0:0:0:0:
368,304,338310,6,0,L|256:312,1,105,2|0,0:0|0:0,0:0:0:0:
216,200,338710,1,0,0:0:0:0:
216,200,338910,1,0,0:0:0:0:
66,286,339110,2,0,L|115:185,1,105,8|0,0:0|0:0,0:0:0:0:
272,64,339510,1,2,0:0:0:0:
384,48,339710,6,0,B|392:104|360:144|360:144|384:184|384:184|352:248|384:280,1,236.250009012223,2|0,0:0|0:0,0:0:0:0:
440,328,340510,1,2,0:0:0:0:
374,267,340710,2,0,P|278:219|166:275,1,210,8|2,0:0|0:0,0:0:0:0:
144,328,341310,1,8,0:0:0:0:
186,251,341510,6,0,P|215:208|214:157,1,105,2|0,0:0|0:0,0:0:0:0:
128,56,341910,2,0,P|98:98|99:149,1,105,2|0,0:0|0:0,0:0:0:0:
401,172,342310,2,0,P|305:124|193:180,1,210,8|0,0:0|0:0,0:0:0:0:
186,251,342910,1,2,0:0:0:0:
281,228,343110,5,2,0:0:0:0:
214,157,343310,1,2,0:0:0:0:
253,321,343510,2,0,P|304:325|348:298,1,105,2|0,0:0|0:0,0:0:0:0:
326,133,343910,2,0,L|280:227,1,105,8|0,0:0|0:0,0:0:0:0:
400,200,344310,1,0,0:0:0:0:
416,104,344510,1,0,0:0:0:0:
352,48,344710,6,0,P|300:43|256:70,1,105,2|0,0:0|0:0,0:0:0:0:
208,152,345110,1,0,0:0:0:0:
208,152,345310,1,0,0:0:0:0:
46,80,345510,2,0,P|67:126|112:151,1,105,8|0,0:0|0:0,0:0:0:0:
288,321,345910,6,0,P|281:213|177:144,1,210,2|0,0:0|0:0,0:0:0:0:
176,272,346510,1,2,0:0:0:0:
176,272,346710,1,2,0:0:0:0:
304,168,346910,1,2,0:0:0:0:
337,147,347010,1,2,0:0:0:0:
371,126,347110,1,8,0:0:0:0:
152,288,347310,1,2,0:0:0:0:
405,105,347510,1,8,0:0:0:0:
60,80,347710,1,2,0:0:0:0:
344,272,347910,6,0,L|488:272,1,105,2|0,0:0|0:0,0:0:0:0:
304,172,348310,2,0,L|160:172,1,105,2|0,0:0|0:0,0:0:0:0:
40,224,348710,2,0,B|88:256|88:256|248:256,1,210,8|0,0:0|0:0,0:0:0:0:
304,172,349310,1,2,0:0:0:0:
144,176,349510,5,2,0:0:0:0:
231,311,349710,1,2,0:0:0:0:
168,88,349910,2,0,P|116:83|72:110,1,105,2|0,0:0|0:0,0:0:0:0:
304,168,350310,2,0,P|355:172|399:145,1,105,8|0,0:0|0:0,0:0:0:0:
328,80,350710,1,2,0:0:0:0:
392,272,350910,1,8,0:0:0:0:
144,176,351110,6,0,L|152:280,1,105,2|0,0:0|0:0,0:0:0:0:
152,280,351510,1,0,0:0:0:0:
152,280,351710,1,0,0:0:0:0:
48,192,351910,2,0,L|40:88,1,105,8|0,0:0|0:0,0:0:0:0:
260,68,352310,1,2,0:0:0:0:
240,176,352510,6,0,B|296:184|336:152|336:152|376:176|376:176|424:148|476:168,1,236.250009012223,2|0,0:0|0:0,0:0:0:0:
432,256,353310,1,2,0:0:0:0:
144,208,353510,2,0,P|143:156|173:114,1,105,8|0,0:0|0:0,0:0:0:0:
240,176,353910,1,2,0:0:0:0:
56,144,354110,1,8,0:0:0:0:
360,32,354310,6,0,P|360:83|330:125,1,105,2|0,0:0|0:0,0:0:0:0:
152,56,354710,2,0,L|272:64,1,105,2|0,0:0|0:0,0:0:0:0:
310,221,355110,2,0,P|235:166|269:53,1,210,8|0,0:0|0:0,0:0:0:0:
328,128,355710,1,2,0:0:0:0:
160,240,355910,5,2,0:0:0:0:
152,56,356110,1,2,0:0:0:0:
312,216,356310,2,0,L|304:328,1,105,2|0,0:0|0:0,0:0:0:0:
160,240,356710,2,0,L|152:135,1,105,8|0,0:0|0:0,0:0:0:0:
152,56,357110,1,2,0:0:0:0:
328,128,357310,1,8,0:0:0:0:
160,240,357510,6,0,P|110:254|62:236,1,105,2|0,0:0|0:0,0:0:0:0:
56,144,357910,1,0,0:0:0:0:
56,144,358110,1,0,0:0:0:0:
257,243,358310,2,0,P|207:257|159:239,1,105,8|0,0:0|0:0,0:0:0:0:
208,176,358710,2,0,L|208:280,1,105,2|0,0:0|0:0,0:0:0:0:
352,344,359110,1,0,0:0:0:0:
352,344,359310,1,2,0:0:0:0:
416,208,359510,5,8,0:0:0:0:
246,268,359710,1,0,0:0:0:0:
208,281,359810,1,0,0:0:0:0:
171,294,359910,1,0,0:0:0:0:
440,200,360110,1,2,0:0:0:0:
136,308,360310,1,8,0:0:0:0:
452,304,360510,1,2,0:0:0:0:
256,192,360710,5,2,3:0:0:0:
