osu file format v14

[General]
AudioFilename: audio.mp3
AudioLeadIn: 0
PreviewTime: 95291
Countdown: 0
SampleSet: Normal
StackLeniency: 0.7
Mode: 1
LetterboxInBreaks: 0
WidescreenStoryboard: 0

[Editor]
DistanceSpacing: 1.4
BeatDivisor: 1
GridSize: 8
TimelineZoom: 0.6799998

[Metadata]
Title:Highscore
TitleUnicode:Highscore
Artist:Teminite & Panda Eyes
ArtistUnicode:Teminite & Panda Eyes
Creator:Rhytoly
Version:Beginner!
Source:
Tags:glitch hop 110 style fxtra over 9000!!!
BeatmapID:1814126
BeatmapSetID:867851

[Difficulty]
HPDrainRate:7
CircleSize:5
OverallDifficulty:3.5
ApproachRate:10
SliderMultiplier:1
SliderTickRate:1

[Events]
//Background and Video events
0,0,"BG.png",0,0
//Break Periods
//Storyboard Layer 0 (Background)
//Storyboard Layer 1 (Fail)
//Storyboard Layer 2 (Pass)
//Storyboard Layer 3 (Foreground)
//Storyboard Sound Samples

[TimingPoints]
4747,272.727272727273,4,1,0,45,1,0
20019,-100,4,1,0,45,0,0
22201,-100,4,1,0,50,0,0
24383,-100,4,1,0,55,0,0
26565,-100,4,1,0,60,0,0
44019,-100,4,1,0,100,0,1
60383,-100,4,1,0,100,0,0
96383,-100,4,1,0,100,0,1
129110,-100,4,1,0,100,0,0
133474,-100,4,1,0,100,0,1
149837,-100,4,1,0,100,0,0
205474,-100,4,1,0,100,0,1
221837,-100,4,1,0,100,0,0
222928,-100,4,1,0,100,0,1
240383,-100,4,1,0,100,0,0

[HitObjects]
256,192,4747,12,0,8565,0:0:0:0:
434,274,9110,5,8,0:0:0:0:
449,294,11292,1,0,0:0:0:0:
433,268,13474,1,8,0:0:0:0:
402,217,15656,1,8,0:0:0:0:
261,92,17837,1,0,0:0:0:0:
391,182,20019,5,0,0:0:0:0:
406,211,22201,5,8,0:0:0:0:
406,212,24383,5,8,0:0:0:0:
434,274,26565,5,4,0:0:0:0:
449,294,28747,1,0,0:0:0:0:
433,268,30929,1,8,0:0:0:0:
402,217,33111,1,8,0:0:0:0:
261,92,35292,1,4,0:0:0:0:
391,182,37474,5,0,0:0:0:0:
406,211,39656,5,8,0:0:0:0:
406,212,41838,5,8,0:0:0:0:
201,78,44019,1,4,0:0:0:0:
412,208,45109,1,0,0:0:0:0:
412,208,45655,1,8,0:0:0:0:
259,187,46200,1,4,0:0:0:0:
289,69,47291,1,0,0:0:0:0:
289,69,47837,1,8,0:0:0:0:
285,157,48382,1,4,0:0:0:0:
247,120,49473,1,8,0:0:0:0:
301,78,50019,1,8,0:0:0:0:
138,113,50564,1,4,0:0:0:0:
176,106,51655,1,8,0:0:0:0:
363,165,52201,1,0,0:0:0:0:
340,125,52746,1,4,0:0:0:0:
368,153,53837,1,0,0:0:0:0:
368,153,54382,1,0,0:0:0:0:
261,125,54928,1,4,0:0:0:0:
159,147,56019,1,0,0:0:0:0:
254,62,56564,1,8,0:0:0:0:
253,63,57109,1,4,0:0:0:0:
256,108,58200,1,8,0:0:0:0:
256,108,58746,1,8,0:0:0:0:
256,108,59291,1,4,0:0:0:0:
371,168,60382,1,0,0:0:0:0:
218,57,61473,1,4,0:0:0:0:
251,96,62564,1,0,0:0:0:0:
219,37,63109,1,8,0:0:0:0:
249,88,63655,1,4,0:0:0:0:
319,132,64746,1,8,0:0:0:0:
306,122,65291,1,8,0:0:0:0:
306,122,65837,1,4,0:0:0:0:
362,161,66928,1,8,0:0:0:0:
362,161,67473,1,8,0:0:0:0:
232,88,68019,1,4,0:0:0:0:
232,89,69109,1,12,0:0:0:0:
165,118,70200,1,4,0:0:0:0:
89,117,71291,1,0,0:0:0:0:
168,93,71837,1,8,0:0:0:0:
161,126,72382,1,4,0:0:0:0:
207,145,73473,1,0,0:0:0:0:
227,134,74564,1,4,0:0:0:0:
188,167,75110,1,0,0:0:0:0:
167,74,75655,1,8,0:0:0:0:
318,167,76200,1,8,0:0:0:0:
318,167,76746,1,4,0:0:0:0:
313,97,77837,1,12,0:0:0:0:
101,141,78382,1,8,0:0:0:0:
339,185,78928,1,4,0:0:0:0:
385,192,80019,1,0,0:0:0:0:
435,67,80565,1,0,0:0:0:0:
208,127,81109,1,4,0:0:0:0:
435,67,82201,1,8,0:0:0:0:
186,52,82747,1,0,0:0:0:0:
208,127,83291,1,4,0:0:0:0:
128,114,84383,1,8,0:0:0:0:
178,88,84928,1,8,0:0:0:0:
179,56,85473,1,4,0:0:0:0:
251,59,86564,1,12,0:0:0:0:
296,125,87655,1,4,0:0:0:0:
435,67,88747,1,0,0:0:0:0:
187,132,89292,1,0,0:0:0:0:
208,127,89836,1,4,0:0:0:0:
435,67,90928,1,8,0:0:0:0:
186,52,91474,1,0,0:0:0:0:
208,127,92018,1,4,0:0:0:0:
128,114,93110,1,8,0:0:0:0:
178,88,93655,1,8,0:0:0:0:
179,56,94200,1,4,0:0:0:0:
349,132,95291,1,0,0:0:0:0:
222,71,96382,1,12,0:0:0:0:
176,114,97473,1,8,0:0:0:0:
342,125,98019,1,0,0:0:0:0:
176,114,98564,1,8,0:0:0:0:
342,125,99655,1,0,0:0:0:0:
337,141,100746,1,8,0:0:0:0:
159,134,101292,1,8,0:0:0:0:
213,92,101837,1,0,0:0:0:0:
213,92,102928,1,8,0:0:0:0:
213,92,103473,1,8,0:0:0:0:
354,172,104019,1,0,0:0:0:0:
213,92,104564,1,0,0:0:0:0:
195,88,105109,1,12,0:0:0:0:
176,114,106200,1,8,0:0:0:0:
342,125,106746,1,0,0:0:0:0:
176,114,107291,1,8,0:0:0:0:
342,125,108382,1,0,0:0:0:0:
337,141,109473,1,8,0:0:0:0:
352,189,110019,1,8,0:0:0:0:
213,92,110564,1,0,0:0:0:0:
213,92,111655,1,8,0:0:0:0:
354,172,112200,1,0,0:0:0:0:
213,92,112746,1,8,0:0:0:0:
195,88,113292,1,12,0:0:0:0:
271,66,113837,1,4,0:0:0:0:
146,107,114928,1,8,0:0:0:0:
285,116,116019,1,0,0:0:0:0:
246,137,116564,1,0,0:0:0:0:
381,144,117109,1,8,0:0:0:0:
315,117,118200,1,8,0:0:0:0:
384,200,118747,1,8,0:0:0:0:
368,160,119291,1,0,0:0:0:0:
384,200,120383,1,8,0:0:0:0:
200,80,121474,1,0,0:0:0:0:
120,128,122564,1,4,0:0:0:0:
368,128,123655,1,8,0:0:0:0:
432,160,124200,1,8,0:0:0:0:
432,160,124746,1,0,0:0:0:0:
328,120,125837,1,8,0:0:0:0:
176,72,126382,1,0,0:0:0:0:
240,96,126928,1,8,0:0:0:0:
328,88,128019,1,8,0:0:0:0:
328,88,128564,1,8,0:0:0:0:
184,128,129109,1,8,0:0:0:0:
256,192,129656,12,0,132383,0:0:0:0:
201,78,133473,5,4,0:0:0:0:
412,208,134565,1,0,0:0:0:0:
412,208,135110,1,8,0:0:0:0:
259,187,135656,1,4,0:0:0:0:
289,69,136747,1,0,0:0:0:0:
289,69,137292,1,8,0:0:0:0:
285,157,137837,1,4,0:0:0:0:
301,78,138928,1,8,0:0:0:0:
301,78,139474,1,8,0:0:0:0:
138,113,140019,1,4,0:0:0:0:
424,240,141110,1,8,0:0:0:0:
363,165,141656,1,0,0:0:0:0:
340,125,142201,1,4,0:0:0:0:
368,153,143292,1,0,0:0:0:0:
368,153,143837,1,0,0:0:0:0:
261,125,144383,1,4,0:0:0:0:
159,147,145474,1,0,0:0:0:0:
254,62,146019,1,8,0:0:0:0:
253,63,146565,1,4,0:0:0:0:
256,108,147656,1,8,0:0:0:0:
256,108,148201,1,8,0:0:0:0:
256,108,148747,1,4,0:0:0:0:
371,168,149837,1,0,0:0:0:0:
64,152,150928,1,4,0:0:0:0:
128,128,151473,1,0,0:0:0:0:
176,112,152564,1,8,0:0:0:0:
376,192,153109,1,0,0:0:0:0:
320,152,154200,1,8,0:0:0:0:
416,232,155291,1,0,0:0:0:0:
32,128,155837,1,8,0:0:0:0:
144,104,156928,1,8,0:0:0:0:
152,160,157473,1,0,0:0:0:0:
392,200,158564,1,8,0:0:0:0:
264,112,159655,1,4,0:0:0:0:
352,176,160200,1,0,0:0:0:0:
224,104,161291,1,8,0:0:0:0:
456,296,161837,1,0,0:0:0:0:
384,192,162928,1,8,0:0:0:0:
392,200,164019,1,0,0:0:0:0:
176,152,164564,1,8,0:0:0:0:
224,120,165656,1,8,0:0:0:0:
168,144,166200,1,0,0:0:0:0:
360,152,167291,1,8,0:0:0:0:
360,152,168382,1,4,0:0:0:0:
128,128,168928,1,8,0:0:0:0:
176,112,170019,1,8,0:0:0:0:
376,192,170564,1,0,0:0:0:0:
320,152,171655,1,8,0:0:0:0:
416,232,172746,1,0,0:0:0:0:
32,128,173292,1,8,0:0:0:0:
256,136,174383,1,8,0:0:0:0:
152,160,174928,1,8,0:0:0:0:
392,200,176019,1,8,0:0:0:0:
264,112,177110,1,4,0:0:0:0:
280,96,177656,1,8,0:0:0:0:
224,104,178747,1,8,0:0:0:0:
456,296,179292,1,0,0:0:0:0:
384,192,180383,1,8,0:0:0:0:
392,200,181474,1,0,0:0:0:0:
176,152,182019,1,8,0:0:0:0:
64,144,183110,1,8,0:0:0:0:
168,144,183655,1,8,0:0:0:0:
360,152,184746,1,8,0:0:0:0:
360,152,185837,1,4,0:0:0:0:
256,112,186928,1,0,0:0:0:0:
392,200,187473,1,8,0:0:0:0:
416,224,188019,1,0,0:0:0:0:
176,120,189109,1,0,0:0:0:0:
176,120,189655,1,8,0:0:0:0:
176,120,190200,1,0,0:0:0:0:
408,216,191291,1,0,0:0:0:0:
288,128,191837,1,8,0:0:0:0:
256,112,192382,1,0,0:0:0:0:
216,72,193473,1,12,0:0:0:0:
368,168,194564,1,4,0:0:0:0:
256,112,195655,1,0,0:0:0:0:
392,200,196200,1,8,0:0:0:0:
416,224,196746,1,0,0:0:0:0:
176,120,197836,1,0,0:0:0:0:
176,120,198382,1,8,0:0:0:0:
176,120,198927,1,0,0:0:0:0:
408,216,200018,1,0,0:0:0:0:
288,128,200564,1,8,0:0:0:0:
256,112,201109,1,0,0:0:0:0:
216,72,202200,1,12,0:0:0:0:
256,192,203291,12,0,204928,0:0:0:0:
264,120,205473,5,4,0:0:0:0:
352,144,206564,1,8,0:0:0:0:
352,144,207109,1,0,0:0:0:0:
256,88,207655,1,4,0:0:0:0:
360,184,208746,1,8,0:0:0:0:
312,144,209292,1,8,0:0:0:0:
312,144,209837,1,4,0:0:0:0:
296,120,210928,1,8,0:0:0:0:
152,136,211473,1,0,0:0:0:0:
288,112,212019,1,4,0:0:0:0:
96,128,213109,1,0,0:0:0:0:
184,88,213655,1,8,0:0:0:0:
248,56,214200,1,4,0:0:0:0:
368,208,215291,1,8,0:0:0:0:
398,192,216382,1,4,0:0:0:0:
424,192,217473,1,0,0:0:0:0:
128,128,218019,1,8,0:0:0:0:
176,64,218564,1,4,0:0:0:0:
400,176,219655,1,8,0:0:0:0:
96,136,220200,1,8,0:0:0:0:
224,120,220746,1,4,0:0:0:0:
176,88,221837,1,8,0:0:0:0:
40,136,222928,1,4,0:0:0:0:
360,112,224019,1,0,0:0:0:0:
360,112,224564,1,0,0:0:0:0:
40,136,225109,1,4,0:0:0:0:
360,112,226201,1,0,0:0:0:0:
360,112,226747,1,0,0:0:0:0:
40,136,227292,1,4,0:0:0:0:
360,112,228383,1,0,0:0:0:0:
360,112,228927,1,8,0:0:0:0:
40,136,229473,1,4,0:0:0:0:
360,112,230564,1,0,0:0:0:0:
40,136,231655,1,4,0:0:0:0:
360,112,232746,1,8,0:0:0:0:
360,112,233292,1,0,0:0:0:0:
40,136,233837,1,4,0:0:0:0:
360,112,234928,1,0,0:0:0:0:
360,112,235473,1,0,0:0:0:0:
40,136,236019,1,4,0:0:0:0:
360,112,237110,1,0,0:0:0:0:
360,112,237655,1,8,0:0:0:0:
200,16,238200,1,4,0:0:0:0:
80,160,239291,1,0,0:0:0:0:
144,144,240383,1,4,0:0:0:0:
336,152,240928,1,8,0:0:0:0:
272,96,242019,1,8,0:0:0:0:
192,32,243109,1,8,0:0:0:0:
208,64,244200,1,8,0:0:0:0:
208,64,245291,1,8,0:0:0:0:
208,64,246382,1,8,0:0:0:0:
200,64,247473,1,8,0:0:0:0:
224,72,248564,1,8,0:0:0:0:
135,126,249110,1,4,0:0:0:0:
336,152,249655,1,8,0:0:0:0:
272,96,250746,1,8,0:0:0:0:
192,32,251836,1,8,0:0:0:0:
208,64,252927,1,8,0:0:0:0:
208,64,254018,1,8,0:0:0:0:
208,64,255109,1,8,0:0:0:0:
200,64,256200,1,8,0:0:0:0:
224,72,257291,1,8,0:0:0:0:
