osu file format v14

[General]
AudioFilename: audio.mp3
AudioLeadIn: 0
PreviewTime: -1
Countdown: 1
SampleSet: None
StackLeniency: 1
Mode: 3
LetterboxInBreaks: 0
SpecialStyle: 0
WidescreenStoryboard: 1

[Editor]
DistanceSpacing: 0.8
BeatDivisor: 3
GridSize: 4
TimelineZoom: 1

[Metadata]
Title:Highscore
TitleUnicode:Highscore
Artist:Teminite & Panda Eyes
ArtistUnicode:Teminite & Panda Eyes
Creator:MarikOff
Version:Hard Insane
Source:Internet, Multiplayer
Tags:Hardscore, MarikOff, Russian, Русский
BeatmapID:1354441
BeatmapSetID:638465

[Difficulty]
HPDrainRate:7
CircleSize:4
OverallDifficulty:7
ApproachRate:5
SliderMultiplier:0.8
SliderTickRate:1

[Events]
//Background and Video events
//Break Periods
//Storyboard Layer 0 (Background)
//Storyboard Layer 1 (Fail)
//Storyboard Layer 2 (Pass)
//Storyboard Layer 3 (Foreground)
//Storyboard Sound Samples

[TimingPoints]
44062.8664987406,151.733501259446,4,2,0,35,1,0

[HitObjects]
192,192,9265,5,0,0:0:0:0:
320,192,9265,1,0,0:0:0:0:
448,192,9265,1,0,0:0:0:0:
64,192,9265,1,0,0:0:0:0:
320,192,11440,1,0,0:0:0:0:
192,192,11440,1,0,0:0:0:0:
448,192,11440,1,0,0:0:0:0:
64,192,11440,1,0,0:0:0:0:
192,192,13311,1,0,0:0:0:0:
320,192,13311,1,0,0:0:0:0:
64,192,13311,1,0,0:0:0:0:
448,192,13311,1,0,0:0:0:0:
64,192,15638,1,0,0:0:0:0:
320,192,15638,1,0,0:0:0:0:
448,192,15638,1,0,0:0:0:0:
192,192,15638,1,0,0:0:0:0:
192,192,17307,1,0,0:0:0:0:
320,192,17307,1,0,0:0:0:0:
64,192,17307,1,0,0:0:0:0:
448,192,17307,1,0,0:0:0:0:
192,192,17812,1,0,0:0:0:0:
448,192,17812,1,0,0:0:0:0:
64,192,17812,1,0,0:0:0:0:
320,192,17812,1,0,0:0:0:0:
448,192,18571,1,0,0:0:0:0:
320,192,18672,1,0,0:0:0:0:
64,192,18773,1,0,0:0:0:0:
192,192,18824,1,0,0:0:0:0:
448,192,19380,1,0,0:0:0:0:
320,192,19431,1,0,0:0:0:0:
192,192,19886,1,0,0:0:0:0:
64,192,19886,1,0,0:0:0:0:
448,192,19886,1,0,0:0:0:0:
320,192,19886,1,0,0:0:0:0:
64,192,20797,1,0,0:0:0:0:
192,192,20847,1,0,0:0:0:0:
64,192,21252,1,0,0:0:0:0:
192,192,21302,1,0,0:0:0:0:
448,192,21555,1,0,0:0:0:0:
320,192,21606,1,0,0:0:0:0:
192,192,22112,1,0,0:0:0:0:
448,192,22112,1,0,0:0:0:0:
64,192,22112,1,0,0:0:0:0:
320,192,22112,1,0,0:0:0:0:
64,192,22870,1,0,0:0:0:0:
192,192,22971,1,0,0:0:0:0:
64,192,23224,1,0,0:0:0:0:
192,192,23325,1,0,0:0:0:0:
448,192,23679,1,0,0:0:0:0:
320,192,23730,1,0,0:0:0:0:
192,192,24286,1,0,0:0:0:0:
64,192,24286,1,0,0:0:0:0:
448,192,24286,1,0,0:0:0:0:
320,192,24286,1,0,0:0:0:0:
448,192,25146,1,0,0:0:0:0:
320,192,25197,1,0,0:0:0:0:
448,192,25500,1,0,0:0:0:0:
320,192,25551,1,0,0:0:0:0:
64,192,25905,1,0,0:0:0:0:
192,192,25956,1,0,0:0:0:0:
64,192,26360,1,0,0:0:0:0:
192,192,26360,1,0,0:0:0:0:
320,192,26360,1,0,0:0:0:0:
448,192,26360,1,0,0:0:0:0:
448,192,27169,1,0,0:0:0:0:
320,192,27372,1,0,0:0:0:0:
64,192,27625,1,0,0:0:0:0:
192,192,27877,1,0,0:0:0:0:
448,192,28181,1,0,0:0:0:0:
320,192,28434,1,0,0:0:0:0:
64,192,28737,1,0,0:0:0:0:
192,192,28737,1,0,0:0:0:0:
320,192,28737,1,0,0:0:0:0:
448,192,28737,1,0,0:0:0:0:
64,192,29294,1,0,0:0:0:0:
192,192,29445,1,0,0:0:0:0:
448,192,29648,1,0,0:0:0:0:
320,192,29749,1,0,0:0:0:0:
448,192,29901,1,0,0:0:0:0:
320,192,29951,1,0,0:0:0:0:
192,192,30052,1,0,0:0:0:0:
64,192,30103,1,0,0:0:0:0:
448,192,30204,1,0,0:0:0:0:
320,192,30305,1,0,0:0:0:0:
192,192,30508,1,0,0:0:0:0:
64,192,30659,1,0,0:0:0:0:
64,192,30912,1,0,0:0:0:0:
192,192,30912,1,0,0:0:0:0:
320,192,30912,1,0,0:0:0:0:
448,192,30912,1,0,0:0:0:0:
448,192,31519,1,0,0:0:0:0:
320,192,31671,1,0,0:0:0:0:
448,192,31823,1,0,0:0:0:0:
320,192,31924,1,0,0:0:0:0:
448,192,32025,1,0,0:0:0:0:
64,192,32177,1,0,0:0:0:0:
192,192,32227,1,0,0:0:0:0:
192,192,32480,1,0,0:0:0:0:
64,192,32531,1,0,0:0:0:0:
192,192,32682,1,0,0:0:0:0:
64,192,32885,1,0,0:0:0:0:
192,192,33036,1,0,0:0:0:0:
64,192,33239,1,0,0:0:0:0:
192,192,33239,1,0,0:0:0:0:
320,192,33239,1,0,0:0:0:0:
448,192,33239,1,0,0:0:0:0:
448,192,33694,1,0,0:0:0:0:
320,192,33846,1,0,0:0:0:0:
448,192,33947,1,0,0:0:0:0:
320,192,34099,1,0,0:0:0:0:
448,192,34250,1,0,0:0:0:0:
320,192,34402,1,0,0:0:0:0:
448,192,34554,1,0,0:0:0:0:
320,192,34705,1,0,0:0:0:0:
192,192,34756,1,0,0:0:0:0:
320,192,35262,1,0,0:0:0:0:
448,192,35262,1,0,0:0:0:0:
64,192,35262,1,0,0:0:0:0:
192,192,35262,1,0,0:0:0:0:
448,192,35970,1,0,0:0:0:0:
320,192,36122,1,0,0:0:0:0:
448,192,36223,1,0,0:0:0:0:
320,192,36324,1,0,0:0:0:0:
448,192,36880,1,0,0:0:0:0:
64,192,36880,1,0,0:0:0:0:
192,192,36880,1,0,0:0:0:0:
320,192,36880,1,0,0:0:0:0:
192,192,37386,1,0,0:0:0:0:
448,192,37386,1,0,0:0:0:0:
64,192,37386,1,0,0:0:0:0:
320,192,37386,1,0,0:0:0:0:
448,192,38145,1,0,0:0:0:0:
64,192,38296,1,0,0:0:0:0:
192,192,38347,1,0,0:0:0:0:
448,192,38954,1,0,0:0:0:0:
320,192,39005,1,0,0:0:0:0:
64,192,39612,1,0,0:0:0:0:
192,192,39612,1,0,0:0:0:0:
320,192,39612,1,0,0:0:0:0:
448,192,39612,1,0,0:0:0:0:
64,192,40370,1,0,0:0:0:0:
192,192,40421,1,0,0:0:0:0:
448,192,40572,1,0,0:0:0:0:
320,192,40623,1,0,0:0:0:0:
64,192,41179,1,0,0:0:0:0:
192,192,41230,1,0,0:0:0:0:
192,192,41736,1,0,0:0:0:0:
320,192,41736,1,0,0:0:0:0:
448,192,41736,1,0,0:0:0:0:
64,192,41736,1,0,0:0:0:0:
448,192,42494,1,0,0:0:0:0:
320,192,42545,1,0,0:0:0:0:
64,192,42697,1,0,0:0:0:0:
192,192,42747,1,0,0:0:0:0:
448,192,43304,1,0,0:0:0:0:
320,192,43354,1,0,0:0:0:0:
192,192,43860,1,0,0:0:0:0:
448,192,43860,1,0,0:0:0:0:
320,192,43860,1,0,0:0:0:0:
64,192,43860,1,0,0:0:0:0:
448,192,44568,1,0,0:0:0:0:
320,192,44720,1,0,0:0:0:0:
448,192,44872,1,0,0:0:0:0:
320,192,44973,1,0,0:0:0:0:
64,192,45074,1,0,0:0:0:0:
192,192,45175,1,0,0:0:0:0:
64,192,45377,1,0,0:0:0:0:
192,192,45479,1,0,0:0:0:0:
64,192,45681,1,0,0:0:0:0:
192,192,45782,1,0,0:0:0:0:
64,192,45934,1,0,0:0:0:0:
448,192,45934,1,0,0:0:0:0:
448,192,46237,128,0,46692:0:0:0:0:
320,192,46237,128,0,46692:0:0:0:0:
64,192,46237,128,0,46743:0:0:0:0:
192,192,46237,128,0,46743:0:0:0:0:
448,192,46844,1,0,0:0:0:0:
320,192,46996,1,0,0:0:0:0:
448,192,47148,1,0,0:0:0:0:
320,192,47249,1,0,0:0:0:0:
448,192,47401,1,0,0:0:0:0:
320,192,47502,1,0,0:0:0:0:
448,192,47653,1,0,0:0:0:0:
320,192,47755,1,0,0:0:0:0:
448,192,47906,1,0,0:0:0:0:
320,192,48007,1,0,0:0:0:0:
448,192,48109,1,0,0:0:0:0:
320,192,48159,1,0,0:0:0:0:
64,192,48361,128,0,48867:0:0:0:0:
320,192,48361,128,0,48867:0:0:0:0:
192,192,48361,128,0,48867:0:0:0:0:
448,192,48361,128,0,48918:0:0:0:0:
64,192,48918,1,0,0:0:0:0:
192,192,49070,1,0,0:0:0:0:
64,192,49171,1,0,0:0:0:0:
192,192,49272,1,0,0:0:0:0:
64,192,49424,1,0,0:0:0:0:
192,192,49575,1,0,0:0:0:0:
64,192,49677,1,0,0:0:0:0:
192,192,49778,1,0,0:0:0:0:
64,192,49929,1,0,0:0:0:0:
192,192,50081,1,0,0:0:0:0:
64,192,50233,1,0,0:0:0:0:
192,192,50283,1,0,0:0:0:0:
448,192,50536,128,0,51042:0:0:0:0:
64,192,50536,128,0,51042:0:0:0:0:
192,192,50536,128,0,51042:0:0:0:0:
320,192,50536,128,0,51042:0:0:0:0:
448,192,51143,1,0,0:0:0:0:
320,192,51244,1,0,0:0:0:0:
448,192,51396,1,0,0:0:0:0:
320,192,51548,1,0,0:0:0:0:
448,192,51649,1,0,0:0:0:0:
320,192,51801,1,0,0:0:0:0:
448,192,51953,1,0,0:0:0:0:
320,192,52054,1,0,0:0:0:0:
448,192,52205,1,0,0:0:0:0:
320,192,52307,1,0,0:0:0:0:
64,192,52509,1,0,0:0:0:0:
192,192,52509,1,0,0:0:0:0:
448,192,52509,1,0,0:0:0:0:
320,192,52509,1,0,0:0:0:0:
448,192,53217,1,0,0:0:0:0:
320,192,53369,1,0,0:0:0:0:
448,192,53520,1,0,0:0:0:0:
320,192,53622,1,0,0:0:0:0:
448,192,53723,1,0,0:0:0:0:
320,192,53824,1,0,0:0:0:0:
448,192,53976,1,0,0:0:0:0:
320,192,54127,1,0,0:0:0:0:
448,192,54229,1,0,0:0:0:0:
320,192,54380,1,0,0:0:0:0:
448,192,54532,1,0,0:0:0:0:
320,192,54633,1,0,0:0:0:0:
448,192,54684,1,0,0:0:0:0:
448,192,54886,128,0,55240:0:0:0:0:
64,192,54886,128,0,55240:0:0:0:0:
192,192,54886,128,0,55240:0:0:0:0:
320,192,54886,128,0,55240:0:0:0:0:
64,192,55442,1,0,0:0:0:0:
192,192,55544,1,0,0:0:0:0:
64,192,55695,1,0,0:0:0:0:
192,192,55796,1,0,0:0:0:0:
64,192,55898,1,0,0:0:0:0:
192,192,55999,1,0,0:0:0:0:
64,192,56150,1,0,0:0:0:0:
192,192,56302,1,0,0:0:0:0:
64,192,56403,1,0,0:0:0:0:
192,192,56505,1,0,0:0:0:0:
64,192,56656,1,0,0:0:0:0:
192,192,56757,1,0,0:0:0:0:
64,192,56909,1,0,0:0:0:0:
192,192,56960,1,0,0:0:0:0:
64,192,57111,128,0,57617:0:0:0:0:
192,192,57111,128,0,57617:0:0:0:0:
448,192,57111,128,0,57617:0:0:0:0:
320,192,57111,128,0,57617:0:0:0:0:
448,192,57769,1,0,0:0:0:0:
320,192,57921,1,0,0:0:0:0:
448,192,58022,1,0,0:0:0:0:
64,192,58174,1,0,0:0:0:0:
192,192,58325,1,0,0:0:0:0:
192,192,58477,1,0,0:0:0:0:
64,192,58578,1,0,0:0:0:0:
192,192,58730,1,0,0:0:0:0:
64,192,58882,1,0,0:0:0:0:
192,192,58983,1,0,0:0:0:0:
64,192,59135,1,0,0:0:0:0:
192,192,59236,1,0,0:0:0:0:
448,192,59337,128,0,59640:0:0:0:0:
320,192,59337,128,0,59640:0:0:0:0:
192,192,59792,1,0,0:0:0:0:
64,192,59944,1,0,0:0:0:0:
192,192,60096,1,0,0:0:0:0:
64,192,60197,1,0,0:0:0:0:
320,192,60298,1,0,0:0:0:0:
448,192,60298,1,0,0:0:0:0:
192,192,60348,1,0,0:0:0:0:
64,192,60399,1,0,0:0:0:0:
64,192,60854,1,0,0:0:0:0:
192,192,60854,1,0,0:0:0:0:
448,192,60854,1,0,0:0:0:0:
320,192,60854,1,0,0:0:0:0:
192,192,61411,1,0,0:0:0:0:
448,192,61411,1,0,0:0:0:0:
64,192,61411,1,0,0:0:0:0:
320,192,61411,1,0,0:0:0:0:
448,192,62017,1,0,0:0:0:0:
320,192,62119,1,0,0:0:0:0:
448,192,62220,1,0,0:0:0:0:
320,192,62321,1,0,0:0:0:0:
448,192,62422,1,0,0:0:0:0:
320,192,62523,1,0,0:0:0:0:
448,192,62624,1,0,0:0:0:0:
64,192,62726,1,0,0:0:0:0:
192,192,62776,1,0,0:0:0:0:
64,192,62877,1,0,0:0:0:0:
192,192,62978,1,0,0:0:0:0:
64,192,63181,1,0,0:0:0:0:
192,192,63282,1,0,0:0:0:0:
448,192,63687,1,0,0:0:0:0:
320,192,63838,1,0,0:0:0:0:
448,192,64192,1,0,0:0:0:0:
320,192,64243,1,0,0:0:0:0:
64,192,64395,1,0,0:0:0:0:
192,192,64445,1,0,0:0:0:0:
448,192,64648,1,0,0:0:0:0:
320,192,64698,1,0,0:0:0:0:
64,192,64900,1,0,0:0:0:0:
192,192,64951,1,0,0:0:0:0:
448,192,65254,1,0,0:0:0:0:
320,192,65356,1,0,0:0:0:0:
64,192,65558,1,0,0:0:0:0:
192,192,65659,1,0,0:0:0:0:
448,192,65861,1,0,0:0:0:0:
320,192,65912,1,0,0:0:0:0:
64,192,66317,1,0,0:0:0:0:
192,192,66317,1,0,0:0:0:0:
448,192,66317,1,0,0:0:0:0:
320,192,66317,1,0,0:0:0:0:
320,192,66620,1,0,0:0:0:0:
448,192,66620,1,0,0:0:0:0:
64,192,66620,1,0,0:0:0:0:
192,192,66620,1,0,0:0:0:0:
448,192,66772,1,0,0:0:0:0:
320,192,66772,1,0,0:0:0:0:
64,192,66772,1,0,0:0:0:0:
192,192,66772,1,0,0:0:0:0:
320,192,66873,1,0,0:0:0:0:
448,192,66873,1,0,0:0:0:0:
64,192,66873,1,0,0:0:0:0:
192,192,66873,1,0,0:0:0:0:
448,192,67278,1,0,0:0:0:0:
320,192,67429,1,0,0:0:0:0:
64,192,67581,128,0,68036:0:0:0:0:
192,192,67986,1,0,0:0:0:0:
64,192,68542,1,0,0:0:0:0:
192,192,68542,1,0,0:0:0:0:
448,192,68542,1,0,0:0:0:0:
320,192,68542,1,0,0:0:0:0:
64,192,69098,1,0,0:0:0:0:
192,192,69098,1,0,0:0:0:0:
320,192,69098,1,0,0:0:0:0:
448,192,69098,1,0,0:0:0:0:
320,192,69705,1,0,0:0:0:0:
448,192,69705,1,0,0:0:0:0:
192,192,69705,1,0,0:0:0:0:
64,192,69705,1,0,0:0:0:0:
64,192,70211,1,0,0:0:0:0:
192,192,70211,1,0,0:0:0:0:
320,192,70211,1,0,0:0:0:0:
448,192,70211,1,0,0:0:0:0:
448,192,70717,1,0,0:0:0:0:
320,192,70818,1,0,0:0:0:0:
448,192,70970,1,0,0:0:0:0:
320,192,71071,1,0,0:0:0:0:
448,192,71172,1,0,0:0:0:0:
320,192,71273,1,0,0:0:0:0:
448,192,71425,1,0,0:0:0:0:
320,192,71526,1,0,0:0:0:0:
448,192,71627,1,0,0:0:0:0:
320,192,71728,1,0,0:0:0:0:
64,192,71830,1,0,0:0:0:0:
192,192,71880,1,0,0:0:0:0:
64,192,72032,1,0,0:0:0:0:
192,192,72133,1,0,0:0:0:0:
64,192,72234,1,0,0:0:0:0:
192,192,72335,1,0,0:0:0:0:
320,192,72386,1,0,0:0:0:0:
448,192,72437,1,0,0:0:0:0:
448,192,72892,1,0,0:0:0:0:
320,192,72993,1,0,0:0:0:0:
448,192,73094,1,0,0:0:0:0:
320,192,73195,1,0,0:0:0:0:
448,192,73296,1,0,0:0:0:0:
320,192,73398,1,0,0:0:0:0:
192,192,73650,1,0,0:0:0:0:
448,192,73650,1,0,0:0:0:0:
320,192,73650,1,0,0:0:0:0:
64,192,73650,1,0,0:0:0:0:
64,192,74055,1,0,0:0:0:0:
192,192,74055,1,0,0:0:0:0:
320,192,74055,1,0,0:0:0:0:
448,192,74055,1,0,0:0:0:0:
320,192,74308,1,0,0:0:0:0:
64,192,74308,1,0,0:0:0:0:
192,192,74308,1,0,0:0:0:0:
448,192,74308,1,0,0:0:0:0:
320,192,74460,1,0,0:0:0:0:
448,192,74460,1,0,0:0:0:0:
64,192,74611,1,0,0:0:0:0:
192,192,74611,1,0,0:0:0:0:
320,192,74611,1,0,0:0:0:0:
448,192,74611,1,0,0:0:0:0:
448,192,75067,1,0,0:0:0:0:
320,192,75370,1,0,0:0:0:0:
448,192,75522,1,0,0:0:0:0:
320,192,75572,1,0,0:0:0:0:
64,192,75926,1,0,0:0:0:0:
192,192,75977,1,0,0:0:0:0:
64,192,76280,1,0,0:0:0:0:
192,192,76533,1,0,0:0:0:0:
64,192,76685,1,0,0:0:0:0:
192,192,76786,1,0,0:0:0:0:
448,192,77140,1,0,0:0:0:0:
320,192,77140,1,0,0:0:0:0:
192,192,77191,1,0,0:0:0:0:
64,192,77241,1,0,0:0:0:0:
448,192,77697,1,0,0:0:0:0:
320,192,77747,1,0,0:0:0:0:
64,192,77798,1,0,0:0:0:0:
192,192,77798,1,0,0:0:0:0:
448,192,78152,1,0,0:0:0:0:
64,192,78253,1,0,0:0:0:0:
320,192,78253,1,0,0:0:0:0:
192,192,78304,1,0,0:0:0:0:
448,192,78860,1,0,0:0:0:0:
64,192,78910,1,0,0:0:0:0:
320,192,78961,1,0,0:0:0:0:
192,192,78961,1,0,0:0:0:0:
64,192,79366,1,0,0:0:0:0:
192,192,79467,1,0,0:0:0:0:
64,192,79619,1,0,0:0:0:0:
192,192,79669,1,0,0:0:0:0:
64,192,79821,1,0,0:0:0:0:
192,192,79871,1,0,0:0:0:0:
64,192,79973,1,0,0:0:0:0:
192,192,80023,1,0,0:0:0:0:
448,192,80124,1,0,0:0:0:0:
320,192,80226,1,0,0:0:0:0:
192,192,80630,1,0,0:0:0:0:
64,192,80832,1,0,0:0:0:0:
192,192,80984,1,0,0:0:0:0:
64,192,81085,128,0,81439:0:0:0:0:
192,192,81642,1,0,0:0:0:0:
192,192,81895,1,0,0:0:0:0:
192,192,82097,1,0,0:0:0:0:
192,192,82350,1,0,0:0:0:0:
64,192,82502,1,0,0:0:0:0:
192,192,82653,1,0,0:0:0:0:
192,192,82856,1,0,0:0:0:0:
448,192,83058,1,0,0:0:0:0:
320,192,83260,128,0,83665:0:0:0:0:
64,192,83817,1,0,0:0:0:0:
192,192,84120,1,0,0:0:0:0:
64,192,84322,1,0,0:0:0:0:
192,192,84373,1,0,0:0:0:0:
64,192,84575,1,0,0:0:0:0:
192,192,84676,1,0,0:0:0:0:
320,192,84929,1,0,0:0:0:0:
448,192,85182,1,0,0:0:0:0:
320,192,85334,1,0,0:0:0:0:
192,192,85384,128,0,85789:0:0:0:0:
64,192,85384,128,0,85789:0:0:0:0:
448,192,85435,128,0,85789:0:0:0:0:
320,192,85435,128,0,85789:0:0:0:0:
448,192,85941,128,0,86396:0:0:0:0:
192,192,85941,128,0,86396:0:0:0:0:
320,192,85941,128,0,86396:0:0:0:0:
64,192,85941,128,0,86396:0:0:0:0:
448,192,86497,128,0,86952:0:0:0:0:
64,192,86497,128,0,87003:0:0:0:0:
320,192,86497,128,0,87003:0:0:0:0:
192,192,86497,128,0,87003:0:0:0:0:
448,192,87054,128,0,87509:0:0:0:0:
64,192,87054,128,0,87509:0:0:0:0:
320,192,87054,128,0,87509:0:0:0:0:
192,192,87054,128,0,87509:0:0:0:0:
448,192,87559,128,0,87964:0:0:0:0:
320,192,87559,128,0,87964:0:0:0:0:
64,192,87559,128,0,87964:0:0:0:0:
192,192,87559,128,0,87964:0:0:0:0:
448,192,88116,1,0,0:0:0:0:
320,192,88217,1,0,0:0:0:0:
448,192,88369,1,0,0:0:0:0:
320,192,88470,1,0,0:0:0:0:
448,192,88621,1,0,0:0:0:0:
64,192,88723,1,0,0:0:0:0:
192,192,88824,1,0,0:0:0:0:
64,192,88925,1,0,0:0:0:0:
192,192,89026,1,0,0:0:0:0:
64,192,89178,1,0,0:0:0:0:
448,192,89330,1,0,0:0:0:0:
192,192,89481,1,0,0:0:0:0:
320,192,89481,1,0,0:0:0:0:
64,192,89582,1,0,0:0:0:0:
448,192,89684,1,0,0:0:0:0:
192,192,89734,1,0,0:0:0:0:
320,192,89835,1,0,0:0:0:0:
64,192,90341,1,0,0:0:0:0:
448,192,90341,1,0,0:0:0:0:
192,192,90493,1,0,0:0:0:0:
320,192,90594,1,0,0:0:0:0:
448,192,90695,1,0,0:0:0:0:
64,192,90695,1,0,0:0:0:0:
192,192,90897,1,0,0:0:0:0:
320,192,90897,1,0,0:0:0:0:
64,192,91100,1,0,0:0:0:0:
448,192,91100,1,0,0:0:0:0:
192,192,91201,1,0,0:0:0:0:
448,192,91454,1,0,0:0:0:0:
320,192,91555,1,0,0:0:0:0:
192,192,91555,1,0,0:0:0:0:
64,192,91656,1,0,0:0:0:0:
448,192,91757,1,0,0:0:0:0:
192,192,91808,1,0,0:0:0:0:
448,192,91960,128,0,92415:0:0:0:0:
320,192,92465,1,0,0:0:0:0:
448,192,92668,1,0,0:0:0:0:
64,192,92769,1,0,0:0:0:0:
192,192,92819,1,0,0:0:0:0:
64,192,92971,1,0,0:0:0:0:
192,192,93072,1,0,0:0:0:0:
320,192,93275,1,0,0:0:0:0:
448,192,93376,1,0,0:0:0:0:
448,192,93527,1,0,0:0:0:0:
320,192,93578,1,0,0:0:0:0:
192,192,93831,1,0,0:0:0:0:
64,192,93882,1,0,0:0:0:0:
448,192,94185,1,0,0:0:0:0:
320,192,94236,1,0,0:0:0:0:
448,192,94691,1,0,0:0:0:0:
64,192,94691,1,0,0:0:0:0:
192,192,94741,1,0,0:0:0:0:
448,192,95197,1,0,0:0:0:0:
320,192,95247,1,0,0:0:0:0:
320,192,95753,128,0,96158:0:0:0:0:
448,192,95753,128,0,96158:0:0:0:0:
192,192,95753,128,0,96158:0:0:0:0:
64,192,95753,128,0,96158:0:0:0:0:
320,192,96410,1,0,0:0:0:0:
448,192,96410,1,0,0:0:0:0:
192,192,96410,1,0,0:0:0:0:
448,192,96967,1,0,0:0:0:0:
320,192,97068,1,0,0:0:0:0:
448,192,97169,1,0,0:0:0:0:
320,192,97270,1,0,0:0:0:0:
448,192,97422,1,0,0:0:0:0:
320,192,97473,1,0,0:0:0:0:
448,192,97624,1,0,0:0:0:0:
320,192,97725,1,0,0:0:0:0:
448,192,97827,1,0,0:0:0:0:
320,192,97928,1,0,0:0:0:0:
448,192,98029,1,0,0:0:0:0:
64,192,98181,1,0,0:0:0:0:
192,192,98282,1,0,0:0:0:0:
192,192,98535,1,0,0:0:0:0:
448,192,98636,1,0,0:0:0:0:
320,192,98686,1,0,0:0:0:0:
192,192,98889,1,0,0:0:0:0:
64,192,99040,1,0,0:0:0:0:
64,192,99647,1,0,0:0:0:0:
192,192,99647,1,0,0:0:0:0:
320,192,99647,1,0,0:0:0:0:
448,192,99698,1,0,0:0:0:0:
448,192,100052,1,0,0:0:0:0:
320,192,100153,1,0,0:0:0:0:
64,192,100659,1,0,0:0:0:0:
448,192,101165,1,0,0:0:0:0:
320,192,101266,1,0,0:0:0:0:
64,192,101721,1,0,0:0:0:0:
192,192,101822,1,0,0:0:0:0:
448,192,102227,1,0,0:0:0:0:
320,192,102379,1,0,0:0:0:0:
64,192,102783,1,0,0:0:0:0:
448,192,102783,1,0,0:0:0:0:
192,192,102834,1,0,0:0:0:0:
320,192,102834,1,0,0:0:0:0:
64,192,103390,1,0,0:0:0:0:
448,192,103390,1,0,0:0:0:0:
320,192,103441,1,0,0:0:0:0:
192,192,103441,1,0,0:0:0:0:
448,192,103947,1,0,0:0:0:0:
64,192,103947,1,0,0:0:0:0:
320,192,104301,1,0,0:0:0:0:
192,192,104301,1,0,0:0:0:0:
64,192,104958,1,0,0:0:0:0:
448,192,104958,1,0,0:0:0:0:
320,192,105009,1,0,0:0:0:0:
192,192,105009,1,0,0:0:0:0:
448,192,105565,1,0,0:0:0:0:
64,192,105565,1,0,0:0:0:0:
192,192,105616,1,0,0:0:0:0:
320,192,105616,1,0,0:0:0:0:
320,192,106121,1,0,0:0:0:0:
192,192,106121,1,0,0:0:0:0:
64,192,106172,1,0,0:0:0:0:
448,192,106172,1,0,0:0:0:0:
64,192,106678,1,0,0:0:0:0:
448,192,106678,1,0,0:0:0:0:
320,192,106678,1,0,0:0:0:0:
192,192,106728,1,0,0:0:0:0:
448,192,107184,1,0,0:0:0:0:
64,192,107184,1,0,0:0:0:0:
192,192,107234,1,0,0:0:0:0:
320,192,107234,1,0,0:0:0:0:
448,192,107790,1,0,0:0:0:0:
64,192,107790,1,0,0:0:0:0:
192,192,107790,1,0,0:0:0:0:
320,192,107790,1,0,0:0:0:0:
64,192,108347,1,0,0:0:0:0:
448,192,108347,1,0,0:0:0:0:
320,192,108347,1,0,0:0:0:0:
192,192,108347,1,0,0:0:0:0:
192,192,108853,1,0,0:0:0:0:
320,192,108903,1,0,0:0:0:0:
448,192,108903,1,0,0:0:0:0:
64,192,108903,1,0,0:0:0:0:
320,192,109460,1,0,0:0:0:0:
192,192,109460,1,0,0:0:0:0:
64,192,109510,1,0,0:0:0:0:
448,192,109510,1,0,0:0:0:0:
192,192,110066,1,0,0:0:0:0:
320,192,110066,1,0,0:0:0:0:
64,192,110066,1,0,0:0:0:0:
448,192,110117,1,0,0:0:0:0:
448,192,110522,1,0,0:0:0:0:
64,192,110522,1,0,0:0:0:0:
320,192,110572,1,0,0:0:0:0:
192,192,110572,1,0,0:0:0:0:
320,192,111078,1,0,0:0:0:0:
192,192,111078,1,0,0:0:0:0:
64,192,111129,1,0,0:0:0:0:
448,192,111129,1,0,0:0:0:0:
448,192,111685,1,0,0:0:0:0:
320,192,111887,1,0,0:0:0:0:
64,192,112191,128,0,112545:0:0:0:0:
192,192,112494,1,0,0:0:0:0:
448,192,112747,128,0,113051:0:0:0:0:
320,192,113000,1,0,0:0:0:0:
64,192,113303,128,0,113657:0:0:0:0:
192,192,113607,1,0,0:0:0:0:
448,192,113860,128,0,114163:0:0:0:0:
320,192,114366,1,0,0:0:0:0:
64,192,114568,1,0,0:0:0:0:
192,192,114669,1,0,0:0:0:0:
64,192,114871,1,0,0:0:0:0:
192,192,114972,1,0,0:0:0:0:
448,192,115175,1,0,0:0:0:0:
320,192,115327,1,0,0:0:0:0:
448,192,115478,1,0,0:0:0:0:
320,192,115630,1,0,0:0:0:0:
64,192,115832,1,0,0:0:0:0:
192,192,116085,1,0,0:0:0:0:
64,192,116338,1,0,0:0:0:0:
192,192,116439,1,0,0:0:0:0:
64,192,116642,1,0,0:0:0:0:
192,192,116743,1,0,0:0:0:0:
64,192,116945,1,0,0:0:0:0:
192,192,117046,1,0,0:0:0:0:
320,192,117147,1,0,0:0:0:0:
448,192,117299,1,0,0:0:0:0:
320,192,117501,1,0,0:0:0:0:
448,192,117603,1,0,0:0:0:0:
320,192,117754,1,0,0:0:0:0:
448,192,117906,1,0,0:0:0:0:
320,192,118058,1,0,0:0:0:0:
448,192,118159,1,0,0:0:0:0:
64,192,118209,1,0,0:0:0:0:
192,192,118311,1,0,0:0:0:0:
64,192,118462,1,0,0:0:0:0:
192,192,118564,1,0,0:0:0:0:
64,192,118715,1,0,0:0:0:0:
448,192,118715,1,0,0:0:0:0:
192,192,118816,1,0,0:0:0:0:
320,192,118816,1,0,0:0:0:0:
64,192,118918,1,0,0:0:0:0:
448,192,118918,1,0,0:0:0:0:
320,192,119019,1,0,0:0:0:0:
192,192,119019,1,0,0:0:0:0:
64,192,119120,1,0,0:0:0:0:
64,192,119170,1,0,0:0:0:0:
448,192,119322,1,0,0:0:0:0:
192,192,119322,1,0,0:0:0:0:
320,192,119373,1,0,0:0:0:0:
448,192,119474,1,0,0:0:0:0:
320,192,119575,1,0,0:0:0:0:
64,192,119626,1,0,0:0:0:0:
448,192,119626,1,0,0:0:0:0:
192,192,119676,1,0,0:0:0:0:
320,192,119676,1,0,0:0:0:0:
448,192,119777,1,0,0:0:0:0:
64,192,119777,1,0,0:0:0:0:
192,192,119828,1,0,0:0:0:0:
320,192,119828,1,0,0:0:0:0:
448,192,119879,1,0,0:0:0:0:
64,192,119879,1,0,0:0:0:0:
192,192,119929,1,0,0:0:0:0:
320,192,119929,1,0,0:0:0:0:
64,192,120030,1,0,0:0:0:0:
448,192,120030,1,0,0:0:0:0:
448,192,120738,1,0,0:0:0:0:
320,192,120890,1,0,0:0:0:0:
448,192,121092,1,0,0:0:0:0:
320,192,121194,1,0,0:0:0:0:
448,192,121345,1,0,0:0:0:0:
320,192,121497,1,0,0:0:0:0:
64,192,121649,1,0,0:0:0:0:
192,192,121800,1,0,0:0:0:0:
64,192,122003,1,0,0:0:0:0:
192,192,122155,1,0,0:0:0:0:
64,192,122256,1,0,0:0:0:0:
192,192,122306,1,0,0:0:0:0:
64,192,122407,1,0,0:0:0:0:
320,192,122509,1,0,0:0:0:0:
448,192,122964,1,0,0:0:0:0:
320,192,123065,1,0,0:0:0:0:
448,192,123166,1,0,0:0:0:0:
320,192,123267,1,0,0:0:0:0:
448,192,123368,1,0,0:0:0:0:
320,192,123470,1,0,0:0:0:0:
448,192,123571,1,0,0:0:0:0:
320,192,123621,1,0,0:0:0:0:
64,192,123773,1,0,0:0:0:0:
192,192,123824,1,0,0:0:0:0:
64,192,123975,1,0,0:0:0:0:
192,192,124076,1,0,0:0:0:0:
64,192,124178,1,0,0:0:0:0:
192,192,124228,1,0,0:0:0:0:
448,192,124431,1,0,0:0:0:0:
320,192,124481,1,0,0:0:0:0:
448,192,124582,1,0,0:0:0:0:
320,192,124683,1,0,0:0:0:0:
64,192,124785,1,0,0:0:0:0:
192,192,124886,1,0,0:0:0:0:
448,192,125392,1,0,0:0:0:0:
64,192,125493,1,0,0:0:0:0:
320,192,125543,1,0,0:0:0:0:
192,192,125594,1,0,0:0:0:0:
448,192,125644,1,0,0:0:0:0:
64,192,125695,1,0,0:0:0:0:
320,192,125796,1,0,0:0:0:0:
192,192,125796,1,0,0:0:0:0:
64,192,125897,1,0,0:0:0:0:
448,192,125897,1,0,0:0:0:0:
448,192,126403,1,0,0:0:0:0:
192,192,126454,1,0,0:0:0:0:
64,192,126454,1,0,0:0:0:0:
320,192,126959,1,0,0:0:0:0:
192,192,126959,1,0,0:0:0:0:
448,192,127566,1,0,0:0:0:0:
320,192,127718,1,0,0:0:0:0:
448,192,127819,1,0,0:0:0:0:
320,192,127920,1,0,0:0:0:0:
64,192,128072,1,0,0:0:0:0:
192,192,128173,1,0,0:0:0:0:
64,192,128477,1,0,0:0:0:0:
192,192,128527,1,0,0:0:0:0:
448,192,128527,1,0,0:0:0:0:
320,192,128527,1,0,0:0:0:0:
320,192,128831,128,0,129286:0:0:0:0:
448,192,128932,128,0,129235:0:0:0:0:
320,192,129387,1,0,0:0:0:0:
448,192,129539,1,0,0:0:0:0:
320,192,129792,1,0,0:0:0:0:
448,192,129893,1,0,0:0:0:0:
320,192,129994,1,0,0:0:0:0:
448,192,130146,1,0,0:0:0:0:
320,192,130298,1,0,0:0:0:0:
448,192,130449,1,0,0:0:0:0:
320,192,130500,1,0,0:0:0:0:
320,192,130955,1,0,0:0:0:0:
448,192,131259,128,0,133282:0:0:0:0:
320,192,131511,1,0,0:0:0:0:
320,192,131663,1,0,0:0:0:0:
320,192,131764,1,0,0:0:0:0:
320,192,131916,1,0,0:0:0:0:
320,192,132068,1,0,0:0:0:0:
320,192,132169,1,0,0:0:0:0:
320,192,132321,1,0,0:0:0:0:
320,192,132472,1,0,0:0:0:0:
320,192,132624,1,0,0:0:0:0:
320,192,132725,1,0,0:0:0:0:
320,192,132826,1,0,0:0:0:0:
320,192,132928,1,0,0:0:0:0:
320,192,133181,1,0,0:0:0:0:
64,192,133737,1,0,0:0:0:0:
192,192,133838,1,0,0:0:0:0:
64,192,133990,1,0,0:0:0:0:
192,192,134091,1,0,0:0:0:0:
64,192,134192,1,0,0:0:0:0:
192,192,134293,1,0,0:0:0:0:
64,192,134394,1,0,0:0:0:0:
192,192,134496,1,0,0:0:0:0:
448,192,134597,1,0,0:0:0:0:
320,192,134698,1,0,0:0:0:0:
448,192,134799,1,0,0:0:0:0:
320,192,134900,1,0,0:0:0:0:
448,192,135001,1,0,0:0:0:0:
320,192,135102,1,0,0:0:0:0:
448,192,135204,1,0,0:0:0:0:
320,192,135305,1,0,0:0:0:0:
448,192,135406,1,0,0:0:0:0:
320,192,135507,1,0,0:0:0:0:
64,192,135608,1,0,0:0:0:0:
192,192,135659,1,0,0:0:0:0:
64,192,135811,1,0,0:0:0:0:
192,192,135912,1,0,0:0:0:0:
64,192,136013,1,0,0:0:0:0:
192,192,136114,1,0,0:0:0:0:
64,192,136215,1,0,0:0:0:0:
192,192,136316,1,0,0:0:0:0:
64,192,136417,1,0,0:0:0:0:
192,192,136569,1,0,0:0:0:0:
64,192,136670,1,0,0:0:0:0:
448,192,136822,1,0,0:0:0:0:
320,192,136923,1,0,0:0:0:0:
448,192,137075,1,0,0:0:0:0:
320,192,137176,1,0,0:0:0:0:
448,192,137227,1,0,0:0:0:0:
320,192,137328,1,0,0:0:0:0:
448,192,137429,1,0,0:0:0:0:
320,192,137530,1,0,0:0:0:0:
448,192,137631,1,0,0:0:0:0:
448,192,137834,1,0,0:0:0:0:
64,192,137834,1,0,0:0:0:0:
192,192,137834,1,0,0:0:0:0:
320,192,137834,1,0,0:0:0:0:
448,192,138289,1,0,0:0:0:0:
320,192,138390,1,0,0:0:0:0:
448,192,138542,1,0,0:0:0:0:
320,192,138643,1,0,0:0:0:0:
448,192,138744,1,0,0:0:0:0:
320,192,138845,1,0,0:0:0:0:
64,192,138997,1,0,0:0:0:0:
192,192,139098,1,0,0:0:0:0:
64,192,139199,1,0,0:0:0:0:
192,192,139351,1,0,0:0:0:0:
64,192,139452,1,0,0:0:0:0:
448,192,139604,1,0,0:0:0:0:
192,192,139604,1,0,0:0:0:0:
320,192,139806,1,0,0:0:0:0:
448,192,139958,1,0,0:0:0:0:
320,192,140059,1,0,0:0:0:0:
448,192,140211,1,0,0:0:0:0:
320,192,140363,1,0,0:0:0:0:
64,192,140514,1,0,0:0:0:0:
192,192,140615,1,0,0:0:0:0:
64,192,140717,1,0,0:0:0:0:
192,192,140818,1,0,0:0:0:0:
64,192,140919,1,0,0:0:0:0:
192,192,140969,1,0,0:0:0:0:
448,192,141121,1,0,0:0:0:0:
320,192,141172,1,0,0:0:0:0:
448,192,141273,1,0,0:0:0:0:
320,192,141374,1,0,0:0:0:0:
448,192,141475,1,0,0:0:0:0:
320,192,141576,1,0,0:0:0:0:
64,192,141829,1,0,0:0:0:0:
192,192,141880,1,0,0:0:0:0:
320,192,142082,1,0,0:0:0:0:
64,192,142082,1,0,0:0:0:0:
192,192,142133,1,0,0:0:0:0:
448,192,142133,1,0,0:0:0:0:
64,192,142234,1,0,0:0:0:0:
320,192,142234,1,0,0:0:0:0:
192,192,142335,1,0,0:0:0:0:
448,192,142335,1,0,0:0:0:0:
64,192,142436,1,0,0:0:0:0:
320,192,142436,1,0,0:0:0:0:
192,192,142537,1,0,0:0:0:0:
448,192,142537,1,0,0:0:0:0:
64,192,142588,1,0,0:0:0:0:
320,192,142639,1,0,0:0:0:0:
192,192,142689,1,0,0:0:0:0:
448,192,142740,1,0,0:0:0:0:
320,192,142790,1,0,0:0:0:0:
64,192,142841,1,0,0:0:0:0:
192,192,142841,1,0,0:0:0:0:
448,192,142942,1,0,0:0:0:0:
64,192,142942,1,0,0:0:0:0:
320,192,142993,1,0,0:0:0:0:
192,192,143043,1,0,0:0:0:0:
64,192,143144,1,0,0:0:0:0:
448,192,143144,1,0,0:0:0:0:
192,192,143195,1,0,0:0:0:0:
320,192,143195,1,0,0:0:0:0:
448,192,143296,1,0,0:0:0:0:
64,192,143296,1,0,0:0:0:0:
192,192,143397,1,0,0:0:0:0:
320,192,143397,1,0,0:0:0:0:
448,192,143498,1,0,0:0:0:0:
320,192,143600,1,0,0:0:0:0:
192,192,143600,1,0,0:0:0:0:
448,192,143650,1,0,0:0:0:0:
64,192,143701,1,0,0:0:0:0:
320,192,143751,1,0,0:0:0:0:
192,192,143802,1,0,0:0:0:0:
448,192,143852,1,0,0:0:0:0:
64,192,143903,1,0,0:0:0:0:
320,192,143954,1,0,0:0:0:0:
192,192,143954,1,0,0:0:0:0:
448,192,144055,1,0,0:0:0:0:
64,192,144105,1,0,0:0:0:0:
192,192,144156,1,0,0:0:0:0:
320,192,144156,1,0,0:0:0:0:
448,192,144257,1,0,0:0:0:0:
64,192,144308,1,0,0:0:0:0:
192,192,144409,1,0,0:0:0:0:
320,192,144409,1,0,0:0:0:0:
448,192,144510,1,0,0:0:0:0:
64,192,144510,1,0,0:0:0:0:
192,192,144561,1,0,0:0:0:0:
320,192,144561,1,0,0:0:0:0:
64,192,144712,1,0,0:0:0:0:
448,192,144712,1,0,0:0:0:0:
192,192,144763,1,0,0:0:0:0:
320,192,144763,1,0,0:0:0:0:
448,192,144864,1,0,0:0:0:0:
64,192,144915,1,0,0:0:0:0:
320,192,144965,1,0,0:0:0:0:
192,192,144965,1,0,0:0:0:0:
448,192,145066,1,0,0:0:0:0:
64,192,145066,1,0,0:0:0:0:
192,192,145117,1,0,0:0:0:0:
320,192,145117,1,0,0:0:0:0:
448,192,145269,1,0,0:0:0:0:
320,192,145370,1,0,0:0:0:0:
192,192,145522,1,0,0:0:0:0:
448,192,145572,1,0,0:0:0:0:
64,192,145724,1,0,0:0:0:0:
192,192,145774,1,0,0:0:0:0:
64,192,145876,1,0,0:0:0:0:
192,192,145977,1,0,0:0:0:0:
64,192,146128,1,0,0:0:0:0:
192,192,146280,1,0,0:0:0:0:
64,192,146381,1,0,0:0:0:0:
448,192,146533,1,0,0:0:0:0:
320,192,146584,1,0,0:0:0:0:
64,192,146988,1,0,0:0:0:0:
192,192,147089,1,0,0:0:0:0:
64,192,147241,1,0,0:0:0:0:
192,192,147292,1,0,0:0:0:0:
192,192,147494,1,0,0:0:0:0:
64,192,147646,1,0,0:0:0:0:
192,192,147696,1,0,0:0:0:0:
64,192,147848,1,0,0:0:0:0:
192,192,147949,1,0,0:0:0:0:
64,192,148050,1,0,0:0:0:0:
192,192,148202,1,0,0:0:0:0:
64,192,148303,1,0,0:0:0:0:
192,192,148354,1,0,0:0:0:0:
448,192,148455,128,0,149214:0:0:0:0:
320,192,148506,128,0,149214:0:0:0:0:
64,192,148607,128,0,149163:0:0:0:0:
192,192,148607,128,0,149163:0:0:0:0:
448,192,149365,1,0,0:0:0:0:
320,192,149517,1,0,0:0:0:0:
448,192,149618,1,0,0:0:0:0:
320,192,149719,1,0,0:0:0:0:
448,192,149871,1,0,0:0:0:0:
320,192,149972,1,0,0:0:0:0:
64,192,150175,1,0,0:0:0:0:
192,192,150276,1,0,0:0:0:0:
64,192,150478,1,0,0:0:0:0:
192,192,150529,1,0,0:0:0:0:
448,192,150782,1,0,0:0:0:0:
448,192,151389,1,0,0:0:0:0:
320,192,151490,1,0,0:0:0:0:
64,192,151490,1,0,0:0:0:0:
192,192,151591,1,0,0:0:0:0:
64,192,151995,1,0,0:0:0:0:
192,192,152046,1,0,0:0:0:0:
320,192,152198,1,0,0:0:0:0:
448,192,152248,1,0,0:0:0:0:
448,192,152704,1,0,0:0:0:0:
320,192,152805,1,0,0:0:0:0:
64,192,152855,1,0,0:0:0:0:
192,192,152956,1,0,0:0:0:0:
448,192,153462,1,0,0:0:0:0:
320,192,153563,1,0,0:0:0:0:
64,192,153715,1,0,0:0:0:0:
192,192,153766,1,0,0:0:0:0:
448,192,154120,1,0,0:0:0:0:
320,192,154221,1,0,0:0:0:0:
64,192,154322,1,0,0:0:0:0:
64,192,154727,1,0,0:0:0:0:
448,192,154777,1,0,0:0:0:0:
192,192,154777,1,0,0:0:0:0:
64,192,155283,1,0,0:0:0:0:
448,192,155283,1,0,0:0:0:0:
192,192,155283,1,0,0:0:0:0:
320,192,155334,1,0,0:0:0:0:
320,192,155789,1,0,0:0:0:0:
192,192,155789,1,0,0:0:0:0:
448,192,155789,1,0,0:0:0:0:
64,192,155839,1,0,0:0:0:0:
320,192,156295,1,0,0:0:0:0:
448,192,156295,1,0,0:0:0:0:
64,192,156345,1,0,0:0:0:0:
192,192,156851,1,0,0:0:0:0:
320,192,156851,1,0,0:0:0:0:
448,192,156851,1,0,0:0:0:0:
64,192,157357,1,0,0:0:0:0:
192,192,157357,1,0,0:0:0:0:
448,192,157357,1,0,0:0:0:0:
320,192,157357,1,0,0:0:0:0:
192,192,157913,1,0,0:0:0:0:
320,192,157913,1,0,0:0:0:0:
448,192,157913,1,0,0:0:0:0:
320,192,158469,1,0,0:0:0:0:
448,192,158469,1,0,0:0:0:0:
192,192,158469,1,0,0:0:0:0:
64,192,158469,1,0,0:0:0:0:
320,192,158975,1,0,0:0:0:0:
64,192,158975,1,0,0:0:0:0:
192,192,158975,1,0,0:0:0:0:
448,192,158975,1,0,0:0:0:0:
64,192,159582,1,0,0:0:0:0:
192,192,159582,1,0,0:0:0:0:
448,192,159633,1,0,0:0:0:0:
320,192,159633,1,0,0:0:0:0:
448,192,160189,1,0,0:0:0:0:
320,192,160341,1,0,0:0:0:0:
448,192,160442,1,0,0:0:0:0:
320,192,160543,1,0,0:0:0:0:
64,192,160695,1,0,0:0:0:0:
192,192,160745,1,0,0:0:0:0:
64,192,160897,1,0,0:0:0:0:
192,192,160998,1,0,0:0:0:0:
64,192,161150,1,0,0:0:0:0:
192,192,161201,1,0,0:0:0:0:
320,192,161403,1,0,0:0:0:0:
448,192,161555,1,0,0:0:0:0:
320,192,161656,1,0,0:0:0:0:
448,192,161757,1,0,0:0:0:0:
64,192,161959,1,0,0:0:0:0:
192,192,162060,1,0,0:0:0:0:
64,192,162212,1,0,0:0:0:0:
192,192,162313,1,0,0:0:0:0:
448,192,162414,1,0,0:0:0:0:
320,192,162516,1,0,0:0:0:0:
448,192,162718,1,0,0:0:0:0:
320,192,162819,1,0,0:0:0:0:
192,192,163021,1,0,0:0:0:0:
320,192,163021,1,0,0:0:0:0:
320,192,163224,1,0,0:0:0:0:
192,192,163224,1,0,0:0:0:0:
320,192,163325,1,0,0:0:0:0:
192,192,163375,1,0,0:0:0:0:
320,192,163426,1,0,0:0:0:0:
192,192,163477,1,0,0:0:0:0:
320,192,163527,1,0,0:0:0:0:
192,192,163628,1,0,0:0:0:0:
320,192,163679,1,0,0:0:0:0:
64,192,163730,1,0,0:0:0:0:
448,192,163730,1,0,0:0:0:0:
448,192,163881,1,0,0:0:0:0:
64,192,163881,1,0,0:0:0:0:
64,192,164539,1,0,0:0:0:0:
448,192,164539,1,0,0:0:0:0:
448,192,164691,1,0,0:0:0:0:
64,192,164691,1,0,0:0:0:0:
448,192,164792,1,0,0:0:0:0:
64,192,164792,1,0,0:0:0:0:
448,192,164893,1,0,0:0:0:0:
64,192,164943,1,0,0:0:0:0:
448,192,164994,1,0,0:0:0:0:
320,192,165196,1,0,0:0:0:0:
192,192,165348,1,0,0:0:0:0:
320,192,165449,1,0,0:0:0:0:
192,192,165550,1,0,0:0:0:0:
320,192,165651,1,0,0:0:0:0:
192,192,165753,1,0,0:0:0:0:
320,192,165854,1,0,0:0:0:0:
192,192,165955,1,0,0:0:0:0:
320,192,166056,1,0,0:0:0:0:
448,192,166258,1,0,0:0:0:0:
64,192,166360,1,0,0:0:0:0:
448,192,166461,1,0,0:0:0:0:
64,192,166612,1,0,0:0:0:0:
448,192,166714,1,0,0:0:0:0:
64,192,166815,1,0,0:0:0:0:
448,192,166865,1,0,0:0:0:0:
64,192,167017,1,0,0:0:0:0:
448,192,167068,1,0,0:0:0:0:
64,192,167169,1,0,0:0:0:0:
320,192,167270,1,0,0:0:0:0:
192,192,167422,1,0,0:0:0:0:
320,192,167523,1,0,0:0:0:0:
192,192,167675,1,0,0:0:0:0:
448,192,167776,1,0,0:0:0:0:
64,192,167877,1,0,0:0:0:0:
320,192,167978,1,0,0:0:0:0:
448,192,168231,1,0,0:0:0:0:
192,192,168282,1,0,0:0:0:0:
64,192,168686,1,0,0:0:0:0:
192,192,168990,1,0,0:0:0:0:
320,192,168990,1,0,0:0:0:0:
448,192,169141,128,0,170001:0:0:0:0:
320,192,169293,1,0,0:0:0:0:
320,192,169748,1,0,0:0:0:0:
320,192,169849,1,0,0:0:0:0:
320,192,169951,1,0,0:0:0:0:
64,192,170203,128,0,170962:0:0:0:0:
192,192,170406,1,0,0:0:0:0:
192,192,170507,1,0,0:0:0:0:
192,192,170659,1,0,0:0:0:0:
192,192,170810,1,0,0:0:0:0:
192,192,170912,1,0,0:0:0:0:
320,192,171063,1,0,0:0:0:0:
448,192,171215,128,0,171721:0:0:0:0:
320,192,171367,1,0,0:0:0:0:
320,192,171519,1,0,0:0:0:0:
320,192,171620,1,0,0:0:0:0:
320,192,171873,128,0,172834:0:0:0:0:
192,192,171923,128,0,172834:0:0:0:0:
448,192,172328,1,0,0:0:0:0:
64,192,172328,1,0,0:0:0:0:
448,192,172429,1,0,0:0:0:0:
64,192,172479,1,0,0:0:0:0:
64,192,172581,1,0,0:0:0:0:
448,192,172581,1,0,0:0:0:0:
64,192,172682,1,0,0:0:0:0:
448,192,172682,1,0,0:0:0:0:
448,192,172783,1,0,0:0:0:0:
448,192,173238,1,0,0:0:0:0:
64,192,173339,1,0,0:0:0:0:
448,192,173339,1,0,0:0:0:0:
192,192,173390,1,0,0:0:0:0:
320,192,173390,1,0,0:0:0:0:
448,192,173491,1,0,0:0:0:0:
64,192,173542,1,0,0:0:0:0:
320,192,173592,1,0,0:0:0:0:
448,192,173744,1,0,0:0:0:0:
64,192,173845,1,0,0:0:0:0:
320,192,173845,1,0,0:0:0:0:
192,192,173896,1,0,0:0:0:0:
448,192,173997,1,0,0:0:0:0:
64,192,173997,1,0,0:0:0:0:
320,192,174047,1,0,0:0:0:0:
192,192,174098,1,0,0:0:0:0:
448,192,174149,1,0,0:0:0:0:
64,192,174250,1,0,0:0:0:0:
320,192,174300,1,0,0:0:0:0:
192,192,174351,1,0,0:0:0:0:
448,192,174604,1,0,0:0:0:0:
192,192,174907,128,0,175464:0:0:0:0:
320,192,174907,128,0,175464:0:0:0:0:
64,192,175413,128,0,176020:0:0:0:0:
448,192,175413,128,0,176071:0:0:0:0:
192,192,176020,128,0,176526:0:0:0:0:
320,192,176020,128,0,176526:0:0:0:0:
64,192,176475,128,0,177133:0:0:0:0:
448,192,176475,128,0,177133:0:0:0:0:
320,192,177082,128,0,177588:0:0:0:0:
192,192,177082,128,0,177588:0:0:0:0:
448,192,177638,1,0,0:0:0:0:
64,192,177689,1,0,0:0:0:0:
192,192,177790,1,0,0:0:0:0:
320,192,177790,1,0,0:0:0:0:
448,192,177891,1,0,0:0:0:0:
64,192,177942,1,0,0:0:0:0:
192,192,177992,1,0,0:0:0:0:
320,192,177992,1,0,0:0:0:0:
448,192,178144,1,0,0:0:0:0:
64,192,178144,1,0,0:0:0:0:
320,192,178245,1,0,0:0:0:0:
192,192,178245,1,0,0:0:0:0:
448,192,178347,1,0,0:0:0:0:
64,192,178397,1,0,0:0:0:0:
320,192,178448,1,0,0:0:0:0:
192,192,178448,1,0,0:0:0:0:
192,192,178650,1,0,0:0:0:0:
320,192,178650,1,0,0:0:0:0:
320,192,178802,1,0,0:0:0:0:
192,192,178802,1,0,0:0:0:0:
320,192,178903,1,0,0:0:0:0:
192,192,178953,1,0,0:0:0:0:
320,192,179055,1,0,0:0:0:0:
192,192,179105,1,0,0:0:0:0:
320,192,179156,1,0,0:0:0:0:
448,192,179257,128,0,179763:0:0:0:0:
64,192,179257,128,0,179763:0:0:0:0:
192,192,179813,1,0,0:0:0:0:
320,192,179864,1,0,0:0:0:0:
192,192,179965,1,0,0:0:0:0:
320,192,179965,1,0,0:0:0:0:
320,192,180066,1,0,0:0:0:0:
192,192,180117,1,0,0:0:0:0:
192,192,180218,1,0,0:0:0:0:
320,192,180218,1,0,0:0:0:0:
64,192,180420,1,0,0:0:0:0:
448,192,180420,1,0,0:0:0:0:
320,192,180572,1,0,0:0:0:0:
448,192,180724,1,0,0:0:0:0:
320,192,180825,1,0,0:0:0:0:
448,192,180926,1,0,0:0:0:0:
320,192,181027,1,0,0:0:0:0:
448,192,181179,1,0,0:0:0:0:
64,192,181331,1,0,0:0:0:0:
192,192,181482,1,0,0:0:0:0:
64,192,181887,1,0,0:0:0:0:
192,192,181988,1,0,0:0:0:0:
64,192,182089,1,0,0:0:0:0:
192,192,182190,1,0,0:0:0:0:
64,192,182292,1,0,0:0:0:0:
192,192,182393,1,0,0:0:0:0:
64,192,182544,1,0,0:0:0:0:
192,192,182595,1,0,0:0:0:0:
192,192,182848,1,0,0:0:0:0:
64,192,182949,1,0,0:0:0:0:
192,192,183101,1,0,0:0:0:0:
64,192,183253,1,0,0:0:0:0:
192,192,183354,1,0,0:0:0:0:
320,192,183505,128,0,183809:0:0:0:0:
448,192,183708,128,0,184011:0:0:0:0:
320,192,184163,128,0,184669:0:0:0:0:
192,192,184669,128,0,185326:0:0:0:0:
64,192,185276,128,0,185832:0:0:0:0:
192,192,185781,128,0,186136:0:0:0:0:
320,192,186338,1,0,0:0:0:0:
448,192,186490,1,0,0:0:0:0:
320,192,186591,1,0,0:0:0:0:
448,192,186742,1,0,0:0:0:0:
320,192,186894,1,0,0:0:0:0:
320,192,187198,1,0,0:0:0:0:
192,192,187248,1,0,0:0:0:0:
320,192,187349,1,0,0:0:0:0:
192,192,187349,1,0,0:0:0:0:
320,192,187451,1,0,0:0:0:0:
192,192,187501,1,0,0:0:0:0:
448,192,187602,1,0,0:0:0:0:
64,192,187703,1,0,0:0:0:0:
448,192,187754,1,0,0:0:0:0:
320,192,187956,1,0,0:0:0:0:
192,192,188007,1,0,0:0:0:0:
320,192,188412,1,0,0:0:0:0:
448,192,188614,1,0,0:0:0:0:
64,192,188664,1,0,0:0:0:0:
448,192,188715,1,0,0:0:0:0:
64,192,188766,1,0,0:0:0:0:
448,192,188816,1,0,0:0:0:0:
64,192,188867,1,0,0:0:0:0:
320,192,188917,1,0,0:0:0:0:
192,192,188917,1,0,0:0:0:0:
320,192,189423,1,0,0:0:0:0:
192,192,189474,1,0,0:0:0:0:
192,192,189575,1,0,0:0:0:0:
320,192,189575,1,0,0:0:0:0:
192,192,189676,1,0,0:0:0:0:
320,192,189676,1,0,0:0:0:0:
320,192,189777,1,0,0:0:0:0:
192,192,189777,1,0,0:0:0:0:
64,192,189878,1,0,0:0:0:0:
448,192,189878,1,0,0:0:0:0:
320,192,190182,1,0,0:0:0:0:
192,192,190182,1,0,0:0:0:0:
448,192,190688,1,0,0:0:0:0:
64,192,190738,1,0,0:0:0:0:
448,192,190789,1,0,0:0:0:0:
64,192,190839,1,0,0:0:0:0:
448,192,190890,1,0,0:0:0:0:
64,192,190940,1,0,0:0:0:0:
192,192,190991,1,0,0:0:0:0:
320,192,190991,1,0,0:0:0:0:
320,192,191244,1,0,0:0:0:0:
192,192,191294,1,0,0:0:0:0:
320,192,191598,1,0,0:0:0:0:
192,192,191648,1,0,0:0:0:0:
320,192,191699,1,0,0:0:0:0:
192,192,191750,1,0,0:0:0:0:
320,192,191800,1,0,0:0:0:0:
320,192,191851,1,0,0:0:0:0:
192,192,191952,1,0,0:0:0:0:
320,192,191952,1,0,0:0:0:0:
64,192,192053,1,0,0:0:0:0:
448,192,192053,1,0,0:0:0:0:
320,192,192508,1,0,0:0:0:0:
192,192,192559,1,0,0:0:0:0:
320,192,192913,1,0,0:0:0:0:
192,192,192964,1,0,0:0:0:0:
320,192,193014,1,0,0:0:0:0:
192,192,193065,1,0,0:0:0:0:
320,192,193115,1,0,0:0:0:0:
192,192,193216,1,0,0:0:0:0:
320,192,193216,1,0,0:0:0:0:
192,192,193318,1,0,0:0:0:0:
320,192,193318,1,0,0:0:0:0:
64,192,193419,1,0,0:0:0:0:
448,192,193419,1,0,0:0:0:0:
192,192,193975,1,0,0:0:0:0:
320,192,193975,1,0,0:0:0:0:
192,192,194127,1,0,0:0:0:0:
320,192,194177,1,0,0:0:0:0:
192,192,194228,1,0,0:0:0:0:
320,192,194279,1,0,0:0:0:0:
192,192,194329,1,0,0:0:0:0:
320,192,194329,1,0,0:0:0:0:
320,192,194430,1,0,0:0:0:0:
448,192,194531,1,0,0:0:0:0:
64,192,194531,1,0,0:0:0:0:
320,192,195037,1,0,0:0:0:0:
192,192,195088,1,0,0:0:0:0:
320,192,195138,1,0,0:0:0:0:
448,192,195240,1,0,0:0:0:0:
320,192,195341,1,0,0:0:0:0:
448,192,195442,1,0,0:0:0:0:
320,192,195543,1,0,0:0:0:0:
448,192,195594,1,0,0:0:0:0:
64,192,195695,1,0,0:0:0:0:
192,192,195796,1,0,0:0:0:0:
64,192,195897,1,0,0:0:0:0:
192,192,195998,1,0,0:0:0:0:
64,192,196150,1,0,0:0:0:0:
192,192,196200,1,0,0:0:0:0:
320,192,196352,1,0,0:0:0:0:
448,192,196352,1,0,0:0:0:0:
320,192,196504,1,0,0:0:0:0:
448,192,196605,1,0,0:0:0:0:
320,192,196656,1,0,0:0:0:0:
448,192,196757,1,0,0:0:0:0:
320,192,196807,1,0,0:0:0:0:
64,192,196909,1,0,0:0:0:0:
192,192,196959,1,0,0:0:0:0:
64,192,197060,1,0,0:0:0:0:
192,192,197161,1,0,0:0:0:0:
64,192,197263,1,0,0:0:0:0:
192,192,197364,1,0,0:0:0:0:
320,192,197617,1,0,0:0:0:0:
448,192,197667,1,0,0:0:0:0:
320,192,197768,1,0,0:0:0:0:
448,192,197870,1,0,0:0:0:0:
320,192,197920,1,0,0:0:0:0:
448,192,198021,1,0,0:0:0:0:
320,192,198072,1,0,0:0:0:0:
64,192,198173,1,0,0:0:0:0:
192,192,198274,1,0,0:0:0:0:
64,192,198426,1,0,0:0:0:0:
192,192,198476,1,0,0:0:0:0:
64,192,198578,1,0,0:0:0:0:
192,192,198679,1,0,0:0:0:0:
64,192,198729,1,0,0:0:0:0:
192,192,198831,1,0,0:0:0:0:
320,192,198982,1,0,0:0:0:0:
448,192,199083,1,0,0:0:0:0:
320,192,199235,1,0,0:0:0:0:
448,192,199286,1,0,0:0:0:0:
320,192,199387,1,0,0:0:0:0:
448,192,199488,1,0,0:0:0:0:
320,192,199539,1,0,0:0:0:0:
448,192,199589,1,0,0:0:0:0:
320,192,199690,1,0,0:0:0:0:
64,192,199741,1,0,0:0:0:0:
192,192,199842,1,0,0:0:0:0:
64,192,199994,1,0,0:0:0:0:
192,192,200095,1,0,0:0:0:0:
64,192,200247,1,0,0:0:0:0:
448,192,200247,1,0,0:0:0:0:
320,192,200297,1,0,0:0:0:0:
448,192,200398,1,0,0:0:0:0:
64,192,200449,1,0,0:0:0:0:
320,192,200500,1,0,0:0:0:0:
192,192,200601,1,0,0:0:0:0:
448,192,200601,1,0,0:0:0:0:
320,192,200702,1,0,0:0:0:0:
64,192,200702,1,0,0:0:0:0:
448,192,200752,1,0,0:0:0:0:
192,192,200803,1,0,0:0:0:0:
320,192,200854,1,0,0:0:0:0:
64,192,200904,1,0,0:0:0:0:
448,192,200955,1,0,0:0:0:0:
320,192,201005,1,0,0:0:0:0:
192,192,201005,1,0,0:0:0:0:
448,192,201056,1,0,0:0:0:0:
64,192,201107,1,0,0:0:0:0:
320,192,201157,1,0,0:0:0:0:
192,192,201208,1,0,0:0:0:0:
448,192,201208,1,0,0:0:0:0:
64,192,201258,1,0,0:0:0:0:
320,192,201258,1,0,0:0:0:0:
192,192,201309,1,0,0:0:0:0:
448,192,201359,1,0,0:0:0:0:
192,192,201663,1,0,0:0:0:0:
320,192,201713,1,0,0:0:0:0:
448,192,201713,1,0,0:0:0:0:
64,192,201713,1,0,0:0:0:0:
64,192,202169,1,0,0:0:0:0:
320,192,202169,1,0,0:0:0:0:
448,192,202169,1,0,0:0:0:0:
192,192,202169,1,0,0:0:0:0:
320,192,202674,1,0,0:0:0:0:
448,192,202674,1,0,0:0:0:0:
192,192,202674,1,0,0:0:0:0:
64,192,202674,1,0,0:0:0:0:
320,192,203231,1,0,0:0:0:0:
448,192,203231,1,0,0:0:0:0:
192,192,203231,1,0,0:0:0:0:
64,192,203231,1,0,0:0:0:0:
64,192,205153,128,0,205659:0:0:0:0:
448,192,205153,128,0,205659:0:0:0:0:
192,192,205153,128,0,205709:0:0:0:0:
320,192,205153,128,0,205709:0:0:0:0:
448,192,206013,1,0,0:0:0:0:
320,192,206114,1,0,0:0:0:0:
448,192,206215,1,0,0:0:0:0:
320,192,206316,1,0,0:0:0:0:
448,192,206468,1,0,0:0:0:0:
64,192,206569,1,0,0:0:0:0:
192,192,206620,128,0,207125:0:0:0:0:
64,192,207075,128,0,207631:0:0:0:0:
192,192,207682,128,0,208137:0:0:0:0:
320,192,208238,1,0,0:0:0:0:
448,192,208289,1,0,0:0:0:0:
320,192,208390,1,0,0:0:0:0:
448,192,208491,1,0,0:0:0:0:
320,192,208592,1,0,0:0:0:0:
448,192,208744,1,0,0:0:0:0:
320,192,208845,1,0,0:0:0:0:
448,192,208946,1,0,0:0:0:0:
320,192,209047,1,0,0:0:0:0:
448,192,209148,1,0,0:0:0:0:
320,192,209250,1,0,0:0:0:0:
448,192,209351,1,0,0:0:0:0:
320,192,209452,1,0,0:0:0:0:
448,192,209604,1,0,0:0:0:0:
320,192,209705,1,0,0:0:0:0:
448,192,209806,1,0,0:0:0:0:
64,192,209857,128,0,210514:0:0:0:0:
192,192,209907,128,0,210261:0:0:0:0:
192,192,210362,1,0,0:0:0:0:
192,192,210463,1,0,0:0:0:0:
64,192,210666,1,0,0:0:0:0:
192,192,210767,1,0,0:0:0:0:
64,192,210868,1,0,0:0:0:0:
192,192,211020,1,0,0:0:0:0:
64,192,211172,1,0,0:0:0:0:
192,192,211323,1,0,0:0:0:0:
64,192,211424,1,0,0:0:0:0:
192,192,211576,1,0,0:0:0:0:
64,192,211728,1,0,0:0:0:0:
192,192,211829,1,0,0:0:0:0:
64,192,211981,128,0,213093:0:0:0:0:
192,192,212537,1,0,0:0:0:0:
192,192,212739,1,0,0:0:0:0:
192,192,212891,1,0,0:0:0:0:
192,192,213043,1,0,0:0:0:0:
320,192,213245,1,0,0:0:0:0:
448,192,213397,1,0,0:0:0:0:
320,192,213498,1,0,0:0:0:0:
448,192,213599,1,0,0:0:0:0:
320,192,213751,1,0,0:0:0:0:
448,192,213852,1,0,0:0:0:0:
320,192,213953,1,0,0:0:0:0:
64,192,214156,128,0,214763:0:0:0:0:
192,192,214257,128,0,214661:0:0:0:0:
192,192,214763,1,0,0:0:0:0:
192,192,214864,1,0,0:0:0:0:
192,192,215015,1,0,0:0:0:0:
192,192,215167,1,0,0:0:0:0:
192,192,215268,1,0,0:0:0:0:
448,192,215420,1,0,0:0:0:0:
320,192,215521,1,0,0:0:0:0:
448,192,215673,1,0,0:0:0:0:
320,192,215825,1,0,0:0:0:0:
448,192,215926,1,0,0:0:0:0:
320,192,216027,1,0,0:0:0:0:
448,192,216179,1,0,0:0:0:0:
320,192,216432,128,0,216937:0:0:0:0:
192,192,216432,128,0,216937:0:0:0:0:
64,192,216988,1,0,0:0:0:0:
448,192,216988,1,0,0:0:0:0:
320,192,217140,1,0,0:0:0:0:
192,192,217190,1,0,0:0:0:0:
448,192,217241,1,0,0:0:0:0:
64,192,217342,1,0,0:0:0:0:
320,192,217393,1,0,0:0:0:0:
192,192,217443,1,0,0:0:0:0:
448,192,217494,1,0,0:0:0:0:
64,192,217544,1,0,0:0:0:0:
192,192,217595,1,0,0:0:0:0:
320,192,217645,1,0,0:0:0:0:
64,192,217696,1,0,0:0:0:0:
448,192,217747,1,0,0:0:0:0:
320,192,217797,1,0,0:0:0:0:
192,192,217848,1,0,0:0:0:0:
448,192,217949,1,0,0:0:0:0:
64,192,217949,1,0,0:0:0:0:
192,192,218556,128,0,219264:0:0:0:0:
320,192,218556,128,0,219264:0:0:0:0:
448,192,219315,1,0,0:0:0:0:
64,192,219365,1,0,0:0:0:0:
320,192,219466,1,0,0:0:0:0:
192,192,219466,1,0,0:0:0:0:
64,192,219618,1,0,0:0:0:0:
448,192,219618,1,0,0:0:0:0:
192,192,219669,1,0,0:0:0:0:
320,192,219669,1,0,0:0:0:0:
320,192,219921,1,0,0:0:0:0:
320,192,220073,1,0,0:0:0:0:
192,192,220073,1,0,0:0:0:0:
320,192,220174,1,0,0:0:0:0:
192,192,220225,1,0,0:0:0:0:
320,192,220326,1,0,0:0:0:0:
192,192,220326,1,0,0:0:0:0:
448,192,220832,128,0,221439:0:0:0:0:
320,192,220933,128,0,221439:0:0:0:0:
320,192,221641,1,0,0:0:0:0:
320,192,221793,1,0,0:0:0:0:
320,192,221945,1,0,0:0:0:0:
64,192,222046,1,0,0:0:0:0:
192,192,222299,128,0,222804:0:0:0:0:
320,192,222956,1,0,0:0:0:0:
448,192,223007,1,0,0:0:0:0:
448,192,223462,1,0,0:0:0:0:
320,192,223563,1,0,0:0:0:0:
448,192,223715,1,0,0:0:0:0:
320,192,223816,1,0,0:0:0:0:
448,192,223968,1,0,0:0:0:0:
320,192,224069,1,0,0:0:0:0:
448,192,224221,1,0,0:0:0:0:
320,192,224322,1,0,0:0:0:0:
448,192,224423,1,0,0:0:0:0:
64,192,224676,1,0,0:0:0:0:
192,192,224777,1,0,0:0:0:0:
64,192,224929,1,0,0:0:0:0:
192,192,225030,1,0,0:0:0:0:
64,192,225131,1,0,0:0:0:0:
192,192,225232,1,0,0:0:0:0:
64,192,225384,1,0,0:0:0:0:
192,192,225485,1,0,0:0:0:0:
64,192,225637,1,0,0:0:0:0:
192,192,225738,1,0,0:0:0:0:
64,192,225890,1,0,0:0:0:0:
192,192,225991,1,0,0:0:0:0:
64,192,226143,1,0,0:0:0:0:
192,192,226244,1,0,0:0:0:0:
64,192,226345,1,0,0:0:0:0:
448,192,226497,1,0,0:0:0:0:
320,192,226598,1,0,0:0:0:0:
192,192,226699,1,0,0:0:0:0:
320,192,226750,1,0,0:0:0:0:
192,192,226851,1,0,0:0:0:0:
320,192,226901,1,0,0:0:0:0:
448,192,227053,1,0,0:0:0:0:
64,192,227154,1,0,0:0:0:0:
320,192,227306,1,0,0:0:0:0:
64,192,227913,1,0,0:0:0:0:
448,192,228115,1,0,0:0:0:0:
448,192,228216,1,0,0:0:0:0:
448,192,228368,1,0,0:0:0:0:
448,192,228469,1,0,0:0:0:0:
320,192,228570,1,0,0:0:0:0:
192,192,228621,1,0,0:0:0:0:
64,192,228773,1,0,0:0:0:0:
448,192,228874,1,0,0:0:0:0:
320,192,229127,1,0,0:0:0:0:
448,192,229228,1,0,0:0:0:0:
64,192,229278,1,0,0:0:0:0:
192,192,229531,1,0,0:0:0:0:
192,192,230037,1,0,0:0:0:0:
64,192,230088,1,0,0:0:0:0:
448,192,230593,1,0,0:0:0:0:
64,192,231049,1,0,0:0:0:0:
192,192,231099,1,0,0:0:0:0:
448,192,231504,1,0,0:0:0:0:
320,192,231554,1,0,0:0:0:0:
64,192,232515,1,0,0:0:0:0:
192,192,232566,1,0,0:0:0:0:
320,192,232617,1,0,0:0:0:0:
448,192,232667,1,0,0:0:0:0:
448,192,233072,1,0,0:0:0:0:
320,192,233122,1,0,0:0:0:0:
192,192,233173,1,0,0:0:0:0:
64,192,233223,1,0,0:0:0:0:
64,192,233780,1,0,0:0:0:0:
192,192,233830,1,0,0:0:0:0:
320,192,233881,1,0,0:0:0:0:
448,192,233932,1,0,0:0:0:0:
448,192,234387,1,0,0:0:0:0:
64,192,234387,1,0,0:0:0:0:
320,192,234437,1,0,0:0:0:0:
192,192,234437,1,0,0:0:0:0:
64,192,235095,1,0,0:0:0:0:
448,192,235145,1,0,0:0:0:0:
192,192,235196,1,0,0:0:0:0:
320,192,235196,1,0,0:0:0:0:
448,192,235601,1,0,0:0:0:0:
64,192,235651,1,0,0:0:0:0:
192,192,235702,1,0,0:0:0:0:
320,192,235702,1,0,0:0:0:0:
192,192,236157,1,0,0:0:0:0:
64,192,236157,1,0,0:0:0:0:
448,192,236157,1,0,0:0:0:0:
320,192,236157,1,0,0:0:0:0:
320,192,236663,1,0,0:0:0:0:
64,192,236663,1,0,0:0:0:0:
192,192,236663,1,0,0:0:0:0:
448,192,236663,1,0,0:0:0:0:
320,192,237219,1,0,0:0:0:0:
192,192,237219,1,0,0:0:0:0:
448,192,237270,1,0,0:0:0:0:
64,192,237270,1,0,0:0:0:0:
64,192,237674,1,0,0:0:0:0:
448,192,237674,1,0,0:0:0:0:
192,192,237725,1,0,0:0:0:0:
320,192,237725,1,0,0:0:0:0:
320,192,238180,1,0,0:0:0:0:
192,192,238180,1,0,0:0:0:0:
64,192,238231,1,0,0:0:0:0:
448,192,238231,1,0,0:0:0:0:
448,192,238686,1,0,0:0:0:0:
64,192,238736,1,0,0:0:0:0:
320,192,238787,1,0,0:0:0:0:
192,192,238787,1,0,0:0:0:0:
192,192,239242,1,0,0:0:0:0:
320,192,239242,1,0,0:0:0:0:
448,192,239293,1,0,0:0:0:0:
64,192,239293,1,0,0:0:0:0:
192,192,239748,1,0,0:0:0:0:
320,192,239748,1,0,0:0:0:0:
64,192,239799,1,0,0:0:0:0:
448,192,239799,1,0,0:0:0:0:
192,192,240304,1,0,0:0:0:0:
448,192,240304,1,0,0:0:0:0:
320,192,240304,1,0,0:0:0:0:
64,192,240355,1,0,0:0:0:0:
64,192,240861,1,0,0:0:0:0:
448,192,240861,1,0,0:0:0:0:
320,192,240911,1,0,0:0:0:0:
192,192,240911,1,0,0:0:0:0:
192,192,241417,1,0,0:0:0:0:
320,192,241417,1,0,0:0:0:0:
448,192,241468,1,0,0:0:0:0:
64,192,241468,1,0,0:0:0:0:
64,192,242024,1,0,0:0:0:0:
320,192,242024,1,0,0:0:0:0:
192,192,242024,1,0,0:0:0:0:
448,192,242024,1,0,0:0:0:0:
192,192,242580,1,0,0:0:0:0:
320,192,242580,1,0,0:0:0:0:
448,192,242580,1,0,0:0:0:0:
64,192,242580,1,0,0:0:0:0:
320,192,243036,1,0,0:0:0:0:
64,192,243036,1,0,0:0:0:0:
448,192,243036,1,0,0:0:0:0:
192,192,243036,1,0,0:0:0:0:
64,192,243592,1,0,0:0:0:0:
192,192,243592,1,0,0:0:0:0:
448,192,243592,1,0,0:0:0:0:
320,192,243592,1,0,0:0:0:0:
320,192,244148,1,0,0:0:0:0:
448,192,244148,1,0,0:0:0:0:
192,192,244199,1,0,0:0:0:0:
64,192,244199,1,0,0:0:0:0:
320,192,244705,1,0,0:0:0:0:
448,192,244705,1,0,0:0:0:0:
192,192,244705,1,0,0:0:0:0:
64,192,244705,1,0,0:0:0:0:
320,192,245261,1,0,0:0:0:0:
448,192,245261,1,0,0:0:0:0:
192,192,245261,1,0,0:0:0:0:
64,192,245261,1,0,0:0:0:0:
320,192,245767,1,0,0:0:0:0:
448,192,245767,1,0,0:0:0:0:
192,192,245817,1,0,0:0:0:0:
64,192,245817,1,0,0:0:0:0:
320,192,246323,1,0,0:0:0:0:
448,192,246323,1,0,0:0:0:0:
192,192,246323,1,0,0:0:0:0:
64,192,246323,1,0,0:0:0:0:
320,192,246879,1,0,0:0:0:0:
448,192,246879,1,0,0:0:0:0:
192,192,246930,1,0,0:0:0:0:
64,192,246930,1,0,0:0:0:0:
448,192,247436,1,0,0:0:0:0:
192,192,247436,1,0,0:0:0:0:
320,192,247436,1,0,0:0:0:0:
64,192,247436,1,0,0:0:0:0:
448,192,247992,1,0,0:0:0:0:
64,192,247992,1,0,0:0:0:0:
192,192,247992,1,0,0:0:0:0:
320,192,247992,1,0,0:0:0:0:
320,192,248498,1,0,0:0:0:0:
448,192,248498,1,0,0:0:0:0:
192,192,248498,1,0,0:0:0:0:
64,192,248498,1,0,0:0:0:0:
192,192,249054,1,0,0:0:0:0:
448,192,249054,1,0,0:0:0:0:
64,192,249054,1,0,0:0:0:0:
320,192,249054,1,0,0:0:0:0:
448,192,249611,1,0,0:0:0:0:
320,192,249611,1,0,0:0:0:0:
192,192,249661,1,0,0:0:0:0:
64,192,249661,1,0,0:0:0:0:
448,192,250167,1,0,0:0:0:0:
320,192,250167,1,0,0:0:0:0:
64,192,250167,1,0,0:0:0:0:
192,192,250167,1,0,0:0:0:0:
448,192,250673,1,0,0:0:0:0:
320,192,250673,1,0,0:0:0:0:
64,192,250723,1,0,0:0:0:0:
192,192,250723,1,0,0:0:0:0:
448,192,251280,1,0,0:0:0:0:
320,192,251280,1,0,0:0:0:0:
192,192,251280,1,0,0:0:0:0:
64,192,251280,1,0,0:0:0:0:
448,192,251836,1,0,0:0:0:0:
320,192,251836,1,0,0:0:0:0:
192,192,252392,1,0,0:0:0:0:
64,192,252392,1,0,0:0:0:0:
448,192,252898,1,0,0:0:0:0:
320,192,252898,1,0,0:0:0:0:
64,192,253455,1,0,0:0:0:0:
192,192,253455,1,0,0:0:0:0:
320,192,254011,1,0,0:0:0:0:
448,192,254011,1,0,0:0:0:0:
64,192,254517,1,0,0:0:0:0:
192,192,254517,1,0,0:0:0:0:
448,192,255023,1,0,0:0:0:0:
320,192,255023,1,0,0:0:0:0:
192,192,255579,1,0,0:0:0:0:
64,192,255579,1,0,0:0:0:0:
320,192,256135,1,0,0:0:0:0:
448,192,256186,1,0,0:0:0:0:
192,192,256742,1,0,0:0:0:0:
64,192,256742,1,0,0:0:0:0:
64,192,257299,128,0,257855:0:0:0:0:
192,192,257299,128,0,257855:0:0:0:0:
320,192,257299,128,0,257855:0:0:0:0:
448,192,257299,128,0,257855:0:0:0:0:
