osu file format v14

[General]
AudioFilename: Teminite & Panda Eyes - Highscore.mp3
AudioLeadIn: 0
PreviewTime: 96383
Countdown: 0
SampleSet: Normal
StackLeniency: 0.7
Mode: 0
LetterboxInBreaks: 1
WidescreenStoryboard: 0

[Editor]
DistanceSpacing: 0.6
BeatDivisor: 8
GridSize: 4
TimelineZoom: 1

[Metadata]
Title:Highscore
TitleUnicode:Highscore
Artist:Teminite & Panda Eyes
ArtistUnicode:Teminite & Panda Eyes
Creator:BarkingMadDog
Version:LEVEL 36
Source:
Tags:GlitchHop bmd
BeatmapID:1747612
BeatmapSetID:834244

[Difficulty]
HPDrainRate:6
CircleSize:4
OverallDifficulty:9.2
ApproachRate:9.8
SliderMultiplier:1.51
SliderTickRate:1

[Events]
//Background and Video events
0,0,"wallhaven-164492.jpg",0,0
//Break Periods
2,203356,204392
//Storyboard Layer 0 (Background)
//Storyboard Layer 1 (Fail)
//Storyboard Layer 2 (Pass)
//Storyboard Layer 3 (Foreground)
//Storyboard Sound Samples

[TimingPoints]
26565.6947984285,545.454545454546,4,2,1,43,1,0
27111,-166.666666666667,4,2,1,43,0,0
43474,-55.5555555555556,4,2,1,43,0,0
44020,-125,4,1,1,47,0,0
52747,-100,4,1,1,47,0,0
60588,-100,4,2,1,10,0,0
60929,-100,4,2,1,22,0,0
61202,-100,4,2,1,35,0,0
61474,-71.4285714285714,4,1,1,51,0,0
61883,-50,4,1,1,51,0,0
63656,-71.4285714285714,4,1,1,51,0,0
64065,-50,4,1,1,51,0,0
65838,-71.4285714285714,4,1,1,51,0,0
66247,-50,4,1,1,51,0,0
68020,-71.4285714285714,4,1,1,51,0,0
68429,-50,4,1,1,51,0,0
68565,-66.6666666666667,4,1,1,51,0,0
70202,-71.4285714285714,4,1,1,51,0,0
70611,-50,4,1,1,51,0,0
72383,-71.4285714285714,4,1,1,51,0,0
72792,-50,4,1,1,51,0,0
74565,-71.4285714285714,4,1,1,51,0,0
74974,-50,4,1,1,51,0,0
76747,-111.111111111111,4,1,1,51,0,0
78929,-71.4285714285714,4,1,1,51,0,0
79338,-58.8235294117647,4,1,1,51,0,0
81111,-76.9230769230769,4,1,1,51,0,0
81520,-58.8235294117647,4,1,1,51,0,0
83292,-76.9230769230769,4,1,1,51,0,0
83702,-58.8235294117647,4,1,1,51,0,0
85474,-83.3333333333333,4,1,1,51,0,0
87656,-83.3333333333333,4,1,1,51,0,0
88065,-58.8235294117647,4,1,1,51,0,0
89838,-83.3333333333333,4,1,1,51,0,0
90247,-58.8235294117647,4,1,1,51,0,0
94202,-83.3333333333333,4,1,1,51,0,0
96383,-76.9230769230769,4,1,1,51,0,1
115474,-83.3333333333333,4,1,1,51,0,1
122565,-80,4,1,1,51,0,1
132929,-55.5555555555556,4,1,1,51,0,1
133474,-76.9230769230769,4,1,1,51,0,0
135656,-95.2380952380952,4,1,1,51,0,0
150042,-95.2380952380952,4,2,1,10,0,0
150929,-55.5555555555556,4,1,1,48,0,1
151202,-62.5,4,1,1,48,0,1
151883,-76.9230769230769,4,1,1,48,0,1
153111,-55.5555555555556,4,1,1,48,0,1
155565,-76.9230769230769,4,1,1,48,0,1
159656,-55.5555555555556,4,1,1,48,0,1
159929,-71.4285714285714,4,1,1,48,0,1
161838,-55.5555555555556,4,1,1,48,0,1
162111,-71.4285714285714,4,1,1,48,0,1
164020,-55.5555555555556,4,1,1,48,0,1
164292,-71.4285714285714,4,1,1,48,0,1
168383,-55.5555555555556,4,1,1,48,0,1
168656,-71.4285714285714,4,1,1,48,0,1
170565,-55.5555555555556,4,1,1,48,0,1
170838,-50,4,1,1,48,0,1
171111,-71.4285714285714,4,1,1,48,0,1
172747,-55.5555555555556,4,1,1,48,0,1
173020,-71.4285714285714,4,1,1,48,0,1
177111,-55.5555555555556,4,1,1,48,0,1
177383,-71.4285714285714,4,1,1,48,0,1
181474,-55.5555555555556,4,1,1,48,0,1
181747,-71.4285714285714,4,1,1,48,0,1
185838,-83.3333333333333,4,1,1,47,0,0
203156,-83.3333333333333,4,2,1,5,0,0
205474,-95.2380952380952,4,1,1,51,0,1
222383,-71.4285714285714,4,1,1,51,0,1
222929,-90.9090909090909,4,1,1,51,0,1
240383,-100,4,1,1,47,0,0

[HitObjects]
292,156,26565,5,0,0:0:0:0:
288,164,27111,2,0,L|224:160,1,45.2999986175538
252,232,27656,2,0,L|192:228,1,45.2999986175538
180,296,28202,2,0,L|228:300,1,45.2999986175538
376,200,28747,6,0,B|384:164|384:164|372:104,1,90.5999972351075
373,111,29429,1,0,0:0:0:0:
296,56,29565,1,0,0:0:0:0:
376,104,29702,1,0,0:0:0:0:
292,64,29838,6,0,L|244:60,1,45.2999986175538
248,136,30383,2,0,L|188:128,1,45.2999986175538
56,48,30929,6,0,L|48:140,1,90.5999972351075
48,138,31611,1,0,0:0:0:0:
152,96,31747,1,0,0:0:0:0:
48,128,31883,1,0,0:0:0:0:
156,104,32020,6,0,L|208:100,1,45.2999986175538
336,28,32565,2,0,L|280:36,1,45.2999986175538
329,117,33111,6,0,B|333:85|333:85|329:61|329:61|337:21,1,90.5999972351075
335,27,33792,1,0,0:0:0:0:
424,80,33929,1,0,0:0:0:0:
336,20,34065,1,0,0:0:0:0:
420,88,34202,5,0,0:0:0:0:
244,68,34474,1,0,0:0:0:0:
412,96,34747,1,0,0:0:0:0:
240,60,35020,1,0,0:0:0:0:
236,52,35292,5,0,0:0:0:0:
236,52,35974,6,0,L|232:80,1,22.6499993087769
284,188,36247,1,0,0:0:0:0:
436,96,36383,6,0,L|384:92,1,45.2999986175538
284,188,36929,6,0,L|372:184,1,79.2749975807191
432,296,37474,6,0,B|396:288|396:288|376:292|376:292|340:284,1,90.5999972351075
343,284,38156,1,0,0:0:0:0:
284,188,38292,1,0,0:0:0:0:
216,348,38429,1,0,0:0:0:0:
124,260,38565,6,0,L|32:256,2,90.5999972351075
128,256,40338,5,0,0:0:0:0:
176,156,40474,1,0,0:0:0:0:
260,312,40611,1,0,0:0:0:0:
296,200,40747,6,0,L|392:196,2,90.5999972351075
292,192,42520,5,0,0:0:0:0:
188,336,42656,1,0,0:0:0:0:
320,304,42792,1,0,0:0:0:0:
192,124,42929,6,0,L|188:208,1,79.2749975807191
84,244,43474,6,0,L|92:148,1,67.9499979263306
96,92,43747,1,0,0:0:0:0:
84,256,43883,1,0,0:0:0:0:
100,84,44020,6,0,L|224:76,1,120.8,2|8,0:0|0:0,0:0:0:0:
320,188,44702,1,0,0:0:0:0:
220,76,44838,1,0,0:0:0:0:
180,272,44974,1,0,0:0:0:0:
228,160,45111,1,2,0:0:0:0:
272,344,45247,1,0,0:0:0:0:
136,188,45383,5,0,0:0:0:0:
264,260,45520,1,0,0:0:0:0:
296,104,45656,1,8,0:0:0:0:
128,184,45792,1,0,0:0:0:0:
260,248,45929,1,0,0:0:0:0:
208,64,46065,1,0,0:0:0:0:
128,196,46202,6,0,P|116:256|136:316,1,120.8,2|8,0:0|0:0,0:0:0:0:
260,248,46883,1,0,0:0:0:0:
168,124,47020,1,0,0:0:0:0:
120,208,47156,1,0,0:0:0:0:
316,168,47292,5,2,0:0:0:0:
208,64,47429,1,0,0:0:0:0:
324,164,47565,1,0,0:0:0:0:
200,72,47702,1,0,0:0:0:0:
340,48,47838,5,8,0:0:0:0:
192,232,47974,1,0,0:0:0:0:
352,56,48111,1,0,0:0:0:0:
180,224,48247,1,0,0:0:0:0:
360,144,48383,6,0,L|480:140,1,120.8,2|8,0:0|0:0,0:0:0:0:
420,272,49065,1,0,0:0:0:0:
360,144,49202,1,0,0:0:0:0:
268,320,49338,1,0,0:0:0:0:
392,208,49474,5,2,0:0:0:0:
196,156,49611,1,0,0:0:0:0:
268,320,49747,1,0,0:0:0:0:
392,196,49883,1,0,0:0:0:0:
208,152,50020,1,8,0:0:0:0:
276,304,50156,1,0,0:0:0:0:
380,120,50292,1,0,0:0:0:0:
164,80,50429,1,0,0:0:0:0:
244,232,50565,6,0,L|292:344,1,120.8,2|8,0:0|0:0,0:0:0:0:
404,268,51247,1,0,0:0:0:0:
292,156,51383,1,0,0:0:0:0:
200,344,51520,1,0,0:0:0:0:
300,148,51656,5,2,0:0:0:0:
200,352,51792,1,0,0:0:0:0:
148,236,51929,1,0,0:0:0:0:
320,308,52065,5,0,0:0:0:0:
88,328,52202,1,8,0:0:0:0:
180,136,52338,1,0,0:0:0:0:
240,248,52474,5,0,0:0:0:0:
136,48,52611,1,0,0:0:0:0:
80,172,52747,6,0,B|60:224|60:224|60:264|60:264|44:320,1,151,2|8,0:0|0:0,0:0:0:0:
44,317,53429,1,0,0:0:0:0:
212,252,53565,1,0,0:0:0:0:
48,304,53702,1,0,0:0:0:0:
272,200,53838,5,2,0:0:0:0:
160,356,53974,1,0,0:0:0:0:
216,56,54111,1,0,0:0:0:0:
296,276,54247,5,0,0:0:0:0:
80,164,54383,1,8,0:0:0:0:
372,92,54520,1,0,0:0:0:0:
144,264,54656,5,0,0:0:0:0:
228,36,54792,1,0,0:0:0:0:
136,280,54929,2,0,P|100:288|24:200,1,151,2|8,0:0|0:0,0:0:0:0:
104,208,55611,1,0,0:0:0:0:
168,356,55747,1,0,0:0:0:0:
300,152,55883,1,0,0:0:0:0:
96,220,56020,5,2,0:0:0:0:
308,336,56156,1,0,0:0:0:0:
232,48,56292,1,0,0:0:0:0:
100,304,56429,5,0,0:0:0:0:
316,132,56565,1,8,0:0:0:0:
168,56,56702,1,0,0:0:0:0:
240,344,56838,5,0,0:0:0:0:
164,48,56974,1,0,0:0:0:0:
40,200,57111,2,0,L|196:196,1,151,2|8,0:0|0:0,0:0:0:0:
360,192,57792,1,0,0:0:0:0:
216,268,57929,1,0,0:0:0:0:
296,28,58065,1,0,0:0:0:0:
376,264,58202,5,2,0:0:0:0:
124,136,58338,1,0,0:0:0:0:
248,104,58474,1,0,0:0:0:0:
96,364,58611,5,0,0:0:0:0:
172,56,58747,1,8,0:0:0:0:
216,268,58883,1,0,0:0:0:0:
36,172,59020,5,0,0:0:0:0:
264,360,59156,1,0,0:0:0:0:
380,148,59292,2,0,P|328:100|244:100,1,151,2|8,0:0|0:0,0:0:0:0:
288,188,59974,5,0,0:0:0:0:
456,112,60111,1,0,0:0:0:0:
200,192,60247,1,0,0:0:0:0:
408,256,60383,1,2,0:0:0:0:
416,260,60656,5,0,0:0:0:0:
240,112,60792,1,0,0:0:0:0:
380,160,60929,1,0,0:0:0:0:
120,192,61065,1,0,0:0:0:0:
328,68,61202,2,0,L|320:48,1,18.875
256,200,61338,2,0,L|264:228,1,18.875
56,88,61474,6,0,P|132:60|196:80,1,132.124995967865,2|0,0:0|0:0,0:0:0:0:
240,112,61883,6,0,L|316:100,1,75.5,0|8,0:0|0:0,0:0:0:0:
408,76,62156,1,0,0:0:0:0:
260,32,62292,1,0,0:0:0:0:
284,192,62429,1,0,0:0:0:0:
384,108,62565,1,2,0:0:0:0:
188,136,62702,1,0,0:0:0:0:
328,276,62838,1,0,0:0:0:0:
296,136,62974,1,0,0:0:0:0:
196,240,63111,5,8,0:0:0:0:
368,200,63247,1,0,0:0:0:0:
200,248,63383,1,0,0:0:0:0:
364,192,63520,1,0,0:0:0:0:
252,156,63656,6,0,L|120:152,1,132.124995967865,2|0,0:0|0:0,0:0:0:0:
48,120,64065,6,0,B|40:92|40:92|52:28,1,75.5,0|8,0:0|0:0,0:0:0:0:
40,200,64338,1,0,0:0:0:0:
136,80,64474,1,0,0:0:0:0:
200,248,64611,1,0,0:0:0:0:
40,112,64747,5,2,0:0:0:0:
104,284,64883,1,0,0:0:0:0:
272,88,65020,1,0,0:0:0:0:
348,284,65156,1,0,0:0:0:0:
236,176,65292,5,8,0:0:0:0:
360,272,65429,1,0,0:0:0:0:
224,188,65565,1,0,0:0:0:0:
372,264,65702,1,0,0:0:0:0:
332,16,65838,6,0,L|328:152,1,132.124995967865,2|0,0:0|0:0,0:0:0:0:
328,180,66247,6,0,P|368:172|416:172,1,75.5,0|8,0:0|0:0,0:0:0:0:
484,240,66520,1,0,0:0:0:0:
260,104,66656,1,0,0:0:0:0:
124,316,66792,1,0,0:0:0:0:
388,224,66929,1,2,0:0:0:0:
120,160,67065,1,0,0:0:0:0:
288,356,67202,1,0,0:0:0:0:
172,84,67338,5,0,0:0:0:0:
216,288,67474,1,8,0:0:0:0:
328,192,67611,1,0,0:0:0:0:
212,300,67747,1,0,0:0:0:0:
268,52,67883,1,0,0:0:0:0:
368,172,68020,6,0,P|392:232|376:312,1,132.124995967865,2|0,0:0|0:0,0:0:0:0:
244,252,68429,6,0,L|304:248,1,37.75
164,172,68565,2,0,B|136:168|136:168|112:180|112:180|72:164|12:180,1,141.562505400181,8|0,0:0|0:0,0:0:0:0:
112,308,68974,6,0,L|120:260,1,28.3125010800362
232,100,69111,2,0,P|256:148|232:240,1,141.562505400181,2|0,0:0|0:0,0:0:0:0:
135,175,69520,2,0,L|171:171,1,28.3125010800362
320,248,69656,6,0,L|472:240,1,141.562505400181,8|0,0:0|0:0,0:0:0:0:
420,168,70065,2,0,P|412:152|400:124,1,28.3125010800362
332,24,70202,6,0,P|324:84|300:172,1,132.124995967865,2|0,0:0|0:0,0:0:0:0:
296,184,70611,6,0,P|280:132|264:92,1,75.5,0|8,0:0|0:0,0:0:0:0:
224,32,70883,1,0,0:0:0:0:
136,176,71020,1,0,0:0:0:0:
272,112,71156,1,0,0:0:0:0:
92,40,71292,5,2,0:0:0:0:
140,192,71429,1,0,0:0:0:0:
352,112,71565,1,0,0:0:0:0:
400,256,71702,6,0,L|412:300,1,37.75
296,184,71838,1,8,0:0:0:0:
264,360,71974,5,0,0:0:0:0:
400,232,72111,1,0,0:0:0:0:
216,168,72247,1,0,0:0:0:0:
416,28,72383,6,0,B|428:72|428:72|420:108|420:108|432:160,1,132.124995967865,2|0,0:0|0:0,0:0:0:0:
436,192,72792,6,0,P|396:176|352:168,1,75.5,0|8,0:0|0:0,0:0:0:0:
364,169,73202,1,0,0:0:0:0:
228,264,73338,1,0,0:0:0:0:
260,80,73474,1,2,0:0:0:0:
336,304,73611,1,0,0:0:0:0:
244,68,73747,6,0,L|228:28,1,37.75
324,296,73883,1,0,0:0:0:0:
196,184,74020,5,8,0:0:0:0:
428,124,74156,1,0,0:0:0:0:
284,224,74292,1,0,0:0:0:0:
360,56,74429,1,0,0:0:0:0:
424,228,74565,6,0,B|436:280|436:280|424:368,1,132.124995967865,2|0,0:0|0:0,0:0:0:0:
420,376,74974,6,0,L|344:368,1,75.5,0|8,0:0|0:0,0:0:0:0:
344,368,75383,1,0,0:0:0:0:
208,260,75520,1,0,0:0:0:0:
380,176,75656,1,2,0:0:0:0:
292,280,75792,1,0,0:0:0:0:
176,80,75929,6,0,L|156:40,1,37.75
128,140,76065,1,0,0:0:0:0:
328,80,76202,1,8,0:0:0:0:
124,132,76338,1,0,0:0:0:0:
332,88,76474,1,0,0:0:0:0:
240,32,76611,1,0,0:0:0:0:
208,164,76747,6,0,B|196:212|196:212|208:288,1,118.912496371079,2|0,0:0|0:0,0:0:0:0:
280,332,77292,2,0,B|292:284|292:284|280:208,1,118.912496371079,8|0,0:0|0:0,0:0:0:0:
324,132,77838,6,0,B|356:124|356:124|376:136|376:136|408:116|448:124,1,118.912496371079,2|0,0:0|0:0,0:0:0:0:
424,208,78383,1,8,0:0:0:0:
420,220,78656,5,0,0:0:0:0:
324,132,78792,1,0,0:0:0:0:
240,244,78929,6,0,L|108:240,1,132.124995967865,2|0,0:0|0:0,0:0:0:0:
72,232,79338,6,0,P|68:196|72:156,1,64.175001224041,0|8,0:0|0:0,0:0:0:0:
132,84,79611,1,0,0:0:0:0:
240,244,79747,1,0,0:0:0:0:
208,152,79883,1,0,0:0:0:0:
104,344,80020,5,2,0:0:0:0:
208,144,80156,1,0,0:0:0:0:
96,344,80292,1,0,0:0:0:0:
240,244,80429,1,0,0:0:0:0:
56,120,80565,1,8,0:0:0:0:
72,232,80702,1,0,0:0:0:0:
308,80,80838,1,0,0:0:0:0:
240,244,80974,1,0,0:0:0:0:
136,36,81111,6,0,L|128:176,1,122.687494383812,2|0,0:0|0:0,0:0:0:0:
128,196,81520,6,0,P|96:188|52:188,1,64.175001224041,0|8,0:0|0:0,0:0:0:0:
64,186,81929,1,0,0:0:0:0:
200,352,82065,2,0,P|232:344|280:324,1,64.175001224041,0|2,0:0|0:0,0:0:0:0:
320,268,82338,1,0,0:0:0:0:
232,32,82474,6,0,P|216:72|212:112,1,64.175001224041
248,192,82747,1,8,0:0:0:0:
448,352,82883,2,0,P|436:320|408:284,1,64.175001224041
348,236,83156,1,0,0:0:0:0:
192,360,83292,6,0,P|144:372|56:340,1,122.687494383812,2|0,0:0|0:0,0:0:0:0:
40,328,83702,6,0,L|52:244,1,64.175001224041,0|8,0:0|0:0,0:0:0:0:
68,176,83974,1,0,0:0:0:0:
232,32,84111,2,0,L|240:116,1,64.175001224041
248,192,84383,1,2,0:0:0:0:
428,352,84520,2,0,L|416:264,1,64.175001224041
400,192,84792,1,0,0:0:0:0:
264,320,84929,2,0,L|272:248,1,64.175001224041,8|0,0:0|0:0,0:0:0:0:
296,120,85202,1,0,0:0:0:0:
132,240,85338,1,0,0:0:0:0:
232,32,85474,6,0,L|248:204,1,158.549995161438,2|0,0:0|0:0,0:0:0:0:
348,284,86020,2,0,B|352:248|352:248|340:224|340:224|360:180|328:128,1,158.549995161438,8|0,0:0|0:0,0:0:0:0:
164,100,86565,2,0,B|160:136|160:136|172:160|172:160|152:204|184:256,1,158.549995161438,2|0,0:0|0:0,0:0:0:0:
188,344,87111,2,0,P|116:312|20:324,1,158.549995161438,8|0,0:0|0:0,0:0:0:0:
72,180,87656,6,0,P|144:212|192:204,1,113.249996543884,2|0,0:0|0:0,0:0:0:0:
248,168,88065,6,0,L|336:164,1,64.175001224041,0|8,0:0|0:0,0:0:0:0:
420,196,88338,1,0,0:0:0:0:
228,124,88474,2,0,L|316:128,1,64.175001224041
432,212,88747,1,2,0:0:0:0:
248,356,88883,6,0,L|260:280,1,64.175001224041
276,176,89156,1,0,0:0:0:0:
164,308,89292,2,0,L|176:228,1,64.175001224041,8|0,0:0|0:0,0:0:0:0:
204,100,89565,1,0,0:0:0:0:
96,192,89702,1,0,0:0:0:0:
296,84,89838,6,0,B|344:80|344:80|420:88,1,113.249996543884,2|0,0:0|0:0,0:0:0:0:
452,104,90247,6,0,L|440:188,1,64.175001224041,0|8,0:0|0:0,0:0:0:0:
442,167,90656,1,0,0:0:0:0:
236,208,90792,2,0,P|280:204|320:220,1,64.175001224041,0|2,0:0|0:0,0:0:0:0:
380,272,91065,1,0,0:0:0:0:
252,368,91202,6,0,P|208:372|168:356,1,64.175001224041
116,312,91474,1,8,0:0:0:0:
272,184,91611,1,0,0:0:0:0:
300,280,91747,1,0,0:0:0:0:
104,188,91883,1,0,0:0:0:0:
200,48,92020,5,2,0:0:0:0:
204,40,92565,1,8,0:0:0:0:
248,248,92702,1,0,0:0:0:0:
328,160,92838,1,0,0:0:0:0:
128,120,92974,2,0,L|52:112,1,64.175001224041,0|2,0:0|0:0,0:0:0:0:
124,268,93247,1,0,0:0:0:0:
340,152,93383,2,0,L|412:148,1,64.175001224041
236,228,93656,5,8,0:0:0:0:
128,48,93792,1,0,0:0:0:0:
244,220,93929,1,0,0:0:0:0:
120,56,94065,1,0,0:0:0:0:
104,200,94202,6,0,L|88:364,1,158.549995161438,2|0,0:0|0:0,0:0:0:0:
188,328,94747,2,0,B|200:164,1,158.549995161438,8|0,0:0|0:0,0:0:0:0:
208,96,95292,5,2,0:0:0:0:
292,36,95565,1,0,0:0:0:0:
384,68,95838,1,0,0:0:0:0:
432,152,96111,1,0,0:0:0:0:
420,244,96383,6,0,L|320:236,1,98.1499955070498,2|0,0:0|0:0,0:0:0:0:
297,43,96929,2,0,B|313:111|313:111|309:167|309:167|325:255,1,196.2999910141,8|2,0:0|0:0,0:0:0:0:
192,316,97747,1,0,0:0:0:0:
220,228,98020,1,8,0:0:0:0:
280,368,98292,1,0,0:0:0:0:
120,248,98565,5,2,0:0:0:0:
324,200,98838,1,0,0:0:0:0:
220,248,99111,1,8,0:0:0:0:
136,120,99383,1,0,0:0:0:0:
248,264,99656,5,2,0:0:0:0:
140,92,99929,1,0,0:0:0:0:
264,184,100202,1,8,0:0:0:0:
168,16,100474,1,0,0:0:0:0:
52,176,100747,6,0,L|256:168,1,196.2999910141,2|8,0:0|0:0,0:0:0:0:
352,216,101565,1,0,0:0:0:0:
352,216,101838,1,2,0:0:0:0:
264,64,102111,1,0,0:0:0:0:
248,168,102383,1,8,0:0:0:0:
300,32,102656,1,0,0:0:0:0:
212,192,102929,5,2,0:0:0:0:
384,84,103202,1,0,0:0:0:0:
168,128,103474,1,8,0:0:0:0:
424,156,103747,1,0,0:0:0:0:
292,36,104020,5,2,0:0:0:0:
260,132,104292,1,0,0:0:0:0:
304,228,104565,1,8,0:0:0:0:
256,324,104838,1,0,0:0:0:0:
312,216,105111,6,0,L|424:208,1,98.1499955070498,2|0,0:0|0:0,0:0:0:0:
244,312,105656,2,0,P|200:236|256:124,1,196.2999910141,8|2,0:0|0:0,0:0:0:0:
328,68,106474,1,0,0:0:0:0:
456,164,106747,2,0,L|464:56,1,98.1499955070498,8|0,0:0|0:0,0:0:0:0:
448,260,107292,5,2,0:0:0:0:
364,156,107565,1,0,0:0:0:0:
296,328,107838,1,8,0:0:0:0:
368,264,108111,1,0,0:0:0:0:
152,176,108383,1,2,0:0:0:0:
200,264,108656,1,0,0:0:0:0:
364,80,108929,1,8,0:0:0:0:
256,40,109202,1,0,0:0:0:0:
236,148,109474,6,0,L|220:248,1,98.1499955070498,2|0,0:0|0:0,0:0:0:0:
428,146,110020,2,0,B|368:130|368:130|220:150,1,196.2999910141,8|2,0:0|0:0,0:0:0:0:
136,236,110838,1,0,0:0:0:0:
136,236,111111,1,8,0:0:0:0:
260,296,111383,1,0,0:0:0:0:
220,116,111656,5,2,0:0:0:0:
128,264,111929,1,0,0:0:0:0:
288,216,112202,1,8,0:0:0:0:
120,176,112474,1,0,0:0:0:0:
196,352,112747,1,2,0:0:0:0:
296,292,113020,1,0,0:0:0:0:
200,224,113292,1,8,0:0:0:0:
188,360,113565,1,0,0:0:0:0:
392,232,113838,5,2,0:0:0:0:
208,204,113974,1,0,0:0:0:0:
272,280,114111,1,0,0:0:0:0:
140,128,114247,5,0,0:0:0:0:
88,316,114383,1,8,0:0:0:0:
272,280,114520,1,0,0:0:0:0:
124,204,114656,1,0,0:0:0:0:
84,328,114792,1,0,0:0:0:0:
284,272,114929,1,2,0:0:0:0:
116,200,115065,1,0,0:0:0:0:
304,352,115202,5,0,0:0:0:0:
252,176,115338,1,0,0:0:0:0:
336,56,115474,2,0,L|436:44,1,90.5999972351075,8|0,0:0|0:0,0:0:0:0:
425,45,115883,1,0,0:0:0:0:
380,172,116020,5,2,0:0:0:0:
328,48,116156,1,0,0:0:0:0:
424,68,116292,1,0,0:0:0:0:
228,264,116429,5,0,0:0:0:0:
376,168,116565,2,0,L|440:164,1,45.2999986175538,8|0,0:0|0:0,0:0:0:0:
296,120,116838,1,0,0:0:0:0:
256,368,116974,1,0,0:0:0:0:
412,256,117111,2,0,L|476:252,1,45.2999986175538,2|0,0:0|0:0,0:0:0:0:
264,196,117383,5,0,0:0:0:0:
336,312,117520,1,0,0:0:0:0:
404,124,117656,1,8,0:0:0:0:
228,264,117792,1,0,0:0:0:0:
416,340,117929,1,0,0:0:0:0:
276,72,118065,1,0,0:0:0:0:
276,72,118133,1,0,0:0:0:0:
276,72,118202,6,0,L|224:68,1,45.2999986175538,2|0,0:0|0:0,0:0:0:0:
104,196,118474,1,0,0:0:0:0:
200,148,118611,1,0,0:0:0:0:
40,32,118747,2,0,L|32:92,1,45.2999986175538,8|0,0:0|0:0,0:0:0:0:
112,224,119020,2,0,L|108:120,1,90.5999972351075,0|2,0:0|0:0,0:0:0:0:
168,64,119429,5,0,0:0:0:0:
236,228,119565,1,0,0:0:0:0:
152,176,119702,1,0,0:0:0:0:
76,296,119838,1,8,0:0:0:0:
240,212,119974,1,0,0:0:0:0:
92,64,120111,2,0,L|100:148,1,67.9499979263306
104,168,120383,5,2,0:0:0:0:
232,112,120520,1,0,0:0:0:0:
156,216,120656,1,0,0:0:0:0:
168,64,120792,1,0,0:0:0:0:
224,312,120929,1,8,0:0:0:0:
176,180,121065,1,0,0:0:0:0:
76,344,121202,1,0,0:0:0:0:
256,224,121338,1,0,0:0:0:0:
256,224,121474,6,0,L|360:216,1,90.5999972351075,2|0,0:0|0:0,0:0:0:0:
356,228,121815,1,0,0:0:0:0:
364,236,121883,1,0,0:0:0:0:
372,244,121952,1,0,0:0:0:0:
380,252,122020,2,0,L|472:248,1,90.5999972351075,8|0,0:0|0:0,0:0:0:0:
260,360,122565,6,0,B|264:292|264:292|256:256|256:256|264:168,1,188.75,2|8,0:0|0:0,0:0:0:0:
263,172,123247,1,0,0:0:0:0:
148,196,123383,1,0,0:0:0:0:
272,160,123520,1,0,0:0:0:0:
140,212,123656,6,0,L|72:208,1,47.1875,2|0,0:0|0:0,0:0:0:0:
108,292,123929,2,0,L|168:296,1,47.1875
28,92,124202,2,0,B|12:128|12:128|24:220,1,117.96875,8|0,0:0|0:0,0:0:0:0:
160,360,124747,6,0,P|176:276|120:176,1,188.75,2|8,0:0|0:0,0:0:0:0:
131,186,125429,1,0,0:0:0:0:
28,296,125565,1,0,0:0:0:0:
140,176,125702,1,0,0:0:0:0:
240,276,125838,6,0,L|432:264,1,188.75,2|8,0:0|0:0,0:0:0:0:
428,264,126520,1,0,0:0:0:0:
352,352,126656,1,0,0:0:0:0:
292,168,126792,1,0,0:0:0:0:
240,276,126929,6,0,B|176:292|176:292|56:268,1,188.75,2|8,0:0|0:0,0:0:0:0:
55,267,127611,1,0,0:0:0:0:
176,188,127747,1,0,0:0:0:0:
80,124,127883,1,0,0:0:0:0:
196,44,128020,6,0,L|296:40,1,94.375,2|0,0:0|0:0,0:0:0:0:
376,184,128429,1,0,0:0:0:0:
296,132,128565,2,0,L|184:128,1,94.375,8|0,0:0|0:0,0:0:0:0:
140,280,128974,1,0,0:0:0:0:
296,132,129111,5,2,0:0:0:0:
304,124,129656,1,0,0:0:0:0:
312,116,130202,1,0,0:0:0:0:
320,108,130747,1,0,0:0:0:0:
368,240,131292,5,0,0:0:0:0:
244,176,131565,1,0,0:0:0:0:
384,216,131838,1,0,0:0:0:0:
232,204,132111,1,0,0:0:0:0:
304,80,132383,5,0,0:0:0:0:
332,324,132656,1,0,0:0:0:0:
332,324,132792,1,0,0:0:0:0:
220,188,132929,1,0,0:0:0:0:
200,348,133065,1,0,0:0:0:0:
384,216,133202,1,0,0:0:0:0:
228,100,133338,1,0,0:0:0:0:
416,16,133474,6,0,L|436:136,1,98.1499955070498,2|0,0:0|0:0,0:0:0:0:
432,112,133883,1,0,0:0:0:0:
208,268,134020,1,8,0:0:0:0:
336,128,134156,1,0,0:0:0:0:
388,248,134292,1,0,0:0:0:0:
284,72,134429,1,0,0:0:0:0:
220,188,134565,5,2,0:0:0:0:
432,112,134702,1,0,0:0:0:0:
164,144,134838,1,0,0:0:0:0:
324,280,134974,1,0,0:0:0:0:
284,72,135111,1,8,0:0:0:0:
148,220,135247,1,0,0:0:0:0:
392,244,135383,1,0,0:0:0:0:
192,32,135520,1,0,0:0:0:0:
136,224,135656,6,0,B|124:276|124:276|132:368,1,138.731245766258,2|0,0:0|0:0,0:0:0:0:
132,376,136202,1,8,0:0:0:0:
264,288,136338,1,0,0:0:0:0:
128,200,136474,1,0,0:0:0:0:
148,288,136611,1,0,0:0:0:0:
352,164,136747,1,2,0:0:0:0:
100,104,136883,1,0,0:0:0:0:
252,280,137020,1,0,0:0:0:0:
224,40,137156,1,0,0:0:0:0:
48,196,137292,5,8,0:0:0:0:
320,88,137429,1,0,0:0:0:0:
56,172,137565,1,0,0:0:0:0:
312,112,137702,1,0,0:0:0:0:
180,32,137838,6,0,L|172:176,1,138.731245766258,2|0,0:0|0:0,0:0:0:0:
172,188,138383,1,8,0:0:0:0:
312,112,138520,1,0,0:0:0:0:
260,232,138656,1,0,0:0:0:0:
216,112,138792,1,0,0:0:0:0:
372,188,138929,5,2,0:0:0:0:
172,288,139065,1,0,0:0:0:0:
228,116,139202,1,0,0:0:0:0:
276,248,139338,1,0,0:0:0:0:
96,124,139474,1,8,0:0:0:0:
288,168,139611,1,0,0:0:0:0:
112,360,139747,1,0,0:0:0:0:
160,52,139883,1,0,0:0:0:0:
360,272,140020,6,0,P|412:288|504:252,1,138.731245766258,2|0,0:0|0:0,0:0:0:0:
500,248,140565,1,8,0:0:0:0:
420,160,140702,1,0,0:0:0:0:
316,344,140838,1,0,0:0:0:0:
244,224,140974,1,0,0:0:0:0:
500,248,141111,5,2,0:0:0:0:
316,344,141247,1,0,0:0:0:0:
312,120,141383,1,0,0:0:0:0:
360,272,141520,5,0,0:0:0:0:
140,180,141656,1,8,0:0:0:0:
316,40,141792,1,0,0:0:0:0:
228,280,141929,1,0,0:0:0:0:
192,72,142065,1,0,0:0:0:0:
424,156,142202,6,0,B|444:204|444:204|432:296,1,138.731245766258,2|0,0:0|0:0,0:0:0:0:
432,308,142747,1,8,0:0:0:0:
216,188,142883,1,0,0:0:0:0:
436,300,143020,1,0,0:0:0:0:
228,280,143156,1,0,0:0:0:0:
364,84,143292,5,2,0:0:0:0:
296,352,143429,1,0,0:0:0:0:
216,188,143565,1,0,0:0:0:0:
436,300,143702,5,0,0:0:0:0:
136,348,143838,1,8,0:0:0:0:
208,48,143974,1,0,0:0:0:0:
120,348,144111,1,0,0:0:0:0:
224,48,144247,1,0,0:0:0:0:
352,272,144383,6,0,L|200:264,1,138.731245766258,2|0,0:0|0:0,0:0:0:0:
192,264,144929,1,8,0:0:0:0:
132,112,145065,1,0,0:0:0:0:
96,196,145202,1,0,0:0:0:0:
168,32,145338,1,0,0:0:0:0:
256,332,145474,5,2,0:0:0:0:
132,112,145611,1,0,0:0:0:0:
328,204,145747,1,0,0:0:0:0:
40,288,145883,5,0,0:0:0:0:
272,84,146020,1,8,0:0:0:0:
328,204,146156,1,0,0:0:0:0:
40,108,146292,5,0,0:0:0:0:
256,332,146429,1,0,0:0:0:0:
464,92,146565,6,0,P|396:86|340:125,1,138.731245766258,2|0,0:0|0:0,0:0:0:0:
331,143,147111,1,8,0:0:0:0:
436,200,147247,1,0,0:0:0:0:
296,56,147383,1,0,0:0:0:0:
244,160,147520,1,0,0:0:0:0:
148,44,147656,5,2,0:0:0:0:
84,320,147792,1,0,0:0:0:0:
244,160,147929,1,0,0:0:0:0:
40,108,148065,5,0,0:0:0:0:
256,332,148202,1,8,0:0:0:0:
192,104,148338,1,0,0:0:0:0:
84,320,148474,1,0,0:0:0:0:
380,172,148611,1,0,0:0:0:0:
148,44,148747,6,0,L|144:188,1,138.731245766258,2|0,0:0|0:0,0:0:0:0:
144,200,149292,1,8,0:0:0:0:
256,152,149429,1,0,0:0:0:0:
224,40,149565,1,0,0:0:0:0:
188,284,149702,1,0,0:0:0:0:
380,172,149838,1,2,0:0:0:0:
388,168,150111,5,0,0:0:0:0:
292,84,150247,1,0,0:0:0:0:
224,216,150383,1,0,0:0:0:0:
396,164,150520,1,0,0:0:0:0:
264,100,150656,1,0,0:0:0:0:
268,284,150792,1,0,0:0:0:0:
400,36,150929,6,0,B|408:80|408:80|404:104|404:104|416:160,1,101.924996889496,2|0,0:0|0:0,0:0:0:0:
360,192,151202,6,0,B|320:172|272:176,1,90.6
204,216,151474,1,8,0:0:0:0:
280,296,151611,1,0,0:0:0:0:
336,104,151747,1,0,0:0:0:0:
424,240,151883,6,0,L|476:236,1,49.0749977535249,0|2,0:0|0:0,0:0:0:0:
376,340,152156,1,0,0:0:0:0:
280,200,152292,1,0,0:0:0:0:
384,332,152429,1,0,0:0:0:0:
268,208,152565,2,0,L|204:204,1,49.0749977535249,8|0,0:0|0:0,0:0:0:0:
168,292,152838,1,0,0:0:0:0:
352,216,152974,1,0,0:0:0:0:
204,32,153111,6,0,B|190:73|190:73|206:161,1,101.924996889496,2|0,0:0|0:0,0:0:0:0:
219,204,153383,1,0,0:0:0:0:
336,104,153520,1,0,0:0:0:0:
224,216,153656,1,8,0:0:0:0:
320,88,153792,1,0,0:0:0:0:
352,216,153929,5,0,0:0:0:0:
152,104,154065,1,0,0:0:0:0:
296,32,154202,1,2,0:0:0:0:
320,232,154338,1,0,0:0:0:0:
240,104,154474,1,0,0:0:0:0:
400,112,154611,1,0,0:0:0:0:
288,256,154747,6,0,B|252:256|252:256|200:240,1,67.9499979263306,8|0,0:0|0:0,0:0:0:0:
244,72,155020,2,0,B|280:72|280:72|332:88,1,67.9499979263306
384,200,155292,6,0,P|400:252|376:324,1,101.924996889496,2|0,0:0|0:0,0:0:0:0:
328,340,155565,6,0,B|304:336|304:336|272:340|272:340|240:336,1,73.6124966302873
180,336,155838,1,8,0:0:0:0:
220,204,155974,1,0,0:0:0:0:
328,340,156111,1,0,0:0:0:0:
144,252,156247,6,0,L|72:248,1,49.0749977535249,0|2,0:0|0:0,0:0:0:0:
180,336,156520,1,0,0:0:0:0:
240,132,156656,1,0,0:0:0:0:
296,248,156792,1,0,0:0:0:0:
368,64,156929,2,0,L|424:60,1,49.0749977535249,8|0,0:0|0:0,0:0:0:0:
320,168,157202,1,0,0:0:0:0:
168,100,157338,1,0,0:0:0:0:
132,244,157474,6,0,B|124:280|124:280|132:328,1,73.6124966302873,2|0,0:0|0:0,0:0:0:0:
136,336,157747,1,0,0:0:0:0:
296,248,157883,1,0,0:0:0:0:
192,188,158020,1,8,0:0:0:0:
132,348,158156,1,0,0:0:0:0:
368,280,158292,1,0,0:0:0:0:
128,360,158429,1,0,0:0:0:0:
196,160,158565,6,0,L|208:100,1,49.0749977535249,2|0,0:0|0:0,0:0:0:0:
296,248,158838,1,0,0:0:0:0:
280,160,158974,1,0,0:0:0:0:
164,272,159111,1,8,0:0:0:0:
360,184,159247,1,0,0:0:0:0:
360,184,159383,2,0,L|432:180,1,49.0749977535249
276,124,159656,6,0,P|260:160|276:240,1,101.924996889496,2|0,0:0|0:0,0:0:0:0:
288,260,159929,6,0,P|248:244|204:240,1,79.2749975807191
136,252,160202,1,8,0:0:0:0:
228,344,160338,1,0,0:0:0:0:
360,184,160474,1,0,0:0:0:0:
404,288,160611,1,0,0:0:0:0:
212,192,160747,6,0,L|152:188,1,52.849998387146,2|0,0:0|0:0,0:0:0:0:
159,188,161020,1,0,0:0:0:0:
228,344,161156,1,0,0:0:0:0:
324,256,161292,2,0,L|396:248,1,52.849998387146,8|0,0:0|0:0,0:0:0:0:
256,72,161565,1,0,0:0:0:0:
228,344,161702,1,0,0:0:0:0:
457,171,161838,6,0,P|397:167|345:195,1,101.924996889496,2|0,0:0|0:0,0:0:0:0:
344,196,162111,6,0,L|348:124,1,52.849998387146
424,288,162383,1,8,0:0:0:0:
228,220,162520,1,0,0:0:0:0:
304,304,162656,1,0,0:0:0:0:
456,172,162792,1,0,0:0:0:0:
336,104,162929,5,2,0:0:0:0:
300,324,163065,1,0,0:0:0:0:
424,288,163202,1,0,0:0:0:0:
160,156,163338,1,0,0:0:0:0:
204,256,163474,1,8,0:0:0:0:
380,40,163611,1,0,0:0:0:0:
380,40,163747,2,0,L|384:96,1,52.849998387146
300,324,164020,6,0,B|308:288|308:288|304:256|304:256|316:208,1,101.924996889496,2|0,0:0|0:0,0:0:0:0:
324,184,164292,6,0,P|336:216|340:268,1,79.2749975807191
340,280,164565,1,8,0:0:0:0:
204,256,164702,1,0,0:0:0:0:
168,368,164838,1,0,0:0:0:0:
340,280,164974,2,0,L|412:272,1,52.849998387146,0|2,0:0|0:0,0:0:0:0:
232,156,165247,5,0,0:0:0:0:
280,356,165383,1,0,0:0:0:0:
252,136,165520,1,0,0:0:0:0:
264,376,165656,1,8,0:0:0:0:
324,184,165792,1,0,0:0:0:0:
156,312,165929,1,0,0:0:0:0:
340,280,166065,1,0,0:0:0:0:
144,204,166202,6,0,L|44:196,1,79.2749975807191,2|0,0:0|0:0,0:0:0:0:
48,196,166474,1,0,0:0:0:0:
156,312,166611,1,0,0:0:0:0:
232,156,166747,1,8,0:0:0:0:
232,156,166883,1,0,0:0:0:0:
340,280,167020,1,0,0:0:0:0:
144,204,167156,1,0,0:0:0:0:
216,32,167292,6,0,L|224:92,1,52.849998387146,2|0,0:0|0:0,0:0:0:0:
140,216,167565,2,0,L|148:152,1,52.849998387146
232,324,167838,1,8,0:0:0:0:
48,196,167974,1,0,0:0:0:0:
220,256,168111,1,0,0:0:0:0:
80,272,168247,1,0,0:0:0:0:
172,140,168383,6,0,B|180:100|180:100|168:16,1,101.924996889496,2|0,0:0|0:0,0:0:0:0:
160,20,168656,6,0,P|196:32|244:64,1,79.2749975807191
248,68,168929,1,8,0:0:0:0:
124,208,169065,1,0,0:0:0:0:
168,112,169202,1,0,0:0:0:0:
220,256,169338,1,0,0:0:0:0:
328,152,169474,2,0,L|252:148,1,52.849998387146,2|0,0:0|0:0,0:0:0:0:
368,276,169747,5,0,0:0:0:0:
328,152,169883,1,0,0:0:0:0:
220,256,170020,1,8,0:0:0:0:
416,192,170156,2,0,L|484:188,1,52.849998387146
340,76,170429,1,0,0:0:0:0:
296,228,170565,6,0,B|256:228|256:228|184:244,1,101.924996889496,2|0,0:0|0:0,0:0:0:0:
160,260,170838,6,0,L|168:176,1,75.5
264,100,171111,1,8,0:0:0:0:
84,208,171247,1,0,0:0:0:0:
152,96,171383,1,0,0:0:0:0:
284,332,171520,1,0,0:0:0:0:
168,176,171656,5,2,0:0:0:0:
272,328,171792,1,0,0:0:0:0:
248,124,171929,1,0,0:0:0:0:
160,260,172065,1,0,0:0:0:0:
416,168,172202,2,0,L|480:164,1,52.849998387146,8|0,0:0|0:0,0:0:0:0:
248,124,172474,2,0,L|192:120,1,52.849998387146
332,56,172747,6,0,P|352:116|340:176,1,101.924996889496,2|0,0:0|0:0,0:0:0:0:
338,181,173020,6,0,P|374:169|426:169,1,79.2749975807191
480,208,173292,1,8,0:0:0:0:
312,304,173429,1,0,0:0:0:0:
338,181,173565,1,0,0:0:0:0:
420,288,173702,2,0,P|432:324|432:356,1,52.849998387146,0|2,0:0|0:0,0:0:0:0:
244,220,173974,5,0,0:0:0:0:
312,304,174111,1,0,0:0:0:0:
338,181,174247,1,0,0:0:0:0:
212,304,174383,2,0,L|152:300,1,52.849998387146,8|0,0:0|0:0,0:0:0:0:
324,352,174656,1,0,0:0:0:0:
376,100,174792,1,0,0:0:0:0:
432,224,174929,6,0,B|384:244|384:244|312:228,1,105.699996774292,2|0,0:0|0:0,0:0:0:0:
331,232,175338,1,0,0:0:0:0:
212,304,175474,1,8,0:0:0:0:
264,172,175611,1,0,0:0:0:0:
324,352,175747,1,0,0:0:0:0:
324,352,175883,1,0,0:0:0:0:
140,216,176020,6,0,L|132:276,1,52.849998387146,2|0,0:0|0:0,0:0:0:0:
224,360,176292,1,0,0:0:0:0:
331,232,176429,1,0,0:0:0:0:
224,360,176565,1,8,0:0:0:0:
264,172,176702,1,0,0:0:0:0:
396,288,176838,2,0,L|452:280,1,52.849998387146
331,232,177111,6,0,P|316:284|332:340,1,101.924996889496,2|0,0:0|0:0,0:0:0:0:
336,352,177383,6,0,L|244:340,1,79.2749975807191
232,336,177656,1,8,0:0:0:0:
396,288,177792,1,0,0:0:0:0:
260,248,177929,1,0,0:0:0:0:
340,100,178065,1,0,0:0:0:0:
340,100,178202,6,0,L|348:164,1,52.849998387146,2|0,0:0|0:0,0:0:0:0:
464,232,178474,2,0,L|456:168,1,52.849998387146
396,288,178747,1,8,0:0:0:0:
284,168,178883,1,0,0:0:0:0:
176,276,179020,1,0,0:0:0:0:
64,124,179156,1,0,0:0:0:0:
64,124,179292,6,0,L|68:212,1,79.2749975807191,2|0,0:0|0:0,0:0:0:0:
68,224,179565,1,0,0:0:0:0:
176,276,179702,1,0,0:0:0:0:
140,196,179838,1,8,0:0:0:0:
52,360,179974,1,0,0:0:0:0:
220,208,180111,1,0,0:0:0:0:
264,324,180247,1,0,0:0:0:0:
132,276,180383,6,0,L|68:272,1,52.849998387146,2|0,0:0|0:0,0:0:0:0:
176,352,180656,1,0,0:0:0:0:
316,220,180792,1,0,0:0:0:0:
348,304,180929,1,8,0:0:0:0:
140,196,181065,1,0,0:0:0:0:
52,360,181202,2,0,L|112:356,1,52.849998387146
160,99,181474,6,0,P|140:143|148:223,1,101.924996889496,2|0,0:0|0:0,0:0:0:0:
148,232,181747,6,0,L|60:224,1,79.2749975807191
48,220,182020,1,8,0:0:0:0:
160,100,182156,1,0,0:0:0:0:
224,324,182292,1,0,0:0:0:0:
212,180,182429,1,0,0:0:0:0:
132,252,182565,1,2,0:0:0:0:
304,192,182702,1,0,0:0:0:0:
244,96,182838,1,0,0:0:0:0:
136,336,182974,5,0,0:0:0:0:
320,204,183111,1,8,0:0:0:0:
104,164,183247,1,0,0:0:0:0:
224,324,183383,1,0,0:0:0:0:
312,76,183520,1,0,0:0:0:0:
164,48,183656,6,0,B|124:44|124:44|52:52,1,105.699996774292,2|0,0:0|0:0,0:0:0:0:
58,51,184065,1,0,0:0:0:0:
128,232,184202,1,8,0:0:0:0:
200,144,184338,1,0,0:0:0:0:
48,128,184474,1,0,0:0:0:0:
188,304,184611,1,0,0:0:0:0:
312,76,184747,5,2,0:0:0:0:
376,224,184883,1,0,0:0:0:0:
200,144,185020,1,0,0:0:0:0:
408,76,185156,1,0,0:0:0:0:
280,264,185292,1,8,0:0:0:0:
228,48,185429,1,0,0:0:0:0:
288,280,185565,1,0,0:0:0:0:
220,32,185702,1,0,0:0:0:0:
160,212,185838,6,0,P|112:224|72:208,1,90.5999972351075,2|0,0:0|0:0,0:0:0:0:
120,128,186247,1,0,0:0:0:0:
232,272,186383,1,8,0:0:0:0:
132,328,186520,1,0,0:0:0:0:
248,176,186656,2,0,P|288:172|312:172,1,45.2999986175538
436,344,186929,6,0,B|408:356|408:356|372:328|372:328|340:364|280:352,1,158.549995161438,2|0,0:0|0:0,0:0:0:0:
252,340,187474,2,0,L|256:288,1,45.2999986175538,8|0,0:0|0:0,0:0:0:0:
440,44,187747,2,0,L|436:96,1,45.2999986175538
176,180,188020,6,0,L|188:76,1,90.5999972351075,2|0,0:0|0:0,0:0:0:0:
186,89,188429,1,0,0:0:0:0:
280,184,188565,1,8,0:0:0:0:
176,180,188702,1,0,0:0:0:0:
232,80,188838,1,0,0:0:0:0:
296,240,188974,1,0,0:0:0:0:
140,168,189111,6,0,L|132:328,1,158.549995161438,2|0,0:0|0:0,0:0:0:0:
132,352,189656,2,0,P|92:356|72:352,1,45.2999986175538,8|0,0:0|0:0,0:0:0:0:
364,192,189929,2,0,P|404:195|423:202,1,45.2999986175538
268,244,190202,6,0,P|256:204|264:148,1,90.5999972351075,2|0,0:0|0:0,0:0:0:0:
328,76,190611,1,0,0:0:0:0:
364,192,190747,1,8,0:0:0:0:
192,104,190883,1,0,0:0:0:0:
356,72,191020,1,0,0:0:0:0:
268,244,191156,1,0,0:0:0:0:
144,32,191292,6,0,P|200:20|276:88,1,158.549995161438,2|0,0:0|0:0,0:0:0:0:
272,112,191838,2,0,L|328:92,1,45.2999986175538,8|0,0:0|0:0,0:0:0:0:
256,244,192111,2,0,L|200:232,1,45.2999986175538
364,192,192383,6,0,P|380:232|372:284,1,90.5999972351075,2|0,0:0|0:0,0:0:0:0:
220,352,192792,1,0,0:0:0:0:
256,244,192929,1,8,0:0:0:0:
312,316,193065,1,0,0:0:0:0:
168,260,193202,1,0,0:0:0:0:
352,168,193338,1,0,0:0:0:0:
464,324,193474,6,0,P|408:352|336:328,1,135.899995852661,2|0,0:0|0:0,0:0:0:0:
108,200,194020,2,0,P|156:180|236:212,1,135.899995852661,8|0,0:0|0:0,0:0:0:0:
164,350,194565,6,0,L|168:254,1,90.5999972351075,2|0,0:0|0:0,0:0:0:0:
168,260,194974,1,0,0:0:0:0:
216,112,195111,1,8,0:0:0:0:
160,248,195247,1,0,0:0:0:0:
228,116,195383,1,0,0:0:0:0:
152,236,195520,1,0,0:0:0:0:
240,120,195656,6,0,L|400:116,1,158.549995161438,2|0,0:0|0:0,0:0:0:0:
440,132,196202,2,0,P|452:160|452:192,1,45.2999986175538,8|0,0:0|0:0,0:0:0:0:
268,272,196474,2,0,P|268:240|276:216,1,45.2999986175538
456,280,196747,6,0,P|472:332|468:376,1,90.5999972351075,2|0,0:0|0:0,0:0:0:0:
469,367,197156,1,0,0:0:0:0:
344,292,197292,1,8,0:0:0:0:
456,280,197429,1,0,0:0:0:0:
384,356,197565,1,0,0:0:0:0:
304,228,197702,1,0,0:0:0:0:
208,336,197838,6,0,B|168:328|168:328|128:344|128:344|48:332,1,158.549995161438,2|0,0:0|0:0,0:0:0:0:
24,324,198383,2,0,L|32:264,1,45.2999986175538,8|0,0:0|0:0,0:0:0:0:
152,200,198656,2,0,L|144:156,1,45.2999986175538
240,260,198929,6,0,P|292:264|332:252,1,90.5999972351075,2|0,0:0|0:0,0:0:0:0:
328,253,199338,1,0,0:0:0:0:
272,136,199474,1,8,0:0:0:0:
340,264,199611,1,0,0:0:0:0:
260,128,199747,1,0,0:0:0:0:
352,276,199883,1,0,0:0:0:0:
248,120,200020,5,2,0:0:0:0:
248,120,200565,2,0,L|244:168,1,45.2999986175538,8|0,0:0|0:0,0:0:0:0:
448,352,200838,2,0,L|452:300,1,45.2999986175538
192,268,201111,6,0,P|232:280|296:268,1,90.5999972351075,2|0,0:0|0:0,0:0:0:0:
279,274,201520,1,0,0:0:0:0:
172,356,201656,1,8,0:0:0:0:
244,165,201792,1,0,0:0:0:0:
188,360,201929,1,0,0:0:0:0:
224,160,202065,1,0,0:0:0:0:
368,260,202202,6,0,P|420:276|496:228,1,135.899995852661,2|0,0:0|0:0,0:0:0:0:
98,154,202747,2,0,P|158:134|230:166,1,135.899995852661,8|0,0:0|0:0,0:0:0:0:
296,44,205474,6,0,B|308:108|308:108|300:140|300:140|312:208,1,158.549995161438,2|8,0:0|0:0,0:0:0:0:
310,199,206156,1,0,0:0:0:0:
176,120,206292,1,0,0:0:0:0:
384,52,206429,1,0,0:0:0:0:
256,224,206565,1,2,0:0:0:0:
204,56,206702,1,0,0:0:0:0:
400,148,206838,1,0,0:0:0:0:
176,280,206974,1,0,0:0:0:0:
268,124,207111,5,8,0:0:0:0:
320,304,207247,1,0,0:0:0:0:
132,192,207383,1,0,0:0:0:0:
400,148,207520,1,0,0:0:0:0:
400,148,207656,6,0,B|420:204|420:204|416:312,1,158.549995161438,2|8,0:0|0:0,0:0:0:0:
416,303,208338,1,0,0:0:0:0:
204,224,208474,1,0,0:0:0:0:
328,188,208611,1,0,0:0:0:0:
144,324,208747,1,2,0:0:0:0:
268,124,208883,1,0,0:0:0:0:
288,264,209020,1,0,0:0:0:0:
104,108,209156,1,0,0:0:0:0:
340,56,209292,5,8,0:0:0:0:
144,324,209429,1,0,0:0:0:0:
188,116,209565,1,0,0:0:0:0:
308,348,209702,1,0,0:0:0:0:
100,188,209838,6,0,P|76:128|108:40,1,158.549995161438,2|8,0:0|0:0,0:0:0:0:
105,42,210520,1,0,0:0:0:0:
216,260,210656,1,0,0:0:0:0:
100,188,210792,1,0,0:0:0:0:
288,100,210929,1,2,0:0:0:0:
84,284,211065,1,0,0:0:0:0:
188,116,211202,1,0,0:0:0:0:
308,348,211338,1,0,0:0:0:0:
204,96,211474,5,8,0:0:0:0:
212,292,211611,1,0,0:0:0:0:
224,80,211747,1,0,0:0:0:0:
208,320,211883,1,0,0:0:0:0:
244,64,212020,6,0,L|256:228,1,158.549995161438,2|8,0:0|0:0,0:0:0:0:
255,222,212702,1,0,0:0:0:0:
140,152,212838,1,0,0:0:0:0:
352,84,212974,1,0,0:0:0:0:
136,176,213111,1,2,0:0:0:0:
332,248,213247,1,0,0:0:0:0:
244,64,213383,5,0,0:0:0:0:
208,320,213520,1,0,0:0:0:0:
344,236,213656,1,8,0:0:0:0:
100,180,213792,1,0,0:0:0:0:
204,312,213929,1,0,0:0:0:0:
352,84,214065,1,0,0:0:0:0:
150,34,214202,6,0,B|114:74|114:74|110:114|138:182,1,158.549995161438,2|8,0:0|0:0,0:0:0:0:
136,176,214883,1,0,0:0:0:0:
256,112,215020,1,0,0:0:0:0:
136,48,215156,1,0,0:0:0:0:
96,332,215292,1,2,0:0:0:0:
224,200,215429,1,0,0:0:0:0:
48,144,215565,1,0,0:0:0:0:
192,288,215702,1,0,0:0:0:0:
184,112,215838,5,8,0:0:0:0:
52,256,215974,1,0,0:0:0:0:
272,328,216111,1,0,0:0:0:0:
168,132,216247,1,0,0:0:0:0:
116,344,216383,6,0,P|144:368|264:348,1,158.549995161438,2|8,0:0|0:0,0:0:0:0:
256,352,217065,1,0,0:0:0:0:
168,132,217202,1,0,0:0:0:0:
180,240,217338,1,0,0:0:0:0:
252,48,217474,1,2,0:0:0:0:
304,188,217611,1,0,0:0:0:0:
92,104,217747,1,0,0:0:0:0:
264,40,217883,5,0,0:0:0:0:
180,240,218020,1,8,0:0:0:0:
128,120,218156,1,0,0:0:0:0:
328,172,218292,1,0,0:0:0:0:
112,284,218429,1,0,0:0:0:0:
336,80,218565,6,0,P|384:100|416:200,1,158.549995161438,2|8,0:0|0:0,0:0:0:0:
417,194,219247,1,0,0:0:0:0:
232,312,219383,1,0,0:0:0:0:
328,172,219520,1,0,0:0:0:0:
340,260,219656,1,2,0:0:0:0:
156,132,219792,1,0,0:0:0:0:
417,194,219929,1,0,0:0:0:0:
248,232,220065,1,0,0:0:0:0:
308,68,220202,5,8,0:0:0:0:
344,268,220338,1,0,0:0:0:0:
236,224,220474,1,0,0:0:0:0:
388,120,220611,1,0,0:0:0:0:
388,120,220747,6,0,L|224:112,1,158.549995161438,2|8,0:0|0:0,0:0:0:0:
229,112,221429,1,0,0:0:0:0:
344,268,221565,1,0,0:0:0:0:
236,120,221702,1,0,0:0:0:0:
164,212,221838,6,0,P|136:288|160:344,1,138.731245766258,2|0,0:0|0:0,0:0:0:0:
172,360,222383,1,8,0:0:0:0:
176,368,222929,6,0,B|220:360|220:360|256:376|256:376|352:360,1,166.10000506897,2|8,0:0|0:0,0:0:0:0:
336,362,223611,1,0,0:0:0:0:
216,192,223747,1,0,0:0:0:0:
160,268,223883,1,0,0:0:0:0:
400,200,224020,1,2,0:0:0:0:
264,112,224156,1,0,0:0:0:0:
244,272,224292,1,0,0:0:0:0:
412,192,224429,1,0,0:0:0:0:
188,112,224565,5,8,0:0:0:0:
296,208,224702,1,0,0:0:0:0:
384,64,224838,1,0,0:0:0:0:
296,200,224974,1,0,0:0:0:0:
228,32,225111,6,0,P|148:32|96:104,1,166.10000506897,2|8,0:0|0:0,0:0:0:0:
97,94,225792,1,0,0:0:0:0:
168,244,225929,1,0,0:0:0:0:
188,112,226065,1,0,0:0:0:0:
56,136,226202,1,2,0:0:0:0:
168,244,226338,1,0,0:0:0:0:
168,128,226474,1,0,0:0:0:0:
56,244,226611,5,0,0:0:0:0:
208,288,226747,1,8,0:0:0:0:
136,176,226883,1,0,0:0:0:0:
56,348,227020,1,0,0:0:0:0:
236,192,227156,1,0,0:0:0:0:
384,296,227292,6,0,L|388:124,1,166.10000506897,2|8,0:0|0:0,0:0:0:0:
387,129,227974,1,0,0:0:0:0:
236,56,228111,1,0,0:0:0:0:
260,160,228247,1,0,0:0:0:0:
320,40,228383,1,2,0:0:0:0:
132,116,228520,1,0,0:0:0:0:
384,296,228656,1,0,0:0:0:0:
260,160,228792,1,0,0:0:0:0:
176,284,228929,5,8,0:0:0:0:
387,129,229065,1,0,0:0:0:0:
176,284,229202,1,0,0:0:0:0:
400,120,229338,1,0,0:0:0:0:
236,56,229474,5,2,0:0:0:0:
228,48,230020,1,8,0:0:0:0:
176,284,230156,1,0,0:0:0:0:
264,204,230292,1,0,0:0:0:0:
84,124,230429,1,0,0:0:0:0:
176,284,230565,1,2,0:0:0:0:
272,196,230702,1,0,0:0:0:0:
96,236,230838,1,0,0:0:0:0:
260,332,230974,5,0,0:0:0:0:
188,172,231111,1,8,0:0:0:0:
100,340,231247,1,0,0:0:0:0:
312,264,231383,1,0,0:0:0:0:
100,340,231520,1,0,0:0:0:0:
136,96,231656,6,0,P|208:84|280:156,1,166.10000506897,2|8,0:0|0:0,0:0:0:0:
275,140,232338,1,0,0:0:0:0:
100,340,232474,1,0,0:0:0:0:
188,172,232611,1,0,0:0:0:0:
224,280,232747,1,2,0:0:0:0:
52,152,232883,1,0,0:0:0:0:
288,32,233020,5,0,0:0:0:0:
140,240,233156,1,0,0:0:0:0:
176,92,233292,1,8,0:0:0:0:
360,332,233429,1,0,0:0:0:0:
184,64,233565,1,0,0:0:0:0:
100,340,233702,1,0,0:0:0:0:
296,196,233838,6,0,P|352:180|456:228,1,166.10000506897,2|8,0:0|0:0,0:0:0:0:
448,219,234520,1,0,0:0:0:0:
360,332,234656,1,0,0:0:0:0:
456,224,234792,1,0,0:0:0:0:
348,328,234929,1,2,0:0:0:0:
396,100,235065,5,0,0:0:0:0:
436,312,235202,1,0,0:0:0:0:
296,196,235338,1,0,0:0:0:0:
480,148,235474,1,8,0:0:0:0:
428,308,235611,1,0,0:0:0:0:
232,148,235747,1,0,0:0:0:0:
124,340,235883,1,0,0:0:0:0:
160,80,236020,6,0,P|228:56|320:108,1,166.10000506897,2|8,0:0|0:0,0:0:0:0:
309,93,236702,1,0,0:0:0:0:
216,264,236838,1,0,0:0:0:0:
160,80,236974,1,0,0:0:0:0:
332,112,237111,1,2,0:0:0:0:
224,192,237247,1,0,0:0:0:0:
328,28,237383,5,0,0:0:0:0:
396,304,237520,1,0,0:0:0:0:
220,184,237656,1,8,0:0:0:0:
476,104,237792,1,0,0:0:0:0:
376,204,237929,1,0,0:0:0:0:
160,60,238065,1,0,0:0:0:0:
49,269,238202,6,0,L|227:263,1,166.10000506897,2|8,0:0|0:0,0:0:0:0:
215,263,238883,1,0,0:0:0:0:
108,152,239020,1,0,0:0:0:0:
32,356,239156,1,0,0:0:0:0:
260,256,239292,1,2,0:0:0:0:
60,168,239429,1,0,0:0:0:0:
152,300,239565,1,0,0:0:0:0:
304,88,239702,1,0,0:0:0:0:
192,52,239838,5,8,0:0:0:0:
260,256,239974,1,0,0:0:0:0:
176,84,240111,1,0,0:0:0:0:
296,276,240247,1,0,0:0:0:0:
372,132,240383,5,2,0:0:0:0:
380,120,240929,1,8,0:0:0:0:
384,108,241474,1,2,0:0:0:0:
384,92,242020,1,8,0:0:0:0:
300,256,242565,6,0,L|456:244,2,151,2|8|2,0:0|0:0|0:0,0:0:0:0:
300,256,244202,1,8,0:0:0:0:
152,152,244747,5,2,0:0:0:0:
156,160,245292,1,8,0:0:0:0:
156,172,245838,1,2,0:0:0:0:
152,184,246383,1,8,0:0:0:0:
52,300,246929,6,0,B|40:204|40:204|52:144,2,151,2|8|2,0:0|0:0|0:0,0:0:0:0:
52,300,248565,1,8,0:0:0:0:
272,184,249111,5,2,0:0:0:0:
260,180,249656,1,8,0:0:0:0:
248,184,250202,1,2,0:0:0:0:
240,196,250747,1,8,0:0:0:0:
320,256,251292,5,2,0:0:0:0:
296,136,251838,1,8,0:0:0:0:
180,160,252383,1,2,0:0:0:0:
200,276,252929,1,8,0:0:0:0:
364,196,253474,5,2,0:0:0:0:
244,88,254020,1,8,0:0:0:0:
140,208,254565,1,2,0:0:0:0:
260,304,255111,1,8,0:0:0:0:
344,92,255656,6,0,B|388:88|388:88|432:108|432:108|492:104,2,151,2|8|2,0:0|0:0|0:0,0:0:0:0:
344,92,257292,5,8,0:0:0:0:
