osu file format v14

[General]
AudioFilename: audio.mp3
AudioLeadIn: 0
PreviewTime: 287613
Countdown: 0
SampleSet: Normal
StackLeniency: 0.7
Mode: 1
LetterboxInBreaks: 0
WidescreenStoryboard: 1

[Editor]
Bookmarks: 2145,17145,32145,47145,62145,77145,107613,152145,182145,219645,242145
DistanceSpacing: 1
BeatDivisor: 8
GridSize: 4
TimelineZoom: 4.299997

[Metadata]
Title:Space Invaders
TitleUnicode:Space Invaders
Artist:Teminite & MDK
ArtistUnicode:Teminite & MDK
Creator:LittleFox
Version:Flagship
Source:
Tags:electronic instrumental game
BeatmapID:2803910
BeatmapSetID:1336750

[Difficulty]
HPDrainRate:5
CircleSize:5
OverallDifficulty:6
ApproachRate:5
SliderMultiplier:2
SliderTickRate:1

[Events]
//Background and Video events
0,0,"SpaceInvadersRenderTheFuchsen.png",0,0
//Break Periods
2,47345,60945
2,137345,141570
2,212345,218445
2,219845,224070
//Storyboard Layer 0 (Background)
//Storyboard Layer 1 (Fail)
//Storyboard Layer 2 (Pass)
//Storyboard Layer 3 (Foreground)
//Storyboard Layer 4 (Overlay)
//Storyboard Sound Samples

[TimingPoints]
2145,468.75,4,1,0,100,1,0
2145,-133.333333333333,4,1,0,100,0,0
9645,-125,4,1,0,100,0,0
15270,-121.951219512195,4,1,0,100,0,0
15387,-119.047619047619,4,1,0,100,0,0
15621,-116.279069767442,4,1,0,100,0,0
15855,-113.636363636364,4,1,0,100,0,0
15973,-111.111111111111,4,1,0,100,0,0
16090,-108.695652173913,4,1,0,100,0,0
16207,-106.382978723404,4,1,0,100,0,0
16324,-104.166666666667,4,1,0,100,0,0
16441,-102.040816326531,4,1,0,100,0,0
17145,-100,4,1,0,100,0,0
22770,-90.9090909090909,4,1,0,100,0,1
24059,-100,4,1,0,100,0,0
31676,-98.0392156862745,4,1,0,100,0,0
31793,-96.1538461538461,4,1,0,100,0,0
31910,-94.3396226415094,4,1,0,100,0,0
32027,-92.5925925925926,4,1,0,100,0,0
32145,-90.9090909090909,4,1,0,100,0,0
32379,-90.9090909090909,4,1,0,100,0,0
62145,-133.333333333333,4,1,0,50,0,0
69645,-83.3333333333333,4,1,0,50,0,0
73160,-54.054054054054,4,1,0,50,0,0
73395,-81.9672131147541,4,1,0,50,0,0
73629,-81.9672131147541,4,1,0,50,0,0
73863,-80.6451612903226,4,1,0,50,0,0
74098,-79.3650793650794,4,1,0,50,0,0
74332,-78.125,4,1,0,50,0,0
74566,-77.5193798449612,4,1,0,50,0,0
74801,-76.9230769230769,4,1,0,50,0,0
74918,-75.7575757575758,4,1,0,50,0,0
75035,-74.6268656716418,4,1,0,50,0,0
75152,-73.5294117647059,4,1,0,50,0,0
75270,-72.463768115942,4,1,0,50,0,0
75504,-50,4,1,0,50,0,0
77145,-50,4,1,0,100,0,0
77613,-76.9230769230769,4,1,0,100,0,0
105270,-71.4285714285714,4,1,0,100,0,0
107613,-66.6666666666667,4,1,0,100,0,1
108082,-100,4,1,0,100,0,1
122613,-100,4,1,0,100,0,1
137145,-71.4285714285714,4,1,0,100,0,0
145113,-100,4,1,0,50,0,0
152027,-83.3333333333333,4,1,0,100,0,0
157770,-74.0740740740741,4,1,0,100,0,1
159645,-83.3333333333333,4,1,0,100,0,0
167145,-80,4,1,0,100,0,0
167730,-80.6451612903226,4,1,0,100,0,0
168434,-81.9672131147541,4,1,0,100,0,0
171246,-82.6446280991736,4,1,0,100,0,0
174879,-83.3333333333333,4,1,0,100,0,0
182613,-133.333333333333,4,1,0,50,0,0
197145,-125,4,1,0,50,0,0
212145,-142.857142857143,4,1,0,50,0,0
225270,-76.9230769230769,4,1,0,100,0,0
227613,-100,4,1,0,100,0,0
234645,-100,4,1,0,100,0,0
238160,-50,4,1,0,100,0,0
238395,-100,4,1,0,100,0,0
238629,-96.1538461538461,4,1,0,100,0,0
238863,-92.5925925925926,4,1,0,100,0,0
239098,-89.2857142857143,4,1,0,100,0,0
239332,-86.2068965517241,4,1,0,100,0,0
239566,-83.3333333333333,4,1,0,100,0,0
239801,-81.9672131147541,4,1,0,100,0,0
240504,-50,4,1,0,100,0,0
241207,-66.6666666666667,4,1,0,100,0,0
242145,-33.3333333333333,4,1,0,100,0,0
242379,-80,4,1,0,100,0,0
253863,-58.8235294117647,4,1,0,100,0,0
255270,-100,4,1,0,100,0,0
257145,-80,4,1,0,100,0,0
272613,-66.6666666666667,4,1,0,100,0,0
273082,-100,4,1,0,100,0,0
287613,-90.9090909090909,4,1,0,100,0,1
332145,-100,4,1,0,100,0,0
339645,-90.9090909090909,4,1,0,100,0,0
347145,-71.4285714285714,4,1,0,100,0,0

[HitObjects]
261,192,2145,5,8,0:0:0:0:
261,192,2379,1,0,0:0:0:0:
261,192,2848,1,8,0:0:0:0:
261,192,3082,1,0,0:0:0:0:
261,192,3199,1,8,0:0:0:0:
261,192,3434,1,0,0:0:0:0:
261,192,4020,1,8,0:0:0:0:
261,192,4254,1,0,0:0:0:0:
261,192,4723,1,8,0:0:0:0:
261,192,4840,5,0,0:0:0:0:
261,192,4898,1,0,0:0:0:0:
261,192,4957,1,8,0:0:0:0:
261,192,5191,1,8,0:0:0:0:
261,192,5309,1,0,0:0:0:0:
261,192,5543,1,8,0:0:0:0:
261,192,5660,1,0,0:0:0:0:
261,192,5895,1,8,0:0:0:0:
261,192,6129,1,0,0:0:0:0:
261,192,6598,1,8,0:0:0:0:
261,192,6832,1,0,0:0:0:0:
261,192,7066,1,8,0:0:0:0:
261,192,7184,1,8,0:0:0:0:
261,192,7770,1,8,0:0:0:0:
261,192,7887,1,8,0:0:0:0:
261,192,8121,1,0,0:0:0:0:
261,192,8355,1,0,0:0:0:0:
261,192,8473,1,8,0:0:0:0:
261,192,8590,1,0,0:0:0:0:
261,192,8707,1,8,0:0:0:0:
261,192,8824,1,8,0:0:0:0:
261,192,9059,1,0,0:0:0:0:
261,192,9410,1,0,0:0:0:0:
261,192,9645,1,8,0:0:0:0:
261,192,9879,1,0,0:0:0:0:
261,192,9996,1,0,0:0:0:0:
261,192,10348,1,8,0:0:0:0:
261,192,10582,1,0,0:0:0:0:
261,192,10699,1,8,0:0:0:0:
261,192,10934,1,0,0:0:0:0:
261,192,11520,1,8,0:0:0:0:
261,192,11754,1,0,0:0:0:0:
261,192,12223,1,0,0:0:0:0:
261,192,12340,5,0,0:0:0:0:
261,192,12398,1,0,0:0:0:0:
261,192,12457,1,8,0:0:0:0:
261,192,12691,1,8,0:0:0:0:
261,192,12809,1,0,0:0:0:0:
261,192,13043,1,8,0:0:0:0:
261,192,13160,1,0,0:0:0:0:
261,192,13395,1,8,0:0:0:0:
261,192,13629,1,0,0:0:0:0:
261,192,13746,1,0,0:0:0:0:
261,192,14098,1,8,0:0:0:0:
261,192,14215,1,0,0:0:0:0:
261,192,14332,1,8,0:0:0:0:
261,192,14449,1,8,0:0:0:0:
261,192,14566,1,0,0:0:0:0:
261,192,14684,1,8,0:0:0:0:
261,192,15270,1,8,0:0:0:0:
261,192,15387,1,8,0:0:0:0:
261,192,15621,1,0,0:0:0:0:
261,192,15855,1,0,0:0:0:0:
261,192,15973,1,8,0:0:0:0:
261,192,16090,1,0,0:0:0:0:
261,192,16207,1,8,0:0:0:0:
261,192,16324,1,8,0:0:0:0:
261,192,16441,1,0,0:0:0:0:
261,192,16500,1,0,0:0:0:0:
261,192,16559,1,8,0:0:0:0:
261,192,16793,1,0,0:0:0:0:
261,192,16910,1,8,0:0:0:0:
261,192,16969,1,8,0:0:0:0:
261,192,17027,1,0,0:0:0:0:
261,192,17145,1,8,0:0:0:0:
261,192,17379,1,0,0:0:0:0:
261,192,17613,1,0,0:0:0:0:
261,192,17848,1,8,0:0:0:0:
261,192,17965,1,0,0:0:0:0:
261,192,18082,1,0,0:0:0:0:
261,192,18199,1,8,0:0:0:0:
261,192,18434,1,0,0:0:0:0:
261,192,18551,1,8,0:0:0:0:
261,192,18785,1,8,0:0:0:0:
261,192,19020,1,8,0:0:0:0:
261,192,19254,1,0,0:0:0:0:
261,192,19488,1,0,0:0:0:0:
261,192,19605,1,8,0:0:0:0:
261,192,19723,1,0,0:0:0:0:
261,192,19840,1,0,0:0:0:0:
261,192,19898,1,0,0:0:0:0:
261,192,19957,1,8,0:0:0:0:
261,192,20191,1,0,0:0:0:0:
261,192,20309,1,8,0:0:0:0:
261,192,20543,1,8,0:0:0:0:
261,192,20660,1,0,0:0:0:0:
261,192,20895,1,8,0:0:0:0:
261,192,21129,1,0,0:0:0:0:
261,192,21363,1,0,0:0:0:0:
261,192,21598,1,8,0:0:0:0:
261,192,21715,1,0,0:0:0:0:
261,192,21832,1,8,0:0:0:0:
261,192,21949,1,8,0:0:0:0:
261,192,22066,1,0,0:0:0:0:
261,192,22184,1,8,0:0:0:0:
198,151,22418,1,8,0:0:0:0:
261,192,22477,1,8,0:0:0:0:
247,109,22535,1,0,0:0:0:0:
261,192,22652,1,0,0:0:0:0:
261,192,22770,1,8,0:0:0:0:
261,192,22887,1,0,0:0:0:0:
261,192,23121,1,0,0:0:0:0:
261,192,23355,1,0,0:0:0:0:
261,192,23473,1,8,0:0:0:0:
268,166,23531,1,8,0:0:0:0:
255,164,23590,1,0,0:0:0:0:
261,192,23707,1,8,0:0:0:0:
261,192,23824,1,0,0:0:0:0:
261,192,24059,1,8,0:0:0:0:
233,192,24176,1,0,0:0:0:0:
233,192,24293,1,0,0:0:0:0:
261,192,24410,1,8,0:0:0:0:
261,192,24527,1,0,0:0:0:0:
261,192,24645,1,8,0:0:0:0:
261,192,24879,1,0,0:0:0:0:
261,192,25113,1,0,0:0:0:0:
261,192,25348,1,8,0:0:0:0:
261,192,25582,1,0,0:0:0:0:
261,192,25699,1,8,0:0:0:0:
261,192,25934,1,8,0:0:0:0:
261,192,26051,1,8,0:0:0:0:
261,192,26168,1,0,0:0:0:0:
261,192,26285,1,8,0:0:0:0:
261,192,26520,1,8,0:0:0:0:
261,192,26754,1,0,0:0:0:0:
261,192,26988,1,0,0:0:0:0:
261,192,27223,1,8,0:0:0:0:
261,192,27340,1,0,0:0:0:0:
261,192,27457,1,0,0:0:0:0:
261,192,27516,1,0,0:0:0:0:
261,192,27574,1,8,0:0:0:0:
261,192,27691,1,0,0:0:0:0:
261,192,27809,1,8,0:0:0:0:
261,192,27926,1,8,0:0:0:0:
261,192,27984,1,8,0:0:0:0:
261,192,28043,1,0,0:0:0:0:
261,192,28102,1,0,0:0:0:0:
261,192,28160,1,8,0:0:0:0:
261,192,28277,1,0,0:0:0:0:
261,192,28395,1,8,0:0:0:0:
261,192,28629,1,0,0:0:0:0:
261,192,28863,1,0,0:0:0:0:
261,192,29098,1,8,0:0:0:0:
261,192,29215,1,0,0:0:0:0:
261,192,29332,1,0,0:0:0:0:
261,192,29449,1,8,0:0:0:0:
261,192,29566,1,0,0:0:0:0:
261,192,29684,1,8,0:0:0:0:
247,109,30035,1,0,0:0:0:0:
261,192,30270,1,8,0:0:0:0:
261,192,30387,1,0,0:0:0:0:
261,192,30621,1,0,0:0:0:0:
261,192,30855,1,8,0:0:0:0:
261,192,30973,1,0,0:0:0:0:
268,166,31031,1,0,0:0:0:0:
255,164,31090,1,0,0:0:0:0:
261,192,31207,1,8,0:0:0:0:
261,192,31324,1,0,0:0:0:0:
261,192,31383,1,8,0:0:0:0:
261,192,31441,1,8,0:0:0:0:
261,192,31559,1,0,0:0:0:0:
233,192,31676,1,8,0:0:0:0:
233,192,31793,1,0,0:0:0:0:
261,192,31910,1,8,0:0:0:0:
261,192,32027,1,0,0:0:0:0:
261,192,32145,1,0,0:0:0:0:
233,192,32379,1,8,0:0:0:0:
233,192,32613,1,8,0:0:0:0:
233,192,32730,1,0,0:0:0:0:
233,192,32965,1,0,0:0:0:0:
233,192,33082,1,0,0:0:0:0:
233,192,33199,1,8,0:0:0:0:
233,192,33434,1,0,0:0:0:0:
233,192,33551,1,8,0:0:0:0:
233,192,33785,1,0,0:0:0:0:
233,192,33902,1,8,0:0:0:0:
233,192,34020,1,0,0:0:0:0:
233,192,34254,1,8,0:0:0:0:
233,192,34371,1,0,0:0:0:0:
233,192,34488,1,8,0:0:0:0:
233,192,34723,1,8,0:0:0:0:
233,192,34840,1,0,0:0:0:0:
233,192,34957,1,8,0:0:0:0:
233,192,35074,1,0,0:0:0:0:
233,192,35191,1,0,0:0:0:0:
224,180,35309,1,8,0:0:0:0:
224,180,35426,1,0,0:0:0:0:
233,192,35660,1,8,0:0:0:0:
233,192,35895,1,0,0:0:0:0:
233,192,36129,1,8,0:0:0:0:
197,179,36363,1,8,0:0:0:0:
256,192,36480,1,0,0:0:0:0:
260,188,36715,1,0,0:0:0:0:
233,192,36832,1,0,0:0:0:0:
256,192,36949,1,8,0:0:0:0:
261,192,37184,1,0,0:0:0:0:
261,192,37301,1,8,0:0:0:0:
261,192,37535,1,0,0:0:0:0:
273,191,37652,1,8,0:0:0:0:
261,192,37770,1,0,0:0:0:0:
261,192,37887,1,0,0:0:0:0:
261,192,38004,1,8,0:0:0:0:
261,192,38121,1,0,0:0:0:0:
261,192,38238,1,8,0:0:0:0:
261,192,38355,1,8,0:0:0:0:
261,192,38473,1,0,0:0:0:0:
261,192,38590,1,0,0:0:0:0:
261,192,38707,1,8,0:0:0:0:
261,192,38824,1,8,0:0:0:0:
261,192,38941,1,0,0:0:0:0:
261,192,39059,1,8,0:0:0:0:
261,192,39176,1,0,0:0:0:0:
261,192,39293,1,8,0:0:0:0:
261,192,39410,1,8,0:0:0:0:
261,192,39527,1,8,0:0:0:0:
261,192,39645,1,0,0:0:0:0:
233,192,39879,1,8,0:0:0:0:
233,192,40113,1,8,0:0:0:0:
233,192,40230,1,0,0:0:0:0:
233,192,40465,1,0,0:0:0:0:
233,192,40582,1,0,0:0:0:0:
226,192,40699,1,8,0:0:0:0:
233,192,40934,1,0,0:0:0:0:
233,192,41051,1,8,0:0:0:0:
233,192,41285,1,0,0:0:0:0:
233,192,41402,1,8,0:0:0:0:
233,192,41520,1,0,0:0:0:0:
233,192,41754,1,8,0:0:0:0:
233,192,41871,1,0,0:0:0:0:
233,192,41988,1,8,0:0:0:0:
233,192,42223,1,8,0:0:0:0:
233,192,42340,1,0,0:0:0:0:
233,192,42457,1,8,0:0:0:0:
233,192,42574,1,0,0:0:0:0:
233,192,42691,1,0,0:0:0:0:
224,180,42809,1,8,0:0:0:0:
233,192,42926,1,0,0:0:0:0:
233,192,43160,1,8,0:0:0:0:
233,192,43395,1,8,0:0:0:0:
233,192,43629,1,8,0:0:0:0:
233,192,43746,1,0,0:0:0:0:
233,192,43863,1,8,0:0:0:0:
197,179,43980,1,0,0:0:0:0:
233,192,44215,1,0,0:0:0:0:
233,192,44332,1,8,0:0:0:0:
261,192,44566,1,0,0:0:0:0:
261,192,44684,1,8,0:0:0:0:
261,192,44801,1,0,0:0:0:0:
261,192,44918,1,0,0:0:0:0:
261,192,45035,1,8,0:0:0:0:
261,192,45152,1,0,0:0:0:0:
261,192,45270,1,8,0:0:0:0:
261,192,45504,1,0,0:0:0:0:
261,192,45738,1,8,0:0:0:0:
261,192,45855,1,8,0:0:0:0:
261,192,45973,1,8,0:0:0:0:
261,192,46090,1,0,0:0:0:0:
261,192,46207,1,8,0:0:0:0:
261,192,46324,1,8,0:0:0:0:
261,192,46441,1,0,0:0:0:0:
261,192,46559,1,8,0:0:0:0:
261,192,46676,1,0,0:0:0:0:
261,192,46793,1,8,0:0:0:0:
261,192,46910,1,8,0:0:0:0:
261,192,47027,1,0,0:0:0:0:
261,192,47145,1,0,0:0:0:0:
261,192,62145,5,0,0:0:0:0:
256,192,62379,12,0,65660,0:0:0:0:
261,192,65895,5,0,0:0:0:0:
256,192,66129,12,0,69410,0:0:0:0:
261,192,69645,5,0,0:0:0:0:
261,192,70113,1,0,0:0:0:0:
261,192,70582,1,0,0:0:0:0:
261,192,71051,1,0,0:0:0:0:
261,192,71520,1,0,0:0:0:0:
261,192,71988,1,0,0:0:0:0:
261,192,72457,1,0,0:0:0:0:
261,192,72926,1,0,0:0:0:0:
261,192,73160,1,8,0:0:0:0:
261,192,73219,1,8,0:0:0:0:
261,192,73277,1,8,0:0:0:0:
261,192,73395,1,0,0:0:0:0:
261,192,73629,1,0,0:0:0:0:
261,192,73863,1,0,0:0:0:0:
261,192,74098,1,0,0:0:0:0:
261,192,74332,1,0,0:0:0:0:
261,192,74566,1,0,0:0:0:0:
261,192,74801,1,0,0:0:0:0:
261,192,74918,1,0,0:0:0:0:
261,192,75035,1,0,0:0:0:0:
261,192,75152,1,0,0:0:0:0:
261,192,75270,1,0,0:0:0:0:
256,192,75504,12,0,76207,0:0:0:0:
261,192,77145,5,4,0:0:0:0:
261,192,77613,1,8,0:0:0:0:
261,192,77672,1,8,0:0:0:0:
261,192,77730,1,0,0:0:0:0:
261,192,77789,1,0,0:0:0:0:
261,192,77848,1,8,0:0:0:0:
261,192,77965,1,0,0:0:0:0:
261,192,78082,1,0,0:0:0:0:
261,192,78199,1,8,0:0:0:0:
261,192,78316,1,0,0:0:0:0:
261,192,78375,1,0,0:0:0:0:
261,192,78434,1,0,0:0:0:0:
261,192,78551,1,8,0:0:0:0:
261,192,78785,1,8,0:0:0:0:
261,192,78844,1,8,0:0:0:0:
261,192,78902,1,0,0:0:0:0:
261,192,79020,1,8,0:0:0:0:
261,192,79137,1,0,0:0:0:0:
261,192,79254,1,0,0:0:0:0:
261,192,79371,1,8,0:0:0:0:
261,192,79488,1,0,0:0:0:0:
261,192,79605,1,0,0:0:0:0:
261,192,79723,1,8,0:0:0:0:
261,192,79781,1,0,0:0:0:0:
261,192,79840,1,0,0:0:0:0:
261,192,79957,1,8,0:0:0:0:
261,192,80074,1,0,0:0:0:0:
261,192,80191,1,0,0:0:0:0:
261,192,80309,1,8,0:0:0:0:
261,192,80426,1,0,0:0:0:0:
261,192,80543,1,0,0:0:0:0:
261,192,80660,1,8,0:0:0:0:
261,192,80719,1,0,0:0:0:0:
261,192,80777,1,0,0:0:0:0:
261,192,80836,1,0,0:0:0:0:
261,192,80895,1,0,0:0:0:0:
261,192,81129,1,8,0:0:0:0:
261,192,81187,1,8,0:0:0:0:
261,192,81246,1,0,0:0:0:0:
261,192,81363,5,8,0:0:0:0:
261,192,81402,1,8,0:0:0:0:
261,192,81598,1,8,0:0:0:0:
261,192,81637,1,8,0:0:0:0:
261,192,81832,1,0,0:0:0:0:
261,192,82066,1,8,0:0:0:0:
261,192,82105,1,8,0:0:0:0:
261,192,82301,1,8,0:0:0:0:
261,192,82340,1,8,0:0:0:0:
261,192,82535,1,8,0:0:0:0:
261,192,82574,1,8,0:0:0:0:
261,192,82770,1,0,0:0:0:0:
261,192,82887,1,0,0:0:0:0:
261,192,83004,1,8,0:0:0:0:
261,192,83121,1,0,0:0:0:0:
261,192,83238,1,8,0:0:0:0:
261,192,83297,1,8,0:0:0:0:
261,192,83355,1,0,0:0:0:0:
261,192,83473,1,8,0:0:0:0:
261,192,83531,1,8,0:0:0:0:
261,192,83707,1,8,0:0:0:0:
261,192,83766,1,8,0:0:0:0:
261,192,83824,1,0,0:0:0:0:
261,192,83883,1,0,0:0:0:0:
261,192,83941,1,8,0:0:0:0:
261,192,84059,1,0,0:0:0:0:
261,192,84117,1,0,0:0:0:0:
261,192,84176,1,8,0:0:0:0:
261,192,84410,1,0,0:0:0:0:
261,192,84645,1,4,0:0:0:0:
261,192,84879,1,0,0:0:0:0:
261,192,85113,1,0,0:0:0:0:
261,192,85172,1,0,0:0:0:0:
261,192,85230,1,8,0:0:0:0:
261,192,85289,1,0,0:0:0:0:
261,192,85348,1,8,0:0:0:0:
261,192,85465,1,0,0:0:0:0:
261,192,85582,1,0,0:0:0:0:
261,192,85699,1,8,0:0:0:0:
261,192,85816,1,0,0:0:0:0:
261,192,85875,1,0,0:0:0:0:
261,192,85934,1,0,0:0:0:0:
261,192,86051,1,8,0:0:0:0:
261,192,86285,1,8,0:0:0:0:
261,192,86344,1,8,0:0:0:0:
261,192,86402,1,0,0:0:0:0:
261,192,86520,1,8,0:0:0:0:
261,192,86637,1,0,0:0:0:0:
261,192,86754,1,0,0:0:0:0:
261,192,86871,1,8,0:0:0:0:
261,192,86930,1,0,0:0:0:0:
261,192,86988,1,0,0:0:0:0:
261,192,87105,1,0,0:0:0:0:
261,192,87223,1,0,0:0:0:0:
261,192,87281,1,0,0:0:0:0:
261,192,87340,1,0,0:0:0:0:
261,192,87457,1,8,0:0:0:0:
261,192,87574,1,0,0:0:0:0:
261,192,87691,1,8,0:0:0:0:
261,192,87809,1,0,0:0:0:0:
261,192,87926,1,0,0:0:0:0:
261,192,87984,1,0,0:0:0:0:
261,192,88043,1,0,0:0:0:0:
261,192,88160,1,8,0:0:0:0:
261,192,88395,1,0,0:0:0:0:
261,192,88629,1,8,0:0:0:0:
261,192,88687,1,8,0:0:0:0:
261,192,88746,1,0,0:0:0:0:
261,192,88863,5,8,0:0:0:0:
323,210,88980,1,0,0:0:0:0:
261,192,89098,1,8,0:0:0:0:
261,192,89332,1,0,0:0:0:0:
261,192,89566,1,8,0:0:0:0:
261,192,89625,1,0,0:0:0:0:
261,192,89683,1,0,0:0:0:0:
261,192,89800,5,0,0:0:0:0:
261,192,90035,1,0,0:0:0:0:
261,192,90270,1,8,0:0:0:0:
261,192,90387,1,0,0:0:0:0:
261,192,90504,1,0,0:0:0:0:
261,192,90621,1,0,0:0:0:0:
261,192,90738,1,8,0:0:0:0:
261,192,90855,1,0,0:0:0:0:
261,192,90973,1,0,0:0:0:0:
261,192,91090,1,0,0:0:0:0:
261,192,91207,1,8,0:0:0:0:
261,192,91324,1,8,0:0:0:0:
261,192,91441,1,0,0:0:0:0:
261,192,91559,1,0,0:0:0:0:
261,192,91676,1,8,0:0:0:0:
261,192,91734,1,0,0:0:0:0:
261,192,91793,1,0,0:0:0:0:
261,192,91852,1,0,0:0:0:0:
261,192,91910,1,8,0:0:0:0:
261,192,91969,1,0,0:0:0:0:
261,192,92027,1,8,0:0:0:0:
261,192,92086,1,8,0:0:0:0:
261,192,92145,1,0,0:0:0:0:
261,192,92379,1,0,0:0:0:0:
261,192,92613,1,12,0:0:0:0:
261,192,92730,1,0,0:0:0:0:
261,192,92789,1,0,0:0:0:0:
261,192,92848,1,8,0:0:0:0:
261,192,92965,1,0,0:0:0:0:
261,192,93082,1,0,0:0:0:0:
261,192,93199,1,8,0:0:0:0:
261,192,93316,1,0,0:0:0:0:
261,192,93375,1,0,0:0:0:0:
261,192,93434,1,0,0:0:0:0:
261,192,93551,1,8,0:0:0:0:
261,192,93785,1,8,0:0:0:0:
261,192,93844,1,8,0:0:0:0:
261,192,93902,1,0,0:0:0:0:
261,192,94020,1,8,0:0:0:0:
261,192,94137,1,0,0:0:0:0:
261,192,94254,1,8,0:0:0:0:
261,192,94371,1,0,0:0:0:0:
261,192,94488,1,0,0:0:0:0:
261,192,94605,1,0,0:0:0:0:
261,192,94723,1,8,0:0:0:0:
261,192,94781,1,0,0:0:0:0:
261,192,94840,1,0,0:0:0:0:
261,192,94957,1,8,0:0:0:0:
231,142,95074,1,0,0:0:0:0:
261,192,95191,1,0,0:0:0:0:
261,192,95309,1,8,0:0:0:0:
261,192,95426,1,0,0:0:0:0:
261,192,95543,1,0,0:0:0:0:
261,192,95660,1,8,0:0:0:0:
261,192,95719,1,0,0:0:0:0:
261,192,95777,1,0,0:0:0:0:
261,192,95836,1,0,0:0:0:0:
261,192,95895,1,0,0:0:0:0:
261,192,96129,1,8,0:0:0:0:
261,192,96187,1,8,0:0:0:0:
261,192,96246,1,0,0:0:0:0:
261,192,96363,5,8,0:0:0:0:
261,192,96402,1,8,0:0:0:0:
261,192,96598,1,8,0:0:0:0:
261,192,96637,1,8,0:0:0:0:
261,192,96832,1,0,0:0:0:0:
261,192,97066,1,8,0:0:0:0:
261,192,97105,1,8,0:0:0:0:
261,192,97301,1,8,0:0:0:0:
261,192,97340,1,8,0:0:0:0:
261,192,97535,1,8,0:0:0:0:
261,192,97574,1,8,0:0:0:0:
261,192,97770,1,0,0:0:0:0:
261,192,97887,1,0,0:0:0:0:
261,192,98004,1,8,0:0:0:0:
261,192,98121,1,0,0:0:0:0:
261,192,98238,1,8,0:0:0:0:
261,192,98297,1,8,0:0:0:0:
261,192,98355,1,0,0:0:0:0:
261,192,98473,1,8,0:0:0:0:
261,192,98531,1,0,0:0:0:0:
261,182,98590,1,0,0:0:0:0:
261,192,98707,1,8,0:0:0:0:
261,192,98766,1,8,0:0:0:0:
261,192,98824,1,0,0:0:0:0:
261,192,98883,1,0,0:0:0:0:
261,192,98941,1,8,0:0:0:0:
261,192,99059,1,0,0:0:0:0:
261,192,99117,1,0,0:0:0:0:
261,192,99176,1,8,0:0:0:0:
261,192,99410,1,0,0:0:0:0:
261,192,99645,1,0,0:0:0:0:
261,192,99703,1,0,0:0:0:0:
261,192,99762,1,0,0:0:0:0:
261,192,99820,1,8,0:0:0:0:
261,192,99879,1,8,0:0:0:0:
261,192,99996,1,0,0:0:0:0:
261,192,100113,1,0,0:0:0:0:
261,192,100230,1,8,0:0:0:0:
261,192,100289,1,0,0:0:0:0:
261,192,100348,1,8,0:0:0:0:
261,192,100465,1,0,0:0:0:0:
261,192,100582,1,0,0:0:0:0:
261,192,100699,1,8,0:0:0:0:
261,192,100816,1,0,0:0:0:0:
261,192,100875,1,0,0:0:0:0:
261,192,100934,1,0,0:0:0:0:
261,192,101051,1,8,0:0:0:0:
261,192,101285,1,8,0:0:0:0:
261,192,101344,1,8,0:0:0:0:
261,192,101402,1,0,0:0:0:0:
261,192,101520,1,8,0:0:0:0:
261,192,101637,1,0,0:0:0:0:
261,192,101754,1,8,0:0:0:0:
261,192,101871,1,0,0:0:0:0:
261,192,101930,1,0,0:0:0:0:
261,192,101988,1,0,0:0:0:0:
261,192,102105,1,8,0:0:0:0:
261,192,102223,1,0,0:0:0:0:
261,192,102281,1,0,0:0:0:0:
261,192,102340,1,0,0:0:0:0:
261,192,102457,1,8,0:0:0:0:
261,192,102574,1,0,0:0:0:0:
261,192,102691,1,8,0:0:0:0:
261,192,102809,1,0,0:0:0:0:
261,192,102926,1,0,0:0:0:0:
261,192,102984,1,0,0:0:0:0:
261,192,103043,1,0,0:0:0:0:
261,192,103160,1,8,0:0:0:0:
261,192,103395,1,4,0:0:0:0:
261,192,105270,1,0,0:0:0:0:
261,192,105387,1,0,0:0:0:0:
261,192,105504,1,8,0:0:0:0:
261,192,105621,1,8,0:0:0:0:
261,192,105738,1,0,0:0:0:0:
261,192,105855,1,0,0:0:0:0:
261,192,105973,1,8,0:0:0:0:
261,192,106090,1,8,0:0:0:0:
261,192,106207,1,0,0:0:0:0:
261,192,106324,1,0,0:0:0:0:
261,192,106441,1,8,0:0:0:0:
261,192,106559,1,0,0:0:0:0:
261,192,106676,1,0,0:0:0:0:
261,192,106734,1,0,0:0:0:0:
261,192,106793,1,8,0:0:0:0:
261,192,106852,1,8,0:0:0:0:
261,192,106910,1,0,0:0:0:0:
261,192,106969,1,8,0:0:0:0:
261,192,107027,1,8,0:0:0:0:
261,192,107086,1,0,0:0:0:0:
261,192,107145,1,0,0:0:0:0:
261,192,107613,1,12,0:0:0:0:
261,192,108082,1,0,0:0:0:0:
261,192,108199,1,0,0:0:0:0:
261,192,108316,1,0,0:0:0:0:
261,192,108551,1,8,0:0:0:0:
261,192,108785,1,0,0:0:0:0:
261,192,109020,1,0,0:0:0:0:
261,192,109137,1,0,0:0:0:0:
261,192,109254,1,8,0:0:0:0:
261,192,109488,1,8,0:0:0:0:
261,192,109723,1,0,0:0:0:0:
261,192,109957,1,0,0:0:0:0:
261,192,110074,1,8,0:0:0:0:
261,192,110309,1,8,0:0:0:0:
261,192,110660,1,0,0:0:0:0:
261,192,110895,1,0,0:0:0:0:
261,192,111012,1,8,0:0:0:0:
261,192,111129,1,0,0:0:0:0:
261,192,111363,1,0,0:0:0:0:
261,192,111598,1,8,0:0:0:0:
261,192,111832,1,0,0:0:0:0:
261,192,111949,1,0,0:0:0:0:
261,192,112066,1,8,0:0:0:0:
261,192,112301,1,8,0:0:0:0:
261,192,112770,1,0,0:0:0:0:
261,192,112887,1,0,0:0:0:0:
261,192,113004,1,8,0:0:0:0:
261,192,113238,1,0,0:0:0:0:
261,192,113473,1,8,0:0:0:0:
261,192,113707,1,0,0:0:0:0:
261,192,113824,1,0,0:0:0:0:
261,192,113941,1,8,0:0:0:0:
261,192,114176,1,0,0:0:0:0:
261,192,114410,1,8,0:0:0:0:
261,192,114645,1,8,0:0:0:0:
261,192,114879,1,0,0:0:0:0:
261,192,115113,1,4,0:0:0:0:
261,192,115348,1,0,0:0:0:0:
261,192,115582,1,0,0:0:0:0:
261,192,115699,1,0,0:0:0:0:
261,192,115816,1,0,0:0:0:0:
261,192,116051,1,8,0:0:0:0:
261,192,116285,1,8,0:0:0:0:
261,192,116637,1,0,0:0:0:0:
261,192,116754,1,8,0:0:0:0:
261,192,116871,1,0,0:0:0:0:
261,192,116988,1,8,0:0:0:0:
261,192,117223,1,0,0:0:0:0:
261,192,117457,1,8,0:0:0:0:
261,192,117574,1,0,0:0:0:0:
261,192,117809,1,8,0:0:0:0:
261,192,118160,1,8,0:0:0:0:
261,192,118395,1,0,0:0:0:0:
261,192,118512,1,0,0:0:0:0:
261,192,118629,1,8,0:0:0:0:
261,192,118863,1,0,0:0:0:0:
261,192,119098,1,8,0:0:0:0:
261,192,119332,1,0,0:0:0:0:
261,192,119449,1,0,0:0:0:0:
261,192,119566,1,8,0:0:0:0:
261,192,119801,1,8,0:0:0:0:
261,192,120270,1,0,0:0:0:0:
261,192,120387,1,0,0:0:0:0:
261,192,120504,1,8,0:0:0:0:
261,192,120621,1,0,0:0:0:0:
261,192,120738,1,0,0:0:0:0:
261,192,120973,1,8,0:0:0:0:
261,192,121090,1,0,0:0:0:0:
261,192,121207,1,8,0:0:0:0:
261,192,121324,1,0,0:0:0:0:
261,192,121559,1,0,0:0:0:0:
261,192,121676,1,0,0:0:0:0:
261,192,121910,1,8,0:0:0:0:
261,192,122145,1,8,0:0:0:0:
261,192,122379,1,0,0:0:0:0:
261,192,122437,1,0,0:0:0:0:
261,192,122496,1,0,0:0:0:0:
261,192,122613,1,12,0:0:0:0:
261,192,123082,1,0,0:0:0:0:
261,192,123199,1,0,0:0:0:0:
261,192,123316,1,0,0:0:0:0:
261,192,123551,1,8,0:0:0:0:
261,192,124020,1,0,0:0:0:0:
261,192,124137,1,0,0:0:0:0:
261,192,124254,1,8,0:0:0:0:
261,192,124488,1,8,0:0:0:0:
261,192,124723,1,0,0:0:0:0:
261,192,124957,1,0,0:0:0:0:
261,192,125074,1,8,0:0:0:0:
261,192,125309,1,8,0:0:0:0:
261,192,125660,1,0,0:0:0:0:
261,192,125895,1,0,0:0:0:0:
261,192,126012,1,8,0:0:0:0:
261,192,126129,1,0,0:0:0:0:
261,192,126363,1,0,0:0:0:0:
261,192,126598,1,8,0:0:0:0:
261,192,126832,1,0,0:0:0:0:
261,192,126949,1,0,0:0:0:0:
261,192,127066,1,8,0:0:0:0:
261,192,127301,1,8,0:0:0:0:
261,192,127770,1,0,0:0:0:0:
261,192,127887,1,0,0:0:0:0:
261,192,128004,1,8,0:0:0:0:
261,192,128238,1,0,0:0:0:0:
261,192,128473,1,8,0:0:0:0:
261,192,128707,1,0,0:0:0:0:
261,192,128824,1,0,0:0:0:0:
261,192,128941,1,8,0:0:0:0:
261,192,129176,1,0,0:0:0:0:
261,192,129410,1,8,0:0:0:0:
261,192,129645,1,0,0:0:0:0:
261,192,129879,1,0,0:0:0:0:
261,192,130113,1,4,0:0:0:0:
261,192,130348,1,0,0:0:0:0:
261,192,130582,1,0,0:0:0:0:
261,192,130699,1,0,0:0:0:0:
261,192,130816,1,0,0:0:0:0:
261,192,131051,1,8,0:0:0:0:
261,192,131285,1,0,0:0:0:0:
261,192,131520,1,0,0:0:0:0:
261,192,131637,1,0,0:0:0:0:
261,192,131754,1,8,0:0:0:0:
261,192,131871,1,0,0:0:0:0:
261,192,131988,1,8,0:0:0:0:
261,192,132223,1,0,0:0:0:0:
261,192,132457,1,8,0:0:0:0:
261,192,132574,1,0,0:0:0:0:
261,192,132809,1,8,0:0:0:0:
261,192,133160,1,8,0:0:0:0:
261,192,133395,1,0,0:0:0:0:
261,192,133512,1,0,0:0:0:0:
261,192,133629,1,8,0:0:0:0:
261,192,133863,1,0,0:0:0:0:
261,192,134098,1,8,0:0:0:0:
261,192,134332,1,0,0:0:0:0:
261,192,134449,1,0,0:0:0:0:
261,192,134566,1,8,0:0:0:0:
261,192,134801,1,8,0:0:0:0:
261,192,135270,1,0,0:0:0:0:
261,192,135387,1,8,0:0:0:0:
261,192,135504,1,8,0:0:0:0:
261,192,135621,1,0,0:0:0:0:
261,192,135738,1,8,0:0:0:0:
261,192,135855,1,8,0:0:0:0:
261,192,135973,1,0,0:0:0:0:
261,192,136090,1,0,0:0:0:0:
261,192,136207,1,8,0:0:0:0:
261,192,136324,1,0,0:0:0:0:
261,192,136559,1,0,0:0:0:0:
261,192,136676,1,0,0:0:0:0:
261,192,136910,1,0,0:0:0:0:
261,192,137145,1,4,0:0:0:0:
261,192,142770,5,8,0:0:0:0:
261,192,143004,1,0,0:0:0:0:
263,219,143062,1,0,0:0:0:0:
261,192,143121,1,8,0:0:0:0:
304,229,143238,1,0,0:0:0:0:
263,219,143297,1,0,0:0:0:0:
261,192,143355,1,0,0:0:0:0:
261,192,143473,1,8,0:0:0:0:
261,192,143590,1,0,0:0:0:0:
261,192,143707,1,12,0:0:0:0:
261,192,143941,1,0,0:0:0:0:
261,192,144059,1,12,0:0:0:0:
261,192,144293,1,0,0:0:0:0:
261,192,144410,1,12,0:0:0:0:
261,192,144645,5,12,0:0:0:0:
261,192,145113,1,8,0:0:0:0:
261,192,145582,1,8,0:0:0:0:
261,192,146051,1,8,0:0:0:0:
261,192,146520,1,8,0:0:0:0:
261,192,146988,1,8,0:0:0:0:
261,192,147457,1,8,0:0:0:0:
261,192,147926,1,8,0:0:0:0:
261,192,148395,1,8,0:0:0:0:
261,192,148512,1,0,0:0:0:0:
261,192,148629,1,0,0:0:0:0:
261,192,148746,1,8,0:0:0:0:
261,192,148863,1,8,0:0:0:0:
261,192,148980,1,0,0:0:0:0:
261,192,149098,1,0,0:0:0:0:
261,192,149215,1,8,0:0:0:0:
261,192,149332,1,0,0:0:0:0:
261,192,149449,1,0,0:0:0:0:
261,192,149566,1,8,0:0:0:0:
261,192,149684,1,0,0:0:0:0:
261,192,149801,1,8,0:0:0:0:
261,192,149918,1,0,0:0:0:0:
261,192,150035,1,0,0:0:0:0:
261,192,150152,1,0,0:0:0:0:
261,192,150270,1,8,0:0:0:0:
261,192,150504,1,0,0:0:0:0:
261,192,150562,1,0,0:0:0:0:
261,192,150621,1,8,0:0:0:0:
261,192,150855,1,0,0:0:0:0:
261,192,150914,1,0,0:0:0:0:
261,192,150973,1,8,0:0:0:0:
261,192,151207,1,8,0:0:0:0:
261,192,151676,1,4,0:0:0:0:
261,192,152027,1,0,0:0:0:0:
261,192,152145,1,12,0:0:0:0:
261,192,152262,1,0,0:0:0:0:
261,192,152379,1,0,0:0:0:0:
261,192,152613,1,8,0:0:0:0:
261,192,152848,1,0,0:0:0:0:
261,192,152965,1,8,0:0:0:0:
261,192,153199,1,0,0:0:0:0:
261,192,153434,1,0,0:0:0:0:
261,192,153551,1,8,0:0:0:0:
261,192,153785,1,8,0:0:0:0:
261,192,154020,5,8,0:0:0:0:
261,192,154254,1,0,0:0:0:0:
261,192,154488,1,8,0:0:0:0:
261,192,154723,1,8,0:0:0:0:
261,192,154840,1,8,0:0:0:0:
261,192,155074,1,0,0:0:0:0:
261,192,155191,1,8,0:0:0:0:
261,192,155309,1,0,0:0:0:0:
261,192,155426,1,8,0:0:0:0:
261,192,155660,1,0,0:0:0:0:
261,192,155895,1,0,0:0:0:0:
261,192,156129,1,0,0:0:0:0:
261,192,156187,1,0,0:0:0:0:
261,192,156246,1,8,0:0:0:0:
261,192,156305,1,0,0:0:0:0:
261,192,156363,1,8,0:0:0:0:
261,192,156598,1,0,0:0:0:0:
261,192,156715,1,8,0:0:0:0:
261,192,156949,1,0,0:0:0:0:
261,192,157184,1,0,0:0:0:0:
261,192,157301,1,8,0:0:0:0:
261,192,157535,1,8,0:0:0:0:
261,192,157770,1,8,0:0:0:0:
261,192,157887,1,8,0:0:0:0:
261,192,158004,1,0,0:0:0:0:
261,192,158121,1,0,0:0:0:0:
261,192,158355,1,0,0:0:0:0:
261,192,158590,1,8,0:0:0:0:
261,192,158707,1,8,0:0:0:0:
261,192,158824,1,0,0:0:0:0:
261,192,158941,1,0,0:0:0:0:
261,192,159059,1,8,0:0:0:0:
261,192,159293,1,0,0:0:0:0:
261,192,159410,1,8,0:0:0:0:
261,192,159645,1,0,0:0:0:0:
261,192,159762,1,0,0:0:0:0:
261,192,159879,1,8,0:0:0:0:
261,192,159996,1,0,0:0:0:0:
261,192,160113,1,8,0:0:0:0:
261,192,160348,1,0,0:0:0:0:
261,192,160465,1,8,0:0:0:0:
261,192,160699,1,0,0:0:0:0:
261,192,160816,1,8,0:0:0:0:
261,192,161051,1,8,0:0:0:0:
261,192,161285,1,0,0:0:0:0:
261,192,161520,1,8,0:0:0:0:
261,192,161637,1,0,0:0:0:0:
261,192,161754,1,0,0:0:0:0:
261,192,161871,1,0,0:0:0:0:
261,192,161988,1,8,0:0:0:0:
261,192,162105,1,0,0:0:0:0:
261,192,162223,1,8,0:0:0:0:
261,192,162340,1,0,0:0:0:0:
261,192,162691,1,0,0:0:0:0:
261,192,162926,1,8,0:0:0:0:
261,192,163395,1,0,0:0:0:0:
261,192,163512,1,0,0:0:0:0:
261,192,163629,1,8,0:0:0:0:
261,192,163746,1,0,0:0:0:0:
261,192,163863,1,0,0:0:0:0:
261,192,163980,1,0,0:0:0:0:
261,192,164098,1,8,0:0:0:0:
261,192,164215,1,0,0:0:0:0:
261,192,164332,1,8,0:0:0:0:
261,192,164449,1,0,0:0:0:0:
261,192,164566,1,0,0:0:0:0:
261,192,164684,1,0,0:0:0:0:
261,192,164801,1,8,0:0:0:0:
261,192,164918,1,8,0:0:0:0:
261,192,165035,1,0,0:0:0:0:
261,192,165152,1,0,0:0:0:0:
261,192,165270,1,8,0:0:0:0:
261,192,165504,1,0,0:0:0:0:
261,192,165621,1,0,0:0:0:0:
261,192,165738,1,8,0:0:0:0:
261,192,165973,1,0,0:0:0:0:
261,192,166207,1,12,0:0:0:0:
309,60,166441,1,0,0:0:0:0:
261,192,166500,1,0,0:0:0:0:
261,192,166559,1,0,0:0:0:0:
261,192,166676,1,8,0:0:0:0:
261,192,166910,1,0,0:0:0:0:
261,192,167145,1,4,0:0:0:0:
261,192,167262,1,0,0:0:0:0:
261,192,167379,1,8,0:0:0:0:
261,192,167496,1,0,0:0:0:0:
261,192,167730,1,0,0:0:0:0:
261,192,167848,1,0,0:0:0:0:
261,192,167965,1,0,0:0:0:0:
261,192,168082,1,8,0:0:0:0:
261,192,168199,1,0,0:0:0:0:
261,192,168434,1,0,0:0:0:0:
261,192,168551,1,8,0:0:0:0:
326,217,168668,1,0,0:0:0:0:
261,192,168785,1,0,0:0:0:0:
261,192,169020,1,8,0:0:0:0:
261,192,169137,1,8,0:0:0:0:
261,192,169254,1,0,0:0:0:0:
261,192,169371,1,0,0:0:0:0:
261,192,169488,1,8,0:0:0:0:
261,192,169605,1,0,0:0:0:0:
261,192,169723,1,8,0:0:0:0:
261,192,169840,1,0,0:0:0:0:
261,192,169957,1,0,0:0:0:0:
261,192,170074,1,0,0:0:0:0:
261,192,170191,1,0,0:0:0:0:
261,192,170309,1,8,0:0:0:0:
261,192,170426,1,0,0:0:0:0:
261,192,170543,1,0,0:0:0:0:
261,192,170660,1,8,0:0:0:0:
261,192,170777,1,0,0:0:0:0:
261,192,170895,1,0,0:0:0:0:
261,192,171246,1,0,0:0:0:0:
261,192,171363,1,8,0:0:0:0:
261,192,171480,1,0,0:0:0:0:
261,192,171598,1,0,0:0:0:0:
261,192,171676,1,0,0:0:0:0:
261,192,171754,1,0,0:0:0:0:
261,192,171832,1,8,0:0:0:0:
261,192,171949,1,0,0:0:0:0:
261,192,172066,1,0,0:0:0:0:
261,192,172184,1,8,0:0:0:0:
261,192,172301,1,8,0:0:0:0:
261,192,172418,1,0,0:0:0:0:
261,192,172535,1,8,0:0:0:0:
261,192,172652,1,0,0:0:0:0:
261,192,172770,1,8,0:0:0:0:
261,192,172887,1,8,0:0:0:0:
261,192,173004,1,0,0:0:0:0:
261,192,173121,1,0,0:0:0:0:
261,192,173238,1,8,0:0:0:0:
261,192,173355,1,8,0:0:0:0:
261,192,173473,1,0,0:0:0:0:
261,192,173590,1,0,0:0:0:0:
261,192,173707,1,0,0:0:0:0:
261,192,173824,1,8,0:0:0:0:
261,192,173941,1,8,0:0:0:0:
261,192,174059,1,8,0:0:0:0:
261,192,174176,1,0,0:0:0:0:
261,192,174293,1,8,0:0:0:0:
261,192,174410,1,0,0:0:0:0:
261,192,174527,1,0,0:0:0:0:
261,192,174645,1,8,0:0:0:0:
261,192,174879,1,0,0:0:0:0:
261,192,175113,1,8,0:0:0:0:
261,192,175348,1,0,0:0:0:0:
261,192,175465,1,8,0:0:0:0:
261,192,175699,1,0,0:0:0:0:
261,192,175816,1,8,0:0:0:0:
261,192,175934,1,0,0:0:0:0:
261,192,176051,1,8,0:0:0:0:
261,192,176285,1,0,0:0:0:0:
261,192,176402,1,8,0:0:0:0:
261,192,176637,1,0,0:0:0:0:
261,192,176754,1,8,0:0:0:0:
261,192,176832,1,0,0:0:0:0:
261,192,176910,1,0,0:0:0:0:
261,192,176988,1,8,0:0:0:0:
325,173,177105,1,8,0:0:0:0:
261,192,177223,1,0,0:0:0:0:
261,192,177340,1,8,0:0:0:0:
261,192,177574,1,8,0:0:0:0:
261,172,177691,1,0,0:0:0:0:
261,192,177926,1,8,0:0:0:0:
261,192,178043,1,8,0:0:0:0:
261,192,178160,1,0,0:0:0:0:
261,192,178277,1,8,0:0:0:0:
261,192,178512,1,0,0:0:0:0:
261,192,178629,1,0,0:0:0:0:
261,192,178746,1,0,0:0:0:0:
261,192,178863,1,8,0:0:0:0:
261,192,178980,1,0,0:0:0:0:
261,192,179098,1,0,0:0:0:0:
261,192,179215,1,0,0:0:0:0:
261,192,179332,1,8,0:0:0:0:
261,192,179449,1,0,0:0:0:0:
261,192,179566,1,8,0:0:0:0:
261,192,179684,1,0,0:0:0:0:
261,192,179801,1,0,0:0:0:0:
261,192,179918,1,8,0:0:0:0:
261,192,180035,1,0,0:0:0:0:
261,192,180152,1,8,0:0:0:0:
261,192,180270,1,0,0:0:0:0:
261,192,180348,1,0,0:0:0:0:
261,192,180426,1,0,0:0:0:0:
261,192,180504,1,8,0:0:0:0:
261,192,180582,1,8,0:0:0:0:
261,192,180660,1,0,0:0:0:0:
261,192,180738,1,0,0:0:0:0:
261,192,180816,1,0,0:0:0:0:
261,192,180895,1,8,0:0:0:0:
261,192,180973,1,0,0:0:0:0:
261,192,181051,1,0,0:0:0:0:
261,192,181129,1,8,0:0:0:0:
261,192,181207,1,8,0:0:0:0:
295,137,181324,1,8,0:0:0:0:
260,193,181441,1,0,0:0:0:0:
295,138,181559,1,0,0:0:0:0:
262,190,181676,1,8,0:0:0:0:
261,192,181793,1,0,0:0:0:0:
261,192,181910,1,0,0:0:0:0:
261,192,182027,1,8,0:0:0:0:
261,192,182613,1,0,0:0:0:0:
261,192,183082,1,8,0:0:0:0:
261,192,183551,1,0,0:0:0:0:
261,192,184020,1,8,0:0:0:0:
261,192,184488,1,0,0:0:0:0:
261,192,184957,1,8,0:0:0:0:
261,192,185426,1,0,0:0:0:0:
261,192,185895,1,0,0:0:0:0:
261,192,186363,1,0,0:0:0:0:
261,192,186832,1,8,0:0:0:0:
261,192,187301,1,0,0:0:0:0:
261,192,187770,1,8,0:0:0:0:
261,192,188238,1,0,0:0:0:0:
261,192,188707,1,0,0:0:0:0:
261,192,189176,1,8,0:0:0:0:
261,192,189645,1,0,0:0:0:0:
261,192,190113,1,0,0:0:0:0:
261,192,190582,1,8,0:0:0:0:
261,192,191051,1,0,0:0:0:0:
261,192,191520,1,0,0:0:0:0:
261,192,191988,1,0,0:0:0:0:
261,192,192457,1,0,0:0:0:0:
261,192,192926,1,8,0:0:0:0:
261,192,193395,1,8,0:0:0:0:
261,192,193863,1,0,0:0:0:0:
261,192,194332,1,8,0:0:0:0:
261,192,194801,1,8,0:0:0:0:
261,192,195270,1,8,0:0:0:0:
261,192,195738,1,0,0:0:0:0:
261,192,196207,1,0,0:0:0:0:
261,192,196676,1,8,0:0:0:0:
261,192,197145,1,4,0:0:0:0:
261,192,197613,1,8,0:0:0:0:
261,192,198082,1,0,0:0:0:0:
261,192,198551,1,8,0:0:0:0:
261,192,199020,1,8,0:0:0:0:
261,192,199488,1,0,0:0:0:0:
261,192,199957,1,8,0:0:0:0:
261,192,200426,1,0,0:0:0:0:
261,192,200895,1,0,0:0:0:0:
261,192,201363,1,0,0:0:0:0:
261,192,201832,1,8,0:0:0:0:
261,192,202301,1,0,0:0:0:0:
261,192,202770,1,8,0:0:0:0:
261,192,203238,1,0,0:0:0:0:
261,192,203707,1,0,0:0:0:0:
261,192,204176,1,8,0:0:0:0:
261,192,204645,1,8,0:0:0:0:
261,192,205113,1,0,0:0:0:0:
261,192,205582,1,8,0:0:0:0:
261,192,206051,1,0,0:0:0:0:
261,192,206520,1,8,0:0:0:0:
261,192,206988,1,0,0:0:0:0:
261,192,207457,1,8,0:0:0:0:
261,192,207926,1,8,0:0:0:0:
261,192,208395,1,8,0:0:0:0:
261,192,208863,1,0,0:0:0:0:
261,192,209332,1,8,0:0:0:0:
261,192,209801,1,8,0:0:0:0:
261,192,210270,1,0,0:0:0:0:
261,192,210738,1,0,0:0:0:0:
261,192,211207,1,8,0:0:0:0:
261,192,211676,1,0,0:0:0:0:
261,192,212145,1,4,0:0:0:0:
256,196,219645,5,4,0:0:0:0:
261,192,225270,5,8,0:0:0:0:
261,192,225621,1,0,0:0:0:0:
304,229,225738,1,0,0:0:0:0:
261,192,225973,1,8,0:0:0:0:
261,192,226090,1,0,0:0:0:0:
261,192,226207,1,8,0:0:0:0:
261,192,226441,1,0,0:0:0:0:
261,192,226559,1,8,0:0:0:0:
261,192,226793,1,0,0:0:0:0:
261,192,226910,1,8,0:0:0:0:
261,192,227145,5,12,0:0:0:0:
261,192,227613,1,8,0:0:0:0:
261,192,228082,1,8,0:0:0:0:
261,192,228551,1,8,0:0:0:0:
261,192,229020,1,8,0:0:0:0:
261,192,229488,1,8,0:0:0:0:
261,192,229957,1,8,0:0:0:0:
261,192,230426,1,8,0:0:0:0:
261,192,230895,1,0,0:0:0:0:
261,192,231363,1,8,0:0:0:0:
261,192,231832,1,8,0:0:0:0:
261,192,232301,1,8,0:0:0:0:
261,192,232770,1,8,0:0:0:0:
261,192,233238,1,8,0:0:0:0:
261,192,233707,1,8,0:0:0:0:
261,192,234176,1,8,0:0:0:0:
261,192,234645,5,4,0:0:0:0:
261,192,234996,1,8,0:0:0:0:
261,192,235113,1,0,0:0:0:0:
261,192,235348,1,8,0:0:0:0:
261,192,235582,1,0,0:0:0:0:
261,192,235934,1,8,0:0:0:0:
261,192,236051,1,0,0:0:0:0:
261,192,236285,1,8,0:0:0:0:
261,192,236520,1,0,0:0:0:0:
261,192,236871,1,8,0:0:0:0:
261,192,236988,1,0,0:0:0:0:
261,192,237223,1,8,0:0:0:0:
261,192,237457,1,0,0:0:0:0:
261,192,237809,1,8,0:0:0:0:
261,192,237926,1,0,0:0:0:0:
261,192,238160,1,8,0:0:0:0:
261,192,238219,1,8,0:0:0:0:
261,192,238277,1,8,0:0:0:0:
261,192,238395,1,0,0:0:0:0:
261,192,238629,1,0,0:0:0:0:
261,192,238863,1,0,0:0:0:0:
261,192,239098,1,0,0:0:0:0:
261,192,239332,1,0,0:0:0:0:
282,193,239449,1,0,0:0:0:0:
261,192,239566,1,0,0:0:0:0:
261,192,239801,1,0,0:0:0:0:
261,192,239918,1,0,0:0:0:0:
261,192,240035,1,0,0:0:0:0:
261,192,240152,1,0,0:0:0:0:
261,192,240270,1,0,0:0:0:0:
256,192,240504,12,0,240973,0:0:0:0:
254,191,241207,5,0,0:0:0:0:
254,191,241441,1,0,0:0:0:0:
254,191,241676,1,0,0:0:0:0:
219,203,242145,5,4,0:0:0:0:
219,203,242379,1,8,0:0:0:0:
219,203,242437,1,8,0:0:0:0:
219,203,242496,1,0,0:0:0:0:
219,203,242555,1,0,0:0:0:0:
219,203,242730,1,0,0:0:0:0:
219,203,242848,1,8,0:0:0:0:
219,203,242965,1,8,0:0:0:0:
219,203,243199,1,8,0:0:0:0:
219,203,243434,1,0,0:0:0:0:
219,203,243492,1,0,0:0:0:0:
219,203,243551,1,0,0:0:0:0:
219,203,243668,1,0,0:0:0:0:
219,203,243785,1,8,0:0:0:0:
219,203,243902,1,8,0:0:0:0:
219,203,244137,1,8,0:0:0:0:
219,203,244371,1,0,0:0:0:0:
219,203,244430,1,0,0:0:0:0:
219,203,244605,1,8,0:0:0:0:
219,203,244723,1,8,0:0:0:0:
219,203,244840,1,0,0:0:0:0:
219,203,244957,1,0,0:0:0:0:
219,203,245074,1,0,0:0:0:0:
219,203,245191,1,8,0:0:0:0:
219,203,245309,1,0,0:0:0:0:
219,203,245426,1,8,0:0:0:0:
219,203,245543,1,8,0:0:0:0:
219,203,245660,1,0,0:0:0:0:
219,203,245777,1,0,0:0:0:0:
219,203,245895,1,12,0:0:0:0:
219,203,246129,5,0,0:0:0:0:
219,203,246363,1,0,0:0:0:0:
219,203,246480,1,0,0:0:0:0:
219,203,246598,1,0,0:0:0:0:
219,203,246715,1,8,0:0:0:0:
219,203,246949,1,8,0:0:0:0:
219,203,247184,1,0,0:0:0:0:
219,203,247242,1,0,0:0:0:0:
219,203,247301,1,0,0:0:0:0:
219,203,247418,1,0,0:0:0:0:
219,203,247535,1,0,0:0:0:0:
219,203,247652,1,8,0:0:0:0:
219,203,247770,1,0,0:0:0:0:
219,203,248004,1,0,0:0:0:0:
219,203,248238,1,8,0:0:0:0:
219,203,248355,5,8,0:0:0:0:
219,203,248473,1,0,0:0:0:0:
219,203,248590,1,8,0:0:0:0:
219,203,248824,1,0,0:0:0:0:
219,203,248941,1,0,0:0:0:0:
219,203,249059,1,8,0:0:0:0:
219,203,249293,1,8,0:0:0:0:
219,203,249410,1,0,0:0:0:0:
219,203,249527,1,8,0:0:0:0:
219,203,249645,1,4,0:0:0:0:
219,203,249879,1,8,0:0:0:0:
219,203,249996,1,0,0:0:0:0:
219,203,250055,1,0,0:0:0:0:
219,203,250230,1,0,0:0:0:0:
219,203,250348,1,0,0:0:0:0:
219,203,250465,1,8,0:0:0:0:
219,203,250699,1,8,0:0:0:0:
219,203,250934,1,0,0:0:0:0:
219,203,250992,1,0,0:0:0:0:
219,203,251051,1,0,0:0:0:0:
219,203,251168,1,0,0:0:0:0:
219,203,251285,1,0,0:0:0:0:
219,203,251402,1,8,0:0:0:0:
219,203,251637,1,8,0:0:0:0:
219,203,251871,1,0,0:0:0:0:
219,203,251930,1,0,0:0:0:0:
219,203,251988,1,8,0:0:0:0:
219,203,252223,1,12,0:0:0:0:
219,203,252457,1,12,0:0:0:0:
219,203,252691,1,8,0:0:0:0:
219,203,252809,1,0,0:0:0:0:
219,203,252926,1,8,0:0:0:0:
219,203,253160,1,12,0:0:0:0:
219,203,253395,1,4,0:0:0:0:
219,203,253863,1,4,0:0:0:0:
219,203,254098,1,4,0:0:0:0:
219,203,254215,1,4,0:0:0:0:
219,203,254449,1,4,0:0:0:0:
219,203,254684,1,4,0:0:0:0:
219,203,254801,1,4,0:0:0:0:
219,203,255035,1,4,0:0:0:0:
219,203,255270,1,0,0:0:0:0:
276,220,255387,1,0,0:0:0:0:
283,378,255504,1,8,0:0:0:0:
289,223,255621,1,0,0:0:0:0:
153,188,255973,1,8,0:0:0:0:
239,210,256090,1,0,0:0:0:0:
239,210,256207,1,8,0:0:0:0:
239,210,256441,1,8,0:0:0:0:
239,210,256676,1,0,0:0:0:0:
239,210,256793,1,8,0:0:0:0:
239,210,256852,1,8,0:0:0:0:
239,210,256910,1,0,0:0:0:0:
239,210,256969,1,0,0:0:0:0:
239,210,257027,1,8,0:0:0:0:
219,203,257145,5,4,0:0:0:0:
219,203,257379,1,0,0:0:0:0:
219,203,257437,1,0,0:0:0:0:
219,203,257496,1,0,0:0:0:0:
219,203,257555,1,0,0:0:0:0:
219,203,257730,1,0,0:0:0:0:
219,203,257848,1,8,0:0:0:0:
219,203,257965,1,8,0:0:0:0:
219,203,258199,1,8,0:0:0:0:
219,203,258434,1,0,0:0:0:0:
219,203,258492,1,0,0:0:0:0:
219,203,258551,1,0,0:0:0:0:
219,203,258668,1,0,0:0:0:0:
219,203,258785,1,8,0:0:0:0:
219,203,258902,1,8,0:0:0:0:
219,203,259137,1,8,0:0:0:0:
219,203,259371,1,0,0:0:0:0:
219,203,259430,1,0,0:0:0:0:
219,203,259605,1,8,0:0:0:0:
219,203,259723,1,8,0:0:0:0:
219,203,259840,1,0,0:0:0:0:
219,203,259957,1,0,0:0:0:0:
219,203,260074,1,0,0:0:0:0:
219,203,260191,1,8,0:0:0:0:
219,203,260309,1,0,0:0:0:0:
219,203,260426,1,8,0:0:0:0:
219,203,260543,1,8,0:0:0:0:
219,203,260660,1,0,0:0:0:0:
219,203,260777,1,0,0:0:0:0:
219,203,260895,1,12,0:0:0:0:
219,203,261129,5,0,0:0:0:0:
219,203,261363,1,0,0:0:0:0:
219,203,261480,1,0,0:0:0:0:
219,203,261598,1,0,0:0:0:0:
219,203,261715,1,8,0:0:0:0:
219,203,261949,1,8,0:0:0:0:
219,203,262184,1,0,0:0:0:0:
219,203,262242,1,0,0:0:0:0:
219,203,262301,1,0,0:0:0:0:
219,203,262418,1,0,0:0:0:0:
219,203,262535,1,0,0:0:0:0:
219,203,262652,1,8,0:0:0:0:
219,203,262770,1,8,0:0:0:0:
219,203,262828,1,8,0:0:0:0:
219,203,262887,1,0,0:0:0:0:
219,203,262945,1,0,0:0:0:0:
219,203,263004,1,8,0:0:0:0:
219,203,263121,1,0,0:0:0:0:
219,203,263238,1,8,0:0:0:0:
219,203,263355,5,0,0:0:0:0:
219,203,263473,1,0,0:0:0:0:
219,203,263590,1,0,0:0:0:0:
219,203,263707,1,8,0:0:0:0:
219,203,263824,1,0,0:0:0:0:
219,203,263941,1,0,0:0:0:0:
219,203,264059,1,0,0:0:0:0:
219,203,264176,1,8,0:0:0:0:
219,203,264293,1,8,0:0:0:0:
219,203,264410,1,0,0:0:0:0:
219,203,264527,1,0,0:0:0:0:
219,203,264645,1,12,0:0:0:0:
219,203,264879,1,0,0:0:0:0:
219,203,264996,1,0,0:0:0:0:
219,203,265055,1,0,0:0:0:0:
219,203,265230,1,0,0:0:0:0:
219,203,265348,1,0,0:0:0:0:
219,203,265465,1,8,0:0:0:0:
219,203,265699,1,8,0:0:0:0:
219,203,265934,1,0,0:0:0:0:
219,203,265992,1,0,0:0:0:0:
219,203,266051,1,0,0:0:0:0:
219,203,266168,1,0,0:0:0:0:
219,203,266285,1,0,0:0:0:0:
219,203,266402,1,8,0:0:0:0:
219,203,266637,1,8,0:0:0:0:
219,203,266871,1,0,0:0:0:0:
219,203,266930,1,0,0:0:0:0:
219,203,266988,1,8,0:0:0:0:
219,203,267223,1,12,0:0:0:0:
219,203,267457,1,12,0:0:0:0:
219,203,267691,1,8,0:0:0:0:
219,203,267770,1,0,0:0:0:0:
219,203,267848,1,0,0:0:0:0:
219,203,267926,1,8,0:0:0:0:
219,203,268004,1,8,0:0:0:0:
219,203,268082,1,8,0:0:0:0:
219,203,268160,1,0,0:0:0:0:
219,203,268238,1,0,0:0:0:0:
219,203,268316,1,0,0:0:0:0:
219,203,268395,1,12,0:0:0:0:
256,192,268629,12,0,270035,0:0:0:0:
261,192,270270,5,0,0:0:0:0:
261,192,270387,1,0,0:0:0:0:
261,192,270504,1,8,0:0:0:0:
261,192,270621,1,8,0:0:0:0:
261,192,270738,1,0,0:0:0:0:
261,192,270855,1,0,0:0:0:0:
261,192,270973,1,8,0:0:0:0:
261,192,271090,1,8,0:0:0:0:
261,192,271207,1,0,0:0:0:0:
261,192,271324,1,0,0:0:0:0:
261,192,271441,5,8,0:0:0:0:
261,192,271559,1,0,0:0:0:0:
261,192,271676,1,0,0:0:0:0:
261,192,271734,1,0,0:0:0:0:
261,192,271793,1,8,0:0:0:0:
261,192,271852,1,8,0:0:0:0:
261,192,271910,1,0,0:0:0:0:
261,192,271969,1,0,0:0:0:0:
261,192,272027,1,8,0:0:0:0:
261,192,272086,1,0,0:0:0:0:
261,192,272145,1,0,0:0:0:0:
261,192,272613,5,12,0:0:0:0:
261,192,273082,1,0,0:0:0:0:
261,192,273199,1,0,0:0:0:0:
261,192,273316,1,0,0:0:0:0:
261,192,273551,1,8,0:0:0:0:
261,192,273785,1,0,0:0:0:0:
261,192,274020,1,0,0:0:0:0:
261,192,274137,1,0,0:0:0:0:
261,192,274254,1,8,0:0:0:0:
261,192,274488,1,8,0:0:0:0:
261,192,274723,1,0,0:0:0:0:
261,192,274957,1,0,0:0:0:0:
261,192,275074,1,8,0:0:0:0:
261,192,275309,1,8,0:0:0:0:
261,192,275660,1,0,0:0:0:0:
261,192,275895,1,0,0:0:0:0:
261,192,276012,1,8,0:0:0:0:
261,192,276129,1,0,0:0:0:0:
261,192,276363,1,0,0:0:0:0:
261,192,276598,1,8,0:0:0:0:
261,192,276832,1,0,0:0:0:0:
261,192,276949,1,0,0:0:0:0:
261,192,277066,1,8,0:0:0:0:
261,192,277301,1,8,0:0:0:0:
261,192,277770,1,0,0:0:0:0:
261,192,277887,1,0,0:0:0:0:
261,192,278004,1,8,0:0:0:0:
261,192,278238,1,0,0:0:0:0:
261,192,278473,1,8,0:0:0:0:
261,192,278707,1,0,0:0:0:0:
261,192,278824,1,0,0:0:0:0:
261,192,278941,1,8,0:0:0:0:
261,192,279176,1,0,0:0:0:0:
261,192,279410,1,8,0:0:0:0:
261,192,279645,1,8,0:0:0:0:
261,192,279879,1,0,0:0:0:0:
261,192,280113,1,4,0:0:0:0:
261,192,280582,1,0,0:0:0:0:
261,192,280699,1,0,0:0:0:0:
261,192,280816,1,0,0:0:0:0:
261,192,281051,1,8,0:0:0:0:
261,192,281285,1,8,0:0:0:0:
261,192,281637,1,0,0:0:0:0:
261,192,281754,1,8,0:0:0:0:
261,192,281871,1,0,0:0:0:0:
261,192,281988,1,8,0:0:0:0:
261,192,282223,1,0,0:0:0:0:
261,192,282457,1,8,0:0:0:0:
261,192,282574,1,0,0:0:0:0:
261,192,282809,1,8,0:0:0:0:
261,192,283160,1,8,0:0:0:0:
261,192,283395,1,0,0:0:0:0:
261,192,283512,1,0,0:0:0:0:
261,192,283629,1,8,0:0:0:0:
261,192,283863,1,0,0:0:0:0:
261,192,284098,1,8,0:0:0:0:
261,192,284332,1,0,0:0:0:0:
261,192,284449,1,0,0:0:0:0:
261,192,284566,1,8,0:0:0:0:
261,192,284801,1,8,0:0:0:0:
261,192,285270,1,0,0:0:0:0:
261,192,285387,1,0,0:0:0:0:
261,192,285504,1,8,0:0:0:0:
261,192,285621,1,0,0:0:0:0:
261,192,285738,1,0,0:0:0:0:
261,192,285973,1,8,0:0:0:0:
261,192,286090,1,0,0:0:0:0:
261,192,286207,1,8,0:0:0:0:
261,192,286324,1,0,0:0:0:0:
261,192,286559,1,0,0:0:0:0:
261,192,286676,1,0,0:0:0:0:
261,192,286793,1,8,0:0:0:0:
261,192,286852,1,0,0:0:0:0:
261,192,286910,1,0,0:0:0:0:
261,192,287027,1,0,0:0:0:0:
261,192,287145,1,8,0:0:0:0:
261,192,287379,1,0,0:0:0:0:
261,192,287613,1,4,0:0:0:0:
261,192,287848,1,0,0:0:0:0:
261,192,288082,1,0,0:0:0:0:
261,192,288199,1,0,0:0:0:0:
261,192,288316,1,0,0:0:0:0:
261,192,288551,1,8,0:0:0:0:
261,192,288785,1,0,0:0:0:0:
261,192,289020,1,0,0:0:0:0:
261,192,289137,1,0,0:0:0:0:
261,192,289254,1,8,0:0:0:0:
261,192,289488,1,8,0:0:0:0:
261,192,289723,1,0,0:0:0:0:
261,192,289957,1,0,0:0:0:0:
261,192,290074,1,8,0:0:0:0:
261,192,290191,1,0,0:0:0:0:
261,192,290309,1,8,0:0:0:0:
261,192,290426,1,0,0:0:0:0:
261,192,290543,1,0,0:0:0:0:
261,192,290660,1,8,0:0:0:0:
261,192,290895,1,0,0:0:0:0:
261,192,291129,1,8,0:0:0:0:
261,192,291363,1,0,0:0:0:0:
261,192,291480,1,0,0:0:0:0:
261,192,291598,1,8,0:0:0:0:
261,192,291832,1,0,0:0:0:0:
261,192,291949,1,0,0:0:0:0:
261,192,292066,1,8,0:0:0:0:
261,192,292301,1,8,0:0:0:0:
261,192,292770,1,0,0:0:0:0:
261,192,292887,1,0,0:0:0:0:
261,192,293004,1,8,0:0:0:0:
261,192,293238,1,0,0:0:0:0:
261,192,293473,1,8,0:0:0:0:
261,192,293707,1,0,0:0:0:0:
261,192,293824,1,0,0:0:0:0:
261,192,293941,1,8,0:0:0:0:
261,192,294176,1,0,0:0:0:0:
261,192,294410,1,8,0:0:0:0:
261,192,294645,1,0,0:0:0:0:
261,192,294879,1,0,0:0:0:0:
261,192,295113,1,4,0:0:0:0:
261,192,295348,1,0,0:0:0:0:
261,192,295582,1,0,0:0:0:0:
261,192,295699,1,0,0:0:0:0:
261,192,295816,1,0,0:0:0:0:
261,192,296051,1,8,0:0:0:0:
261,192,296285,1,0,0:0:0:0:
261,192,296520,1,0,0:0:0:0:
261,192,296637,1,0,0:0:0:0:
261,192,296754,1,8,0:0:0:0:
261,192,296871,1,0,0:0:0:0:
261,192,296988,1,8,0:0:0:0:
261,192,297223,1,0,0:0:0:0:
261,192,297457,1,8,0:0:0:0:
261,192,297574,1,0,0:0:0:0:
261,192,297809,1,8,0:0:0:0:
261,192,298160,1,8,0:0:0:0:
261,192,298395,1,0,0:0:0:0:
261,192,298512,1,0,0:0:0:0:
261,192,298629,1,8,0:0:0:0:
261,192,298863,1,0,0:0:0:0:
261,192,299098,1,8,0:0:0:0:
261,192,299332,1,0,0:0:0:0:
261,192,299449,1,0,0:0:0:0:
261,192,299566,1,8,0:0:0:0:
261,192,299801,1,8,0:0:0:0:
261,192,300270,1,0,0:0:0:0:
261,192,300387,1,8,0:0:0:0:
261,192,300504,1,8,0:0:0:0:
261,192,300621,1,0,0:0:0:0:
261,192,300738,1,8,0:0:0:0:
261,192,300855,1,8,0:0:0:0:
261,192,300973,1,0,0:0:0:0:
261,192,301090,1,0,0:0:0:0:
261,192,301207,1,8,0:0:0:0:
261,192,301324,1,0,0:0:0:0:
261,192,301441,1,0,0:0:0:0:
261,192,301559,1,0,0:0:0:0:
261,192,301676,1,8,0:0:0:0:
261,192,301793,1,8,0:0:0:0:
261,192,301910,1,0,0:0:0:0:
261,192,302027,1,0,0:0:0:0:
261,192,302145,1,12,0:0:0:0:
261,192,302379,1,0,0:0:0:0:
261,192,302613,1,8,0:0:0:0:
261,192,302848,1,0,0:0:0:0:
261,192,303082,1,8,0:0:0:0:
261,192,303199,1,0,0:0:0:0:
261,192,303316,1,0,0:0:0:0:
261,192,303551,1,8,0:0:0:0:
261,192,303785,1,0,0:0:0:0:
261,192,304020,1,0,0:0:0:0:
261,192,304137,1,8,0:0:0:0:
261,192,304254,1,8,0:0:0:0:
261,192,304371,1,0,0:0:0:0:
261,192,304488,1,8,0:0:0:0:
261,192,304723,1,0,0:0:0:0:
261,192,304957,1,0,0:0:0:0:
261,192,305074,1,8,0:0:0:0:
261,192,305309,1,8,0:0:0:0:
261,192,305660,1,0,0:0:0:0:
261,192,305895,1,0,0:0:0:0:
261,192,306012,1,8,0:0:0:0:
261,192,306129,1,0,0:0:0:0:
261,192,306363,1,0,0:0:0:0:
261,192,306598,1,8,0:0:0:0:
261,192,306832,1,0,0:0:0:0:
261,192,306949,1,0,0:0:0:0:
261,192,307066,1,8,0:0:0:0:
261,192,307301,1,8,0:0:0:0:
261,192,307770,1,0,0:0:0:0:
261,192,307887,1,0,0:0:0:0:
261,192,308004,1,8,0:0:0:0:
261,192,308238,1,0,0:0:0:0:
261,192,308473,1,8,0:0:0:0:
261,192,308707,1,0,0:0:0:0:
261,192,308824,1,0,0:0:0:0:
261,192,308941,1,8,0:0:0:0:
261,192,309176,1,0,0:0:0:0:
261,192,309410,1,8,0:0:0:0:
261,192,309645,1,8,0:0:0:0:
261,192,309879,1,0,0:0:0:0:
261,192,310113,1,8,0:0:0:0:
261,192,310348,1,0,0:0:0:0:
261,192,310582,1,8,0:0:0:0:
261,192,310699,1,0,0:0:0:0:
261,192,310816,1,0,0:0:0:0:
261,192,311051,1,8,0:0:0:0:
261,192,311285,1,8,0:0:0:0:
261,192,311637,1,0,0:0:0:0:
261,192,311754,1,8,0:0:0:0:
261,192,311871,1,0,0:0:0:0:
261,192,311988,1,8,0:0:0:0:
261,192,312223,1,0,0:0:0:0:
261,192,312457,1,8,0:0:0:0:
261,192,312574,1,0,0:0:0:0:
261,192,312809,1,8,0:0:0:0:
261,192,313160,1,8,0:0:0:0:
261,192,313395,1,0,0:0:0:0:
261,192,313512,1,0,0:0:0:0:
261,192,313629,1,8,0:0:0:0:
261,192,313863,1,0,0:0:0:0:
261,192,314098,1,8,0:0:0:0:
261,192,314332,1,0,0:0:0:0:
261,192,314449,1,0,0:0:0:0:
261,192,314566,1,8,0:0:0:0:
261,192,314801,1,8,0:0:0:0:
261,192,315270,1,0,0:0:0:0:
261,192,315387,1,0,0:0:0:0:
261,192,315504,1,8,0:0:0:0:
261,192,315621,1,0,0:0:0:0:
220,160,315738,1,0,0:0:0:0:
261,192,315973,1,8,0:0:0:0:
261,192,316090,1,0,0:0:0:0:
261,192,316207,1,8,0:0:0:0:
261,192,316324,1,0,0:0:0:0:
261,192,316559,1,0,0:0:0:0:
261,192,316676,1,0,0:0:0:0:
261,192,316793,1,8,0:0:0:0:
261,192,316910,1,0,0:0:0:0:
261,192,317145,1,8,0:0:0:0:
261,192,317379,1,0,0:0:0:0:
261,192,317613,1,4,0:0:0:0:
261,192,318082,1,0,0:0:0:0:
261,192,318199,1,8,0:0:0:0:
261,192,318316,1,0,0:0:0:0:
261,192,318551,1,8,0:0:0:0:
261,192,318785,1,8,0:0:0:0:
261,192,319020,1,8,0:0:0:0:
261,192,319137,1,0,0:0:0:0:
261,192,319254,1,0,0:0:0:0:
261,192,319488,1,8,0:0:0:0:
261,192,319723,1,0,0:0:0:0:
261,192,319957,1,0,0:0:0:0:
261,192,320074,1,8,0:0:0:0:
261,192,320309,1,8,0:0:0:0:
261,192,320660,1,0,0:0:0:0:
261,192,320895,1,0,0:0:0:0:
261,192,321012,1,8,0:0:0:0:
261,192,321129,1,0,0:0:0:0:
261,192,321363,1,0,0:0:0:0:
261,192,321598,1,8,0:0:0:0:
261,192,321832,1,0,0:0:0:0:
261,192,321949,1,0,0:0:0:0:
261,192,322066,1,8,0:0:0:0:
261,192,322301,1,8,0:0:0:0:
261,192,322770,1,0,0:0:0:0:
261,192,322887,1,0,0:0:0:0:
261,192,323004,1,8,0:0:0:0:
261,192,323238,1,0,0:0:0:0:
261,192,323473,1,8,0:0:0:0:
261,192,323707,1,0,0:0:0:0:
261,192,323824,1,0,0:0:0:0:
261,192,323941,1,8,0:0:0:0:
261,192,324176,1,0,0:0:0:0:
267,193,324293,1,0,0:0:0:0:
261,192,324410,1,8,0:0:0:0:
267,193,324527,1,0,0:0:0:0:
261,192,324645,1,0,0:0:0:0:
261,192,324879,1,0,0:0:0:0:
261,192,325113,1,4,0:0:0:0:
261,192,325348,1,0,0:0:0:0:
261,192,325582,1,0,0:0:0:0:
261,192,325699,1,0,0:0:0:0:
261,192,325816,1,0,0:0:0:0:
261,192,326051,1,8,0:0:0:0:
261,192,326285,1,0,0:0:0:0:
261,192,326520,1,0,0:0:0:0:
261,192,326637,1,0,0:0:0:0:
261,192,326754,1,8,0:0:0:0:
261,192,326871,1,0,0:0:0:0:
261,192,326988,1,8,0:0:0:0:
261,192,327223,1,0,0:0:0:0:
261,192,327457,1,8,0:0:0:0:
261,192,327574,1,0,0:0:0:0:
261,192,327809,1,8,0:0:0:0:
261,192,328160,1,8,0:0:0:0:
261,192,328395,1,0,0:0:0:0:
261,192,328512,1,0,0:0:0:0:
261,192,328629,1,8,0:0:0:0:
261,192,328863,1,0,0:0:0:0:
261,192,329098,1,8,0:0:0:0:
261,192,329332,1,0,0:0:0:0:
261,192,329449,1,0,0:0:0:0:
261,192,329566,1,8,0:0:0:0:
261,192,329801,1,8,0:0:0:0:
261,192,330035,1,0,0:0:0:0:
261,192,330270,1,0,0:0:0:0:
261,192,330387,1,8,0:0:0:0:
261,192,330504,1,8,0:0:0:0:
261,192,330621,1,0,0:0:0:0:
261,192,330738,1,8,0:0:0:0:
261,192,330855,1,8,0:0:0:0:
261,192,330973,1,0,0:0:0:0:
261,192,331090,1,0,0:0:0:0:
261,192,331207,1,8,0:0:0:0:
261,192,331324,1,0,0:0:0:0:
245,197,331441,1,0,0:0:0:0:
267,193,331559,1,8,0:0:0:0:
261,192,331676,1,0,0:0:0:0:
267,193,331793,1,8,0:0:0:0:
261,192,331910,1,0,0:0:0:0:
261,192,332145,5,8,0:0:0:0:
261,192,332379,1,0,0:0:0:0:
261,192,332848,1,8,0:0:0:0:
261,192,333082,1,0,0:0:0:0:
261,192,333199,1,8,0:0:0:0:
261,192,333434,1,0,0:0:0:0:
261,192,334020,1,8,0:0:0:0:
261,192,334254,1,0,0:0:0:0:
261,192,334723,1,8,0:0:0:0:
261,192,334840,5,0,0:0:0:0:
261,192,334898,1,0,0:0:0:0:
261,192,334957,1,8,0:0:0:0:
261,192,335191,1,8,0:0:0:0:
261,192,335309,1,0,0:0:0:0:
261,192,335543,1,8,0:0:0:0:
261,192,335660,1,0,0:0:0:0:
261,192,335895,1,8,0:0:0:0:
261,192,336129,1,0,0:0:0:0:
261,192,336598,1,8,0:0:0:0:
261,192,336832,1,0,0:0:0:0:
261,192,337066,1,8,0:0:0:0:
261,192,337184,1,8,0:0:0:0:
261,192,337770,1,8,0:0:0:0:
261,192,337887,1,8,0:0:0:0:
261,192,338121,1,0,0:0:0:0:
261,192,338355,1,8,0:0:0:0:
261,192,338473,1,0,0:0:0:0:
261,192,338707,1,8,0:0:0:0:
261,192,338824,1,8,0:0:0:0:
261,192,339059,1,0,0:0:0:0:
261,192,339410,1,0,0:0:0:0:
261,192,339645,1,8,0:0:0:0:
261,192,339879,1,0,0:0:0:0:
261,192,339996,1,0,0:0:0:0:
261,192,340348,1,8,0:0:0:0:
261,192,340582,1,0,0:0:0:0:
261,192,340699,1,8,0:0:0:0:
261,192,340934,1,0,0:0:0:0:
261,192,341520,1,8,0:0:0:0:
261,192,341754,1,0,0:0:0:0:
261,192,342223,1,0,0:0:0:0:
261,192,342340,5,0,0:0:0:0:
261,192,342398,1,0,0:0:0:0:
261,192,342457,1,8,0:0:0:0:
261,192,342691,1,8,0:0:0:0:
261,192,342809,1,0,0:0:0:0:
261,192,343043,1,8,0:0:0:0:
261,192,343160,1,0,0:0:0:0:
261,192,343395,1,8,0:0:0:0:
261,192,343629,1,0,0:0:0:0:
261,192,343746,1,0,0:0:0:0:
261,192,344098,1,8,0:0:0:0:
261,192,344215,1,0,0:0:0:0:
261,192,344332,1,8,0:0:0:0:
261,192,344449,1,8,0:0:0:0:
261,192,344566,1,0,0:0:0:0:
261,192,344684,1,8,0:0:0:0:
261,192,345270,1,8,0:0:0:0:
261,192,345387,1,8,0:0:0:0:
261,192,345621,1,0,0:0:0:0:
261,192,345855,1,0,0:0:0:0:
261,192,345973,1,8,0:0:0:0:
261,192,346090,1,0,0:0:0:0:
261,192,346207,1,8,0:0:0:0:
261,192,346324,1,8,0:0:0:0:
261,192,346441,1,0,0:0:0:0:
261,192,346500,1,0,0:0:0:0:
261,192,346559,1,8,0:0:0:0:
261,192,346793,1,0,0:0:0:0:
261,192,346910,1,8,0:0:0:0:
261,192,346969,1,8,0:0:0:0:
261,192,347027,1,0,0:0:0:0:
261,192,347145,1,0,0:0:0:0:
