osu file format v14

[General]
AudioFilename: audio.mp3
AudioLeadIn: 0
PreviewTime: 241178
Countdown: 0
SampleSet: Normal
StackLeniency: 0.7
Mode: 2
LetterboxInBreaks: 0
WidescreenStoryboard: 0

[Editor]
Bookmarks: 17145,32145,47145,77613,107613,137145,152145,167145,182145,197145,212145,219645,242145,253395,257145,268395,272613,332145,347145
DistanceSpacing: 2.2
BeatDivisor: 8
GridSize: 4
TimelineZoom: 2.9

[Metadata]
Title:Space Invaders
TitleUnicode:Space Invaders
Artist:Teminite & MDK
ArtistUnicode:Teminite & MDK
Creator:Dapuluous
Version:Global Catastrophic Alert!
Source:osu!
Tags:fa featured artists instrumental electronic electrostep electro house dubstep complextro absolute zero jbh jbhyperion dora- doraemonelf
BeatmapID:2361844
BeatmapSetID:1130689

[Difficulty]
HPDrainRate:6
CircleSize:3.5
OverallDifficulty:9.5
ApproachRate:9.5
SliderMultiplier:2.99999990463257
SliderTickRate:2

[Events]
//Background and Video events
0,0,"Alien Invasion.jpg",0,0
//Break Periods
//Storyboard Layer 0 (Background)
//Storyboard Layer 1 (Fail)
//Storyboard Layer 2 (Pass)
//Storyboard Layer 3 (Foreground)
//Storyboard Layer 4 (Overlay)
//Storyboard Sound Samples

[TimingPoints]
2153,468.75,4,2,2,60,1,0
2153,-100,4,2,2,60,0,0
9067,-76.9230769230769,4,2,2,60,0,0
9418,-66.6666666666667,4,2,2,60,0,0
9653,-100,4,1,2,60,0,0
15278,-100,4,2,2,60,0,0
16567,-76.9230769230769,4,2,2,60,0,0
16918,-66.6666666666667,4,2,2,60,0,0
17153,-83.3333333333333,4,2,3,70,0,0
18559,-83.3333333333333,4,2,70,70,0,0
19028,-83.3333333333333,4,2,3,70,0,0
22309,-47.6190476190476,4,2,72,70,0,0
22543,-83.3333333333333,4,2,72,70,0,0
22778,-83.3333333333333,4,2,3,70,0,0
25882,-83.3333333333333,4,2,3,5,0,0
25942,-83.3333333333333,4,2,3,70,0,0
26059,-83.3333333333333,4,2,71,70,0,0
26528,-83.3333333333333,4,2,3,70,0,0
29809,-66.6666666666667,4,2,3,70,0,0
30043,-83.3333333333333,4,2,3,70,0,0
30278,-83.3333333333333,4,2,3,85,0,0
32153,-76.9230769230769,4,2,3,85,0,0
37309,-58.8235294117647,4,2,3,85,0,0
37543,-76.9230769230769,4,2,3,85,0,0
44809,-50,4,2,72,80,0,0
45043,-76.9230769230769,4,2,72,80,0,0
45278,-76.9230769230769,4,1,3,80,0,0
47153,-100,4,2,50,80,0,0
47738,-100,4,2,69,60,0,0
52778,-100,4,2,69,60,0,0
62153,-76.9230769230769,4,2,4,75,0,0
69184,-71.4285714285714,4,2,4,75,0,0
69418,-76.9230769230769,4,2,4,75,0,0
69653,-76.9230769230769,4,2,4,80,0,0
73403,-66.6666666666667,4,2,4,85,0,0
74106,-66.6666666666667,4,2,4,90,0,0
74809,-66.6666666666667,4,2,4,95,0,0
76215,-66.6666666666667,4,2,10,95,0,0
77153,-58.8235294117647,4,2,4,100,0,0
77387,-58.8235294117647,4,2,74,95,0,0
77621,-100,4,2,5,100,0,1
83715,-76.9230769230769,4,2,75,100,0,1
84184,-76.9230769230769,4,2,5,80,0,1
85121,-100,4,2,5,100,0,1
89340,-76.9230769230769,4,2,5,100,0,1
89809,-100,4,2,5,100,0,1
92153,-58.8235294117647,4,2,5,100,0,1
92621,-100,4,2,5,100,0,1
92796,-100,4,2,5,5,0,1
92856,-100,4,2,5,100,0,1
93031,-100,4,2,5,5,0,1
93090,-100,4,2,5,100,0,1
93265,-100,4,2,5,5,0,1
93324,-100,4,2,5,100,0,1
93499,-100,4,2,5,5,0,1
93559,-100,4,2,5,100,0,1
98715,-76.9230769230769,4,2,75,100,0,1
99184,-76.9230769230769,4,2,5,100,0,1
99770,-76.9230769230769,4,2,5,5,0,1
99887,-76.9230769230769,4,2,5,100,0,1
100121,-100,4,2,5,100,0,1
103403,-100,4,2,30,100,0,0
103520,-100,4,2,5,80,0,0
106918,-100,4,2,76,100,0,0
107035,-100,4,2,5,80,0,0
107153,-100,4,2,99,80,0,0
107416,-100,4,2,5,80,0,0
107504,-100,4,2,99,80,0,0
107621,-100,4,2,66,100,0,1
107738,-100,4,2,5,100,0,1
114653,-76.9230769230769,4,2,5,100,0,1
115121,-100,4,2,5,100,0,1
122153,-76.9230769230769,4,2,10,100,0,1
122621,-100,4,2,66,100,0,1
122738,-100,4,2,5,100,0,1
129653,-76.9230769230769,4,2,5,100,0,1
130121,-100,4,2,5,100,0,1
137153,-100,4,2,4,100,0,0
143246,-100,4,2,2,75,0,0
143363,-100,4,2,4,75,0,0
147699,-83.3333333333333,4,2,4,75,0,0
148403,-100,4,2,4,75,0,0
151684,-100,4,2,31,100,0,0
152153,-100,4,2,3,85,0,0
167153,-100,4,2,3,85,0,0
182153,-100,4,2,51,100,0,0
182621,-100,4,2,20,60,0,0
197153,-125,4,2,69,85,0,0
197211,-125,4,2,20,85,0,0
212153,-100,4,2,21,85,0,0
213090,-100,4,2,69,60,0,0
219418,-100,4,2,69,60,0,0
219653,-100,4,2,69,60,0,0
227153,-76.9230769230769,4,2,4,85,0,0
234184,-71.4285714285714,4,2,4,85,0,0
234418,-76.9230769230769,4,2,4,85,0,0
238403,-66.6666666666667,4,2,4,85,0,0
241098,-66.6666666666667,4,2,10,85,0,0
242153,-80,4,2,6,100,0,1
243500,-80,4,2,6,5,0,1
243559,-80,4,2,6,100,0,1
244554,-80,4,2,6,5,0,1
244613,-80,4,2,6,100,0,1
244671,-80,4,2,6,5,0,1
244731,-80,4,2,6,100,0,1
244789,-80,4,2,6,5,0,1
244848,-80,4,2,6,100,0,1
247367,-80,4,2,6,5,0,1
247426,-80,4,2,6,100,0,1
247484,-80,4,2,6,5,0,1
247543,-80,4,2,6,100,0,1
247601,-80,4,2,6,5,0,1
247660,-80,4,2,6,100,0,1
247718,-80,4,2,6,5,0,1
247778,-80,4,2,6,100,0,1
248246,-44.4444444444445,4,2,6,100,0,1
249184,-80,4,2,6,100,0,1
249653,-50,4,2,6,100,0,1
250004,-80,4,2,6,100,0,1
251000,-80,4,2,6,5,0,1
251059,-80,4,2,6,100,0,1
251937,-80,4,2,6,5,0,1
251996,-80,4,2,6,100,0,1
252757,-80,4,2,6,5,0,1
252817,-80,4,2,6,100,0,1
252875,-80,4,2,6,5,0,1
252934,-80,4,2,6,100,0,1
253403,-80,4,2,9,100,0,0
253871,-55.5555555555556,4,2,9,100,0,0
254399,-55.5555555555556,4,2,9,5,0,0
254457,-55.5555555555556,4,2,9,100,0,0
255278,-125,4,2,2,80,0,0
257153,-66.6666666666667,4,2,9,100,0,1
257270,-66.6666666666667,4,2,5,100,0,1
257328,-80,4,2,5,100,0,1
257621,-80,4,2,6,100,0,1
258617,-80,4,2,6,5,0,1
258676,-80,4,2,6,100,0,1
259437,-80,4,2,6,5,0,1
259496,-80,4,2,6,100,0,1
262367,-80,4,2,6,5,0,1
262426,-80,4,2,6,100,0,1
262484,-80,4,2,6,5,0,1
262543,-80,4,2,6,100,0,1
262601,-80,4,2,6,5,0,1
262660,-80,4,2,6,100,0,1
262718,-80,4,2,6,5,0,1
262778,-80,4,2,6,100,0,1
263246,-44.4444444444445,4,2,6,100,0,1
264184,-80,4,2,6,100,0,1
265179,-80,4,2,6,5,0,1
265238,-80,4,2,6,100,0,1
265296,-80,4,2,6,5,0,1
265356,-80,4,2,6,100,0,1
266937,-80,4,2,6,5,0,1
266996,-80,4,2,6,100,0,1
268324,-80,4,2,6,5,0,1
268403,-100,4,2,30,100,0,0
270278,-100,4,2,5,80,0,0
271918,-100,4,2,76,80,0,0
272621,-86.9565217391304,4,2,5,100,0,1
279653,-66.6666666666667,4,2,5,100,0,0
280121,-86.9565217391304,4,2,5,100,0,1
287153,-62.5,4,2,10,100,0,0
287621,-86.9565217391304,4,2,66,100,0,1
287796,-86.9565217391304,4,2,5,5,0,1
287856,-86.9565217391304,4,2,5,100,0,1
288031,-86.9565217391304,4,2,5,5,0,1
288090,-86.9565217391304,4,2,5,100,0,1
288265,-86.9565217391304,4,2,5,5,0,1
288324,-86.9565217391304,4,2,5,100,0,1
288734,-86.9565217391304,4,2,5,5,0,1
288793,-86.9565217391304,4,2,5,100,0,1
289203,-86.9565217391304,4,2,5,5,0,1
289262,-86.9565217391304,4,2,5,100,0,1
294653,-66.6666666666667,4,2,10,100,0,0
295121,-86.9565217391304,4,2,66,100,0,1
295296,-86.9565217391304,4,2,5,5,0,1
295356,-86.9565217391304,4,2,5,100,0,1
295765,-86.9565217391304,4,2,5,5,0,1
295825,-86.9565217391304,4,2,5,100,0,1
302153,-100,4,2,5,100,0,0
302621,-90.9090909090909,4,2,5,100,0,1
306078,-90.9090909090909,4,2,5,5,0,1
306137,-90.9090909090909,4,2,5,100,0,1
306546,-90.9090909090909,4,2,5,5,0,1
306605,-90.9090909090909,4,2,5,100,0,1
307719,-90.9090909090909,4,2,5,5,0,1
307778,-90.9090909090909,4,2,5,100,0,1
307953,-90.9090909090909,4,2,5,5,0,1
308012,-90.9090909090909,4,2,5,100,0,1
308421,-90.9090909090909,4,2,5,5,0,1
308481,-90.9090909090909,4,2,5,100,0,1
309653,-90.9090909090909,4,2,5,100,0,0
310121,-90.9090909090909,4,2,5,100,0,1
313578,-90.9090909090909,4,2,5,5,0,1
313637,-90.9090909090909,4,2,5,100,0,1
314046,-90.9090909090909,4,2,5,5,0,1
314106,-90.9090909090909,4,2,5,100,0,1
314515,-90.9090909090909,4,2,5,5,0,1
314574,-90.9090909090909,4,2,5,100,0,1
317153,-62.5,4,2,10,100,0,0
317621,-86.9565217391304,4,2,66,100,0,0
317796,-86.9565217391304,4,2,5,5,0,0
317856,-86.9565217391304,4,2,5,100,0,0
318265,-86.9565217391304,4,2,5,5,0,0
318324,-86.9565217391304,4,2,5,100,0,0
319203,-86.9565217391304,4,2,5,5,0,0
319262,-86.9565217391304,4,2,5,100,0,0
321078,-86.9565217391304,4,2,5,5,0,0
321137,-86.9565217391304,4,2,5,100,0,0
322015,-86.9565217391304,4,2,5,5,0,0
322074,-86.9565217391304,4,2,5,100,0,0
322953,-86.9565217391304,4,2,5,5,0,0
323012,-86.9565217391304,4,2,5,100,0,0
324653,-40,4,2,5,100,0,0
325121,-74.0740740740741,4,2,66,100,0,0
325297,-74.0740740740741,4,2,66,5,0,0
325356,-74.0740740740741,4,2,5,100,0,0
325765,-74.0740740740741,4,2,5,5,0,0
325824,-74.0740740740741,4,2,5,100,0,0
326703,-74.0740740740741,4,2,5,5,0,0
326762,-74.0740740740741,4,2,5,100,0,0
327171,-74.0740740740741,4,2,5,5,0,0
327231,-74.0740740740741,4,2,5,100,0,0
328403,-74.0740740740741,4,2,66,100,0,0
328578,-74.0740740740741,4,2,5,5,0,0
328637,-74.0740740740741,4,2,5,100,0,0
329046,-74.0740740740741,4,2,5,5,0,0
329106,-74.0740740740741,4,2,5,100,0,0
329515,-74.0740740740741,4,2,5,5,0,0
329574,-74.0740740740741,4,2,5,100,0,0
330278,-86.9565217391304,4,2,5,100,0,0
332153,-100,4,2,2,60,0,0
334965,-83.3333333333333,4,2,2,60,0,0
335082,-100,4,2,2,60,0,0
339067,-76.9230769230769,4,2,2,60,0,0
339418,-66.6666666666667,4,2,2,60,0,0
339653,-100,4,1,2,60,0,0
345278,-100,4,2,2,60,0,0
346567,-76.9230769230769,4,2,2,60,0,0
346918,-66.6666666666667,4,2,2,60,0,0
347153,-66.6666666666667,4,2,2,30,0,0
347504,-66.6666666666667,4,2,50,5,0,0

[Colours]
Combo1 : 255,128,0
Combo2 : 0,255,255
Combo3 : 128,128,192
Combo4 : 255,0,255
Combo5 : 255,128,192
Combo6 : 255,0,0

[HitObjects]
256,192,278,12,0,1918,0:0:0:0:
256,32,2153,6,0,L|104:32,1,149.999995231629,4|0,0:2|0:0,0:0:0:0:
328,112,2621,1,8,0:3:0:0:
176,112,2856,2,0,L|96:112,1,74.9999976158143,0|0,0:0|0:0,0:0:0:0:
216,192,3090,1,0,0:0:0:0:
329,192,3207,2,0,B|401:216|401:216|329:240,1,149.999995231629,0|0,0:0|0:0,0:0:0:0:
216,192,3559,1,8,0:3:0:0:
440,128,4028,6,0,P|480:192|440:248,1,149.999995231629,0|0,3:2|0:0,0:0:0:0:
216,192,4496,1,2,0:3:0:0:
368,40,4731,2,0,L|464:40,1,74.9999976158143,0|0,0:0|0:0,0:0:0:0:
392,96,4906,1,0,0:0:0:0:
344,96,4965,2,0,L|432:96,1,74.9999976158143,0|0,0:0|0:0,0:0:0:0:
144,136,5199,2,0,P|88:156|104:248,1,149.999995231629,4|2,3:2|0:3,0:0:0:0:
216,264,5551,1,0,0:0:0:0:
296,344,5668,2,0,L|216:344,1,74.9999976158143,0|0,3:2|0:0,0:0:0:0:
448,192,5903,6,0,P|448:264|384:264,1,149.999995231629,4|0,3:2|0:0,0:0:0:0:
160,192,6371,1,8,0:3:0:0:
412,40,6606,2,0,L|248:44,2,149.999995231629,0|0|0,0:0|0:0|3:2,0:0:0:0:
188,192,7309,1,8,0:3:0:0:
480,56,7778,6,0,L|400:56,1,74.9999976158143,0|0,3:2|0:0,0:0:0:0:
160,304,8129,2,0,L|240:304,1,74.9999976158143,0|8,3:2|0:3,0:0:0:0:
328,304,8363,1,0,0:0:0:0:
200,224,8481,2,0,L|168:192,3,37.4999988079071,0|0|0|0,3:3|0:0|3:3|0:0,0:0:0:0:
368,112,8715,2,0,P|440:112|440:176,1,149.999995231629,4|0,3:2|0:0,0:0:0:0:
240,64,9067,2,0,P|144:64|72:128,1,194.999984874726,4|0,3:2|0:0,0:0:0:0:
376,248,9418,2,0,L|488:248,1,112.500000715256,4|0,3:2|0:0,0:0:0:0:
256,152,9653,5,4,3:2:0:0:
168,232,9770,1,0,0:0:0:0:
256,232,9887,1,0,0:0:0:0:
344,232,10004,1,0,0:0:0:0:
256,320,10121,1,8,0:3:0:0:
408,48,10356,2,0,L|488:48,1,74.9999976158143,0|0,0:0|0:0,0:0:0:0:
360,128,10590,1,0,0:0:0:0:
256,128,10707,2,0,B|176:128|176:128|256:128,1,149.999995231629,0|0,0:0|0:0,0:0:0:0:
360,128,11059,1,8,0:3:0:0:
256,128,11176,1,0,0:0:0:0:
256,128,11293,1,0,0:0:0:0:
96,312,11528,6,0,L|171:312,1,74.9999976158143,0|0,3:2|0:0,0:0:0:0:
64,312,11762,2,0,L|64:232,1,74.9999976158143,0|0,0:0|0:0,0:0:0:0:
168,240,11996,1,2,0:3:0:0:
352,48,12231,2,0,L|448:48,1,74.9999976158143,0|0,0:0|0:0,0:0:0:0:
368,104,12406,1,0,0:0:0:0:
312,176,12465,2,0,B|387:176,1,74.9999976158143,0|0,0:0|0:0,0:0:0:0:
128,72,12699,2,0,L|48:72,1,74.9999976158143,4|0,3:2|0:0,0:0:0:0:
168,160,12934,1,2,0:3:0:0:
243,160,13051,1,0,0:0:0:0:
243,160,13168,2,0,L|155:160,1,74.9999976158143,0|0,3:2|0:0,0:0:0:0:
392,48,13403,6,0,L|488:48,1,74.9999976158143,4|0,3:2|0:0,0:0:0:0:
368,120,13637,2,0,L|288:120,1,74.9999976158143,0|0,0:0|0:0,0:0:0:0:
392,192,13871,1,8,0:3:0:0:
168,96,14106,1,0,0:0:0:0:
288,96,14223,1,0,0:0:0:0:
408,96,14340,1,0,0:0:0:0:
288,184,14457,1,0,0:0:0:0:
168,184,14574,1,0,3:2:0:0:
48,184,14692,1,0,0:0:0:0:
168,256,14809,2,0,P|215:303|168:351,1,149.999995231629,8|0,0:3|0:0,0:0:0:0:
376,56,15278,6,0,L|296:56,1,74.9999976158143,0|0,3:2|0:0,0:0:0:0:
95,135,15629,2,0,L|176:136,1,74.9999976158143,0|8,3:2|0:3,0:0:0:0:
272,136,15863,1,0,0:0:0:0:
169,135,15981,2,0,L|160:171,3,37.4999988079071,0|0|0|0,3:3|0:0|3:3|0:0,0:0:0:0:
288,232,16215,2,0,P|376:232|416:280,1,149.999995231629,4|0,3:2|0:0,0:0:0:0:
184,312,16567,2,0,P|96:312|40:216,1,194.999984874726,4|0,3:2|0:0,0:0:0:0:
344,48,16918,2,0,L|464:48,1,112.500000715256,4|0,3:2|0:0,0:0:0:0:
216,152,17153,5,4,3:1:0:0:
144,152,17231,2,0,B|176:216|176:216|240:216,1,119.999992523194,0|0,0:0|0:0,0:0:0:0:
464,120,17621,2,0,B|464:216|464:216|400:288,1,179.99998878479,8|0,3:2|0:0,0:0:0:0:
168,248,18090,2,0,P|128:272|128:312,1,89.9999943923952,0|0,3:2|0:0,0:0:0:0:
256,256,18324,2,0,B|272:304|272:304|320:304,1,89.9999943923952,0|0,0:0|0:0,0:0:0:0:
96,64,18559,2,0,P|80:112|88:152,1,89.9999943923952,10|0,3:1|0:0,0:0:0:0:
292,88,18793,2,0,P|335:123|340:168,1,89.9999943923952,2|0,0:1|0:0,0:0:0:0:
112,208,19028,5,0,3:2:0:0:
40,224,19106,2,0,B|72:280|72:280|144:280,1,119.999992523194,0|0,0:0|0:0,0:0:0:0:
360,272,19496,2,0,P|264:272|208:208,1,179.99998878479,8|0,3:2|0:0,0:0:0:0:
344,56,19848,2,0,L|376:112,1,44.9999971961976,0|0,0:0|0:0,0:0:0:0:
344,56,19965,2,0,L|232:56,1,89.9999943923952,0|0,3:2|0:0,0:0:0:0:
160,56,20199,1,0,0:0:0:0:
264,192,20317,1,0,0:0:0:0:
376,192,20434,1,8,3:2:0:0:
184,196,20551,1,0,0:0:0:0:
104,200,20668,2,0,P|72:248|80:288,1,89.9999943923952,0|0,0:0|0:0,0:0:0:0:
384,48,20903,5,0,3:2:0:0:
456,64,20981,2,0,B|424:120|424:120|352:120,1,119.999992523194,0|0,0:0|0:0,0:0:0:0:
136,192,21371,2,0,B|216:256|216:256|304:256,1,179.99998878479,8|0,3:2|0:0,0:0:0:0:
200,248,21723,1,0,0:0:0:0:
312,144,21840,1,0,3:2:0:0:
200,144,21957,1,0,0:0:0:0:
88,144,22074,1,0,0:0:0:0:
200,144,22192,1,0,0:0:0:0:
440,64,22309,2,0,P|288:64|216:208,1,314.999980373383,2|0,3:1|0:0,0:0:0:0:
120,192,22660,1,0,0:0:0:0:
352,280,22778,5,0,3:2:0:0:
440,272,22895,2,0,P|440:360|352:360,1,179.99998878479,0|0,0:0|0:0,0:0:0:0:
264,72,23246,2,0,P|208:80|192:120,2,89.9999943923952,8|0|0,3:2|0:0|0:0,0:0:0:0:
320,72,23539,1,0,0:0:0:0:
368,72,23598,1,0,0:0:0:0:
232,168,23715,2,0,P|200:224|232:264,1,89.9999943923952,0|0,3:2|0:0,0:0:0:0:
304,272,23949,1,0,0:0:0:0:
408,192,24067,1,0,0:0:0:0:
200,232,24184,2,0,P|104:240|48:296,1,179.99998878479,8|0,3:2|0:0,0:0:0:0:
144,320,24535,1,0,0:0:0:0:
384,48,24653,5,0,3:2:0:0:
456,64,24731,2,0,B|416:120|416:120|352:120,1,119.999992523194,0|0,0:0|0:0,0:0:0:0:
144,192,25121,1,8,3:2:0:0:
360,288,25356,2,0,P|256:288|192:336,1,179.99998878479,0|0,0:0|3:2,0:0:0:0:
304,48,25707,2,0,L|368:120,2,89.9999943923952,0|0|0,0:0|0:0|0:0,0:0:0:0:
88,48,26059,2,0,L|128:48,1,22.4999985980988,10|0,3:1|0:0,0:0:0:0:
448,192,26293,2,0,L|425:192,1,22.4999985980988,2|0,0:1|0:0,0:0:0:0:
48,192,26528,5,0,3:2:0:0:
112,192,26606,2,0,L|235:191,1,119.999992523194,0|0,0:0|0:0,0:0:0:0:
440,192,26996,1,8,3:2:0:0:
232,64,27231,2,0,L|344:64,1,89.9999943923952,0|0,0:0|0:0,0:0:0:0:
208,144,27465,1,0,3:2:0:0:
152,144,27524,1,0,0:0:0:0:
96,144,27582,2,0,P|56:176|56:232,1,89.9999943923952,0|0,0:0|0:0,0:0:0:0:
160,240,27817,1,0,0:0:0:0:
408,240,27934,5,8,3:2:0:0:
394,282,27992,1,0,0:0:0:0:
357,305,28051,1,0,0:0:0:0:
312,311,28109,1,0,0:0:0:0:
340,312,28168,1,0,0:0:0:0:
385,312,28226,1,0,0:0:0:0:
430,312,28285,1,0,0:0:0:0:
144,192,28403,5,0,3:2:0:0:
80,192,28481,2,0,B|80:256|80:256|144:256,1,119.999992523194,0|0,0:0|0:0,0:0:0:0:
400,192,28871,1,8,3:2:0:0:
216,48,29106,1,0,0:0:0:0:
132,56,29223,1,0,0:0:0:0:
224,132,29340,1,0,3:2:0:0:
144,140,29457,1,0,0:0:0:0:
260,192,29574,1,0,0:0:0:0:
376,200,29692,1,0,0:0:0:0:
196,248,29809,2,0,P|300:248|420:304,1,225.000001430512,8|0,3:2|0:0,0:0:0:0:
348,336,30160,1,0,0:0:0:0:
64,192,30278,6,0,L|32:280,1,89.9999943923952,2|2,0:2|0:2,0:0:0:0:
232,56,30629,2,0,L|192:152,1,89.9999943923952,2|0,0:2|0:0,0:0:0:0:
296,152,30863,1,2,3:2:0:0:
192,192,30981,2,0,L|160:240,2,44.9999971961976,2|0|2,3:2|0:0|3:2,0:0:0:0:
328,328,31215,2,0,P|400:328|432:352,1,89.9999943923952,2|2,3:2|0:2,0:0:0:0:
216,272,31449,1,0,3:2:0:0:
171,272,31507,1,0,3:2:0:0:
126,272,31566,1,0,3:2:0:0:
416,56,31684,6,0,L|440:80,6,22.4999985980988,8|0|0|0|0|0|0,0:3|0:0|0:0|0:0|0:0|0:0|0:0,0:0:0:0:
256,56,31918,5,8,0:3:0:0:
216,56,31947,1,0,0:0:0:0:
176,64,31977,1,0,0:0:0:0:
144,88,32006,1,0,0:0:0:0:
120,120,32035,1,0,0:0:0:0:
384,152,32153,6,0,P|456:200|392:256,1,194.999984874726,4|0,3:1|0:0,0:0:0:0:
288,208,32504,1,0,0:0:0:0:
440,344,32621,2,0,L|456:240,1,97.4999924373631,8|0,3:2|0:0,0:0:0:0:
352,160,32856,2,0,L|240:144,1,97.4999924373631,0|0,0:0|0:0,0:0:0:0:
480,152,33090,2,0,P|472:208|432:240,1,97.4999924373631,0|0,3:2|0:0,0:0:0:0:
256,88,33324,2,0,P|240:152|208:176,1,97.4999924373631,0|0,0:0|0:0,0:0:0:0:
32,192,33559,2,0,P|40:256|72:288,1,97.4999924373631,8|0,3:2|0:0,0:0:0:0:
168,280,33793,1,2,0:2:0:0:
256,296,33910,1,2,0:2:0:0:
72,48,34028,6,0,P|32:88|48:144,1,97.4999924373631,2|0,1:2|0:0,0:0:0:0:
144,160,34262,1,2,0:2:0:0:
256,120,34379,1,2,0:2:0:0:
72,264,34496,2,0,L|272:264,1,194.999984874726,10|2,1:2|0:2,0:0:0:0:
368,264,34848,1,2,0:2:0:0:
264,48,34965,2,0,L|184:144,2,97.4999924373631,2|2|2,1:2|1:2|1:2,0:0:0:0:
376,56,35317,1,2,1:2:0:0:
192,192,35434,2,0,P|80:192|32:256,1,194.999984874726,10|2,3:2|1:2,0:0:0:0:
424,192,35903,6,0,P|472:268|392:308,1,194.999984874726,2|0,1:2|0:0,0:0:0:0:
300,244,36254,1,0,0:0:0:0:
88,80,36371,2,0,P|84:132|124:168,1,97.4999924373631,8|0,3:2|0:0,0:0:0:0:
216,164,36606,2,0,P|264:140|312:156,1,97.4999924373631,0|0,0:0|0:0,0:0:0:0:
48,240,36840,2,0,P|64:304|104:328,1,97.4999924373631,0|0,3:2|0:0,0:0:0:0:
216,320,37074,2,0,L|336:320,1,97.4999924373631,0|2,0:0|1:2,0:0:0:0:
80,56,37309,2,0,P|203:56|312:140,1,254.999996757507,8|2,3:2|1:2,0:0:0:0:
192,152,37660,1,0,0:0:0:0:
416,192,37778,6,0,P|472:248|392:304,1,194.999984874726,2|0,1:2|0:0,0:0:0:0:
160,200,38246,1,10,3:2:0:0:
48,224,38363,1,2,0:2:0:0:
160,288,38481,2,0,L|264:288,1,97.4999924373631,2|0,0:2|0:0,0:0:0:0:
128,56,38715,2,0,P|88:88|88:144,1,97.4999924373631,2|0,1:2|0:0,0:0:0:0:
184,144,38949,1,2,0:2:0:0:
266,185,39066,1,2,1:2:0:0:
267,277,39183,1,8,3:2:0:0:
185,320,39300,1,0,0:0:0:0:
312,72,39418,2,0,L|416:72,1,97.4999924373631,2|0,1:2|0:0,0:0:0:0:
128,152,39653,6,0,P|56:200|120:256,1,194.999984874726,4|0,3:1|0:0,0:0:0:0:
240,200,40004,1,0,0:0:0:0:
96,336,40121,2,0,L|56:240,1,97.4999924373631,8|0,3:2|0:0,0:0:0:0:
160,160,40356,2,0,L|272:144,1,97.4999924373631,0|0,0:0|0:0,0:0:0:0:
32,152,40590,2,0,P|40:208|80:240,1,97.4999924373631,0|0,3:2|0:0,0:0:0:0:
256,88,40824,2,0,P|272:152|304:176,1,97.4999924373631,0|0,0:0|0:0,0:0:0:0:
480,192,41059,2,0,P|472:256|440:288,1,97.4999924373631,8|0,3:2|0:0,0:0:0:0:
344,280,41293,1,2,0:2:0:0:
256,296,41410,1,2,0:2:0:0:
440,48,41528,6,0,P|480:88|464:144,1,97.4999924373631,2|0,3:2|0:0,0:0:0:0:
368,160,41762,1,2,0:2:0:0:
256,120,41879,1,2,0:2:0:0:
440,264,41996,2,0,L|240:264,1,194.999984874726,10|2,1:2|0:2,0:0:0:0:
144,264,42348,1,2,0:2:0:0:
248,48,42465,2,0,L|328:144,2,97.4999924373631,2|2|2,3:2|1:2|1:2,0:0:0:0:
136,56,42817,1,2,1:2:0:0:
320,192,42934,2,0,P|432:192|480:256,1,194.999984874726,10|2,3:2|1:2,0:0:0:0:
64,304,43403,6,0,L|264:304,1,194.999984874726,2|0,3:2|0:0,0:0:0:0:
356,304,43754,1,0,0:0:0:0:
24,56,43871,2,0,L|40:168,1,97.4999924373631,8|0,3:2|0:0,0:0:0:0:
248,144,44106,2,0,L|140:152,1,97.4999924373631,2|2,1:2|1:2,0:0:0:0:
352,312,44340,2,0,P|240:312|192:248,1,194.999984874726,0|0,3:2|0:0,0:0:0:0:
296,224,44692,1,0,0:0:0:0:
104,216,44809,2,0,B|184:216|184:216|316:292|316:292|224:216,1,299.999990463257,2|0,3:1|0:0,0:0:0:0:
172,216,45160,1,0,0:0:0:0:
416,56,45278,6,0,P|304:56|224:104,1,194.999984874726,0|0,0:0|0:0,0:0:0:0:
160,144,45629,1,0,0:0:0:0:
424,192,45746,1,0,1:2:0:0:
324,204,45863,1,0,1:2:0:0:
124,220,45981,1,0,1:2:0:0:
32,232,46098,1,0,1:2:0:0:
320,60,46215,2,0,L|216:64,2,97.4999924373631,0|0|0,1:2|1:2|1:2,0:0:0:0:
96,104,46567,2,0,L|124:216,1,97.4999924373631,0|0,1:2|1:2,0:0:0:0:
340,136,46801,2,0,L|232:148,1,97.4999924373631,0|0,1:2|1:2,0:0:0:0:
312,196,47035,1,0,1:2:0:0:
104,160,47153,5,4,0:2:0:0:
344,72,47738,2,0,L|336:276,1,187.499994039536,0|8,0:0|0:0,0:0:0:0:
80,128,48324,2,0,L|304:128,1,224.999992847443,0|8,0:0|0:0,0:0:0:0:
288,192,49262,6,0,P|363:256|276:320,1,224.999992847443,0|8,0:0|0:0,0:0:0:0:
64,192,49965,1,0,0:0:0:0:
344,64,50317,2,0,L|144:64,1,187.499994039536,0|8,0:0|0:0,0:0:0:0:
432,192,50903,5,2,0:0:0:0:
264,192,51137,2,0,L|216:264,2,74.9999976158143,0|0|8,0:0|0:0|0:0,0:0:0:0:
72,80,51606,2,0,L|168:80,1,74.9999976158143,0|8,0:0|0:0,0:0:0:0:
344,80,51957,2,0,L|248:80,1,74.9999976158143,0|8,0:0|0:0,0:0:0:0:
72,192,52309,1,8,0:0:0:0:
264,256,52543,2,0,L|360:256,1,74.9999976158143,0|0,0:0|0:0,0:0:0:0:
192,192,52778,5,2,0:0:0:0:
432,40,53070,2,0,L|464:40,1,18.7499994039536,8|0,0:0|0:0,0:0:0:0:
248,64,53305,2,0,L|224:64,1,18.7499994039536,8|0,0:0|0:0,0:0:0:0:
424,152,53715,2,0,P|464:216|416:264,1,149.999995231629,8|0,0:0|0:0,0:0:0:0:
216,192,54184,2,0,L|120:192,1,74.9999976158143,2|0,0:0|0:0,0:0:0:0:
344,296,54418,2,0,L|432:296,1,74.9999976158143,2|0,0:0|0:0,0:0:0:0:
184,40,54653,6,0,P|136:96|192:136,1,149.999995231629,4|0,0:0|0:0,0:0:0:0:
272,120,55004,1,2,0:0:0:0:
184,232,55121,2,0,P|120:280|160:328,1,149.999995231629,8|2,0:0|0:0,0:0:0:0:
264,320,55473,2,0,L|416:320,1,149.999995231629,8|2,0:0|0:0,0:0:0:0:
296,224,55824,2,0,L|312:136,1,74.9999976158143,8|0,0:0|0:0,0:0:0:0:
424,64,56059,2,0,L|272:56,1,149.999995231629,8|0,0:0|0:0,0:0:0:0:
360,128,56410,1,2,0:0:0:0:
456,136,56528,6,0,L|496:216,2,74.9999976158143,8|0|0,0:0|0:0|0:0,0:0:0:0:
224,48,56996,2,0,L|128:48,1,74.9999976158143,8|0,0:0|0:0,0:0:0:0:
264,248,57231,1,2,0:0:0:0:
296,248,57289,1,0,0:0:0:0:
328,248,57348,2,0,P|405:248|472:204,1,149.999995231629,8|0,0:0|0:0,0:0:0:0:
264,160,57699,2,0,L|96:160,1,149.999995231629,2|0,0:0|0:0,0:0:0:0:
208,208,58051,2,0,P|256:256|200:304,1,149.999995231629,2|0,0:0|0:0,0:0:0:0:
96,352,58403,6,0,L|256:352,1,149.999995231629,2|0,0:0|0:0,0:0:0:0:
160,352,58754,1,2,0:0:0:0:
280,240,58871,2,0,L|448:240,1,149.999995231629,8|2,0:0|0:0,0:0:0:0:
312,144,59223,2,0,L|232:144,2,74.9999976158143,8|0|2,0:0|0:0|0:0,0:0:0:0:
192,192,59574,2,0,L|176:288,1,74.9999976158143,8|0,0:0|0:0,0:0:0:0:
320,312,59809,2,0,L|152:312,1,149.999995231629,8|2,0:0|0:0,0:0:0:0:
248,312,60160,1,2,0:0:0:0:
376,192,60278,6,0,P|384:152|360:112,1,74.9999976158143,8|0,0:0|0:0,0:0:0:0:
232,40,60512,2,0,P|200:72|192:120,1,74.9999976158143,2|0,0:0|0:0,0:0:0:0:
56,192,60746,2,0,P|64:248|96:280,1,74.9999976158143,2|0,0:0|0:0,0:0:0:0:
288,296,60981,1,2,0:0:0:0:
336,312,61039,1,0,0:0:0:0:
392,328,61098,2,0,P|448:296|392:232,1,149.999995231629,8|0,0:0|0:0,0:0:0:0:
200,80,61449,2,0,L|168:128,2,37.4999988079071,2|0|0,0:0|0:0|0:0,0:0:0:0:
328,80,61684,1,2,0:0:0:0:
216,176,61801,1,2,0:0:0:0:
352,176,61918,1,2,0:0:0:0:
456,176,62035,1,2,0:0:0:0:
176,280,62153,6,0,L|64:280,1,97.4999924373631,4|0,3:3|0:0,0:0:0:0:
192,352,62387,1,0,0:0:0:0:
80,352,62504,1,0,0:0:0:0:
336,80,62621,2,0,P|236:80|200:176,1,194.999984874726,8|0,0:2|0:0,0:0:0:0:
360,256,62973,2,0,P|416:264|440:304,2,97.4999924373631,0|0|0,0:0|0:0|0:0,0:0:0:0:
160,240,63324,2,0,L|56:240,1,97.4999924373631,0|0,0:0|0:0,0:0:0:0:
304,56,63559,2,0,P|360:96|296:176,1,194.999984874726,8|0,0:2|0:0,0:0:0:0:
200,144,63910,1,0,0:0:0:0:
440,240,64028,6,0,L|432:344,1,97.4999924373631,8|0,0:2|0:0,0:0:0:0:
288,248,64262,2,0,L|240:344,1,97.4999924373631,0|0,0:0|0:0,0:0:0:0:
104,280,64496,2,0,P|208:288|248:204,1,194.999984874726,8|0,0:2|0:0,0:0:0:0:
112,32,64848,2,0,L|80:96,1,48.7499962186815,0|0,0:0|0:0,0:0:0:0:
152,104,64965,2,0,L|272:104,1,97.4999924373631,0|0,0:0|0:0,0:0:0:0:
144,184,65199,2,0,P|112:232|144:272,1,97.4999924373631,0|0,0:0|0:0,0:0:0:0:
376,288,65434,1,8,0:2:0:0:
288,288,65551,2,0,P|264:240|368:192,1,194.999984874726,0|0,0:0|0:0,0:0:0:0:
168,64,65903,6,0,L|56:64,1,97.4999924373631,4|0,3:1|0:0,0:0:0:0:
312,120,66137,2,0,L|344:152,4,24.3749981093408,0|0|0|0|0,0:0|0:0|0:0|0:0|0:0,0:0:0:0:
200,192,66371,2,0,P|144:232|144:272,1,97.4999924373631,8|0,0:2|0:0,0:0:0:0:
248,272,66606,1,0,0:0:0:0:
344,272,66723,1,0,0:0:0:0:
424,272,66840,1,0,0:0:0:0:
384,272,66957,1,0,0:0:0:0:
168,88,67074,2,0,L|64:88,1,97.4999924373631,0|0,0:0|0:0,0:0:0:0:
304,56,67309,2,0,P|392:56|472:152,1,194.999984874726,8|0,0:2|0:0,0:0:0:0:
368,128,67660,1,0,0:0:0:0:
152,192,67778,6,0,L|288:192,1,97.4999924373631,8|0,0:2|0:0,0:0:0:0:
112,248,68012,2,0,L|72:360,1,97.4999924373631,0|0,0:0|0:0,0:0:0:0:
296,48,68246,2,0,P|400:48|448:144,1,194.999984874726,8|0,0:2|0:0,0:0:0:0:
328,152,68598,2,0,L|264:240,2,97.4999924373631,0|8|0,0:0|0:2|0:0,0:0:0:0:
448,152,68949,1,0,0:0:0:0:
152,256,69184,2,0,L|368:256,1,209.999986915589,8|0,0:2|0:0,0:0:0:0:
64,56,69653,6,0,P|32:128|120:176,1,194.999984874726,4|0,3:1|0:0,0:0:0:0:
336,64,70121,2,0,P|408:64|424:168,1,194.999984874726,8|0,3:1|0:0,0:0:0:0:
216,192,70590,2,0,L|104:192,1,97.4999924373631,8|0,3:1|0:0,0:0:0:0:
320,192,70824,2,0,L|360:288,1,97.4999924373631,0|0,0:0|0:0,0:0:0:0:
160,256,71059,2,0,P|96:296|176:344,1,194.999984874726,8|0,3:1|0:0,0:0:0:0:
264,336,71410,1,0,0:0:0:0:
464,184,71528,6,0,P|480:248|456:280,1,97.4999924373631,8|0,3:1|0:0,0:0:0:0:
328,192,71762,2,0,L|232:208,1,97.4999924373631,0|0,0:0|0:0,0:0:0:0:
440,40,71996,2,0,P|464:96|432:136,1,97.4999924373631,8|0,3:1|0:0,0:0:0:0:
248,56,72348,1,0,0:0:0:0:
448,124,72465,2,0,P|480:172|440:212,1,97.4999924373631,8|0,3:1|0:0,0:0:0:0:
248,304,72699,2,0,L|192:224,1,97.4999924373631,0|0,0:0|0:0,0:0:0:0:
400,256,72934,2,0,P|456:256|480:288,1,97.4999924373631,8|0,3:1|0:0,0:0:0:0:
200,184,73168,1,0,3:2:0:0:
160,192,73226,1,0,3:2:0:0:
128,224,73285,1,0,3:2:0:0:
368,56,73403,6,0,P|416:112|416:168,1,112.500000715256,12|0,3:1|0:0,0:0:0:0:
168,232,73637,2,0,L|104:328,1,112.500000715256,8|0,3:1|0:0,0:0:0:0:
368,240,73871,2,0,P|422:237|472:288,1,112.500000715256,8|0,3:1|0:0,0:0:0:0:
192,88,74106,2,0,P|128:96|96:136,1,112.500000715256,8|0,3:1|0:0,0:0:0:0:
392,88,74340,6,0,P|440:128|424:176,1,112.500000715256,8|0,3:1|0:0,0:0:0:0:
128,288,74574,2,0,P|56:272|64:240,1,112.500000715256,8|0,3:1|0:0,0:0:0:0:
328,272,74809,2,0,P|384:288|432:256,1,112.500000715256,8|0,3:1|0:0,0:0:0:0:
112,48,75043,2,0,P|64:96|80:152,1,112.500000715256,8|0,3:1|0:0,0:0:0:0:
400,104,75278,6,0,P|448:112|488:184,1,112.500000715256,4|0,0:3|0:0,0:0:0:0:
208,80,75512,2,0,B|64:104|64:104|144:200|144:200|400:160|400:160|344:304,1,675.000004291535,0|4,0:0|0:2,0:0:0:0:
104,48,77153,2,0,B|272:64|272:64|40:124|40:124,1,382.499995136261,0|0,3:2|0:0,0:0:0:0:
346,191,77621,6,0,P|427:233|326:279,1,224.999992847443,6|0,3:2|0:0,0:0:0:0:
216,305,78090,2,0,B|59:242|59:242|139:187,1,224.999992847443,8|0,3:2|0:0,0:0:0:0:
320,210,78559,1,8,3:2:0:0:
118,210,78793,1,2,0:2:0:0:
321,105,79028,6,0,L|147:159,1,149.999995231629,2|2,3:2|0:2,0:0:0:0:
479,125,79496,1,10,3:2:0:0:
268,79,79731,1,2,0:2:0:0:
466,57,79965,2,0,B|495:122|495:122|346:185,1,224.999992847443,2|0,3:2|0:0,0:0:0:0:
166,182,80434,1,10,3:2:0:0:
475,197,80668,2,0,L|389:152,1,74.9999976158143,2|0,0:1|0:0,0:0:0:0:
228,152,80903,5,4,3:2:0:0:
43,151,81137,1,8,0:1:0:0:
0,165,81195,1,0,0:0:0:0:
0,165,81254,1,0,0:0:0:0:
43,151,81313,1,0,0:0:0:0:
211,173,81371,2,0,P|249:98|198:86,1,149.999995231629,2|8,3:1|0:1,0:0:0:0:
9,29,81840,1,2,3:1:0:0:
313,82,82074,2,0,L|125:86,1,149.999995231629,8|2,0:1|3:1,0:0:0:0:
485,156,82543,1,8,0:1:0:0:
330,157,82778,5,2,3:1:0:0:
32,162,83012,2,0,L|203:162,1,149.999995231629,8|2,0:1|3:1,0:0:0:0:
11,253,83481,1,8,0:1:0:0:
359,258,83715,6,0,L|69:214,1,292.499977312089,2|0,3:1|0:0,0:0:0:0:
170,189,84184,2,0,L|460:80,1,292.499977312089,10|0,3:2|0:0,0:0:0:0:
249,57,84653,2,0,B|197:110|197:110|436:178,1,292.499977312089,0|0,3:2|0:0,0:0:0:0:
184,228,85121,6,0,P|109:196|212:143,1,224.999992847443,6|0,3:2|0:0,0:0:0:0:
318,121,85590,2,0,B|457:185|457:185|378:240,1,224.999992847443,8|0,0:0|0:0,0:0:0:0:
191,268,86059,1,8,3:2:0:0:
392,270,86293,1,2,0:2:0:0:
165,82,86528,2,0,L|180:236,1,149.999995231629,2|2,3:2|0:2,0:0:0:0:
483,84,86996,1,10,3:2:0:0:
346,83,87231,1,2,0:2:0:0:
39,96,87465,2,0,L|205:108,1,149.999995231629,2|2,3:2|0:1,0:0:0:0:
42,182,87934,1,10,3:2:0:0:
356,188,88168,1,2,0:1:0:0:
317,168,88227,1,0,0:0:0:0:
282,149,88285,1,0,0:0:0:0:
261,108,88344,1,0,0:0:0:0:
420,116,88403,5,4,3:1:0:0:
257,121,88637,2,0,L|245:156,3,37.4999988079071,0|0|0|0,0:0|0:0|0:0|0:0,0:0:0:0:
373,120,88871,2,0,B|467:194|467:194|349:294,1,224.999992847443,8|0,3:2|0:0,0:0:0:0:
155,270,89340,2,0,B|58:228|58:228|291:190,1,292.499977312089,2|0,3:1|0:0,0:0:0:0:
57,113,89809,2,0,B|13:89|19:44|283:39,1,224.999992847443,8|0,3:2|0:0,0:0:0:0:
357,42,90278,5,2,3:2:0:0:
378,44,90395,1,0,0:0:0:0:
278,44,90512,1,0,0:0:0:0:
256,44,90629,1,0,0:0:0:0:
46,47,90746,1,2,3:2:0:0:
67,46,90863,1,0,0:0:0:0:
163,46,90981,1,0,0:0:0:0:
140,46,91098,1,0,0:0:0:0:
327,146,91215,6,0,L|417:136,1,74.9999976158143,2|0,3:2|0:0,0:0:0:0:
309,236,91449,2,0,L|410:224,1,74.9999976158143,0|0,0:0|0:0,0:0:0:0:
164,324,91684,2,0,L|265:317,1,74.9999976158143,2|0,3:2|0:0,0:0:0:0:
94,245,91918,2,0,L|87:165,1,74.9999976158143,0|0,0:0|0:0,0:0:0:0:
324,77,92153,2,0,B|544:141|330:240|330:240|447:281,1,382.499995136261,0|0,3:2|0:0,0:0:0:0:
156,226,92621,6,0,B|47:176|47:176|154:114,1,224.999992847443,6|0,3:2|0:0,0:0:0:0:
279,120,93090,2,0,L|16:176,1,224.999992847443,0|0,3:2|0:0,0:0:0:0:
288,211,93559,1,8,3:2:0:0:
460,212,93793,1,2,0:2:0:0:
269,209,94028,6,0,L|432:165,1,149.999995231629,2|2,3:2|0:2,0:0:0:0:
99,53,94496,1,10,3:2:0:0:
281,51,94731,1,2,0:2:0:0:
109,131,94965,2,0,B|47:195|47:195|202:235,1,224.999992847443,2|0,3:2|0:0,0:0:0:0:
427,232,95434,1,10,3:2:0:0:
126,229,95668,2,0,L|32:230,1,74.9999976158143,0|0,0:0|0:0,0:0:0:0:
238,146,95903,5,4,3:2:0:0:
389,147,96137,1,8,0:3:0:0:
448,159,96195,1,0,0:0:0:0:
448,159,96254,1,0,0:0:0:0:
389,147,96313,1,0,0:0:0:0:
268,146,96371,2,0,P|227:210|281:219,1,149.999995231629,2|8,3:1|0:3,0:0:0:0:
450,228,96840,1,2,3:1:0:0:
196,231,97074,2,0,L|367:161,1,149.999995231629,8|2,0:3|3:1,0:0:0:0:
0,192,97543,1,8,0:3:0:0:
146,187,97778,5,2,3:1:0:0:
492,96,98012,2,0,L|273:133,2,149.999995231629,8|2|8,0:3|3:1|0:3,0:0:0:0:
190,45,98715,6,0,B|97:101|97:101|364:175,1,292.499977312089,2|0,3:1|0:0,0:0:0:0:
398,173,99184,2,0,B|497:216|497:216|259:329,1,292.499977312089,10|0,3:2|0:0,0:0:0:0:
136,301,99653,6,0,B|49:256|49:256|105:211,1,146.249988656045,0|0,3:2|0:0,0:0:0:0:
86,225,99887,2,0,L|221:151,1,146.249988656045,0|0,0:0|0:0,0:0:0:0:
343,154,100121,6,0,B|408:114|408:114|247:53,1,224.999992847443,6|0,3:2|0:0,0:0:0:0:
146,62,100590,2,0,P|71:87|168:138,1,224.999992847443,8|0,3:2|0:0,0:0:0:0:
261,269,101059,1,8,3:2:0:0:
425,269,101293,1,2,0:2:0:0:
229,82,101528,6,0,L|163:279,1,149.999995231629,2|2,3:2|0:2,0:0:0:0:
483,84,101996,1,10,3:2:0:0:
346,83,102231,1,2,0:2:0:0:
39,96,102465,2,0,L|205:108,1,149.999995231629,2|2,3:2|0:1,0:0:0:0:
42,182,102934,1,10,3:2:0:0:
356,188,103168,2,0,L|247:153,1,99.9999968210857,2|0,0:1|0:0,0:0:0:0:
111,157,103403,5,4,3:2:0:0:
339,156,103871,2,0,L|339:334,1,149.999995231629,0|0,0:0|0:0,0:0:0:0:
173,304,104340,2,0,L|391:205,1,224.999992847443,0|0,0:0|0:0,0:0:0:0:
375,149,104809,2,0,L|147:132,1,224.999992847443,0|0,0:0|0:0,0:0:0:0:
279,288,105278,5,0,3:2:0:0:
352,275,105395,1,0,0:0:0:0:
380,211,105512,1,0,0:0:0:0:
175,205,105629,1,0,3:2:0:0:
107,222,105746,1,0,0:0:0:0:
104,285,105863,1,0,0:0:0:0:
307,296,105981,1,0,3:2:0:0:
104,285,106098,1,0,3:2:0:0:
357,304,106215,5,0,3:2:0:0:
288,321,106332,1,0,0:0:0:0:
77,284,106449,1,0,3:2:0:0:
77,284,106508,1,0,3:2:0:0:
77,284,106567,1,0,3:2:0:0:
282,121,106684,1,0,3:2:0:0:
327,155,106801,1,0,0:0:0:0:
107,160,106918,1,2,0:1:0:0:
153,127,107035,1,0,0:0:0:0:
57,77,107621,6,0,P|136:71|356:146,2,299.999990463257,12|0|8,3:2|3:2|3:2,0:0:0:0:
320,258,109028,2,0,P|402:226|522:43,1,299.999990463257,0|8,3:2|3:2,0:0:0:0:
192,56,109965,2,0,P|116:87|0:220,1,224.999992847443,2|2,3:2|0:2,0:0:0:0:
226,195,110434,2,0,L|400:184,1,149.999995231629,8|2,3:2|0:2,0:0:0:0:
189,96,110903,5,4,3:2:0:0:
381,101,111137,1,4,0:3:0:0:
86,193,111371,1,10,3:2:0:0:
265,197,111606,1,4,0:3:0:0:
122,297,111840,1,2,3:2:0:0:
353,294,112074,1,4,0:3:0:0:
32,95,112309,2,0,L|232:92,1,149.999995231629,10|4,3:2|0:3,0:0:0:0:
362,97,112778,5,2,3:2:0:0:
148,99,113012,1,4,0:3:0:0:
479,192,113246,1,10,3:2:0:0:
276,195,113481,1,4,0:3:0:0:
394,293,113715,1,2,3:2:0:0:
174,294,113949,1,4,0:3:0:0:
486,114,114184,2,0,L|338:206,1,149.999995231629,10|4,3:2|0:3,0:0:0:0:
54,105,114653,6,0,B|17:194|17:194|236:260,1,292.499977312089,0|0,3:2|0:0,0:0:0:0:
437,169,115121,6,0,P|310:119|169:185,2,299.999990463257,12|0|8,3:2|3:2|3:2,0:0:0:0:
266,214,116293,1,0,0:0:0:0:
104,242,116528,6,0,P|31:163|151:35,1,299.999990463257,0|8,3:2|3:2,0:0:0:0:
303,31,117231,1,0,0:0:0:0:
75,56,117465,2,0,P|151:87|282:39,1,224.999992847443,2|2,3:2|0:2,0:0:0:0:
41,190,117934,2,0,L|143:40,1,149.999995231629,8|2,3:2|0:2,0:0:0:0:
354,94,118403,5,4,3:2:0:0:
162,99,118637,1,4,0:3:0:0:
457,191,118871,1,10,3:2:0:0:
278,195,119106,1,4,0:3:0:0:
421,295,119340,1,2,3:2:0:0:
190,292,119574,1,4,0:3:0:0:
511,93,119809,2,0,L|311:90,1,149.999995231629,10|4,3:2|0:3,0:0:0:0:
44,91,120278,5,2,3:2:0:0:
119,92,120395,1,0,3:2:0:0:
119,92,120512,1,4,0:3:0:0:
44,91,120629,1,0,3:2:0:0:
162,167,120746,1,10,3:2:0:0:
173,233,120863,1,0,0:0:0:0:
83,168,120981,1,4,0:3:0:0:
73,232,121098,1,0,0:0:0:0:
263,294,121215,1,2,3:2:0:0:
340,290,121332,1,0,3:2:0:0:
242,229,121449,1,4,0:3:0:0:
310,229,121567,1,0,3:2:0:0:
462,117,121684,2,0,L|314:209,1,149.999995231629,10|4,3:2|0:3,0:0:0:0:
39,64,122153,6,0,L|399:147,1,292.499977312089,4|0,3:2|0:0,0:0:0:0:
57,77,122621,6,0,P|136:71|356:146,2,299.999990463257,12|0|8,3:2|3:2|3:2,0:0:0:0:
338,275,124028,2,0,B|500:250|500:250|352:201,1,299.999990463257,0|8,3:2|3:2,0:0:0:0:
68,59,124965,2,0,L|342:94,1,224.999992847443,2|2,3:2|0:2,0:0:0:0:
483,187,125434,2,0,L|309:176,1,149.999995231629,8|2,3:2|0:2,0:0:0:0:
151,265,125903,5,4,3:2:0:0:
370,267,126137,1,4,0:3:0:0:
24,195,126371,1,10,3:2:0:0:
167,195,126606,1,4,0:3:0:0:
375,190,126840,1,2,3:2:0:0:
171,196,127074,1,4,0:3:0:0:
488,94,127309,2,0,L|288:91,1,149.999995231629,10|4,3:2|0:3,0:0:0:0:
495,211,127778,5,2,3:2:0:0:
333,213,128012,1,4,0:3:0:0:
21,153,128246,1,10,3:2:0:0:
229,153,128481,1,4,0:3:0:0:
109,237,128715,1,2,3:2:0:0:
347,243,128949,1,4,0:3:0:0:
19,116,129184,2,0,L|153:40,1,149.999995231629,10|4,3:2|0:3,0:0:0:0:
468,78,129653,6,0,B|530:127|530:127|351:267,1,292.499977312089,0|0,3:2|0:0,0:0:0:0:
57,77,130121,2,0,B|-3:166|-3:166|236:179,2,299.999990463257,12|0|8,3:2|3:2|3:2,0:0:0:0:
222,85,131293,1,0,0:0:0:0:
401,89,131528,6,0,P|468:143|336:243,1,299.999990463257,0|8,3:2|3:2,0:0:0:0:
13,317,132231,1,0,0:0:0:0:
199,318,132465,2,0,L|451:255,1,224.999992847443,2|2,3:2|0:2,0:0:0:0:
205,148,132934,2,0,L|31:137,1,149.999995231629,8|2,3:2|0:2,0:0:0:0:
375,96,133403,5,4,3:2:0:0:
167,101,133637,1,4,0:3:0:0:
493,195,133871,1,10,3:2:0:0:
306,196,134106,1,4,0:3:0:0:
491,291,134340,1,2,3:2:0:0:
337,296,134574,1,4,0:3:0:0:
23,107,134809,2,0,L|223:104,1,149.999995231629,10|4,3:2|0:3,0:0:0:0:
470,107,135278,5,2,3:2:0:0:
451,172,135395,1,0,3:2:0:0:
341,101,135512,1,4,0:3:0:0:
359,163,135629,1,0,3:2:0:0:
252,100,135746,1,10,3:2:0:0:
183,102,135863,1,0,0:0:0:0:
252,100,135981,1,4,0:3:0:0:
183,102,136098,1,0,0:0:0:0:
408,293,136215,1,2,3:2:0:0:
492,266,136332,1,0,3:2:0:0:
492,266,136449,1,4,0:3:0:0:
408,293,136567,1,0,3:2:0:0:
200,219,136684,2,0,L|52:311,1,149.999995231629,10|4,3:2|0:3,0:0:0:0:
410,161,137153,6,0,L|537:164,2,74.9999976158143,4|0|0,3:3|0:0|0:0,0:0:0:0:
178,69,137621,2,0,L|393:82,1,149.999995231629,0|0,0:0|0:0,0:0:0:0:
252,150,137973,1,0,0:0:0:0:
420,153,138207,1,0,0:0:0:0:
211,156,138442,1,0,0:0:0:0:
297,214,138559,2,0,L|134:250,1,149.999995231629,0|0,0:0|0:0,0:0:0:0:
371,247,139028,6,0,L|379:88,1,149.999995231629
187,91,139496,2,0,L|386:94,1,149.999995231629
415,99,139848,1,0,0:0:0:0:
243,179,140082,1,0,0:0:0:0:
38,175,140199,1,4,3:2:0:0:
120,179,140317,1,0,0:0:0:0:
208,248,140434,2,0,L|42:293,1,149.999995231629,0|0,0:0|0:0,0:0:0:0:
384,280,140903,5,4,3:2:0:0:
231,261,141137,1,0,0:0:0:0:
170,242,141195,1,0,0:0:0:0:
154,213,141254,1,0,0:0:0:0:
167,186,141313,1,0,0:0:0:0:
233,170,141371,1,0,0:0:0:0:
406,167,141606,2,0,L|328:149,1,74.9999976158143,0|0,0:0|0:0,0:0:0:0:
168,145,141957,1,0,0:0:0:0:
332,150,142192,1,0,0:0:0:0:
249,152,142309,1,0,0:0:0:0:
467,231,142543,1,0,0:0:0:0:
149,60,142778,6,0,L|-2:139,1,149.999995231629,0|0,0:0|0:0,0:0:0:0:
98,165,143129,1,0,0:0:0:0:
191,165,143246,2,0,L|274:208,1,74.9999976158143,0|0,0:0|0:0,0:0:0:0:
104,223,143598,1,0,0:0:0:0:
338,231,143715,2,0,L|449:262,2,74.9999976158143,4|0|0,3:2|0:0|0:0,0:0:0:0:
128,72,144067,2,0,P|77:119|157:138,1,149.999995231629,4|0,3:2|0:0,0:0:0:0:
346,154,144418,1,4,3:2:0:0:
21,196,144653,5,4,3:2:0:0:
120,199,144770,2,0,L|223:182,2,74.9999976158143,0|0|0,0:0|0:0|0:0,0:0:0:0:
325,318,145121,2,0,L|512:284,1,149.999995231629,8|0,0:2|0:0,0:0:0:0:
395,259,145473,1,0,0:0:0:0:
183,247,145590,1,8,0:2:0:0:
111,247,145707,1,0,0:0:0:0:
183,247,145824,1,0,0:0:0:0:
484,252,146059,2,0,L|487:211,1,24.9999992052714,8|0,0:2|0:0,0:0:0:0:
348,298,146293,2,0,L|438:333,1,74.9999976158143,0|0,0:0|0:0,0:0:0:0:
208,292,146528,5,8,0:2:0:0:
126,290,146645,1,0,0:0:0:0:
208,292,146762,1,0,0:0:0:0:
126,290,146879,1,0,0:0:0:0:
230,202,146996,1,8,0:2:0:0:
308,202,147113,1,0,0:0:0:0:
230,202,147231,1,0,0:0:0:0:
308,202,147348,1,0,0:0:0:0:
388,204,147465,1,8,0:2:0:0:
30,89,147699,2,0,L|231:74,2,179.99998878479,8|8|0,0:2|0:2|0:0,0:0:0:0:
327,226,148403,6,0,L|330:136,1,74.9999976158143,12|0,0:2|0:0,0:0:0:0:
229,151,148637,2,0,L|234:229,1,74.9999976158143,0|0,0:0|0:0,0:0:0:0:
361,159,148871,2,0,L|424:101,1,74.9999976158143,8|0,0:2|0:0,0:0:0:0:
333,257,149106,2,0,L|417:240,1,74.9999976158143,0|0,0:0|0:0,0:0:0:0:
202,203,149340,2,0,L|285:169,1,74.9999976158143,8|0,0:2|0:0,0:0:0:0:
151,106,149574,2,0,L|240:63,1,74.9999976158143,0|0,0:0|0:0,0:0:0:0:
117,106,149809,2,0,L|18:112,1,74.9999976158143,8|0,0:2|0:0,0:0:0:0:
150,193,150043,2,0,L|237:189,1,74.9999976158143,0|0,0:0|0:0,0:0:0:0:
426,252,150278,6,0,L|243:229,1,149.999995231629,8|0,3:2|3:2,0:0:0:0:
151,221,150570,1,0,3:2:0:0:
28,210,150629,1,0,3:2:0:0:
208,227,150746,1,8,3:2:0:0:
313,226,150863,2,0,L|289:143,1,74.9999976158143,0|0,3:2|3:2,0:0:0:0:
53,67,151215,2,0,B|2:134|2:134|204:157,1,224.999992847443,0|0,3:2|0:0,0:0:0:0:
347,276,151684,2,0,B|462:221|462:221|336:147,1,224.999992847443,12|0,0:2|0:0,0:0:0:0:
129,87,152153,6,0,L|10:128,2,74.9999976158143,4|0|0,3:1|0:0|0:0,0:0:0:0:
454,90,152621,2,0,P|478:181|424:188,1,149.999995231629,8|0,3:2|0:0,0:0:0:0:
367,192,152973,1,0,0:0:0:0:
232,195,153090,2,0,L|212:107,1,74.9999976158143,0|0,3:2|0:0,0:0:0:0:
376,120,153442,1,0,0:0:0:0:
188,123,153559,2,0,L|23:144,1,149.999995231629,8|0,3:2|0:0,0:0:0:0:
230,140,154028,6,0,L|401:161,1,149.999995231629,0|0,3:2|0:0,0:0:0:0:
57,266,154496,2,0,L|229:236,1,149.999995231629,8|0,3:2|0:0,0:0:0:0:
124,123,154848,2,0,L|226:78,1,74.9999976158143,0|0,0:0|3:2,0:0:0:0:
105,49,155082,1,0,0:0:0:0:
105,49,155199,1,0,0:0:0:0:
187,23,155317,1,0,0:0:0:0:
423,270,155434,2,0,L|385:119,1,149.999995231629,8|0,3:2|0:0,0:0:0:0:
190,122,155903,5,0,3:2:0:0:
368,123,156137,1,0,0:0:0:0:
435,125,156195,1,0,0:0:0:0:
435,125,156254,1,0,0:0:0:0:
368,123,156313,1,0,0:0:0:0:
206,261,156371,2,0,L|376:217,1,149.999995231629,8|0,3:2|0:0,0:0:0:0:
479,218,156723,1,0,0:0:0:0:
439,219,156840,1,0,3:2:0:0:
320,162,156957,2,0,L|156:150,1,149.999995231629,0|0,0:0|0:0,0:0:0:0:
485,152,157309,2,0,L|377:46,1,149.999995231629,8|0,3:2|0:0,0:0:0:0:
70,187,157778,6,0,L|172:183,1,74.9999976158143,0|0,3:2|1:2,0:0:0:0:
249,180,158012,2,0,L|231:99,1,74.9999976158143,0|0,1:2|1:2,0:0:0:0:
41,118,158246,1,8,3:2:0:0:
38,192,158363,1,0,1:2:0:0:
238,176,158598,1,0,1:2:0:0:
319,180,158715,2,0,L|420:194,1,74.9999976158143,0|0,1:2|1:2,0:0:0:0:
406,85,158949,2,0,L|327:60,1,74.9999976158143,0|0,1:2|1:2,0:0:0:0:
121,59,159184,1,8,3:2:0:0:
47,141,159301,2,0,L|136:124,1,74.9999976158143,0|0,1:2|1:2,0:0:0:0:
296,123,159653,5,0,3:2:0:0:
82,69,159770,2,0,L|154:51,2,74.9999976158143,2|2|2,0:2|0:2|0:2,0:0:0:0:
302,284,160121,1,10,3:2:0:0:
393,281,160238,2,0,L|497:275,2,74.9999976158143,0|2|2,0:0|0:2|0:2,0:0:0:0:
319,189,160590,1,0,3:2:0:0:
166,183,160707,2,0,L|144:104,1,74.9999976158143,2|2,0:2|0:2,0:0:0:0:
473,127,161059,2,0,L|333:210,1,149.999995231629,10|0,3:2|0:0,0:0:0:0:
22,174,161528,5,2,3:2:0:0:
22,233,161645,1,2,0:2:0:0:
107,176,161762,1,2,0:2:0:0:
43,175,161879,1,2,0:2:0:0:
251,243,161996,2,0,L|347:231,1,74.9999976158143,10|2,3:2|0:2,0:0:0:0:
223,155,162231,2,0,L|300:142,1,74.9999976158143,2|2,0:2|0:2,0:0:0:0:
380,135,162465,2,0,P|425:194|355:232,1,149.999995231629,2|0,3:2|0:0,0:0:0:0:
63,246,162934,2,0,L|267:220,1,149.999995231629,8|0,3:2|0:0,0:0:0:0:
422,232,163403,6,0,L|339:225,1,74.9999976158143,2|2,1:2|1:2,0:0:0:0:
442,207,163637,2,0,L|453:121,1,74.9999976158143,2|2,1:2|1:2,0:0:0:0:
233,113,163871,2,0,L|146:127,1,74.9999976158143,10|2,1:2|1:2,0:0:0:0:
164,199,164106,2,0,L|248:205,1,74.9999976158143,2|2,1:2|1:2,0:0:0:0:
358,209,164340,1,2,1:2:0:0:
433,208,164457,1,2,1:2:0:0:
358,209,164574,1,2,1:2:0:0:
442,207,164692,1,2,1:2:0:0:
229,156,164809,1,10,1:2:0:0:
150,148,164926,1,2,1:2:0:0:
72,138,165043,1,2,1:2:0:0:
52,87,165160,1,2,1:2:0:0:
294,81,165278,6,0,B|450:133|450:133|298:199,1,299.999990463257,2|8,1:2|3:2,0:0:0:0:
196,189,165981,1,0,0:0:0:0:
19,187,166215,2,0,B|156:103|156:103|4:61,1,299.999990463257,2|8,3:2|3:2,0:0:0:0:
174,59,166918,1,0,0:0:0:0:
487,211,167153,6,0,L|410:197,1,74.9999976158143,4|0,0:1|0:0,0:0:0:0:
335,185,167387,1,2,0:2:0:0:
413,197,167504,1,2,0:2:0:0:
136,69,167621,1,10,3:2:0:0:
61,99,167738,1,2,0:2:0:0:
131,140,167856,2,0,L|282:132,1,149.999995231629,2|2,0:2|3:2,0:0:0:0:
351,132,168207,1,2,0:2:0:0:
280,132,168324,1,2,0:2:0:0:
214,84,168442,1,2,0:2:0:0:
405,296,168559,1,10,3:2:0:0:
419,294,168676,1,2,0:2:0:0:
326,296,168793,1,2,0:2:0:0:
309,295,168910,1,2,0:2:0:0:
488,292,169028,5,2,3:2:0:0:
398,166,169145,1,2,0:2:0:0:
483,301,169262,1,2,0:2:0:0:
398,166,169379,1,2,0:2:0:0:
178,164,169496,1,10,3:2:0:0:
105,186,169613,1,2,0:2:0:0:
105,186,169731,1,2,0:2:0:0:
178,164,169848,1,2,0:2:0:0:
298,164,169965,2,0,P|333:236|282:242,1,149.999995231629,0|2,3:2|0:2,0:0:0:0:
211,241,170317,1,2,0:2:0:0:
435,75,170434,2,0,L|233:132,1,149.999995231629,8|2,0:0|0:2,0:0:0:0:
93,153,170903,6,0,L|246:199,1,149.999995231629,2|0,3:2|0:0,0:0:0:0:
25,240,171371,1,8,3:2:0:0:
107,240,171488,1,2,0:2:0:0:
186,244,171606,1,2,0:2:0:0:
186,244,171684,1,0,0:0:0:0:
138,169,171762,1,0,0:0:0:0:
52,168,171840,2,0,L|50:76,1,74.9999976158143,2|2,3:2|0:2,0:0:0:0:
150,77,172074,2,0,L|256:76,1,74.9999976158143,2|2,0:2|0:2,0:0:0:0:
429,190,172309,1,10,3:2:0:0:
434,170,172426,1,2,0:2:0:0:
344,195,172543,1,2,0:2:0:0:
412,198,172660,1,2,0:2:0:0:
207,330,172778,5,2,3:2:0:0:
135,310,172895,1,2,0:2:0:0:
251,261,173012,1,2,0:2:0:0:
184,248,173129,1,2,0:2:0:0:
326,221,173188,1,0,0:0:0:0:
474,224,173246,2,0,L|472:134,1,74.9999976158143,10|2,3:2|0:2,0:0:0:0:
392,147,173481,1,2,0:2:0:0:
151,139,173715,5,2,3:2:0:0:
78,161,173832,1,2,0:2:0:0:
69,134,173949,1,2,0:2:0:0:
151,179,174067,1,2,0:2:0:0:
362,277,174184,2,0,L|471:268,1,74.9999976158143,10|2,3:2|0:2,0:0:0:0:
357,166,174418,2,0,L|263:174,1,74.9999976158143,2|2,0:2|0:2,0:0:0:0:
54,89,174653,6,0,L|95:271,1,149.999995231629,2|2,3:2|0:2,0:0:0:0:
406,75,175121,2,0,L|485:77,1,74.9999976158143,10|2,3:2|0:2,0:0:0:0:
385,145,175356,2,0,L|468:159,1,74.9999976158143,2|2,0:2|0:2,0:0:0:0:
342,205,175590,1,0,3:2:0:0:
256,197,175707,2,0,L|170:186,2,74.9999976158143,2|2|0,0:2|0:2|0:0,0:0:0:0:
466,130,176059,2,0,L|291:132,1,149.999995231629,10|2,3:2|0:2,0:0:0:0:
244,130,176410,1,2,0:2:0:0:
115,135,176528,5,0,3:2:0:0:
46,136,176645,1,2,0:2:0:0:
127,170,176762,1,2,0:2:0:0:
179,192,176840,1,0,0:0:0:0:
121,168,176918,1,0,0:0:0:0:
295,184,176996,2,0,L|417:121,1,74.9999976158143,10|2,3:2|0:2,0:0:0:0:
432,114,177231,1,2,0:2:0:0:
312,118,177348,2,0,L|307:291,1,149.999995231629,2|2,0:2|0:2,0:0:0:0:
405,268,177699,1,0,0:0:0:0:
108,274,177934,2,0,L|-3:278,1,74.9999976158143,10|2,3:2|0:2,0:0:0:0:
115,200,178168,1,2,0:2:0:0:
430,147,178403,6,0,L|356:150,1,74.9999976158143,2|2,3:2|0:2,0:0:0:0:
451,231,178637,2,0,L|363:225,1,74.9999976158143,2|2,0:2|0:2,0:0:0:0:
174,226,178871,2,0,L|169:134,1,74.9999976158143,10|2,3:2|0:2,0:0:0:0:
254,223,179106,2,0,L|349:216,1,74.9999976158143,2|2,0:2|0:2,0:0:0:0:
443,212,179340,1,2,3:2:0:0:
512,179,179457,1,2,0:2:0:0:
443,212,179574,1,2,0:2:0:0:
512,179,179692,1,2,0:2:0:0:
267,114,179809,1,10,3:2:0:0:
198,115,179926,1,2,0:2:0:0:
267,114,180043,1,2,0:2:0:0:
336,113,180160,1,2,0:2:0:0:
118,63,180278,6,0,L|50:82,2,49.9999984105428,2|0|0,3:2|0:0|0:0,0:0:0:0:
203,46,180512,2,0,L|257:38,2,49.9999984105428,2|0|0,0:2|0:0|0:0,0:0:0:0:
56,161,180746,2,0,L|0:178,2,49.9999984105428,10|0|0,3:2|0:0|0:0,0:0:0:0:
134,141,180981,2,0,L|180:119,2,49.9999984105428,2|0|0,0:2|0:0|0:0,0:0:0:0:
288,215,181215,1,2,3:2:0:0:
233,167,181332,1,2,0:2:0:0:
342,163,181449,1,2,0:2:0:0:
413,123,181567,1,2,0:2:0:0:
211,127,181684,6,0,L|147:203,1,74.9999976158143,10|2,3:2|0:2,0:0:0:0:
431,123,181918,2,0,L|330:170,1,74.9999976158143,2|2,0:2|0:2,0:0:0:0:
112,192,182153,5,4,0:2:0:0:
349,71,182621,2,0,B|197:71|197:71|101:207,1,299.999990463257,0|0,0:0|0:0,0:0:0:0:
352,192,183559,1,0,0:0:0:0:
32,192,184028,6,0,B|32:296|32:296|232:296,1,299.999990463257,0|0,0:0|0:0,0:0:0:0:
464,192,184965,1,0,0:0:0:0:
240,192,185434,1,0,0:0:0:0:
480,192,185903,5,0,0:0:0:0:
240,56,186371,2,0,B|104:112|104:112|280:112,1,299.999990463257,0|0,0:0|0:0,0:0:0:0:
496,112,187309,1,0,0:0:0:0:
192,192,187778,5,0,0:0:0:0:
416,176,188246,2,0,B|416:296|416:296|360:296|360:296|360:168,1,299.999990463257,0|0,0:0|0:0,0:0:0:0:
136,192,189184,1,0,0:0:0:0:
376,192,189653,5,0,1:2:0:0:
136,192,190121,1,0,0:0:0:0:
400,48,190590,2,0,L|96:48,1,299.999990463257,0|0,0:0|0:0,0:0:0:0:
344,112,191528,5,0,0:0:0:0:
120,112,191996,2,0,B|56:168|56:168|272:168,1,299.999990463257,0|0,0:0|0:0,0:0:0:0:
424,192,192934,1,0,0:0:0:0:
184,192,193403,5,0,0:0:0:0:
424,192,193871,1,0,0:0:0:0:
200,192,194340,1,0,0:0:0:0:
496,192,194809,1,0,0:0:0:0:
192,192,195278,5,0,0:0:0:0:
452,292,195746,2,0,B|300:292|300:292|188:188,2,299.999990463257,0|0|0,0:0|0:0|0:0,0:0:0:0:
80,96,197153,6,0,P|48:176|168:240,1,239.999992370606,4|0,3:2|1:2,0:0:0:0:
400,64,198090,2,0,B|280:64|280:64|280:216,1,239.999992370606,0|0,0:2|1:2,0:0:0:0:
80,296,199028,6,0,B|208:296|208:296|208:160,1,239.999992370606,0|0,0:2|1:2,0:0:0:0:
408,48,199965,2,0,L|144:48,1,239.999992370606,0|0,0:2|1:2,0:0:0:0:
352,112,200903,6,0,B|448:112|448:112|448:168|448:168|352:168,1,239.999992370606,0|0,0:2|1:2,0:0:0:0:
160,240,201840,2,0,L|416:240,1,239.999992370606,0|0,0:2|1:2,0:0:0:0:
88,48,202778,6,0,L|88:304,1,239.999992370606,0|0,0:2|1:2,0:0:0:0:
424,328,203715,2,0,L|424:80,1,239.999992370606,0|0,0:2|1:2,0:0:0:0:
88,56,204653,6,0,P|208:56|280:144,3,239.999992370606,0|0|0|0,0:2|1:2|0:2|1:2,0:0:0:0:
160,24,206528,5,0,0:2:0:0:
38,205,206996,1,0,1:2:0:0:
208,342,207465,1,0,0:2:0:0:
359,184,207934,1,0,1:2:0:0:
160,40,208403,6,0,P|112:112|216:184,1,239.999992370606,0|0,0:2|1:2,0:0:0:0:
392,104,209340,2,0,P|464:144|392:248,1,239.999992370606,0|0,0:2|1:2,0:0:0:0:
80,192,210278,5,0,0:2:0:0:
368,192,210746,1,0,1:2:0:0:
184,80,211215,2,0,L|424:80,1,239.999992370606,0|0,0:2|1:2,0:0:0:0:
40,192,212153,5,4,0:2:0:0:
368,192,213090,1,0,0:0:0:0:
143,80,213412,2,0,P|264:80|352:152,1,224.999992847443,0|8,0:0|0:0,0:0:0:0:
272,144,214320,6,0,P|328:208|248:272,1,187.499994039536,0|8,0:0|0:0,0:0:0:0:
448,192,214965,1,0,0:0:0:0:
272,128,215199,2,0,P|200:204|280:260,1,224.999992847443,0|8,0:0|0:0,0:0:0:0:
448,192,215903,5,2,0:0:0:0:
304,200,216137,2,0,L|240:256,2,74.9999976158143,0|0|8,0:0|0:0|0:0,0:0:0:0:
456,56,216606,2,0,L|480:152,1,74.9999976158143,0|8,0:0|0:0,0:0:0:0:
320,72,216957,2,0,L|304:160,1,74.9999976158143,0|8,0:0|0:0,0:0:0:0:
464,192,217309,1,8,0:0:0:0:
248,256,217543,2,0,L|152:256,1,74.9999976158143,0|0,0:0|0:0,0:0:0:0:
272,192,217778,6,0,L|304:112,1,74.9999976158143,2|0,0:0|0:0,0:0:0:0:
208,80,218012,2,0,P|140:80|112:160,1,149.999995231629,2|8,0:0|0:0,0:0:0:0:
256,160,218481,2,0,L|288:200,2,37.4999988079071,2|0|0,0:0|0:0|0:0,0:0:0:0:
152,168,218715,2,0,P|96:208|144:264,1,149.999995231629,0|0,0:0|0:0,0:0:0:0:
224,256,219067,1,0,0:0:0:0:
108,44,219184,2,0,P|128:100|164:116,1,74.9999976158143,2|0,0:0|0:0,0:0:0:0:
332,96,219418,2,0,P|344:148|328:180,1,74.9999976158143,2|0,0:0|0:0,0:0:0:0:
64,232,219653,6,0,P|24:280|84:328,1,149.999995231629,4|0,0:0|0:0,0:0:0:0:
168,192,220004,1,2,0:0:0:0:
256,264,220121,2,0,L|80:264,1,149.999995231629,8|2,0:0|0:0,0:0:0:0:
224,320,220473,2,0,L|72:320,1,149.999995231629,8|2,0:0|0:0,0:0:0:0:
192,224,220824,2,0,L|224:144,1,74.9999976158143,8|0,0:0|0:0,0:0:0:0:
104,64,221059,2,0,L|256:56,1,149.999995231629,8|0,0:0|0:0,0:0:0:0:
160,128,221410,1,2,0:0:0:0:
64,136,221528,6,0,L|24:216,2,74.9999976158143,8|0|0,0:0|0:0|0:0,0:0:0:0:
288,48,221996,2,0,L|384:48,1,74.9999976158143,8|0,0:0|0:0,0:0:0:0:
268,248,222231,1,2,0:0:0:0:
224,248,222289,1,0,0:0:0:0:
176,248,222348,2,0,L|336:248,1,149.999995231629,8|0,0:0|0:0,0:0:0:0:
168,64,222699,2,0,P|136:128|200:144,1,149.999995231629,2|0,0:0|0:0,0:0:0:0:
296,152,223051,2,0,P|344:200|288:248,1,149.999995231629,2|0,0:0|0:0,0:0:0:0:
392,352,223403,6,0,P|456:320|424:264,1,149.999995231629,2|0,0:0|0:0,0:0:0:0:
352,232,223754,1,2,0:0:0:0:
224,240,223871,2,0,L|56:240,1,149.999995231629,8|2,0:0|0:0,0:0:0:0:
208,72,224223,2,0,L|152:136,2,74.9999976158143,8|0|2,0:0|0:0|0:0,0:0:0:0:
320,104,224574,2,0,L|360:176,1,74.9999976158143,8|0,0:0|0:0,0:0:0:0:
240,312,224809,2,0,L|408:312,1,149.999995231629,8|2,0:0|0:0,0:0:0:0:
472,312,225160,1,2,0:0:0:0:
280,192,225278,6,0,L|192:192,1,74.9999976158143,8|0,0:0|0:0,0:0:0:0:
320,40,225512,2,0,P|352:72|360:120,1,74.9999976158143,2|0,0:0|0:0,0:0:0:0:
472,192,225746,2,0,P|464:248|432:280,1,74.9999976158143,2|0,0:0|0:0,0:0:0:0:
272,296,225981,1,2,0:0:0:0:
224,312,226039,1,0,0:0:0:0:
168,328,226098,2,0,P|112:296|168:232,1,149.999995231629,8|0,0:0|0:0,0:0:0:0:
336,56,226449,2,0,L|368:104,2,37.4999988079071,2|0|0,0:0|0:0|0:0,0:0:0:0:
232,56,226684,1,2,0:0:0:0:
344,168,226801,1,2,0:0:0:0:
224,176,226918,1,2,0:0:0:0:
104,184,227035,1,2,0:0:0:0:
336,280,227153,6,0,L|448:280,3,97.4999924373631,4|0|0|0,3:3|0:0|0:0|0:0,0:0:0:0:
175,79,227621,2,0,L|64:88,2,97.4999924373631,8|0|0,0:2|0:0|0:0,0:0:0:0:
72,168,227973,2,0,P|40:216|56:256,1,97.4999924373631,0|0,0:0|0:0,0:0:0:0:
144,272,228207,1,0,0:0:0:0:
360,240,228324,2,0,L|464:240,1,97.4999924373631,0|0,0:0|0:0,0:0:0:0:
216,48,228559,2,0,P|160:88|224:168,1,194.999984874726,8|0,0:2|0:0,0:0:0:0:
328,144,228910,1,0,0:0:0:0:
72,240,229028,6,0,L|80:344,1,97.4999924373631,8|0,0:2|0:0,0:0:0:0:
224,248,229262,2,0,L|272:344,1,97.4999924373631,0|0,0:0|0:0,0:0:0:0:
408,280,229496,2,0,L|360:192,1,97.4999924373631,8|0,0:2|0:0,0:0:0:0:
256,192,229731,1,0,0:0:0:0:
316,192,229848,1,0,0:0:0:0:
400,104,229965,2,0,L|280:104,1,97.4999924373631,8|0,0:0|0:0,0:0:0:0:
160,40,230199,2,0,L|280:40,1,97.4999924373631,0|0,0:0|0:0,0:0:0:0:
32,288,230434,1,8,0:2:0:0:
120,288,230551,2,0,P|144:240|40:192,1,194.999984874726,0|0,0:0|0:0,0:0:0:0:
304,80,230903,6,0,L|416:80,1,97.4999924373631,4|0,3:1|0:0,0:0:0:0:
184,104,231137,2,0,L|168:128,4,24.3749981093408,0|0|0|0|0,0:0|0:0|0:0|0:0|0:0,0:0:0:0:
288,160,231371,2,0,P|360:192|352:232,1,97.4999924373631,8|0,0:2|0:0,0:0:0:0:
280,256,231606,1,0,0:0:0:0:
368,336,231723,2,0,P|416:304|416:256,1,97.4999924373631,0|8,0:0|0:0,0:0:0:0:
320,256,231957,1,0,0:0:0:0:
432,40,232074,2,0,L|464:144,1,97.4999924373631,0|0,0:0|0:0,0:0:0:0:
208,56,232309,2,0,P|120:56|40:152,1,194.999984874726,8|0,0:2|0:0,0:0:0:0:
144,128,232660,1,0,0:0:0:0:
360,192,232778,6,0,L|224:192,1,97.4999924373631,8|0,0:2|0:0,0:0:0:0:
400,248,233012,2,0,L|440:360,1,97.4999924373631,0|0,0:0|0:0,0:0:0:0:
216,48,233246,2,0,P|112:48|64:144,1,194.999984874726,8|0,0:2|0:0,0:0:0:0:
184,152,233598,2,0,L|248:240,2,97.4999924373631,0|8|0,0:0|0:2|0:0,0:0:0:0:
80,152,233949,1,0,0:0:0:0:
392,256,234184,2,0,L|160:256,1,209.999986915589,8|0,0:2|0:0,0:0:0:0:
496,68,234653,6,0,P|472:128|352:168,1,194.999984874726,4|0,3:1|0:0,0:0:0:0:
176,64,235121,2,0,P|104:64|88:168,1,194.999984874726,8|0,3:1|0:0,0:0:0:0:
296,192,235590,2,0,L|408:192,1,97.4999924373631,8|0,3:1|0:0,0:0:0:0:
192,192,235824,2,0,L|152:288,1,97.4999924373631,0|0,0:0|0:0,0:0:0:0:
352,256,236059,2,0,P|416:296|336:344,1,194.999984874726,8|0,3:1|0:0,0:0:0:0:
248,336,236410,1,0,0:0:0:0:
48,184,236528,6,0,P|32:248|56:280,1,97.4999924373631,8|0,3:1|0:0,0:0:0:0:
184,192,236762,2,0,L|280:208,1,97.4999924373631,0|0,0:0|0:0,0:0:0:0:
72,40,236996,2,0,P|48:96|80:136,1,97.4999924373631,8|0,3:1|0:0,0:0:0:0:
264,56,237348,1,0,0:0:0:0:
64,124,237465,2,0,P|32:172|72:212,1,97.4999924373631,8|0,3:1|0:0,0:0:0:0:
264,304,237699,2,0,L|320:224,1,97.4999924373631,0|0,0:0|0:0,0:0:0:0:
112,256,237934,2,0,P|56:256|32:288,1,97.4999924373631,8|0,3:1|0:0,0:0:0:0:
312,184,238168,1,0,3:2:0:0:
352,192,238226,1,0,3:2:0:0:
384,224,238285,1,0,3:2:0:0:
144,56,238403,6,0,P|96:112|96:168,1,112.500000715256,12|0,3:1|0:0,0:0:0:0:
344,232,238637,2,0,L|392:352,1,112.500000715256,8|0,3:1|0:0,0:0:0:0:
128,272,238871,2,0,P|170:236|225:239,1,112.500000715256,8|0,3:1|0:0,0:0:0:0:
496,56,239106,2,0,P|472:128|416:136,1,112.500000715256,8|0,3:1|0:0,0:0:0:0:
168,88,239340,6,0,P|96:96|72:128,1,112.500000715256,8|0,3:1|0:0,0:0:0:0:
360,296,239574,2,0,P|416:256|408:208,1,112.500000715256,8|0,3:1|0:0,0:0:0:0:
112,272,239809,2,0,P|56:288|24:248,1,112.500000715256,8|0,3:1|0:0,0:0:0:0:
336,48,240043,2,0,P|432:72|440:104,1,112.500000715256,8|0,3:1|0:0,0:0:0:0:
112,88,240278,6,0,P|64:96|48:160,1,112.500000715256,4|0,0:3|0:0,0:0:0:0:
312,112,240512,2,0,B|440:160|440:160|336:248|336:248|48:208|48:208|88:304,1,646.875004112721,0|0,0:0|0:0,0:0:0:0:
79,284,241215,2,0,L|303:284,1,196.875001251698,0|0,0:0|0:0,0:0:0:0:
275,284,241449,2,0,B|75:284,1,196.875001251698,0|0,0:0|0:0,0:0:0:0:
78,284,241684,2,0,B|422:284,1,337.500002145767,0|0,0:0|0:0,0:0:0:0:
112,192,242153,6,0,P|26:158|7:69,1,187.499994039536,4|0,3:2|0:0,0:0:0:0:
18,27,242445,1,0,0:0:0:0:
57,0,242504,1,0,0:0:0:0:
115,0,242563,1,0,0:0:0:0:
311,71,242621,2,0,L|408:71,2,93.7499970197678,8|8|8,3:2|0:3|0:3,0:0:0:0:
92,102,242973,6,0,L|88:202,1,93.7499970197678,2|0,0:1|3:2,0:0:0:0:
351,179,243207,2,0,P|407:236|347:304,1,187.499994039536,2|0,0:1|0:0,0:0:0:0:
271,305,243500,1,0,0:0:0:0:
195,304,243559,1,8,3:2:0:0:
297,305,243676,1,8,0:3:0:0:
203,305,243793,1,8,0:3:0:0:
465,307,243910,6,0,L|470:208,1,93.7499970197678,2|0,0:1|3:2,0:0:0:0:
174,209,244145,2,0,P|76:141|83:86,1,187.499994039536,2|0,0:1|0:0,0:0:0:0:
135,66,244438,1,0,0:0:0:0:
315,65,244496,1,8,3:2:0:0:
243,64,244613,2,0,L|224:40,1,23.437499254942,8|0,0:3|0:0,0:0:0:0:
364,64,244731,2,0,L|367:31,1,23.437499254942,8|0,0:3|0:0,0:0:0:0:
120,68,244848,2,0,L|117:37,1,23.437499254942,8|0,0:3|0:0,0:0:0:0:
221,65,245082,5,0,0:0:0:0:
80,67,245199,2,0,L|84:165,1,93.7499970197678,0|0,0:0|0:0,0:0:0:0:
320,192,245434,2,0,L|222:192,3,93.7499970197678,8|0|0|0,3:2|0:0|0:0|0:0,0:0:0:0:
476,193,245903,5,0,3:2:0:0:
488,172,245932,1,0,0:0:0:0:
489,149,245961,1,0,0:0:0:0:
482,127,245990,1,0,0:0:0:0:
466,110,246020,1,0,0:0:0:0:
444,101,246049,1,0,0:0:0:0:
421,101,246078,1,0,0:0:0:0:
396,112,246108,1,0,0:0:0:0:
385,128,246137,1,0,0:0:0:0:
376,157,246166,1,0,0:0:0:0:
383,182,246195,1,0,0:0:0:0:
399,201,246225,1,0,0:0:0:0:
418,209,246254,1,0,0:0:0:0:
437,213,246283,1,0,0:0:0:0:
457,206,246313,1,0,0:0:0:0:
292,69,246371,5,8,3:2:0:0:
198,69,246488,1,8,0:3:0:0:
301,69,246606,1,8,0:3:0:0:
102,71,246723,6,0,L|5:71,1,93.7499970197678,2|0,0:1|3:2,0:0:0:0:
289,167,246957,2,0,L|99:167,1,187.499994039536,2|0,0:1|0:0,0:0:0:0:
54,167,247250,1,0,0:0:0:0:
101,167,247309,2,0,L|198:167,1,93.7499970197678,8|8,3:2|0:3,0:0:0:0:
44,261,247543,2,0,L|144:261,1,93.7499970197678,8|8,0:3|0:3,0:0:0:0:
369,307,247778,6,0,P|438:213|407:155,1,187.499994039536,0|0,3:2|0:0,0:0:0:0:
330,119,248129,1,0,0:0:0:0:
95,117,248246,6,0,L|426:54,1,337.500002145768,8|0,3:2|0:0,0:0:0:0:
342,54,248598,1,0,0:0:0:0:
52,225,248715,6,0,L|383:162,1,337.500002145768,0|0,3:2|0:0,0:0:0:0:
299,162,249067,1,0,0:0:0:0:
38,73,249184,5,8,3:2:0:0:
5,159,249301,1,0,0:0:0:0:
30,247,249418,1,0,0:0:0:0:
103,304,249535,1,0,0:0:0:0:
353,309,249653,6,0,B|356:184|356:184|152:184|152:184|152:304,1,449.999985694885,0|0,3:2|0:0,0:0:0:0:
212,304,250063,1,0,0:0:0:0:
353,309,250121,2,0,L|452:309,2,93.7499970197678,8|8|8,3:2|0:3|0:3,0:0:0:0:
164,205,250473,6,0,L|257:205,1,93.7499970197678,2|0,0:1|3:2,0:0:0:0:
14,186,250707,2,0,B|15:92|15:92|108:92,1,187.499994039536,2|0,0:1|0:0,0:0:0:0:
187,92,251000,1,0,0:0:0:0:
265,92,251059,1,8,3:2:0:0:
163,91,251176,1,8,0:3:0:0:
257,91,251293,1,8,0:3:0:0:
490,93,251410,6,0,L|397:93,1,93.7499970197678,2|0,0:1|3:2,0:0:0:0:
139,219,251644,2,0,P|77:165|128:91,1,187.499994039536,2|0,0:1|0:0,0:0:0:0:
184,91,251938,1,0,0:0:0:0:
380,189,251996,2,0,L|390:147,4,23.437499254942,2|0|0|0|0,3:3|0:0|0:0|0:0|0:0,0:0:0:0:
98,337,252231,2,0,L|91:301,4,23.437499254942,2|0|0|0|0,0:3|0:0|0:0|0:0|0:0,0:0:0:0:
346,284,252465,5,2,3:3:0:0:
364,281,252494,1,0,0:0:0:0:
382,278,252524,1,0,0:0:0:0:
400,275,252553,1,0,0:0:0:0:
418,272,252582,1,0,0:0:0:0:
400,269,252611,1,0,0:0:0:0:
382,266,252641,1,0,0:0:0:0:
182,206,252699,2,0,L|152:206,1,23.437499254942,4|0,0:3|0:0,0:0:0:0:
347,124,252817,2,0,L|321:124,1,23.437499254942,4|0,0:3|0:0,0:0:0:0:
96,136,252934,5,2,3:3:0:0:
82,129,252963,1,0,0:0:0:0:
67,120,252992,1,0,0:0:0:0:
82,114,253022,1,0,0:0:0:0:
96,108,253051,1,0,0:0:0:0:
110,102,253080,1,0,0:0:0:0:
125,96,253110,1,0,0:0:0:0:
248,224,253168,1,2,0:3:0:0:
263,217,253197,1,0,0:0:0:0:
282,205,253226,1,0,0:0:0:0:
267,199,253256,1,0,0:0:0:0:
253,193,253285,1,0,0:0:0:0:
239,187,253314,1,0,0:0:0:0:
224,181,253344,1,0,0:0:0:0:
32,18,253403,5,6,0:2:0:0:
32,18,253432,2,0,L|27:175,1,140.624995529652,0|0,0:0|0:0,0:0:0:0:
27,158,253637,1,2,0:2:0:0:
432,64,253871,5,12,0:1:0:0:
272,64,254106,1,8,0:1:0:0:
488,64,254223,1,8,0:1:0:0:
112,64,254457,1,8,0:1:0:0:
312,64,254692,5,8,0:1:0:0:
96,64,254809,1,8,0:1:0:0:
448,64,255043,1,8,0:1:0:0:
328,64,255278,6,0,L|320:128,3,59.9999980926514,8|8|8|8,0:3|0:3|0:3|0:3,0:0:0:0:
176,124,255981,1,8,0:3:0:0:
248,124,256099,1,8,0:3:0:0:
320,123,256215,2,0,L|324:264,1,119.999996185303,8|8,0:3|0:3,0:0:0:0:
204,244,256684,1,8,0:3:0:0:
366,243,256840,1,0,0:0:0:0:
392,223,256879,1,0,0:0:0:0:
405,192,256918,1,0,0:0:0:0:
401,160,256957,1,0,0:0:0:0:
382,133,256996,1,0,0:0:0:0:
352,119,257035,1,0,0:0:0:0:
319,122,257074,1,0,0:0:0:0:
150,122,257153,6,0,B|318:122,1,168.750001072884,8|0,0:3|0:0,0:0:0:0:
368,152,257387,1,0,0:0:0:0:
384,200,257445,1,0,0:0:0:0:
360,252,257504,1,0,0:0:0:0:
312,264,257563,1,0,0:0:0:0:
104,264,257621,2,0,L|204:206,2,93.7499970197678,8|8|8,3:2|0:3|0:3,0:0:0:0:
408,252,257973,6,0,L|412:152,1,93.7499970197678,2|0,0:1|3:2,0:0:0:0:
149,175,258207,2,0,P|93:118|153:50,1,187.499994039536,2|0,0:1|0:0,0:0:0:0:
229,49,258500,1,0,0:0:0:0:
304,48,258559,1,8,3:2:0:0:
202,47,258676,1,8,0:3:0:0:
296,47,258793,1,8,0:3:0:0:
34,45,258910,6,0,L|116:92,1,93.7499970197678,2|0,0:1|3:2,0:0:0:0:
395,170,259145,2,0,P|386:81|303:47,1,187.499994039536,2|0,0:1|0:0,0:0:0:0:
256,48,259438,1,0,0:0:0:0:
116,92,259496,1,8,3:2:0:0:
296,172,259613,2,0,L|300:208,1,23.437499254942,8|0,0:3|0:0,0:0:0:0:
104,92,259731,2,0,L|101:125,1,23.437499254942,8|0,0:3|0:0,0:0:0:0:
308,172,259848,2,0,L|311:203,1,23.437499254942,8|0,0:3|0:0,0:0:0:0:
220,196,259965,5,0,3:2:0:0:
424,196,260082,1,0,0:0:0:0:
322,196,260199,1,0,0:0:0:0:
220,196,260316,1,0,0:0:0:0:
444,196,260434,1,8,3:2:0:0:
208,48,260551,1,0,0:0:0:0:
456,48,260668,2,0,L|352:48,1,93.7499970197678,0|0,0:0|0:0,0:0:0:0:
84,192,260903,5,0,3:2:0:0:
85,158,260932,1,0,0:0:0:0:
94,126,260961,1,0,0:0:0:0:
111,97,260990,1,0,0:0:0:0:
134,73,261020,1,0,0:0:0:0:
161,54,261049,1,0,0:0:0:0:
193,43,261078,1,0,0:0:0:0:
226,39,261108,1,0,0:0:0:0:
259,43,261137,1,0,0:0:0:0:
290,55,261166,1,0,0:0:0:0:
318,73,261195,1,0,0:0:0:0:
341,98,261225,1,0,0:0:0:0:
357,127,261254,1,0,0:0:0:0:
366,159,261283,1,0,0:0:0:0:
367,192,261313,1,0,0:0:0:0:
216,196,261371,5,8,3:2:0:0:
124,196,261488,1,8,0:3:0:0:
228,196,261606,1,8,0:3:0:0:
484,148,261723,6,0,L|489:48,1,93.7499970197678,2|0,0:1|3:2,0:0:0:0:
213,148,261957,2,0,L|403:148,1,187.499994039536,2|0,0:1|0:0,0:0:0:0:
448,148,262250,1,0,0:0:0:0:
400,148,262309,2,0,L|303:148,1,93.7499970197678,8|8,3:2|0:3,0:0:0:0:
420,240,262543,2,0,L|320:240,1,93.7499970197678,8|8,0:3|0:3,0:0:0:0:
64,288,262778,6,0,P|-5:194|26:136,1,187.499994039536,0|0,3:2|0:0,0:0:0:0:
103,100,263129,1,0,0:0:0:0:
338,98,263246,6,0,L|7:35,1,337.500002145768,8|0,3:2|0:0,0:0:0:0:
91,35,263598,1,0,0:0:0:0:
381,206,263715,6,0,L|50:143,1,337.500002145768,0|0,3:2|0:0,0:0:0:0:
134,143,264067,1,0,0:0:0:0:
395,54,264184,5,8,3:2:0:0:
300,56,264301,1,0,0:0:0:0:
395,54,264418,1,0,0:0:0:0:
300,56,264535,1,0,0:0:0:0:
64,56,264653,5,0,3:2:0:0:
48,68,264682,1,0,0:0:0:0:
34,83,264711,1,0,0:0:0:0:
23,100,264740,1,0,0:0:0:0:
15,118,264770,1,0,0:0:0:0:
10,137,264799,1,0,0:0:0:0:
8,157,264828,1,0,0:0:0:0:
9,177,264858,1,0,0:0:0:0:
13,197,264887,1,0,0:0:0:0:
20,216,264916,1,0,0:0:0:0:
30,233,264945,1,0,0:0:0:0:
43,248,264975,1,0,0:0:0:0:
58,262,265004,1,0,0:0:0:0:
136,264,265063,1,0,0:0:0:0:
324,264,265121,2,0,L|423:264,2,93.7499970197678,8|8|8,3:2|0:3|0:3,0:0:0:0:
107,186,265473,6,0,L|-1:185,1,93.7499970197678,2|0,0:1|3:2,0:0:0:0:
292,192,265707,2,0,B|291:98|291:98|198:98,1,187.499994039536,2|0,0:1|0:0,0:0:0:0:
120,96,266000,1,0,0:0:0:0:
41,96,266059,1,8,3:2:0:0:
136,96,266176,1,8,0:3:0:0:
32,96,266293,1,8,0:3:0:0:
304,92,266410,6,0,L|400:92,1,93.7499970197678,2|0,0:1|3:2,0:0:0:0:
139,219,266644,2,0,P|77:165|128:91,1,187.499994039536,2|0,0:1|0:0,0:0:0:0:
184,91,266938,1,0,0:0:0:0:
380,189,266996,1,2,3:3:0:0:
405,164,267026,1,0,0:0:0:0:
415,131,267055,1,0,0:0:0:0:
409,97,267084,1,0,0:0:0:0:
387,70,267113,1,0,0:0:0:0:
139,219,267231,1,2,0:3:0:0:
117,246,267260,1,0,0:0:0:0:
111,280,267289,1,0,0:0:0:0:
121,313,267318,1,0,0:0:0:0:
147,338,267348,1,0,0:0:0:0:
400,284,267465,5,2,3:3:0:0:
418,287,267495,1,0,0:0:0:0:
436,290,267524,1,0,0:0:0:0:
418,293,267553,1,0,0:0:0:0:
400,296,267582,1,0,0:0:0:0:
382,299,267612,1,0,0:0:0:0:
364,302,267641,1,0,0:0:0:0:
196,192,267699,2,0,L|160:192,1,31.2499990065893,8|0,0:3|0:0,0:0:0:0:
136,152,267778,2,0,L|132:112,1,31.2499990065893,0|0,0:0|0:0,0:0:0:0:
164,80,267856,2,0,L|204:80,1,31.2499990065893,0|0,0:0|0:0,0:0:0:0:
348,80,267934,6,0,L|352:120,1,31.2499990065893,0|0,0:0|0:0,0:0:0:0:
320,140,268012,2,0,L|280:140,1,31.2499990065893,0|0,0:0|0:0,0:0:0:0:
256,160,268090,2,0,L|252:200,1,31.2499990065893,0|0,0:0|0:0,0:0:0:0:
408,112,268168,6,0,L|412:76,1,31.2499990065893,0|0,0:0|0:0,0:0:0:0:
284,28,268246,2,0,L|240:28,1,31.2499990065893,0|0,0:0|0:0,0:0:0:0:
128,28,268324,2,0,L|80:28,1,31.2499990065893,0|0,0:0|0:0,0:0:0:0:
224,312,268403,6,0,P|269:109|169:291,1,599.999980926514,4|0,3:2|0:0,0:0:0:0:
380,192,269574,5,0,0:0:0:0:
156,192,270043,1,0,0:0:0:0:
256,192,270278,12,2,271918,0:1:0:0:
112,192,272621,6,0,P|56:140|112:84,1,172.499997806549,12|0,3:2|0:0,0:0:0:0:
214,84,272973,1,0,0:0:0:0:
316,84,273090,2,0,L|320:256,1,172.499997806549,0|0,3:2|0:0,0:0:0:0:
8,352,273559,2,0,L|20:160,1,172.499997806549,8|0,3:2|0:0,0:0:0:0:
276,256,274028,5,0,3:2:0:0:
189,256,274145,1,0,0:0:0:0:
103,256,274262,1,0,0:0:0:0:
189,256,274379,1,0,0:0:0:0:
412,256,274496,1,8,3:2:0:0:
196,256,274731,1,0,0:0:0:0:
496,256,274965,6,0,P|504:168|460:96,1,172.499997806549,2|0,3:2|0:0,0:0:0:0:
388,96,275317,1,2,0:2:0:0:
168,96,275434,2,0,L|348:96,1,172.499997806549,8|2,3:2|0:2,0:0:0:0:
32,96,275903,5,4,3:2:0:0:
360,96,276137,2,0,L|368:272,1,172.499997806549,4|10,0:3|3:2,0:0:0:0:
36,272,276606,2,0,L|188:192,1,172.499997806549,4|2,0:3|3:2,0:0:0:0:
492,272,277074,1,4,0:3:0:0:
148,272,277309,2,0,B|60:272|60:272|152:272,1,172.499997806549,10|4,3:2|0:3,0:0:0:0:
212,272,277660,1,0,0:0:0:0:
280,272,277778,5,2,3:2:0:0:
40,272,278012,2,0,L|48:96,1,172.499997806549,4|10,0:3|3:2,0:0:0:0:
264,272,278481,2,0,L|272:96,1,172.499997806549,4|2,0:3|3:2,0:0:0:0:
488,100,278949,1,4,0:3:0:0:
176,100,279184,1,10,3:2:0:0:
392,100,279418,1,4,0:3:0:0:
76,100,279653,5,0,3:2:0:0:
57,126,279711,1,0,0:0:0:0:
43,155,279770,1,0,0:0:0:0:
36,186,279828,1,0,0:0:0:0:
35,218,279887,1,0,0:0:0:0:
40,250,279945,1,0,0:0:0:0:
52,280,280004,1,0,0:0:0:0:
69,307,280063,1,0,0:0:0:0:
260,308,280121,6,0,L|456:308,1,172.499997806549,4|0,3:2|0:0,0:0:0:0:
344,308,280473,1,0,0:0:0:0:
432,308,280590,2,0,L|504:260,2,86.2499989032746,0|0|0,3:2|0:0|0:0,0:0:0:0:
344,308,280942,1,0,0:0:0:0:
104,308,281059,2,0,P|48:256|104:200,1,172.499997806549,8|0,3:2|0:0,0:0:0:0:
232,200,281410,1,0,0:0:0:0:
364,200,281528,5,0,3:2:0:0:
366,113,281645,1,0,0:0:0:0:
368,27,281762,1,0,0:0:0:0:
280,28,281879,1,0,0:0:0:0:
56,32,281996,1,8,3:2:0:0:
212,28,282231,2,0,L|304:28,1,86.2499989032746,0|0,0:0|0:0,0:0:0:0:
68,136,282465,2,0,B|56:224|56:224|140:224,1,172.499997806549,2|0,3:2|0:0,0:0:0:0:
216,224,282817,1,2,0:2:0:0:
424,224,282934,1,8,3:2:0:0:
176,224,283168,1,2,0:2:0:0:
488,224,283403,6,0,L|388:224,1,86.2499989032746,4|0,3:2|0:0,0:0:0:0:
116,224,283637,2,0,L|108:48,1,172.499997806549,4|10,0:3|3:2,0:0:0:0:
428,48,284106,2,0,L|276:128,1,172.499997806549,4|2,0:3|3:2,0:0:0:0:
384,96,284457,1,0,0:0:0:0:
492,48,284574,1,4,0:3:0:0:
180,48,284809,2,0,L|4:48,1,172.499997806549,10|4,3:2|0:3,0:0:0:0:
260,48,285278,5,2,3:2:0:0:
320,80,285395,1,0,3:2:0:0:
344,144,285512,1,4,0:3:0:0:
312,200,285629,1,0,3:2:0:0:
244,212,285746,1,10,3:2:0:0:
416,192,285981,2,0,L|328:192,1,86.2499989032746,4|0,0:3|0:0,0:0:0:0:
108,192,286215,2,0,P|64:256|112:328,1,172.499997806549,2|4,3:2|0:3,0:0:0:0:
188,328,286567,1,0,3:2:0:0:
332,328,286684,2,0,L|336:232,1,86.2499989032746,10|0,3:2|0:0,0:0:0:0:
176,192,286918,2,0,L|156:104,1,86.2499989032746,0|0,0:0|0:0,0:0:0:0:
476,244,287153,6,0,L|480:4,1,239.999992370606,4|0,3:2|0:0,0:0:0:0:
384,4,287504,1,0,0:0:0:0:
160,4,287621,6,0,P|112:72|172:108,1,172.499997806549,4|0,3:2|0:0,0:0:0:0:
264,108,287973,1,0,0:0:0:0:
136,108,288090,2,0,L|124:204,1,86.2499989032746,0|0,3:2|0:0,0:0:0:0:
232,188,288324,2,0,L|220:284,1,86.2499989032746,0|0,0:0|0:0,0:0:0:0:
460,192,288559,2,0,L|452:88,1,86.2499989032746,8|0,3:2|0:0,0:0:0:0:
364,96,288793,1,0,0:0:0:0:
136,28,289028,6,0,L|296:96,1,172.499997806549,0|0,3:2|0:0,0:0:0:0:
60,120,289496,1,8,3:2:0:0:
130,156,289613,1,0,0:0:0:0:
200,192,289730,1,0,0:0:0:0:
130,156,289848,1,0,0:0:0:0:
344,192,289965,2,0,B|432:192|432:192|432:276,1,172.499997806549,2|0,3:2|0:0,0:0:0:0:
356,288,290317,1,2,0:2:0:0:
164,280,290434,2,0,L|312:192,1,172.499997806549,8|2,3:2|0:2,0:0:0:0:
16,60,290903,6,0,L|12:260,1,172.499997806549,4|4,3:2|0:3,0:0:0:0:
264,148,291371,2,0,L|116:60,1,172.499997806549,10|4,3:2|0:3,0:0:0:0:
340,64,291840,1,2,3:2:0:0:
96,60,292074,1,4,0:3:0:0:
488,64,292309,2,0,P|500:168|464:240,1,172.499997806549,10|4,3:2|0:3,0:0:0:0:
388,228,292660,1,0,0:0:0:0:
144,228,292778,6,0,L|312:192,1,172.499997806549,2|4,3:2|0:3,0:0:0:0:
72,228,293246,2,0,L|240:192,1,172.499997806549,10|4,3:2|0:3,0:0:0:0:
484,192,293715,2,0,L|476:364,1,172.499997806549,2|4,3:2|0:3,0:0:0:0:
248,364,294184,1,10,3:2:0:0:
492,364,294418,1,4,0:3:0:0:
88,192,294653,5,4,3:2:0:0:
63,152,294711,1,0,0:0:0:0:
74,106,294770,1,0,0:0:0:0:
114,82,294828,1,0,0:0:0:0:
159,94,294887,1,0,0:0:0:0:
182,135,294945,1,0,0:0:0:0:
169,180,295004,1,0,0:0:0:0:
128,202,295063,1,0,0:0:0:0:
308,192,295121,6,0,L|488:192,1,172.499997806549,4|0,3:2|0:0,0:0:0:0:
392,192,295473,1,0,0:0:0:0:
256,192,295590,2,0,P|208:116|272:64,1,172.499997806549,0|0,3:2|0:0,0:0:0:0:
344,68,295942,1,0,0:0:0:0:
108,68,296059,2,0,L|100:156,1,86.2499989032746,8|0,3:2|0:0,0:0:0:0:
376,192,296293,2,0,L|472:192,1,86.2499989032746,0|0,0:0|0:0,0:0:0:0:
156,256,296528,6,0,L|316:192,1,172.499997806549,0|0,3:2|0:0,0:0:0:0:
76,192,296996,2,0,L|72:104,1,86.2499989032746,8|0,3:2|0:0,0:0:0:0:
212,48,297231,2,0,L|124:48,1,86.2499989032746,0|0,0:0|0:0,0:0:0:0:
384,48,297465,2,0,B|472:48|472:48|472:144,1,172.499997806549,2|0,3:2|0:0,0:0:0:0:
384,132,297817,1,2,0:2:0:0:
116,132,297934,2,0,L|108:324,1,172.499997806549,8|2,3:2|0:2,0:0:0:0:
408,308,298403,6,0,L|412:200,1,86.2499989032746,4|0,3:2|0:0,0:0:0:0:
168,192,298637,2,0,L|19:106,1,172.499997806549,4|10,0:3|3:2,0:0:0:0:
332,192,299106,2,0,L|183:106,1,172.499997806549,4|2,0:3|3:2,0:0:0:0:
268,108,299457,1,0,0:0:0:0:
182,105,299574,1,4,0:3:0:0:
492,104,299809,2,0,B|492:16|492:16|408:16,1,172.499997806549,10|4,3:2|0:3,0:0:0:0:
328,16,300160,1,0,0:0:0:0:
100,16,300278,6,0,L|96:112,1,86.2499989032746,2|0,3:2|3:2,0:0:0:0:
182,102,300512,2,0,L|96:102,1,86.2499989032746,4|0,0:3|3:2,0:0:0:0:
376,192,300746,2,0,L|380:288,1,86.2499989032746,10|0,3:2|0:0,0:0:0:0:
293,278,300980,2,0,L|381:278,1,86.2499989032746,4|0,0:3|0:0,0:0:0:0:
132,276,301215,1,2,3:2:0:0:
81,210,301332,1,0,3:2:0:0:
105,130,301449,1,4,0:3:0:0:
182,102,301566,1,0,3:2:0:0:
432,104,301684,2,0,L|440:8,1,86.2499989032746,10|0,3:2|0:0,0:0:0:0:
352,18,301918,2,0,L|448:18,1,86.2499989032746,4|0,0:3|0:0,0:0:0:0:
212,192,302153,6,0,L|364:192,1,149.999995231629,0|0,3:2|0:0,0:0:0:0:
28,192,302621,6,0,L|20:20,1,164.999999790192,12|0,3:2|0:0,0:0:0:0:
96,28,302973,1,0,0:0:0:0:
244,28,303090,1,0,3:2:0:0:
320,28,303207,1,0,0:0:0:0:
320,104,303324,1,0,0:0:0:0:
244,104,303442,1,0,0:0:0:0:
476,56,303559,1,8,3:2:0:0:
400,56,303676,1,0,0:0:0:0:
324,60,303793,1,0,0:0:0:0:
400,56,303910,1,0,0:0:0:0:
184,104,304028,6,0,L|20:104,1,164.999999790192,0|0,3:2|0:0,0:0:0:0:
92,104,304379,1,0,0:0:0:0:
308,192,304496,2,0,L|144:192,1,164.999999790192,8|0,3:2|0:0,0:0:0:0:
216,192,304847,1,0,0:0:0:0:
432,192,304965,2,0,P|472:264|424:328,1,164.999999790192,2|0,3:2|0:0,0:0:0:0:
356,324,305317,1,2,0:2:0:0:
140,324,305434,1,8,3:2:0:0:
232,324,305551,1,0,0:0:0:0:
324,324,305668,1,2,0:2:0:0:
24,324,305903,5,4,3:2:0:0:
420,324,306137,2,0,L|424:136,1,164.999999790192,4|10,0:3|3:2,0:0:0:0:
92,208,306606,2,0,L|88:44,1,164.999999790192,4|2,0:3|3:2,0:0:0:0:
384,40,307074,1,4,0:3:0:0:
52,44,307309,2,0,B|52:128|52:128|140:128,1,164.999999790192,10|0,3:2|0:0,0:0:0:0:
216,128,307660,1,0,0:0:0:0:
133,128,307778,5,2,3:2:0:0:
340,128,308012,2,0,L|194:44,1,164.999999790192,4|10,0:3|3:2,0:0:0:0:
444,132,308481,2,0,L|298:48,1,164.999999790192,4|2,0:3|3:2,0:0:0:0:
68,48,308949,1,4,0:3:0:0:
368,48,309184,1,10,3:2:0:0:
140,48,309418,1,4,0:3:0:0:
480,48,309653,5,0,3:2:0:0:
508,104,309711,1,0,0:0:0:0:
504,168,309770,1,0,0:0:0:0:
480,224,309828,1,0,0:0:0:0:
428,256,309887,1,0,0:0:0:0:
344,256,310004,1,0,0:0:0:0:
128,256,310121,6,0,L|336:256,1,164.999999790192,4|0,3:2|0:0,0:0:0:0:
60,256,310590,2,0,L|232:256,1,164.999999790192,0|0,3:2|0:0,0:0:0:0:
140,256,310942,1,0,0:0:0:0:
372,256,311059,2,0,L|456:256,2,82.4999998950959,8|0|0,3:2|0:0|0:0,0:0:0:0:
240,256,311410,1,0,0:0:0:0:
108,256,311528,6,0,L|104:72,1,164.999999790192,0|0,3:2|0:0,0:0:0:0:
188,92,311879,1,0,0:0:0:0:
408,92,311996,2,0,L|240:92,1,164.999999790192,8|0,3:2|0:0,0:0:0:0:
492,92,312465,2,0,L|484:268,1,164.999999790192,2|0,3:2|0:0,0:0:0:0:
400,256,312817,1,2,0:2:0:0:
176,256,312934,1,8,3:2:0:0:
300,256,313051,1,0,0:0:0:0:
424,256,313168,1,2,0:2:0:0:
52,256,313403,5,4,3:2:0:0:
352,256,313637,1,4,0:3:0:0:
112,256,313871,2,0,L|108:168,1,82.4999998950959,10|0,3:2|0:0,0:0:0:0:
344,176,314106,2,0,L|340:84,1,82.4999998950959,4|0,0:3|0:0,0:0:0:0:
196,92,314340,2,0,L|200:4,1,82.4999998950959,2|0,3:2|0:0,0:0:0:0:
444,12,314574,1,4,0:3:0:0:
128,8,314809,2,0,B|44:8|44:8|44:108,1,164.999999790192,10|0,3:2|0:0,0:0:0:0:
292,124,315278,6,0,L|296:216,1,82.4999998950959,2|2,3:2|3:2,0:0:0:0:
216,208,315512,2,0,L|212:304,1,82.4999998950959
364,292,315746,2,0,P|416:228|376:168,1,164.999999790192,2|0,3:2|0:0,0:0:0:0:
292,168,316098,1,0,0:0:0:0:
140,168,316215,2,0,L|67:126,2,82.4999998950959,2|2|0,3:2|3:2|0:0,0:0:0:0:
440,168,316684,1,2,3:2:0:0:
236,168,316801,1,0,0:0:0:0:
32,168,316918,1,0,0:0:0:0:
464,312,317153,6,0,L|468:72,1,239.999992370606,4|0,3:2|0:0,0:0:0:0:
376,72,317504,1,0,0:0:0:0:
152,72,317621,6,0,L|328:72,1,172.499997806549,12|0,3:2|0:0,0:0:0:0:
24,72,318090,2,0,L|16:256,1,172.499997806549,0|0,3:2|0:0,0:0:0:0:
360,192,318559,1,8,3:2:0:0:
232,192,318676,1,0,0:0:0:0:
104,192,318793,1,0,0:0:0:0:
452,192,319028,6,0,L|456:12,1,172.499997806549,0|0,3:2|0:0,0:0:0:0:
368,20,319379,1,0,0:0:0:0:
144,20,319496,2,0,L|136:192,1,172.499997806549,8|0,3:2|0:0,0:0:0:0:
480,192,319965,2,0,L|304:192,1,172.499997806549,2|0,3:2|0:0,0:0:0:0:
396,192,320317,1,2,0:2:0:0:
156,192,320434,2,0,L|68:192,2,86.2499989032746,8|0|2,3:2|0:0|0:2,0:0:0:0:
484,192,320903,6,0,L|488:4,1,172.499997806549,4|4,3:2|0:3,0:0:0:0:
256,328,321371,2,0,L|252:136,1,172.499997806549,10|4,3:2|0:3,0:0:0:0:
20,256,321840,2,0,L|28:64,1,172.499997806549,2|4,3:2|0:3,0:0:0:0:
116,84,322192,1,0,0:0:0:0:
340,84,322309,2,0,B|428:84|428:84|428:188,1,172.499997806549,10|4,3:2|0:3,0:0:0:0:
212,192,322778,5,2,3:2:0:0:
404,192,323012,1,4,0:3:0:0:
172,192,323246,1,10,3:2:0:0:
384,192,323480,1,4,0:3:0:0:
36,192,323715,2,0,P|24:104|96:12,1,172.499997806549,2|4,3:2|0:3,0:0:0:0:
192,32,324067,1,0,0:0:0:0:
408,32,324184,2,0,L|224:32,1,172.499997806549,10|0,3:2|0:0,0:0:0:0:
496,192,324653,6,0,L|120:192,1,374.999988079071,0|0,3:2|0:0,0:0:0:0:
480,312,325121,6,0,P|496:200|452:124,1,202.499994335175,4|0,3:2|0:0,0:0:0:0:
352,128,325473,1,0,0:0:0:0:
140,128,325590,2,0,L|328:48,1,202.499994335175,0|0,3:2|0:0,0:0:0:0:
28,64,326059,2,0,L|108:128,2,101.249997167587,8|0|0,3:2|0:0|0:0,0:0:0:0:
392,192,326528,6,0,L|184:192,1,202.499994335175,0|0,3:2|0:0,0:0:0:0:
88,192,326879,1,0,0:0:0:0:
336,268,326996,2,0,L|128:268,1,202.499994335175,8|0,3:2|0:0,0:0:0:0:
32,268,327347,1,0,0:0:0:0:
276,192,327465,2,0,L|484:192,1,202.499994335175,2|0,3:2|0:0,0:0:0:0:
72,84,327934,1,8,3:2:0:0:
276,84,328051,1,0,0:0:0:0:
480,84,328168,1,2,0:2:0:0:
36,84,328403,6,0,L|28:312,1,202.499994335175,4|4,3:2|0:3,0:0:0:0:
456,344,328871,2,0,L|448:120,1,202.499994335175,10|4,3:2|0:3,0:0:0:0:
40,84,329340,2,0,L|148:84,2,101.249997167587,2|0|4,3:2|0:0|0:3,0:0:0:0:
388,84,329809,1,10,3:2:0:0:
24,84,330043,1,4,0:3:0:0:
404,84,330278,6,0,L|252:0,1,172.499997806549,2|4,3:2|0:3,0:0:0:0:
364,40,330629,1,0,3:2:0:0:
476,84,330746,2,0,L|296:84,1,172.499997806549,10|4,3:2|0:3,0:0:0:0:
0,84,331215,2,0,L|172:84,1,172.499997806549,2|4,3:2|0:3,0:0:0:0:
476,232,331684,5,10,3:2:0:0:
288,232,331801,1,0,0:0:0:0:
100,236,331918,1,4,0:3:0:0:
412,232,332153,6,0,L|416:80,1,149.999995231629,4|0,3:2|0:0,0:0:0:0:
192,152,332621,1,8,0:3:0:0:
344,152,332856,2,0,L|424:152,1,74.9999976158143,0|0,0:0|0:0,0:0:0:0:
296,264,333090,1,0,0:0:0:0:
192,264,333207,2,0,B|112:264|112:264|192:264,1,149.999995231629,0|0,0:0|0:0,0:0:0:0:
296,264,333559,1,8,0:3:0:0:
72,136,334028,6,0,P|32:192|72:256,1,149.999995231629,0|0,3:2|0:0,0:0:0:0:
296,192,334496,1,2,0:3:0:0:
160,56,334731,2,0,L|264:56,1,74.9999976158143,0|0,0:0|0:0,0:0:0:0:
160,120,334906,1,0,0:0:0:0:
84,128,334965,2,0,P|84:180|112:216,1,89.9999943923952,0|0,0:0|0:0,0:0:0:0:
384,264,335199,2,0,L|476:280,1,74.9999976158143,4|0,3:2|0:0,0:0:0:0:
384,264,335434,1,2,0:3:0:0:
192,284,335551,1,0,0:0:0:0:
264,284,335668,2,0,P|304:284|336:316,1,74.9999976158143,0|0,3:2|0:0,0:0:0:0:
64,192,335903,6,0,P|64:264|136:264,1,149.999995231629,4|0,3:2|0:0,0:0:0:0:
352,192,336371,1,8,0:3:0:0:
144,48,336606,2,0,L|300:56,2,149.999995231629,0|0|0,0:0|0:0|3:2,0:0:0:0:
344,156,337309,1,8,0:3:0:0:
40,56,337778,6,0,L|120:56,1,74.9999976158143,0|0,3:2|0:0,0:0:0:0:
360,304,338129,2,0,L|280:304,1,74.9999976158143,0|0,3:2|0:0,0:0:0:0:
192,304,338363,1,0,0:0:0:0:
320,224,338481,2,0,L|352:192,3,37.4999988079071,0|0|0|0,3:3|0:0|3:3|0:0,0:0:0:0:
152,112,338715,2,0,P|80:112|80:176,1,149.999995231629,4|0,3:2|0:0,0:0:0:0:
280,64,339067,2,0,P|376:64|448:128,1,194.999984874726,4|0,3:2|0:0,0:0:0:0:
144,248,339418,2,0,L|32:248,1,112.500000715256,4|0,3:2|0:0,0:0:0:0:
264,152,339653,5,4,3:2:0:0:
376,148,339770,1,0,0:0:0:0:
264,232,339887,1,0,0:0:0:0:
176,232,340004,1,0,0:0:0:0:
112,232,340121,1,8,0:3:0:0:
440,44,340356,2,0,P|476:44|496:80,1,74.9999976158143,0|0,0:0|0:0,0:0:0:0:
368,128,340590,1,0,0:0:0:0:
264,128,340707,2,0,B|184:128|184:128|264:128,1,149.999995231629,0|0,0:0|0:0,0:0:0:0:
368,128,341059,1,8,0:3:0:0:
264,128,341176,1,0,0:0:0:0:
264,128,341293,1,0,0:0:0:0:
424,312,341528,6,0,L|349:312,1,74.9999976158143,0|0,3:2|0:0,0:0:0:0:
456,312,341762,2,0,L|456:232,1,74.9999976158143,0|0,0:0|0:0,0:0:0:0:
352,240,341996,1,2,0:3:0:0:
168,48,342231,2,0,L|72:48,1,74.9999976158143,0|0,0:0|0:0,0:0:0:0:
152,104,342406,1,0,0:0:0:0:
208,176,342465,2,0,B|133:176,1,74.9999976158143,0|0,0:0|0:0,0:0:0:0:
384,72,342699,2,0,L|464:72,1,74.9999976158143,4|0,3:2|0:0,0:0:0:0:
368,160,342934,1,2,0:3:0:0:
280,160,343051,1,0,0:0:0:0:
368,248,343168,2,0,L|456:248,1,74.9999976158143,0|0,3:2|0:0,0:0:0:0:
128,48,343403,6,0,L|128:152,1,74.9999976158143,4|0,3:2|0:0,0:0:0:0:
224,192,343637,2,0,L|224:272,1,74.9999976158143
128,192,343871,1,8,0:3:0:0:
352,96,344106,5,0,0:0:0:0:
232,96,344223,1,0,0:0:0:0:
112,96,344340,1,0,0:0:0:0:
232,184,344457,1,0,0:0:0:0:
352,184,344574,1,0,3:2:0:0:
232,264,344692,1,0,0:0:0:0:
352,264,344809,2,0,P|400:312|352:360,1,149.999995231629,8|0,0:3|0:0,0:0:0:0:
144,56,345278,6,0,L|224:56,1,74.9999976158143,0|0,3:2|0:0,0:0:0:0:
425,135,345629,2,0,L|344:136,1,74.9999976158143,0|8,3:2|0:3,0:0:0:0:
248,136,345863,1,0,0:0:0:0:
351,135,345981,2,0,L|360:171,3,37.4999988079071,0|0|0|0,3:3|0:0|3:3|0:0,0:0:0:0:
232,232,346215,2,0,P|144:232|104:280,1,149.999995231629,4|0,3:2|0:0,0:0:0:0:
336,312,346567,2,0,P|424:312|480:216,1,194.999984874726,4|0,3:2|0:0,0:0:0:0:
176,48,346918,2,0,L|56:48,1,112.500000715256,4|0,3:2|0:0,0:0:0:0:
312,144,347153,6,0,B|392:208|392:208|152:208,1,337.500002145767,2|0,0:0|0:2,0:0:0:0:
