osu file format v14

[General]
AudioFilename: audio.mp3
AudioLeadIn: 0
PreviewTime: 156253
Countdown: 0
SampleSet: Normal
StackLeniency: 0.7
Mode: 2
LetterboxInBreaks: 0
WidescreenStoryboard: 1

[Editor]
Bookmarks: 28353,105153,130753
DistanceSpacing: 1.1
BeatDivisor: 4
GridSize: 8
TimelineZoom: 1.9

[Metadata]
Title:Rattlesnake
TitleUnicode:Rattlesnake
Artist:Teminite & Evilwave
ArtistUnicode:Teminite & Evilwave
Creator:Absolute Zero
Version:Collab Rain
Source:osu!
Tags:electronic EDM Uprising featured artist mappers guild JBHyperion JBH Dapuluous Sam Norris instrumental dubstep and
BeatmapID:2396301
BeatmapSetID:1147605

[Difficulty]
HPDrainRate:5
CircleSize:4
OverallDifficulty:9
ApproachRate:9
SliderMultiplier:2.4
SliderTickRate:1

[Events]
//Background and Video events
0,0,"ssssssssssssssssssSSSS.png",0,0
//Break Periods
2,105353,110953
//Storyboard Layer 0 (Background)
//Storyboard Layer 1 (Fail)
//Storyboard Layer 2 (Pass)
//Storyboard Layer 3 (Foreground)
//Storyboard Layer 4 (Overlay)
//Storyboard Sound Samples

[TimingPoints]
2753,400,4,2,1,40,1,0
3553,-100,4,2,2,40,0,0
5153,-100,4,2,3,40,0,0
5953,-100,4,2,4,40,0,0
6753,-100,4,2,2,40,0,0
7153,-100,4,2,5,40,0,0
7553,-100,4,2,3,40,0,0
9153,-100,4,2,1,40,0,0
9953,-100,4,2,2,40,0,0
11553,-100,4,2,3,40,0,0
12353,-100,4,2,4,40,0,0
13153,-100,4,2,2,40,0,0
13553,-100,4,2,6,40,0,0
13953,-100,4,2,7,40,0,0
14753,-100,4,2,3,40,0,0
15553,-100,4,2,1,40,0,0
16353,-100,4,2,2,40,0,0
17953,-100,4,2,3,40,0,0
18753,-100,4,2,4,40,0,0
19553,-100,4,2,2,40,0,0
19953,-100,4,2,5,40,0,0
20353,-100,4,2,3,40,0,0
21953,-100,4,2,1,40,0,0
22753,-100,4,2,2,40,0,0
24353,-100,4,2,3,40,0,0
25153,-100,4,2,4,40,0,0
25953,-100,4,2,2,40,0,0
26353,-100,4,2,6,40,0,0
26753,-100,4,2,7,40,0,0
27553,-100,4,2,3,40,0,0
28353,-100,4,1,1,50,0,0
40353,-100,4,1,1,60,0,0
52353,-100,4,1,1,65,0,0
53953,-83.3333333333333,4,3,1,70,0,1
76353,-100,4,3,2,65,0,0
79553,-83.3333333333333,4,3,1,65,0,1
101953,-100,4,3,1,65,0,0
117153,-100,4,2,1,65,0,0
117953,-100,4,2,8,65,0,0
118153,-100,4,2,1,65,0,0
125978,400,4,2,1,65,1,0
130753,400,4,1,1,65,1,0
130753,-100,4,1,1,65,0,0
131553,-100,4,1,2,65,0,0
131753,-100,4,1,1,65,0,0
156353,-100,4,3,1,65,0,1
178753,-100,4,3,2,65,0,0
181953,-100,4,3,1,65,0,1
204353,-100,4,1,1,65,0,0
205953,-100,4,3,1,65,0,0
207553,-100,4,1,1,65,0,0
208353,-100,4,1,1,60,0,0
209153,-100,4,1,1,55,0,0
209953,-100,4,1,1,50,0,0
210753,-100,4,1,1,45,0,0
211553,-100,4,1,1,40,0,0
212353,-100,4,1,1,35,0,0
212753,-100,4,1,1,30,0,0
213153,-100,4,1,1,25,0,0
213553,-100,4,1,1,15,0,0
213953,-100,4,1,1,10,0,0

[Colours]
Combo1 : 128,128,255
Combo2 : 255,119,130
Combo3 : 255,134,104
Combo4 : 255,255,85

[HitObjects]
389,324,2753,6,0,B|499:253|499:253|367:184,1,240,10|4,0:0|0:0,0:0:0:0:
173,76,3553,2,0,B|295:131|295:131|151:175,1,240,10|4,0:0|0:0,0:0:0:0:
0,158,4353,2,0,B|133:250|133:250|198:187,1,240,2|4,0:0|0:0,0:0:0:0:
414,58,5153,2,0,B|272:116|272:116|394:140,1,240,10|4,0:0|0:0,0:0:0:0:
71,210,5953,6,0,L|283:353,1,240,10|4,0:0|0:0,0:0:0:0:
68,205,6753,1,10,0:0:0:0:
356,194,7153,1,12,0:0:0:0:
157,75,7553,2,0,B|56:155|56:155|190:221,1,240,2|4,0:0|0:0,0:0:0:0:
366,131,8353,2,0,P|422:244|344:244,1,240,10|4,0:0|0:0,0:0:0:0:
80,115,9153,6,0,L|293:270,1,240,10|4,0:0|0:0,0:0:0:0:
54,251,9953,2,0,B|15:179|15:179|183:104,1,240,10|4,0:0|0:0,0:0:0:0:
368,187,10753,2,0,L|135:313,1,240,2|4,0:0|0:0,0:0:0:0:
384,317,11553,2,0,B|481:234|481:234|335:154,1,240,10|4,0:0|0:0,0:0:0:0:
94,46,12353,6,0,B|6:146|6:146|138:230,1,240,10|4,0:0|0:0,0:0:0:0:
303,206,13153,1,10,0:0:0:0:
18,216,13553,1,12,0:0:0:0:
220,210,13953,1,2,0:0:0:0:
508,207,14353,1,12,0:0:0:0:
296,328,14753,2,0,L|514:163,1,240,10|4,0:0|0:0,0:0:0:0:
154,182,15553,6,0,L|154:36,1,120,10|0,0:0|0:0,0:0:0:0:
271,63,15953,1,4,0:0:0:0:
74,87,16353,2,0,B|2:174|2:174|128:207,1,240,10|4,0:0|0:0,0:0:0:0:
448,202,17153,2,0,L|303:163,1,120,2|0,0:0|0:0,0:0:0:0:
224,136,17553,1,4,0:0:0:0:
332,170,17753,1,0,0:0:0:0:
456,52,17953,2,0,L|456:217,1,120,10|0,0:0|0:0,0:0:0:0:
346,49,18353,1,4,0:0:0:0:
57,250,18753,6,0,L|188:250,1,120,10|0,0:0|0:0,0:0:0:0:
57,250,19153,1,4,0:0:0:0:
272,251,19553,1,10,0:0:0:0:
0,249,19953,1,12,0:0:0:0:
334,254,20353,2,0,L|458:200,2,120,2|0|4,0:0|0:0|0:0,0:0:0:0:
109,56,21153,2,0,P|60:177|113:276,1,240,10|4,0:0|0:0,0:0:0:0:
473,257,21953,6,0,L|473:112,1,120,10|0,0:0|0:0,0:0:0:0:
341,133,22353,1,4,0:0:0:0:
138,132,22753,2,0,L|368:13,1,240,10|4,0:0|0:0,0:0:0:0:
62,236,23553,2,0,L|203:206,1,120,2|0,0:0|0:0,0:0:0:0:
286,242,23953,1,4,0:0:0:0:
179,211,24153,1,0,0:0:0:0:
68,85,24353,2,0,L|27:216,2,120,10|0|4,0:0|0:0|0:0,0:0:0:0:
403,205,25153,6,0,L|252:182,1,120,10|0,0:0|0:0,0:0:0:0:
427,116,25553,1,4,0:0:0:0:
196,111,25953,1,10,0:0:0:0:
485,117,26353,2,0,B|503:258|503:258|382:271,1,240,12|2,0:0|0:0,0:0:0:0:
117,277,27153,1,12,0:0:0:0:
346,278,27553,2,0,P|415:249|481:87,1,240,10|4,0:0|0:0,0:0:0:0:
115,95,28353,5,10,0:0:0:0:
388,75,28753,2,0,L|248:74,1,120,8|0,0:0|0:0,0:0:0:0:
394,210,29153,1,8,0:0:0:0:
243,211,29353,2,0,L|103:186,1,120,0|8,0:0|0:0,0:0:0:0:
422,96,29753,2,0,B|422:235|422:235|293:210,1,240,0|0,0:0|0:0,0:0:0:0:
168,201,30353,5,8,0:0:0:0:
168,201,30553,1,0,0:0:0:0:
378,65,30753,2,0,L|237:65,1,120,8|0,0:0|0:0,0:0:0:0:
50,58,31153,2,0,L|198:58,1,120,8|0,0:0|0:0,0:0:0:0:
377,56,31553,5,8,0:0:0:0:
257,55,31753,2,0,L|399:56,1,120,0|8,0:0|0:0,0:0:0:0:
249,129,32153,1,0,0:0:0:0:
129,127,32353,1,8,0:0:0:0:
249,129,32553,1,0,0:0:0:0:
381,132,32753,1,8,0:0:0:0:
84,262,32953,6,0,L|84:125,1,120,0|8,0:0|0:0,0:0:0:0:
220,142,33353,1,0,0:0:0:0:
84,142,33553,1,8,0:0:0:0:
220,142,33753,1,0,0:0:0:0:
408,206,33953,2,0,L|281:201,1,120,8|0,0:0|0:0,0:0:0:0:
102,88,34353,2,0,L|242:76,1,120,8|0,0:0|0:0,0:0:0:0:
14,268,34753,6,0,L|164:257,2,120,8|0|8,0:0|0:0|0:0,0:0:0:0:
158,89,35353,1,0,0:0:0:0:
282,263,35553,2,0,L|282:127,1,120,8|0,0:0|0:0,0:0:0:0:
154,141,35953,1,8,0:0:0:0:
452,142,36153,2,0,B|485:192|485:192|436:244,1,120,0|8,0:0|0:0,0:0:0:0:
204,239,36753,2,0,L|67:234,1,120,8|0,0:0|0:0,0:0:0:0:
285,239,37153,2,0,L|293:93,1,120,8|0,0:0|0:0,0:0:0:0:
96,119,37553,2,0,L|75:276,1,120,8|0,0:0|0:0,0:0:0:0:
386,142,37953,6,0,P|438:193|344:326,1,240,8|8,0:0|0:0,0:0:0:0:
176,316,38553,2,0,L|47:308,2,120,0|8|0,0:0|0:0|0:0,0:0:0:0:
297,315,39153,1,8,0:0:0:0:
112,56,39353,2,0,P|64:127|142:271,1,240,0|0,0:0|0:0,0:0:0:0:
261,244,39953,2,0,L|112:265,1,120,8|0,0:0|0:0,0:0:0:0:
439,124,40353,6,0,L|467:269,1,120,6|0,0:0|0:0,0:0:0:0:
158,129,40753,2,0,B|37:183|37:183|117:226,1,180,6|0,0:0|0:0,0:0:0:0:
289,211,41153,6,0,P|347:193|400:85,1,180,6|0,0:0|0:0,0:0:0:0:
340,90,41553,1,4,0:0:0:0:
464,97,41753,1,0,0:0:0:0:
334,88,41953,1,4,0:0:0:0:
213,52,42153,2,0,L|366:52,1,120,0|4,0:0|0:0,0:0:0:0:
496,58,42553,1,0,0:0:0:0:
190,301,42753,6,0,P|122:261|97:115,1,180,4|0,0:0|0:0,0:0:0:0:
169,131,43153,1,4,0:0:0:0:
298,133,43353,1,0,0:0:0:0:
90,217,43553,2,0,L|77:92,1,120,4|0,0:0|0:0,0:0:0:0:
282,107,43953,2,0,L|144:88,1,120,4|0,0:0|0:0,0:0:0:0:
464,264,44353,6,0,P|373:260|294:190,1,180,4|0,0:0|0:0,0:0:0:0:
373,174,44753,1,4,0:0:0:0:
494,178,44953,1,0,0:0:0:0:
361,171,45153,2,0,L|225:150,2,120,4|0|4,0:0|0:0|0:0,0:0:0:0:
61,65,45753,1,0,0:0:0:0:
239,64,45953,6,0,P|285:142|234:216,1,180,4|0,0:0|0:0,0:0:0:0:
174,209,46353,1,4,0:0:0:0:
312,214,46553,1,0,0:0:0:0:
175,92,46753,2,0,L|14:86,1,120,4|0,0:0|0:0,0:0:0:0:
264,303,47153,2,0,L|421:269,1,120,4|0,0:0|0:0,0:0:0:0:
81,59,47553,6,0,P|40:165|109:204,1,180,6|0,0:0|0:0,0:0:0:0:
153,201,47953,2,0,L|294:158,1,120,4|0,0:0|0:0,0:0:0:0:
142,103,48353,1,4,0:0:0:0:
265,102,48553,2,0,L|419:103,1,120,0|4,0:0|0:0,0:0:0:0:
193,99,48953,1,0,0:0:0:0:
479,341,49153,6,0,P|484:272|438:152,1,180,4|0,0:0|0:0,0:0:0:0:
366,125,49553,2,0,L|203:123,1,120,4|0,0:0|0:0,0:0:0:0:
444,263,49953,2,0,L|483:107,1,120,4|0,0:0|0:0,0:0:0:0:
268,266,50353,2,0,L|143:247,1,120,4|0,0:0|0:0,0:0:0:0:
449,76,50753,5,0,0:0:0:0:
480,102,50803,1,0,0:0:0:0:
491,142,50853,1,0,0:0:0:0:
497,189,50903,1,0,0:0:0:0:
491,142,50953,1,0,0:0:0:0:
480,102,51003,1,0,0:0:0:0:
449,76,51053,1,0,0:0:0:0:
256,276,51153,1,8,0:0:0:0:
232,248,51203,1,0,0:0:0:0:
217,213,51253,1,0,0:0:0:0:
231,173,51303,1,0,0:0:0:0:
254,148,51353,1,0,0:0:0:0:
280,121,51403,1,0,0:0:0:0:
251,90,51453,1,0,0:0:0:0:
55,77,51553,5,8,0:0:0:0:
24,103,51603,1,0,0:0:0:0:
13,143,51653,1,0,0:0:0:0:
7,190,51703,1,0,0:0:0:0:
13,143,51753,1,0,0:0:0:0:
24,103,51803,1,0,0:0:0:0:
55,77,51853,1,0,0:0:0:0:
225,316,51953,1,8,0:0:0:0:
260,292,52003,1,0,0:0:0:0:
286,258,52053,1,0,0:0:0:0:
292,221,52103,1,0,0:0:0:0:
286,258,52153,1,0,0:0:0:0:
260,292,52203,1,0,0:0:0:0:
225,316,52253,1,0,0:0:0:0:
28,96,52353,5,0,0:0:0:0:
154,95,52553,1,0,0:0:0:0:
355,95,52753,1,0,0:0:0:0:
211,96,52953,1,0,0:0:0:0:
477,259,53153,2,0,L|358:238,1,120,0|0,0:0|0:0,0:0:0:0:
225,112,53553,2,0,L|434:86,1,180,0|0,0:0|0:0,0:0:0:0:
148,189,53953,6,0,B|25:88|25:88|127:41,1,215.999993408203,4|0,0:0|0:0,0:0:0:0:
208,309,54353,2,0,L|230:124,1,143.999995605469,0|0,0:0|0:0,0:0:0:0:
488,171,54753,1,8,0:0:0:0:
317,117,54953,2,0,L|469:32,2,143.999995605469,0|0|0,0:0|0:0|0:0,0:0:0:0:
56,117,55553,6,0,B|4:167|4:167|76:210,1,143.999995605469,4|0,0:0|0:0,0:0:0:0:
284,96,55953,2,0,L|111:48,1,143.999995605469,0|0,0:0|0:0,0:0:0:0:
412,220,56353,2,0,L|240:165,1,143.999995605469,8|0,0:0|0:0,0:0:0:0:
92,177,56753,2,0,P|122:90|267:45,1,215.999993408203,0|0,0:0|0:0,0:0:0:0:
316,41,57153,5,4,0:0:0:0:
47,102,57353,2,0,P|223:113|332:212,1,287.999991210938,0|0,0:0|0:0,0:0:0:0:
36,249,57953,2,0,L|18:170,1,71.9999978027344,10|2,0:0|0:0,0:0:0:0:
94,183,58153,2,0,L|120:83,1,71.9999978027344,2|2,0:0|0:0,0:0:0:0:
38,107,58353,1,2,0:0:0:0:
214,109,58553,6,0,L|249:197,1,71.9999978027344,2|2,0:0|0:0,0:0:0:0:
24,276,58753,2,0,L|59:189,1,71.9999978027344,6|2,0:0|0:0,0:0:0:0:
131,213,58953,1,2,0:0:0:0:
297,286,59153,2,0,L|283:184,1,71.9999978027344,2|2,0:0|0:0,0:0:0:0:
205,290,59353,2,0,L|196:202,1,71.9999978027344,2|2,0:0|0:0,0:0:0:0:
422,298,59553,2,0,B|479:255|479:255|279:136|279:136|440:18,1,503.999984619141,10|0,0:0|0:0,0:0:0:0:
187,34,60353,6,0,P|97:75|144:187,1,215.999993408203,4|0,0:0|0:0,0:0:0:0:
236,175,60753,1,0,0:0:0:0:
278,165,60803,1,0,0:0:0:0:
303,132,60853,1,0,0:0:0:0:
314,101,60903,1,0,0:0:0:0:
314,101,60953,1,0,0:0:0:0:
303,132,61003,1,0,0:0:0:0:
278,165,61053,1,0,0:0:0:0:
76,262,61153,1,8,0:0:0:0:
318,273,61553,2,0,L|143:240,1,143.999995605469,0|0,0:0|0:0,0:0:0:0:
436,86,61953,6,0,B|490:148|491:147|415:221,1,143.999995605469,4|0,0:0|0:0,0:0:0:0:
226,140,62353,2,0,L|397:107,1,143.999995605469,0|0,0:0|0:0,0:0:0:0:
101,68,62753,2,0,L|250:20,1,143.999995605469,8|0,0:0|0:0,0:0:0:0:
369,32,63153,2,0,L|204:39,1,143.999995605469,0|0,0:0|0:0,0:0:0:0:
488,33,63553,6,0,P|429:119|236:96,1,287.999991210938,4|0,0:0|0:0,0:0:0:0:
366,71,64153,1,0,0:0:0:0:
100,79,64353,1,8,0:0:0:0:
232,77,64553,2,0,L|378:125,1,143.999995605469,0|0,0:0|0:0,0:0:0:0:
108,288,64953,2,0,L|271:287,1,143.999995605469,4|0,0:0|0:0,0:0:0:0:
26,187,65353,5,4,0:0:0:0:
296,190,65553,1,8,0:0:0:0:
427,191,65753,2,0,L|427:114,1,71.9999978027344,4|4,0:0|0:0,0:0:0:0:
214,114,65953,1,8,0:0:0:0:
49,192,66153,2,0,L|49:85,1,71.9999978027344,4|4,0:0|0:0,0:0:0:0:
262,112,66353,1,8,0:0:0:0:
132,109,66553,1,0,0:0:0:0:
407,115,66753,6,0,B|486:165|486:165|350:280,1,215.999993408203,4|0,0:0|0:0,0:0:0:0:
265,98,67153,2,0,L|267:249,1,143.999995605469,0|0,0:0|0:0,0:0:0:0:
324,239,67453,1,0,0:0:0:0:
114,316,67553,2,0,L|263:316,1,143.999995605469,8|0,0:0|0:0,0:0:0:0:
96,219,67953,2,0,L|96:38,1,143.999995605469,0|0,0:0|0:0,0:0:0:0:
367,97,68353,6,0,L|208:130,1,143.999995605469,4|0,0:0|0:0,0:0:0:0:
436,57,68753,2,0,L|272:117,1,143.999995605469,0|0,0:0|0:0,0:0:0:0:
39,216,69153,2,0,L|184:162,1,143.999995605469,8|0,0:0|0:0,0:0:0:0:
384,76,69553,2,0,P|285:47|177:93,1,215.999993408203,0|0,0:0|0:0,0:0:0:0:
113,123,69953,5,4,0:0:0:0:
376,113,70153,2,0,P|261:133|197:296,1,287.999991210938,0|0,0:0|0:0,0:0:0:0:
455,265,70753,2,0,L|473:186,1,71.9999978027344,10|2,0:0|0:0,0:0:0:0:
397,199,70953,2,0,L|371:99,1,71.9999978027344,2|2,0:0|0:0,0:0:0:0:
453,123,71153,1,2,0:0:0:0:
298,109,71353,6,0,L|263:197,1,71.9999978027344,2|2,0:0|0:0,0:0:0:0:
488,276,71553,2,0,L|453:189,1,71.9999978027344,6|2,0:0|0:0,0:0:0:0:
381,213,71753,1,2,0:0:0:0:
215,286,71953,2,0,L|229:184,1,71.9999978027344,2|2,0:0|0:0,0:0:0:0:
307,290,72153,2,0,L|316:202,1,71.9999978027344,2|2,0:0|0:0,0:0:0:0:
71,298,72353,2,0,B|10:250|10:250|131:157|131:157|-13:61|-13:61|97:16,1,503.999984619141,10|0,0:0|0:0,0:0:0:0:
293,44,73153,6,0,P|369:95|278:133,1,215.999993408203,4|0,0:0|0:0,0:0:0:0:
164,137,73553,1,0,0:0:0:0:
123,116,73603,1,0,0:0:0:0:
99,75,73653,1,0,0:0:0:0:
88,33,73703,1,0,0:0:0:0:
88,33,73753,1,0,0:0:0:0:
99,75,73803,1,0,0:0:0:0:
123,116,73853,1,0,0:0:0:0:
327,142,73953,6,0,B|379:206|379:206|244:271,1,215.999993408203,8|0,0:0|0:0,0:0:0:0:
193,295,74353,1,0,0:0:0:0:
330,296,74553,1,0,0:0:0:0:
365,273,74603,1,0,0:0:0:0:
365,273,74653,1,0,0:0:0:0:
161,74,74753,6,0,L|89:97,1,71.9999978027344,6|2,0:0|0:0,0:0:0:0:
169,170,74953,2,0,L|265:148,1,71.9999978027344,2|2,0:0|0:0,0:0:0:0:
329,174,75153,2,0,L|245:150,1,71.9999978027344,2|2,0:0|0:0,0:0:0:0:
324,80,75353,2,0,L|400:104,1,71.9999978027344,2|2,0:0|0:0,0:0:0:0:
185,269,75553,2,0,L|161:165,1,71.9999978027344,10|2,0:0|0:0,0:0:0:0:
250,200,75753,1,2,0:0:0:0:
449,204,75853,1,6,0:0:0:0:
375,202,75953,2,0,L|220:217,1,143.999995605469,0|0,0:0|0:0,0:0:0:0:
490,185,76353,1,0,0:0:0:0:
256,192,76553,12,0,78153,0:0:0:0:
106,92,78353,5,0,0:0:0:0:
339,100,78753,5,4,0:0:0:0:
398,124,78853,1,4,0:0:0:0:
401,186,78953,1,4,0:0:0:0:
338,213,79053,1,4,0:0:0:0:
215,211,79153,2,0,L|128:211,3,60,8|8|8|8,0:0|0:0|0:0|0:0,0:0:0:0:
355,61,79553,6,0,P|419:142|347:145,1,215.999993408203,4|0,0:0|0:0,0:0:0:0:
289,234,79953,2,0,L|436:256,1,143.999995605469,0|0,0:0|0:0,0:0:0:0:
466,260,80253,2,0,L|466:304,1,35.9999989013672,0|0,0:0|0:0,0:0:0:0:
374,293,80353,1,8,0:0:0:0:
97,97,80753,2,0,L|10:97,1,71.9999978027344
108,178,80953,2,0,L|193:179,1,71.9999978027344,0|0,0:0|0:0,0:0:0:0:
343,179,81153,5,4,0:0:0:0:
156,91,81353,2,0,L|156:65,1,17.9999994506836,0|0,0:0|0:0,0:0:0:0:
295,99,81553,2,0,L|296:80,1,17.9999994506836,0|0,0:0|0:0,0:0:0:0:
156,91,81753,2,0,L|156:121,1,17.9999994506836,0|0,0:0|0:0,0:0:0:0:
408,103,81953,2,0,L|408:72,1,17.9999994506836,8|0,0:0|0:0,0:0:0:0:
270,103,82153,2,0,L|270:73,1,17.9999994506836,0|0,0:0|0:0,0:0:0:0:
132,102,82353,2,0,L|132:73,1,17.9999994506836,0|0,0:0|0:0,0:0:0:0:
0,105,82553,2,0,L|0:76,1,17.9999994506836,0|0,0:0|0:0,0:0:0:0:
303,230,82753,6,0,L|168:178,1,143.999995605469,4|0,0:0|0:0,0:0:0:0:
348,308,83153,1,0,0:0:0:0:
494,103,83353,2,0,L|428:130,1,71.9999978027344,0|0,0:0|0:0,0:0:0:0:
217,98,83553,1,8,0:0:0:0:
390,189,83753,2,0,L|390:159,1,17.9999994506836,0|0,0:0|0:0,0:0:0:0:
252,185,83953,2,0,L|252:155,1,17.9999994506836,0|0,0:0|0:0,0:0:0:0:
391,189,84153,2,0,L|391:163,1,17.9999994506836,0|0,0:0|0:0,0:0:0:0:
141,66,84353,6,0,L|121:170,1,71.9999978027344,4|0,0:0|0:0,0:0:0:0:
252,73,84553,2,0,L|254:144,1,71.9999978027344,0|0,0:0|0:0,0:0:0:0:
36,290,84753,2,0,P|17:200|62:102,1,143.999995605469,0|0,0:0|0:0,0:0:0:0:
112,163,85053,1,0,0:0:0:0:
325,166,85153,1,8,0:0:0:0:
494,173,85353,2,0,L|355:112,2,143.999995605469,0|0|0,0:0|0:0|0:0,0:0:0:0:
203,54,85953,6,0,P|139:135|211:138,1,215.999993408203,4|0,0:0|0:0,0:0:0:0:
269,227,86353,2,0,L|122:249,1,143.999995605469,0|0,0:0|0:0,0:0:0:0:
92,253,86653,2,0,L|92:297,1,35.9999989013672,0|0,0:0|0:0,0:0:0:0:
184,285,86753,1,8,0:0:0:0:
499,110,87153,2,0,L|412:110,1,71.9999978027344,0|0,0:0|0:0,0:0:0:0:
348,174,87353,2,0,L|419:219,1,71.9999978027344,0|0,0:0|0:0,0:0:0:0:
196,183,87553,5,4,0:0:0:0:
36,98,87753,2,0,L|106:76,1,71.9999978027344,0|0,0:0|0:0,0:0:0:0:
165,203,87953,2,0,L|-2:171,1,143.999995605469,0|0,0:0|0:0,0:0:0:0:
316,184,88353,1,8,0:0:0:0:
187,97,88553,2,0,L|323:16,2,143.999995605469,0|0|0,0:0|0:0|0:0,0:0:0:0:
464,248,89153,6,0,L|329:196,1,143.999995605469,4|0,0:0|0:0,0:0:0:0:
444,244,89553,1,0,0:0:0:0:
281,195,89753,2,0,L|281:276,1,71.9999978027344,0|0,0:0|0:0,0:0:0:0:
490,188,89953,1,8,0:0:0:0:
490,188,90353,1,0,0:0:0:0:
231,193,90553,5,4,0:0:0:0:
373,199,90753,1,0,0:0:0:0:
85,191,90953,2,0,L|85:114,1,71.9999978027344,4|4,0:0|0:0,0:0:0:0:
298,114,91153,1,8,0:0:0:0:
463,192,91353,2,0,L|463:85,1,71.9999978027344,4|4,0:0|0:0,0:0:0:0:
250,112,91553,5,8,0:0:0:0:
400,107,91753,1,4,0:0:0:0:
437,137,91803,1,0,0:0:0:0:
437,137,91853,1,0,0:0:0:0:
327,107,91953,1,8,0:0:0:0:
125,102,92153,1,4,0:0:0:0:
394,211,92353,5,4,0:0:0:0:
236,212,92553,1,0,0:0:0:0:
403,210,92753,2,0,L|267:122,1,143.999995605469,0|0,0:0|0:0,0:0:0:0:
18,151,93153,1,8,0:0:0:0:
306,168,93553,2,0,L|301:66,1,71.9999978027344,0|0,0:0|0:0,0:0:0:0:
212,107,93753,2,0,L|296:101,1,71.9999978027344,0|0,0:0|0:0,0:0:0:0:
490,96,93953,5,4,0:0:0:0:
316,105,94153,1,0,0:0:0:0:
503,102,94353,2,0,L|503:75,1,17.9999994506836,0|0,0:0|0:0,0:0:0:0:
362,181,94553,2,0,L|362:164,1,17.9999994506836,0|0,0:0|0:0,0:0:0:0:
122,188,94753,2,0,L|122:157,1,17.9999994506836,8|0,0:0|0:0,0:0:0:0:
260,193,94953,2,0,L|260:167,1,17.9999994506836,0|0,0:0|0:0,0:0:0:0:
122,188,95153,2,0,L|122:156,1,17.9999994506836,0|0,0:0|0:0,0:0:0:0:
276,198,95353,2,0,L|276:166,1,17.9999994506836,0|0,0:0|0:0,0:0:0:0:
39,187,95553,6,0,L|41:35,1,143.999995605469,4|0,0:0|0:0,0:0:0:0:
199,42,95953,1,0,0:0:0:0:
39,40,96153,2,0,L|114:74,1,71.9999978027344,0|0,0:0|0:0,0:0:0:0:
316,69,96353,2,0,L|316:97,1,17.9999994506836,8|0,0:0|0:0,0:0:0:0:
454,70,96553,2,0,L|453:93,1,17.9999994506836,0|0,0:0|0:0,0:0:0:0:
308,198,96753,2,0,L|308:222,1,17.9999994506836,0|0,0:0|0:0,0:0:0:0:
170,202,96953,2,0,L|171:223,1,17.9999994506836,0|0,0:0|0:0,0:0:0:0:
403,195,97153,5,4,0:0:0:0:
239,100,97353,2,0,L|239:191,1,71.9999978027344,0|0,0:0|0:0,0:0:0:0:
346,172,97553,2,0,L|166:116,1,143.999995605469,0|0,0:0|0:0,0:0:0:0:
475,125,97953,1,8,0:0:0:0:
319,224,98153,2,0,L|169:292,2,143.999995605469,0|0|0,0:0|0:0|0:0,0:0:0:0:
51,52,98753,6,0,B|81:128|81:128|234:144,1,215.999993408203,4|0,0:0|0:0,0:0:0:0:
291,127,99153,2,0,P|339:160|268:209,1,143.999995605469,0|0,0:0|0:0,0:0:0:0:
232,220,99453,2,0,L|232:264,1,35.9999989013672,0|0,0:0|0:0,0:0:0:0:
324,218,99553,1,8,0:0:0:0:
143,327,99953,2,0,L|305:286,1,143.999995605469,0|0,0:0|0:0,0:0:0:0:
22,222,100353,6,0,L|181:184,1,143.999995605469,4|0,0:0|0:0,0:0:0:0:
224,168,100653,1,0,0:0:0:0:
126,57,100753,2,0,P|99:145|165:193,1,143.999995605469,0|0,0:0|0:0,0:0:0:0:
394,175,101153,1,8,0:0:0:0:
250,178,101353,2,0,L|420:114,1,143.999995605469,0|0,0:0|0:0,0:0:0:0:
498,184,101753,1,0,0:0:0:0:
179,66,101953,6,0,L|178:210,1,120,0|0,0:0|0:0,0:0:0:0:
306,190,102353,2,0,L|316:53,1,120,0|0,0:0|0:0,0:0:0:0:
180,67,102753,2,0,L|160:213,1,120,0|0,0:0|0:0,0:0:0:0:
308,293,103153,2,0,L|373:162,1,120,0|0,0:0|0:0,0:0:0:0:
301,150,103453,1,0,0:0:0:0:
194,123,103553,5,2,0:0:0:0:
202,180,103653,1,2,0:0:0:0:
281,122,103753,1,2,0:0:0:0:
286,176,103853,1,2,0:0:0:0:
386,127,103953,1,2,0:0:0:0:
414,182,104053,1,2,0:0:0:0:
280,136,104153,1,2,0:0:0:0:
228,176,104253,1,2,0:0:0:0:
352,181,104353,1,2,0:0:0:0:
479,181,104553,1,2,0:0:0:0:
244,182,104753,2,0,L|158:47,1,120,2|2,0:0|0:0,0:0:0:0:
480,64,105153,5,6,0:0:0:0:
256,192,111553,12,0,117210,0:0:0:0:
356,195,117953,6,0,L|356:68,1,120,4|0,0:0|0:0,0:0:0:0:
65,81,119553,2,0,L|184:155,1,120,0|0,0:0|0:0,0:0:0:0:
279,199,119953,1,0,0:0:0:0:
166,144,120153,1,0,0:0:0:0:
279,199,120353,2,0,L|416:285,1,120,0|0,0:0|0:0,0:0:0:0:
120,275,121153,6,0,L|208:188,1,120,0|0,0:0|0:0,0:0:0:0:
289,190,121553,1,0,0:0:0:0:
205,190,121753,1,0,0:0:0:0:
289,190,121953,2,0,P|339:167|244:41,1,240,0|0,0:0|0:0,0:0:0:0:
25,94,122753,6,0,L|149:40,2,120
293,97,123553,2,0,B|414:162|414:162|286:255,1,240,0|0,0:0|0:0,0:0:0:0:
80,69,124353,6,0,L|80:199,1,120,0|0,0:0|0:0,0:0:0:0:
347,226,125978,2,0,L|488:196,1,120,0|0,0:0|0:0,0:0:0:0:
347,226,126378,1,0,0:0:0:0:
347,226,126578,1,0,0:0:0:0:
217,224,126778,1,0,0:0:0:0:
217,224,126978,1,0,0:0:0:0:
403,205,127578,6,0,L|252:182,1,120,0|0,0:0|0:0,0:0:0:0:
196,111,128378,1,0,0:0:0:0:
256,192,128778,12,0,130378,0:0:0:0:
120,192,130753,5,10,0:0:0:0:
456,88,131153,2,0,L|336:88,2,120,8|0|0,0:0|0:0|0:0,0:0:0:0:
336,192,131753,1,0,0:0:0:0:
168,192,131953,1,8,0:0:0:0:
376,256,132153,1,0,0:0:0:0:
256,192,132353,6,0,B|256:312|256:312|376:312,1,240,8|8,0:0|0:0,0:0:0:0:
64,80,133153,1,8,0:0:0:0:
232,80,133353,1,0,0:0:0:0:
64,160,133553,2,0,L|64:288,1,120,8|0,0:0|0:0,0:0:0:0:
272,160,133953,6,0,L|152:160,1,120,8|0,0:0|0:0,0:0:0:0:
360,240,134353,2,0,L|240:240,2,120,8|0|8,0:0|0:0|0:0,0:0:0:0:
120,192,135153,1,8,0:0:0:0:
328,48,135353,1,0,0:0:0:0:
208,48,135553,6,0,L|208:168,1,120,8|0,0:0|0:0,0:0:0:0:
416,248,135953,2,0,L|296:248,3,120,8|0|8|0,0:0|0:0|0:0|0:0,0:0:0:0:
88,320,136753,6,0,L|344:320,1,240,8|8,0:0|0:0,0:0:0:0:
88,88,137553,1,8,0:0:0:0:
208,88,137753,1,0,0:0:0:0:
208,88,137953,1,8,0:0:0:0:
88,88,138153,1,0,0:0:0:0:
296,192,138353,1,8,0:0:0:0:
88,192,138553,1,0,0:0:0:0:
208,192,138753,6,0,B|280:192|280:192|280:288|280:288|208:288,1,240,8|8,0:0|0:0,0:0:0:0:
424,192,139553,1,8,0:0:0:0:
184,112,139953,1,8,0:0:0:0:
392,112,140153,1,0,0:0:0:0:
88,192,140353,6,0,B|160:192|160:192|160:288|160:288|88:288,1,240,8|8,0:0|0:0,0:0:0:0:
328,48,141153,2,0,L|208:48,3,120,8|0|8|0,0:0|0:0|0:0|0:0,0:0:0:0:
416,192,141953,6,0,L|160:192,1,240,8|8,0:0|0:0,0:0:0:0:
296,192,142553,1,0,0:0:0:0:
88,64,142753,2,0,L|281:64,1,180,6|0,0:0|0:0,0:0:0:0:
160,128,143153,2,0,B|56:128|56:128|56:208,1,180,6|0,0:0|0:0,0:0:0:0:
320,192,143553,6,0,B|392:192|392:192|392:232|392:232|320:232,1,180,6|0,0:0|0:0,0:0:0:0:
216,232,143953,1,4,0:0:0:0:
360,64,144153,2,0,L|480:64,1,120,0|4,0:0|0:0,0:0:0:0:
288,192,144553,2,0,L|288:312,1,120,0|4,0:0|0:0,0:0:0:0:
408,192,144953,1,0,0:0:0:0:
112,208,145153,6,0,B|40:208|40:208|40:248|40:248|112:248,1,180,4|0,0:0|0:0,0:0:0:0:
216,248,145553,2,0,L|72:248,1,120,4|0,0:0|0:0,0:0:0:0:
400,96,145953,2,0,L|217:96,1,180,4|0,0:0|0:0,0:0:0:0:
328,160,146353,2,0,L|464:160,1,120,4|0,0:0|0:0,0:0:0:0:
144,208,146753,6,0,B|72:208|72:208|72:248|72:248|144:248,1,180,4|0,0:0|0:0,0:0:0:0:
248,248,147153,2,0,L|376:248,1,120,4|0,0:0|0:0,0:0:0:0:
224,64,147553,1,4,0:0:0:0:
440,64,147753,2,0,L|320:64,2,120,0|4|0,0:0|0:0|0:0,0:0:0:0:
136,192,148353,6,0,B|32:192|32:192|32:280,1,180,4|0,0:0|0:0,0:0:0:0:
136,264,148753,2,0,L|264:264,1,120,4|0,0:0|0:0,0:0:0:0:
112,192,149153,1,4,0:0:0:0:
304,192,149353,1,0,0:0:0:0:
16,48,149553,2,0,B|16:144|16:144|104:144,1,180,4|0,0:0|0:0,0:0:0:0:
312,136,149953,6,0,L|448:136,1,120,4|0,0:0|0:0,0:0:0:0:
368,192,150253,1,0,0:0:0:0:
160,192,150353,2,0,L|40:192,1,120,4|0,0:0|0:0,0:0:0:0:
320,272,150753,1,4,0:0:0:0:
378,264,150853,1,0,0:0:0:0:
428,295,150953,1,0,0:0:0:0:
447,350,151053,1,0,0:0:0:0:
240,128,151153,1,4,0:0:0:0:
182,120,151253,1,0,0:0:0:0:
132,151,151353,1,0,0:0:0:0:
113,206,151453,1,0,0:0:0:0:
320,120,151553,5,4,0:0:0:0:
308,177,151653,1,0,0:0:0:0:
259,208,151753,1,0,0:0:0:0:
203,194,151853,1,0,0:0:0:0:
259,208,151953,1,4,0:0:0:0:
48,40,152053,1,0,0:0:0:0:
24,80,152153,1,0,0:0:0:0:
48,112,152253,1,0,0:0:0:0:
288,192,152353,5,4,0:0:0:0:
312,240,152453,1,0,0:0:0:0:
288,272,152553,1,0,0:0:0:0:
304,312,152653,1,0,0:0:0:0:
64,192,152753,1,4,0:0:0:0:
16,192,152853,1,0,0:0:0:0:
16,192,152953,1,0,0:0:0:0:
64,192,153053,1,0,0:0:0:0:
336,64,153153,5,4,0:0:0:0:
366,62,153203,1,0,0:0:0:0:
392,75,153253,1,0,0:0:0:0:
408,101,153303,1,0,0:0:0:0:
408,130,153353,1,0,0:0:0:0:
392,156,153403,1,0,0:0:0:0:
366,169,153453,1,0,0:0:0:0:
120,64,153553,6,0,L|96:104,6,30,8|0|0|0|0|0|0,0:0|0:0|0:0|0:0|0:0|0:0|0:0,0:0:0:0:
336,256,153953,5,8,0:0:0:0:
364,247,154003,1,0,0:0:0:0:
394,245,154053,1,0,0:0:0:0:
424,250,154103,1,0,0:0:0:0:
451,261,154153,1,0,0:0:0:0:
476,278,154203,1,0,0:0:0:0:
496,300,154253,1,0,0:0:0:0:
256,104,154353,5,8,0:0:0:0:
227,110,154403,1,0,0:0:0:0:
206,131,154453,1,0,0:0:0:0:
200,168,154503,1,0,0:0:0:0:
210,188,154553,1,0,0:0:0:0:
234,205,154603,1,0,0:0:0:0:
263,208,154653,1,0,0:0:0:0:
496,192,154753,6,0,L|360:192,1,120,0|0,0:0|0:0,0:0:0:0:
192,192,155153,1,0,0:0:0:0:
312,192,155353,1,0,0:0:0:0:
88,192,155553,2,0,P|88:272|184:272,1,180,0|0,0:0|0:0,0:0:0:0:
416,32,155953,2,0,P|480:40|480:144,1,180,4|0,0:0|0:0,0:0:0:0:
216,192,156353,6,0,L|88:192,1,120,4|0,0:0|0:0,0:0:0:0:
384,304,156753,2,0,L|369:304,1,15,0|0,0:0|0:0,0:0:0:0:
224,80,156953,2,0,L|200:80,1,15,0|0,0:0|0:0,0:0:0:0:
496,80,157153,2,0,L|496:208,1,120,8|0,0:0|0:0,0:0:0:0:
320,200,157553,1,0,0:0:0:0:
496,200,157753,1,0,0:0:0:0:
184,192,157953,5,4,0:0:0:0:
157,200,158003,1,0,0:0:0:0:
145,227,158053,1,0,0:0:0:0:
156,254,158103,1,0,0:0:0:0:
183,263,158153,1,0,0:0:0:0:
496,56,158353,2,0,L|496:80,1,15,0|0,0:0|0:0,0:0:0:0:
336,272,158553,2,0,L|312:272,1,15,0|0,0:0|0:0,0:0:0:0:
16,192,158753,2,0,L|144:192,1,120,8|0,0:0|0:0,0:0:0:0:
440,48,159153,1,2,0:0:0:0:
376,48,159253,1,0,0:0:0:0:
312,48,159353,1,0,0:0:0:0:
376,48,159453,1,0,0:0:0:0:
136,128,159553,6,0,L|16:128,1,120,6|2,0:0|0:0,0:0:0:0:
320,192,159953,2,0,L|335:192,1,15,0|0,0:0|0:0,0:0:0:0:
48,192,160153,2,0,L|33:192,1,15,0|0,0:0|0:0,0:0:0:0:
352,96,160353,2,0,L|224:96,1,120,10|2,0:0|0:0,0:0:0:0:
440,192,160753,2,0,L|440:256,1,60,0|0,0:0|0:0,0:0:0:0:
336,296,160953,2,0,L|408:296,1,60,0|0,0:0|0:0,0:0:0:0:
152,152,161153,6,0,L|24:152,1,120,6|2,0:0|0:0,0:0:0:0:
336,224,161553,2,0,L|256:224,1,60,0|0,0:0|0:0,0:0:0:0:
168,224,161753,2,0,L|240:224,1,60,0|0,0:0|0:0,0:0:0:0:
472,48,161953,2,0,L|472:176,1,120,8|0,0:0|0:0,0:0:0:0:
184,128,162353,2,0,L|168:128,1,15,0|0,0:0|0:0,0:0:0:0:
320,128,162553,2,0,L|344:128,1,15,0|0,0:0|0:0,0:0:0:0:
24,192,162753,6,0,L|24:312,1,120,4|0,0:0|0:0,0:0:0:0:
328,248,163153,2,0,L|304:248,1,15,0|0,0:0|0:0,0:0:0:0:
152,272,163353,2,0,L|128:272,1,15,0|0,0:0|0:0,0:0:0:0:
456,40,163553,2,0,L|456:160,1,120,8|0,0:0|0:0,0:0:0:0:
160,192,163953,1,0,0:0:0:0:
360,192,164153,1,0,0:0:0:0:
64,280,164353,6,0,L|64:160,1,120,4|0,0:0|0:0,0:0:0:0:
352,72,164753,2,0,L|328:72,1,15,0|0,0:0|0:0,0:0:0:0:
168,96,164953,2,0,L|184:96,1,15,0|0,0:0|0:0,0:0:0:0:
496,256,165153,2,0,L|496:128,1,120,8|0,0:0|0:0,0:0:0:0:
192,256,165553,1,0,0:0:0:0:
360,256,165753,1,0,0:0:0:0:
56,192,165953,6,0,L|176:192,1,120,6|2,0:0|0:0,0:0:0:0:
464,80,166353,2,0,L|440:80,1,15,0|0,0:0|0:0,0:0:0:0:
160,80,166553,2,0,L|176:80,1,15,0|0,0:0|0:0,0:0:0:0:
488,40,166753,2,0,B|488:160|488:160|360:160,1,240,10|0,0:0|0:0,0:0:0:0:
176,160,167353,1,4,0:0:0:0:
480,192,167553,6,0,L|480:320,1,120,0|4,0:0|0:0,0:0:0:0:
152,192,167953,2,0,L|272:192,1,120,8|4,0:0|0:0,0:0:0:0:
336,192,168253,1,4,0:0:0:0:
152,64,168353,2,0,L|32:64,1,120,8|4,0:0|0:0,0:0:0:0:
96,112,168653,1,4,0:0:0:0:
280,280,168753,2,0,L|152:280,1,120,8|4,0:0|0:0,0:0:0:0:
472,192,169153,6,0,L|472:312,1,120,4|0,0:0|0:0,0:0:0:0:
96,192,169553,1,2,0:0:0:0:
48,256,169686,1,2,0:0:0:0:
96,320,169819,1,2,0:0:0:0:
336,48,169953,2,0,L|456:48,1,120,8|0,0:0|0:0,0:0:0:0:
152,160,170353,1,0,0:0:0:0:
344,160,170553,1,0,0:0:0:0:
32,160,170753,6,0,L|32:280,1,120,4|0,0:0|0:0,0:0:0:0:
328,64,171153,2,0,L|343:64,1,15,0|0,0:0|0:0,0:0:0:0:
192,64,171353,2,0,L|177:64,1,15,0|0,0:0|0:0,0:0:0:0:
496,192,171553,2,0,L|496:320,1,120,8|0,0:0|0:0,0:0:0:0:
192,192,171953,2,0,L|256:192,3,60,2|0|0|0,0:0|0:0|0:0|0:0,0:0:0:0:
496,192,172353,6,0,L|496:72,1,120,6|2,0:0|0:0,0:0:0:0:
168,56,172753,2,0,L|168:80,1,15,0|0,0:0|0:0,0:0:0:0:
432,48,172953,2,0,L|432:72,1,15,0|0,0:0|0:0,0:0:0:0:
112,192,173153,2,0,B|32:192|32:192|32:280|32:280|112:280,1,240,10|0,0:0|0:0,0:0:0:0:
304,192,173753,1,0,0:0:0:0:
16,192,173953,6,4,L|16:312,1,120,6|2,0:0|0:0,0:0:0:0:
320,40,174353,2,0,L|256:40,1,60,0|0,0:0|0:0,0:0:0:0:
152,40,174553,2,0,L|88:40,1,60,0|0,0:0|0:0,0:0:0:0:
336,128,174753,2,0,L|456:128,1,120,8|0,0:0|0:0,0:0:0:0:
152,192,175153,1,0,0:0:0:0:
344,192,175353,1,0,0:0:0:0:
16,192,175553,6,0,L|16:312,1,120,4|0,0:0|0:0,0:0:0:0:
240,112,175953,1,0,0:0:0:0:
212,100,176003,1,0,0:0:0:0:
182,98,176053,1,0,0:0:0:0:
153,106,176103,1,0,0:0:0:0:
129,123,176153,1,0,0:0:0:0:
112,147,176203,1,0,0:0:0:0:
103,176,176253,1,0,0:0:0:0:
304,136,176353,6,0,L|456:136,1,120,8|0,0:0|0:0,0:0:0:0:
240,256,176753,2,0,L|360:256,1,120,0|0,0:0|0:0,0:0:0:0:
392,256,177003,2,0,L|360:256,1,30,0|0,0:0|0:0,0:0:0:0:
152,72,177153,6,0,L|88:72,1,60,6|2,0:0|0:0,0:0:0:0:
32,72,177353,2,0,L|32:152,1,60,2|2,0:0|0:0,0:0:0:0:
200,192,177553,2,0,L|200:256,1,60,2|2,0:0|0:0,0:0:0:0:
32,192,177753,2,0,L|32:252,1,60,2|2,0:0|0:0,0:0:0:0:
272,224,177953,2,0,L|400:224,1,120,8|0,0:0|0:0,0:0:0:0:
328,280,178253,1,4,0:0:0:0:
96,48,178353,1,0,0:0:0:0:
68,56,178403,1,0,0:0:0:0:
56,83,178453,1,0,0:0:0:0:
67,110,178503,1,0,0:0:0:0:
94,119,178553,2,0,L|176:120,1,60,4|0,0:0|0:0,0:0:0:0:
400,120,178753,5,0,0:0:0:0:
296,120,178953,1,0,0:0:0:0:
296,200,179153,1,0,0:0:0:0:
400,200,179353,1,0,0:0:0:0:
184,72,179553,1,0,0:0:0:0:
328,64,179753,1,0,0:0:0:0:
472,72,179953,2,0,L|472:200,1,120,0|0,0:0|0:0,0:0:0:0:
144,192,180353,5,0,0:0:0:0:
336,192,180553,1,0,0:0:0:0:
40,264,180753,1,0,0:0:0:0:
208,264,180953,1,0,0:0:0:0:
496,56,181153,1,4,0:0:0:0:
432,56,181253,1,4,0:0:0:0:
496,56,181353,1,4,0:0:0:0:
432,56,181453,1,4,0:0:0:0:
192,56,181553,2,0,L|120:56,1,60,8|8,0:0|0:0,0:0:0:0:
376,280,181753,2,0,L|376:208,1,60,8|8,0:0|0:0,0:0:0:0:
104,192,181953,6,0,P|64:232|104:264,1,120,4|0,0:0|0:0,0:0:0:0:
248,48,182353,1,0,0:0:0:0:
278,48,182403,1,0,0:0:0:0:
304,52,182453,1,0,0:0:0:0:
302,80,182503,1,0,0:0:0:0:
272,80,182553,1,0,0:0:0:0:
242,80,182603,1,0,0:0:0:0:
272,80,182653,1,0,0:0:0:0:
504,192,182753,2,0,L|376:192,1,120,8|0,0:0|0:0,0:0:0:0:
176,192,183153,1,0,0:0:0:0:
248,192,183253,1,0,0:0:0:0:
176,192,183353,1,0,0:0:0:0:
104,192,183453,1,0,0:0:0:0:
288,104,183553,5,4,0:0:0:0:
456,192,183753,2,0,L|456:168,1,15,0|0,0:0|0:0,0:0:0:0:
192,248,183953,2,0,L|168:248,1,15,0|0,0:0|0:0,0:0:0:0:
328,248,184153,2,0,L|352:248,1,15,0|0,0:0|0:0,0:0:0:0:
80,104,184353,2,0,L|80:128,1,15,8|0,0:0|0:0,0:0:0:0:
232,104,184553,2,0,L|232:128,1,15,0|0,0:0|0:0,0:0:0:0:
384,104,184753,2,0,L|384:120,1,15,0|0,0:0|0:0,0:0:0:0:
112,192,184953,2,0,L|88:192,1,15,0|0,0:0|0:0,0:0:0:0:
360,192,185153,6,0,L|480:192,1,120,4|0,0:0|0:0,0:0:0:0:
264,272,185553,1,0,0:0:0:0:
204,272,185653,1,0,0:0:0:0:
144,272,185753,1,0,0:0:0:0:
496,192,185953,1,8,0:0:0:0:
224,88,186153,2,0,L|200:88,1,15,0|0,0:0|0:0,0:0:0:0:
360,184,186353,2,0,L|344:184,1,15,0|0,0:0|0:0,0:0:0:0:
192,184,186553,2,0,L|168:184,1,15,0|0,0:0|0:0,0:0:0:0:
360,320,186753,6,0,L|280:320,1,60,4|0,0:0|0:0,0:0:0:0:
192,320,186953,2,0,L|120:320,1,60,0|0,0:0|0:0,0:0:0:0:
352,80,187153,2,0,L|480:80,1,120,0|0,0:0|0:0,0:0:0:0:
112,80,187553,1,8,0:0:0:0:
304,192,187753,1,0,0:0:0:0:
120,192,187953,1,0,0:0:0:0:
416,192,188153,1,0,0:0:0:0:
56,192,188353,6,0,L|184:192,1,120,4|0,0:0|0:0,0:0:0:0:
368,32,188753,1,0,0:0:0:0:
338,32,188803,1,0,0:0:0:0:
320,44,188853,1,0,0:0:0:0:
338,56,188903,1,0,0:0:0:0:
368,56,188953,1,0,0:0:0:0:
362,80,189003,1,0,0:0:0:0:
332,80,189053,1,0,0:0:0:0:
88,192,189153,2,0,L|88:320,1,120,8|0,0:0|0:0,0:0:0:0:
256,192,189553,2,0,L|256:256,1,60,0|0,0:0|0:0,0:0:0:0:
152,192,189753,2,0,L|152:256,1,60,0|0,0:0|0:0,0:0:0:0:
424,96,189953,6,0,L|424:160,1,60,4|0,0:0|0:0,0:0:0:0:
320,96,190153,2,0,L|320:160,1,60,0|0,0:0|0:0,0:0:0:0:
216,264,190353,2,0,L|344:264,1,120,0|0,0:0|0:0,0:0:0:0:
16,192,190753,1,8,0:0:0:0:
208,192,190953,1,0,0:0:0:0:
16,192,191153,1,0,0:0:0:0:
328,192,191353,1,0,0:0:0:0:
16,192,191553,6,0,L|144:192,1,120,4|0,0:0|0:0,0:0:0:0:
320,48,191953,1,0,0:0:0:0:
290,48,192003,1,0,0:0:0:0:
272,60,192053,1,0,0:0:0:0:
282,80,192103,1,0,0:0:0:0:
312,80,192153,1,0,0:0:0:0:
342,80,192203,1,0,0:0:0:0:
312,80,192253,1,0,0:0:0:0:
72,248,192353,2,0,L|312:248,1,240,8|0,0:0|0:0,0:0:0:0:
168,128,192953,2,0,L|104:128,1,60,4|0,0:0|0:0,0:0:0:0:
320,144,193153,6,0,L|440:144,1,120,0|4,0:0|0:0,0:0:0:0:
344,184,193453,1,4,0:0:0:0:
104,192,193553,2,0,L|104:320,1,120,8|4,0:0|0:0,0:0:0:0:
168,312,193853,1,4,0:0:0:0:
352,248,193953,2,0,L|232:248,1,120,8|0,0:0|0:0,0:0:0:0:
232,248,194253,1,4,0:0:0:0:
472,80,194353,2,0,L|472:208,1,120,8|4,0:0|0:0,0:0:0:0:
112,40,194753,6,0,L|112:160,1,120,4|0,0:0|0:0,0:0:0:0:
280,160,195153,1,0,0:0:0:0:
310,160,195203,1,0,0:0:0:0:
340,160,195253,1,0,0:0:0:0:
370,160,195303,1,0,0:0:0:0:
400,160,195353,1,0,0:0:0:0:
40,160,195553,1,8,0:0:0:0:
264,64,195953,2,0,L|324:64,3,60,0|0|0|0,0:0|0:0|0:0|0:0,0:0:0:0:
104,192,196353,5,4,0:0:0:0:
272,192,196553,1,0,0:0:0:0:
104,248,196753,2,0,L|104:272,1,15,0|0,0:0|0:0,0:0:0:0:
240,248,196953,2,0,L|240:272,1,15,0|0,0:0|0:0,0:0:0:0:
496,248,197153,2,0,L|496:272,1,15,8|0,0:0|0:0,0:0:0:0:
344,104,197353,2,0,L|320:104,1,15,0|0,0:0|0:0,0:0:0:0:
480,72,197553,2,0,L|504:72,1,15,0|0,0:0|0:0,0:0:0:0:
344,40,197753,2,0,L|320:40,1,15,0|0,0:0|0:0,0:0:0:0:
64,40,197953,5,4,0:0:0:0:
256,272,198153,1,0,0:0:0:0:
136,272,198353,1,0,0:0:0:0:
16,272,198553,1,0,0:0:0:0:
376,192,198753,1,8,0:0:0:0:
208,192,198953,2,0,L|192:192,1,15,0|0,0:0|0:0,0:0:0:0:
344,192,199153,2,0,L|360:192,1,15,0|0,0:0|0:0,0:0:0:0:
208,128,199353,2,0,L|184:128,1,15,0|0,0:0|0:0,0:0:0:0:
456,64,199553,6,0,L|392:64,3,60,4|0|0|0,0:0|0:0|0:0|0:0,0:0:0:0:
184,192,199953,2,0,L|64:192,1,120,0|0,0:0|0:0,0:0:0:0:
424,192,200353,1,8,0:0:0:0:
248,192,200553,1,0,0:0:0:0:
424,192,200753,1,0,0:0:0:0:
120,192,200953,1,0,0:0:0:0:
480,192,201153,6,0,L|480:312,1,120,4|0,0:0|0:0,0:0:0:0:
272,64,201553,1,0,0:0:0:0:
300,52,201603,1,0,0:0:0:0:
330,50,201653,1,0,0:0:0:0:
359,58,201703,1,0,0:0:0:0:
383,75,201753,1,0,0:0:0:0:
400,99,201803,1,0,0:0:0:0:
409,128,201853,1,0,0:0:0:0:
224,224,201953,2,0,L|96:224,1,120,8|0,0:0|0:0,0:0:0:0:
296,328,202353,2,0,L|224:328,1,60,0|0,0:0|0:0,0:0:0:0:
128,328,202553,2,0,L|64:328,1,60,0|0,0:0|0:0,0:0:0:0:
280,208,202753,5,4,0:0:0:0:
220,208,202853,1,0,0:0:0:0:
160,208,202953,1,0,0:0:0:0:
344,136,203153,1,0,0:0:0:0:
160,136,203353,1,0,0:0:0:0:
472,144,203553,2,0,L|471:270,1,120,8|0,0:0|0:0,0:0:0:0:
312,192,203953,1,0,0:0:0:0:
128,192,204153,1,0,0:0:0:0:
464,72,204353,5,4,0:0:0:0:
368,72,204553,1,0,0:0:0:0:
368,72,204753,1,0,0:0:0:0:
464,72,204953,1,0,0:0:0:0:
240,192,205153,1,0,0:0:0:0:
360,192,205353,1,0,0:0:0:0:
240,192,205553,1,0,0:0:0:0:
120,192,205753,1,0,0:0:0:0:
464,104,205953,5,2,0:0:0:0:
296,104,206153,1,2,0:0:0:0:
464,104,206353,1,2,0:0:0:0:
296,104,206553,1,2,0:0:0:0:
16,192,206753,1,2,0:0:0:0:
184,192,206953,1,2,0:0:0:0:
16,192,207153,1,2,0:0:0:0:
184,192,207353,1,2,0:0:0:0:
496,192,207553,5,6,0:0:0:0:
256,192,207753,12,0,213953,0:0:0:0:
