osu file format v14

[General]
AudioFilename: audio.mp3
AudioLeadIn: 0
PreviewTime: 108588
Countdown: 0
SampleSet: Normal
StackLeniency: 0.7
Mode: 1
LetterboxInBreaks: 0
WidescreenStoryboard: 1

[Editor]
Bookmarks: 13181,39363,91747,144090,152817
DistanceSpacing: 0.5
BeatDivisor: 8
GridSize: 8
TimelineZoom: 2.799999

[Metadata]
Title:Super Sonic Raving
TitleUnicode:Super Sonic Raving
Artist:Teletexter
ArtistUnicode:Teletexter
Creator:ZTH
Version:liku's Inner Oni
Source:Sonic R
Tags:liku ssr sega racing video game english breakcore Richard Jacques Digitizer the hedgehog electronic tj davis ost original soundtrack music sound team zak glynn
BeatmapID:4008311
BeatmapSetID:1321693

[Difficulty]
HPDrainRate:5.5
CircleSize:5
OverallDifficulty:6.5
ApproachRate:5
SliderMultiplier:1.4
SliderTickRate:1

[Events]
//Background and Video events
0,0,"YEA FAST.jpeg",0,68
//Break Periods
//Storyboard Layer 0 (Background)
//Storyboard Layer 1 (Fail)
//Storyboard Layer 2 (Pass)
//Storyboard Layer 3 (Foreground)
//Storyboard Layer 4 (Overlay)
//Storyboard Sound Samples

[TimingPoints]
111,272.727272727273,4,1,0,45,1,0
111,-153.846153846153,4,1,0,45,0,0
4744,-152.561334813352,4,1,0,45,0,0
4880,-151.929253453333,4,1,0,46,0,0
4948,-151.615172809159,4,1,0,46,0,0
5017,-151.297797925777,4,1,0,46,0,0
5085,-150.986319973358,4,1,0,46,0,0
5153,-150.676121870266,4,1,0,46,0,0
5289,-150.059533788111,4,1,0,46,0,0
5358,-149.748631629519,4,1,0,47,0,0
5426,-149.443493150685,4,1,0,47,0,0
5562,-148.836931682527,4,1,0,47,0,0
5835,-147.634090745698,4,1,0,47,0,0
5971,-147.042099277636,4,1,0,48,0,0
6039,-146.747880331749,4,1,0,48,0,0
6108,-146.450535712787,4,1,0,48,0,0
6176,-146.158676993929,4,1,0,48,0,0
6244,-145.867979241704,4,1,0,48,0,0
6380,-145.290039038114,4,1,0,48,0,0
6448,-145.002782923648,4,1,0,48,0,0
6517,-144.712461189618,4,1,0,49,0,0
6585,-144.427482179279,4,1,0,49,0,0
6653,-144.143623368526,4,1,0,49,0,0
6926,-143.015157722245,4,1,0,49,0,0
7062,-142.459559603676,4,1,0,49,0,0
7130,-142.183376234075,4,1,0,49,0,0
7198,-141.908261654282,4,1,0,50,0,0
7267,-141.63018739325,4,1,0,50,0,0
7335,-141.357207354948,4,1,0,50,0,0
7471,-140.814392029526,4,1,0,50,0,0
7539,-140.544544689622,4,1,0,50,0,0
7608,-140.271784115657,4,1,0,50,0,0
7744,-139.737257130963,4,1,0,51,0,0
7880,-139.206788474268,4,1,0,51,0,0
8017,-138.676475845823,4,1,0,51,0,0
8153,-138.154015410247,4,1,0,51,0,0
8221,-137.894258685047,4,1,0,51,0,0
8289,-137.635476914221,4,1,0,51,0,0
8358,-137.373880467803,4,1,0,52,0,0
8426,-137.117046347211,4,1,0,52,0,0
8562,-136.606248434761,4,1,0,52,0,0
8630,-136.352273970035,4,1,0,52,0,0
8698,-136.099242117082,4,1,0,52,0,0
8767,-135.843447333912,4,1,0,52,0,0
8835,-135.592298699231,4,1,0,52,0,0
9108,-134.593289998226,4,1,0,53,0,0
9244,-134.101088635019,4,1,0,53,0,0
9312,-133.85633545755,4,1,0,53,0,0
9381,-133.608894502172,4,1,0,53,0,0
9449,-133.365933045794,4,1,0,53,0,0
9517,-133.123853613334,4,1,0,54,0,0
9653,-132.642321677578,4,1,0,54,0,0
9722,-132.399344640311,4,1,0,54,0,0
9790,-132.160758362736,4,1,0,54,0,0
9926,-131.686156167484,4,1,0,54,0,0
10199,-130.743677226781,4,1,0,55,0,0
10335,-130.279180334598,4,1,0,55,0,0
10403,-130.048167367633,4,1,0,55,0,0
10471,-129.817972221706,4,1,0,55,0,0
10540,-129.585223349839,4,1,0,55,0,0
10608,-129.356662738908,4,1,0,55,0,0
10744,-128.901951806695,4,1,0,56,0,0
10812,-128.675793027696,4,1,0,56,0,0
10881,-128.44711812646,4,1,0,56,0,0
10949,-128.222551154958,4,1,0,56,0,0
11017,-127.99876804394,4,1,0,56,0,0
11290,-127.108152981271,4,1,0,57,0,0
11426,-126.66908563135,4,1,0,57,0,0
11494,-126.45068749185,4,1,0,57,0,0
11562,-126.233041164049,4,1,0,57,0,0
11631,-126.012958651434,4,1,0,57,0,0
11699,-125.796815261377,4,1,0,57,0,0
11835,-125.366745312663,4,1,0,57,0,0
11903,-125.152811188109,4,1,0,58,0,0
11972,-124.936476011195,4,1,0,58,0,0
12108,-124.512258625978,4,1,0,58,0,0
12244,-124.090912322359,4,1,0,58,0,0
12381,-123.669341268576,4,1,0,58,0,0
12517,-123.253670954007,4,1,0,59,0,0
12585,-123.046881884158,4,1,0,59,0,0
12653,-122.840785533571,4,1,0,59,0,0
12722,-122.632362859712,4,1,0,59,0,0
12790,-122.427651605482,4,1,0,59,0,0
12926,-122.020272631947,4,1,0,60,0,0
12994,-121.817598124058,4,1,0,60,0,0
13062,-121.615595780555,4,1,0,60,0,0
13131,-121.41130644965,4,1,0,60,0,0
13199,-121.210648204409,4,1,0,60,0,0
13335,-120.811314943436,4,1,0,60,0,0
13471,-120.414604280565,4,1,0,60,0,0
13607,-120.020490464714,4,1,0,60,0,0
13675,-119.824399419241,4,1,0,60,0,0
13744,-119.626078553659,4,1,0,60,0,0
13812,-119.431273135319,4,1,0,60,0,0
13880,-119.23710114831,4,1,0,60,0,0
14016,-118.850645150308,4,1,0,60,0,0
14085,-118.655531876566,4,1,0,60,0,0
14153,-118.463872082093,4,1,0,60,0,0
14289,-118.082403996739,4,1,0,60,0,0
14426,-117.70060687795,4,1,0,60,0,0
14562,-117.324030757649,4,1,0,60,0,0
14698,-116.949856618337,4,1,0,60,0,0
14766,-116.763663121279,4,1,0,60,0,0
14835,-116.575336519036,4,1,0,60,0,0
14903,-116.390332700983,4,1,0,60,0,0
14971,-116.205915150708,4,1,0,60,0,0
15107,-115.838827741591,4,1,0,60,0,0
15175,-115.656152370603,4,1,0,60,0,0
15244,-115.471378578091,4,1,0,60,0,0
15312,-115.289859380057,4,1,0,60,0,0
15380,-115.108909976985,4,1,0,60,0,0
15517,-114.746069675943,4,1,0,60,0,0
15653,-114.38813325513,4,1,0,60,0,0
15789,-114.032422968501,4,1,0,60,0,0
15857,-113.85539614568,4,1,0,60,0,0
15925,-113.678918112754,4,1,0,60,0,0
15994,-113.500403152392,4,1,0,60,0,0
16062,-113.325023048057,4,1,0,60,0,0
16198,-112.975883807329,4,1,0,60,0,0
16266,-112.802119684632,4,1,0,60,0,0
16335,-112.626345725135,4,1,0,60,0,0
16471,-112.281491726034,4,1,0,60,0,0
16607,-111.93874311806,4,1,0,60,0,0
16744,-111.595583487306,4,1,0,60,0,0
16880,-111.257003359063,4,1,0,60,0,0
16948,-111.088482565059,4,1,0,60,0,0
17016,-110.920471515267,4,1,0,60,0,0
17085,-110.750508386393,4,1,0,60,0,0
17153,-110.583517322428,4,1,0,60,0,0
17289,-110.251041400198,4,1,0,60,0,0
17358,-110.08312205951,4,1,0,60,0,0
17425,-109.92055870249,4,1,0,60,0,0
17494,-109.753643783247,4,1,0,60,0,0
17562,-109.589643135187,4,1,0,60,0,0
17835,-108.936133032519,4,1,0,60,0,0
17971,-108.613474791158,4,1,0,60,0,0
18039,-108.452861372328,4,1,0,60,0,0
18108,-108.290370811542,4,1,0,60,0,0
18176,-108.130710856435,4,1,0,60,0,0
18244,-107.971521003569,4,1,0,60,0,0
18380,-107.654543323938,4,1,0,60,0,0
18449,-107.494434368659,4,1,0,60,0,0
18517,-107.337111091297,4,1,0,60,0,0
18653,-107.023842005708,4,1,0,60,0,0
18789,-106.712396183908,4,1,0,60,0,0
18926,-106.400487656202,4,1,0,60,0,0
19062,-106.0926540486,4,1,0,60,0,0
19130,-105.93940423879,4,1,0,60,0,0
19199,-105.784352642791,4,1,0,60,0,0
19267,-105.631991576068,4,1,0,60,0,0
19335,-105.480068769016,4,1,0,60,0,0
19471,-105.177530391817,4,1,0,60,0,0
19539,-105.026911077616,4,1,0,60,0,0
19608,-104.874517084543,4,1,0,60,0,0
19676,-104.724763761812,4,1,0,60,0,0
19744,-104.57543750337,4,1,0,60,0,0
19880,-104.278058892759,4,1,0,60,0,0
20017,-103.98019878655,4,1,0,60,0,0
20153,-103.686191114055,4,1,0,60,0,0
20221,-103.539809885368,4,1,0,60,0,0
20289,-103.393841387746,4,1,0,60,0,0
20358,-103.246146384167,4,1,0,60,0,0
20426,-103.101004134672,4,1,0,60,0,0
20562,-102.811940439167,4,1,0,60,0,0
20630,-102.668015575188,4,1,0,60,0,0
20699,-102.522385473597,4,1,0,60,0,0
20835,-102.236552715814,4,1,0,60,0,0
20971,-101.952309332243,4,1,0,60,0,0
21039,-101.810779518856,4,1,0,60,0,0
21108,-101.667569472354,4,1,0,60,0,0
21176,-101.526828558965,4,1,0,60,0,0
21244,-101.386476769108,4,1,0,60,0,0
21312,-101.246512491227,4,1,0,60,0,0
21380,-101.106934122649,4,1,0,60,0,0
21448,-100.967740069529,4,1,0,60,0,0
21517,-100.826890251475,4,1,0,60,0,0
21585,-100.688465676222,4,1,0,60,0,0
21653,-100.550420664249,4,1,0,60,0,0
21721,-100.412753656537,4,1,0,60,0,0
21789,-100.275463102593,4,1,0,60,0,0
21858,-100.136536784616,4,1,0,60,0,0
21926,-83.3333333333333,4,1,0,70,0,0
22471,-87.5878220140515,4,1,0,69,0,0
22744,-89.8865602768698,4,1,0,69,0,0
22880,-91.0773426845899,4,1,0,69,0,0
23017,-92.3092111758318,4,1,0,68,0,0
23289,-94.8564471948869,4,1,0,68,0,0
23562,-97.5584307178631,4,1,0,67,0,0
23698,-98.9627434377646,4,1,0,67,0,0
23835,-100.418859413597,4,1,0,66,0,0
23971,-101.907356948229,4,1,0,66,0,0
24108,-103.452091170613,4,1,0,66,0,0
24380,-106.662103582021,4,1,0,65,0,0
24653,-110.090662898858,4,1,0,65,0,0
24926,-113.74695863747,4,1,0,64,0,0
25062,-115.66056407719,4,1,0,64,0,0
25198,-117.639657775541,4,1,0,63,0,0
25335,-119.702982972731,4,1,0,62,0,0
25471,-121.824104234528,4,1,0,61,0,0
25608,-124.038206420801,4,1,0,60,0,0
25744,-126.317211564442,4,1,0,59,0,0
25880,-128.681530415634,4,1,0,58,0,0
26017,-131.154439612849,4,1,0,57,0,0
26153,-133.705133705134,4,1,0,57,0,0
26289,-136.357007437655,4,1,0,56,0,0
26562,-142.010935601458,4,1,0,54,0,0
26698,-145.006203473945,4,1,0,53,0,0
26835,-148.15401679607,4,1,0,52,0,0
27108,-154.852600198741,4,1,0,50,0,0
27244,-158.420874279905,4,1,0,49,0,0
27380,-162.157474852584,4,1,0,48,0,0
27653,-170.216639359184,4,1,0,47,0,0
27926,-179.11877394636,4,1,0,46,0,0
28198,-188.965238480194,4,1,0,45,0,0
28471,-200,4,1,0,40,0,0
30383,-100,4,1,0,40,0,0
30630,-100,4,1,0,65,0,0
30903,-100,4,1,0,55,0,0
34721,-100,4,1,0,60,0,0
34994,-100,4,1,0,65,0,0
35267,-100,4,1,0,55,0,0
37176,-100,4,1,0,56,0,0
37721,-100,4,1,0,57,0,0
38267,-100,4,1,0,58,0,0
38358,-99.4340190118574,4,1,0,58,0,0
38426,-98.8824739651782,4,1,0,58,0,0
38494,-98.3370138356843,4,1,0,58,0,0
38562,-97.7975384780874,4,1,0,58,0,0
38630,-97.2639499326908,4,1,0,58,0,0
38698,-96.73615236609,4,1,0,58,0,0
38767,-96.2064161125906,4,1,0,59,0,0
38835,-95.6900029820899,4,1,0,59,0,0
38903,-95.1791042171933,4,1,0,59,0,0
38971,-94.6736319616793,4,1,0,59,0,0
39039,-94.1735002157963,4,1,0,59,0,0
39108,-93.6713860102515,4,1,0,59,0,0
39176,-93.181759948071,4,1,0,59,0,0
39244,-92.6972258804537,4,1,0,60,0,0
39312,-92.2177047850085,4,1,0,60,0,0
39380,-91.743119266055,4,1,0,60,0,0
56267,-91.743119266055,4,1,0,61,0,0
56426,-89.8809817768779,4,1,0,62,0,0
56562,-88.1057268722467,4,1,0,63,0,0
56698,-86.3992404462378,4,1,0,64,0,0
56838,-84.7457627118644,4,1,0,65,0,1
74292,-80,4,1,0,65,0,0
74426,-81.3066285169289,4,1,0,65,0,0
74539,-81.3066285169289,4,1,0,60,0,0
74562,-82.6466311197286,4,1,0,60,0,0
74698,-84.0315426318383,4,1,0,60,0,0
74767,-84.7520815210637,4,1,0,60,0,0
74835,-85.4743702218323,4,1,0,60,0,0
74903,-86.2090759701681,4,1,0,60,0,0
74971,-86.9565217391304,4,1,0,60,0,0
75108,-88.502465611212,4,1,0,60,0,0
75176,-89.2903901544907,4,1,0,60,0,0
75244,-90.0924702774108,4,1,0,60,0,0
75312,-90.9090909090909,4,1,0,60,0,0
75358,-90.9090909090909,4,1,0,65,0,0
75380,-80,4,1,0,65,0,0
75517,-81.4012956017729,4,1,0,65,0,0
75585,-82.1152192605331,4,1,0,65,0,0
75630,-82.1152192605331,4,1,0,60,0,0
75653,-82.8417765440666,4,1,0,60,0,0
75789,-84.3341575415048,4,1,0,60,0,0
75926,-85.8928812339794,4,1,0,60,0,0
75994,-86.6881495937911,4,1,0,60,0,0
76062,-87.4982821017912,4,1,0,60,0,0
76130,-88.3236994219653,4,1,0,60,0,0
76199,-89.1773274815576,4,1,0,60,0,0
76267,-90.0348826246818,4,1,0,60,0,0
76335,-90.9090909090909,4,1,0,60,0,0
76448,-90.9090909090909,4,1,0,65,0,0
76471,-80,4,1,0,65,0,0
76608,-81.050512795936,4,1,0,65,0,0
76720,-81.050512795936,4,1,0,60,0,0
76744,-82.1210061182869,4,1,0,60,0,0
76880,-83.2201554965063,4,1,0,60,0,0
76949,-83.7891399128022,4,1,0,60,0,0
77017,-84.3575418994413,4,1,0,60,0,0
77085,-84.933708316593,4,1,0,60,0,0
77153,-85.5177993527508,4,1,0,60,0,0
77290,-86.7193108399138,4,1,0,60,0,0
77358,-87.3283073427657,4,1,0,60,0,0
77426,-87.9459178367135,4,1,0,60,0,0
77494,-88.5723263852519,4,1,0,60,0,0
77562,-89.2077223335795,4,1,0,60,0,0
77698,-90.5062613721503,4,1,0,60,0,0
77835,-91.8531392570063,4,1,0,60,0,0
77971,-93.2304299889746,4,1,0,60,0,0
78039,-93.9346811819596,4,1,0,60,0,0
78108,-94.6602485167357,4,1,0,60,0,0
78176,-95.3863508178229,4,1,0,60,0,0
78244,-96.1236785267705,4,1,0,60,0,0
78380,-97.6330677750837,4,1,0,60,0,0
78448,-98.4056790410799,4,1,0,60,0,0
78517,-99.2022524636321,4,1,0,60,0,0
78585,-100,4,1,0,60,0,0
78630,-100,4,1,0,65,0,0
78653,-80,4,1,0,65,0,0
78790,-81.3066285169289,4,1,0,65,0,0
78902,-81.3066285169289,4,1,0,60,0,0
78926,-82.6466311197286,4,1,0,60,0,0
79062,-84.0315426318383,4,1,0,60,0,0
79131,-84.7520815210637,4,1,0,60,0,0
79199,-85.4743702218323,4,1,0,60,0,0
79267,-86.2090759701681,4,1,0,60,0,0
79335,-86.9565217391304,4,1,0,60,0,0
79472,-88.502465611212,4,1,0,60,0,0
79540,-89.2903901544907,4,1,0,60,0,0
79608,-90.0924702774108,4,1,0,60,0,0
79676,-90.9090909090909,4,1,0,60,0,0
79721,-90.9090909090909,4,1,0,65,0,0
79744,-80,4,1,0,65,0,0
79881,-81.5107517000551,4,1,0,65,0,0
79949,-82.2820037105751,4,1,0,65,0,0
79993,-82.2820037105751,4,1,0,60,0,0
80017,-83.0679902603484,4,1,0,60,0,0
80153,-84.6858888676723,4,1,0,60,0,0
80290,-86.3806787748941,4,1,0,60,0,0
80358,-87.2473319234742,4,1,0,60,0,0
80426,-88.131551492871,4,1,0,60,0,0
80494,-89.0338770388959,4,1,0,60,0,0
80563,-89.9685566487473,4,1,0,60,0,0
80631,-90.9090909090909,4,1,0,60,0,0
80812,-90.9090909090909,4,1,0,65,0,0
80835,-80,4,1,0,65,0,0
80972,-81.0859011195878,4,1,0,65,0,0
81084,-81.0859011195878,4,1,0,60,0,0
81108,-82.1934317565532,4,1,0,60,0,0
81244,-83.3316362895836,4,1,0,60,0,0
81313,-83.921246923708,4,1,0,60,0,0
81381,-84.5105328376704,4,1,0,60,0,0
81449,-85.108153078203,4,1,0,60,0,0
81517,-85.7142857142857,4,1,0,60,0,0
81654,-86.9620656678355,4,1,0,60,0,0
81722,-87.5949909022798,4,1,0,60,0,0
81790,-88.2371967654987,4,1,0,60,0,0
81858,-88.8888888888889,4,1,0,60,0,0
81926,-89.5502790239632,4,1,0,60,0,0
82062,-90.9030323225591,4,1,0,60,0,0
82199,-92.3076923076923,4,1,0,60,0,0
82335,-93.745704467354,4,1,0,60,0,0
82403,-94.4816439621335,4,1,0,60,0,0
82472,-95.2403118817642,4,1,0,60,0,0
82540,-96,4,1,0,60,0,0
82608,-96.7719049308265,4,1,0,60,0,0
82744,-98.353563273645,4,1,0,60,0,0
82812,-99.1639403853144,4,1,0,60,0,0
82881,-100,4,1,0,60,0,0
82994,-100,4,1,0,65,0,0
83017,-80,4,1,0,65,0,0
83154,-81.5107517000551,4,1,0,65,0,0
83266,-81.5107517000551,4,1,0,60,0,0
83290,-83.0679902603484,4,1,0,60,0,0
83426,-84.6858888676723,4,1,0,60,0,0
83495,-85.5310737187214,4,1,0,60,0,0
83562,-86.3680623174294,4,1,0,60,0,0
83631,-87.2473319234742,4,1,0,60,0,0
83698,-88.1184184383072,4,1,0,60,0,0
83836,-89.9685566487473,4,1,0,60,0,0
83904,-90.9090909090909,4,1,0,60,0,0
84085,-90.9090909090909,4,1,0,65,0,0
84108,-80,4,1,0,65,0,0
84245,-81.4012956017729,4,1,0,65,0,0
84313,-82.1152192605331,4,1,0,65,0,0
84357,-82.1152192605331,4,1,0,60,0,0
84381,-82.8417765440666,4,1,0,60,0,0
84517,-84.3341575415048,4,1,0,60,0,0
84585,-85.1006950632686,4,1,0,60,0,0
84654,-85.8928812339794,4,1,0,60,0,0
84722,-86.6881495937911,4,1,0,60,0,0
84790,-87.4982821017912,4,1,0,60,0,0
84858,-88.3236994219653,4,1,0,60,0,0
84927,-89.1773274815576,4,1,0,60,0,0
84995,-90.0348826246818,4,1,0,60,0,0
85063,-90.9090909090909,4,1,0,60,0,0
85131,-90.9090909090909,4,1,0,60,0,0
85176,-90.9090909090909,4,1,0,65,0,0
85199,-80,4,1,0,65,0,0
85336,-81.0859011195878,4,1,0,65,0,0
85448,-81.0859011195878,4,1,0,60,0,0
85472,-82.1934317565532,4,1,0,60,0,0
85608,-83.3316362895836,4,1,0,60,0,0
85677,-83.921246923708,4,1,0,60,0,0
85745,-84.5105328376704,4,1,0,60,0,0
85813,-85.108153078203,4,1,0,60,0,0
85881,-85.7142857142857,4,1,0,60,0,0
85948,-86.3200084379285,4,1,0,60,0,0
86018,-86.9620656678355,4,1,0,60,0,0
86086,-87.5949909022798,4,1,0,60,0,0
86154,-88.2371967654987,4,1,0,60,0,0
86290,-89.5502790239632,4,1,0,60,0,0
86426,-90.9030323225591,4,1,0,60,0,0
86563,-92.3076923076923,4,1,0,60,0,0
86699,-93.745704467354,4,1,0,60,0,0
86767,-94.4816439621335,4,1,0,60,0,0
86836,-95.2403118817642,4,1,0,60,0,0
86904,-96,4,1,0,60,0,0
86972,-96.7719049308265,4,1,0,60,0,0
87108,-98.353563273645,4,1,0,60,0,0
87176,-99.1639403853144,4,1,0,60,0,0
87245,-100,4,1,0,60,0,0
87358,-100,4,1,0,65,0,0
87380,-80,4,1,0,65,0,0
87517,-81.3066285169289,4,1,0,65,0,0
87630,-81.3066285169289,4,1,0,60,0,0
87653,-82.6466311197286,4,1,0,60,0,0
87789,-84.0315426318383,4,1,0,60,0,0
87858,-84.7520815210637,4,1,0,60,0,0
87926,-85.4743702218323,4,1,0,60,0,0
87994,-86.2090759701681,4,1,0,60,0,0
88062,-86.9565217391304,4,1,0,60,0,0
88199,-88.502465611212,4,1,0,60,0,0
88267,-89.2903901544907,4,1,0,60,0,0
88335,-90.0924702774108,4,1,0,60,0,0
88403,-90.9090909090909,4,1,0,60,0,0
88448,-90.9090909090909,4,1,0,65,0,0
88471,-80,4,1,0,65,0,0
88608,-81.4012956017729,4,1,0,65,0,0
88676,-82.1152192605331,4,1,0,65,0,0
88720,-82.1152192605331,4,1,0,60,0,0
88744,-82.8417765440666,4,1,0,60,0,0
88880,-84.3341575415048,4,1,0,60,0,0
89017,-85.8928812339794,4,1,0,60,0,0
89085,-86.6881495937911,4,1,0,60,0,0
89153,-87.4982821017912,4,1,0,60,0,0
89221,-88.3236994219653,4,1,0,60,0,0
89290,-89.1773274815576,4,1,0,60,0,0
89358,-90.0348826246818,4,1,0,60,0,0
89426,-90.9090909090909,4,1,0,60,0,0
89535,-90.9090909090909,4,1,0,70,0,0
89630,-90.6522642293311,4,1,0,70,0,0
89698,-90.3968845803298,4,1,0,70,0,0
89767,-90.1392159292767,4,1,0,70,0,0
89835,-89.8867147270855,4,1,0,70,0,0
89903,-89.6356242040833,4,1,0,70,0,0
89971,-89.3859325713818,4,1,0,70,0,0
90039,-89.1376281710854,4,1,0,70,0,0
90108,-88.8870783770572,4,1,0,70,0,0
90176,-88.641533961651,4,1,0,70,0,0
90244,-88.3973424080376,4,1,0,70,0,0
90312,-88.1544925662573,4,1,0,70,0,0
90380,-87.9129734085415,4,1,0,70,0,0
90517,-87.4303802540369,4,1,0,70,0,0
90653,-86.9565217391304,4,1,0,70,0,0
90721,-86.7215134533604,4,1,0,70,0,0
90789,-86.487772008403,4,1,0,70,0,0
90858,-86.2518776187841,4,1,0,70,0,0
90926,-86.0206575731294,4,1,0,70,0,0
91062,-85.5619167124147,4,1,0,70,0,0
91130,-85.3343762221353,4,1,0,70,0,0
91198,-85.1080427490444,4,1,0,70,0,0
91267,-84.879604776909,4,1,0,70,0,0
91335,-84.6556741028128,4,1,0,70,0,0
91403,-84.4329218743954,4,1,0,70,0,0
91471,-84.2113388136313,4,1,0,70,0,0
91539,-83.9909157396359,4,1,0,70,0,0
91608,-83.7684275184275,4,1,0,70,0,0
91676,-83.5503139837647,4,1,0,70,0,0
91744,-83.3333333333333,4,1,0,70,0,0
91883,-111.111111111111,4,1,0,70,0,0
91994,-111.111111111111,4,1,0,55,0,0
95974,-99.9999999999999,4,1,0,55,0,0
96085,-99.9999999999999,4,1,0,65,0,0
96247,-111.111111111111,4,1,0,65,0,0
96358,-111.111111111111,4,1,0,55,0,0
99653,-108.105430043599,4,1,0,55,0,0
99789,-106.667970277669,4,1,0,55,0,0
99926,-105.258080077183,4,1,0,55,0,0
100062,-103.894867155509,4,1,0,55,0,0
100198,-102.5665131146,4,1,0,55,0,0
100335,-101.262298125116,4,1,0,55,0,0
100448,-101.262298125116,4,1,0,65,0,0
100471,-100,4,1,0,65,0,0
100721,-100,4,1,0,60,0,0
104153,-98.5257275004818,4,1,0,60,0,0
104289,-97.0942930395974,4,1,0,60,0,0
104358,-96.3838386218761,4,1,0,60,0,0
104426,-95.6937799043062,4,1,0,60,0,0
104494,-95.0135318783176,4,1,0,60,0,0
104562,-94.3428868000692,4,1,0,60,0,0
104698,-93.0296034300401,4,1,0,60,0,0
104812,-93.0296034300401,4,1,0,65,0,0
104835,-91.743119266055,4,1,0,65,0,0
105085,-91.743119266055,4,1,0,60,0,0
108517,-90.4917307373195,4,1,0,60,0,0
108562,-90.4917307373195,4,1,0,61,0,0
108585,-89.8831957981254,4,1,0,61,0,0
108653,-89.2827906875211,4,1,0,61,0,0
108698,-89.2827906875211,4,1,0,62,0,0
108721,-88.6903535687567,4,1,0,62,0,0
108789,-88.1057268722467,4,1,0,62,0,0
108835,-88.1057268722467,4,1,0,63,0,0
108858,-87.5203286827013,4,1,0,63,0,0
108926,-86.9509758067945,4,1,0,63,0,0
108971,-86.9509758067945,4,1,0,64,0,0
108994,-86.3889827644475,4,1,0,64,0,0
109062,-85.8342077649528,4,1,0,64,0,0
109130,-85.2865126365835,4,1,0,64,0,0
109176,-85.2865126365835,4,1,0,65,0,0
109198,-84.7457627118644,4,1,0,65,0,0
109201,-84.7457627118644,4,1,0,65,0,1
116969,-84.7457627118644,4,1,0,66,0,1
117242,-84.7457627118644,4,1,0,67,0,1
117447,-84.7457627118644,4,1,0,68,0,1
117606,-84.7457627118644,4,1,0,69,0,1
117918,-84.7457627118644,4,1,0,70,0,1
117929,-76.9230769230769,4,1,0,70,0,1
125698,-78.4257397299627,4,1,0,70,0,1
125835,-80,4,1,0,70,0,1
125971,-81.6265510539692,4,1,0,70,0,1
126080,-81.6265510539692,4,1,0,69,0,1
126108,-83.3333333333333,4,1,0,69,0,1
126216,-83.3333333333333,4,1,0,68,0,1
126353,-83.3333333333333,4,1,0,67,0,1
126380,-86.9495851946394,4,1,0,67,0,1
126448,-87.9032258064516,4,1,0,67,0,1
126489,-87.9032258064516,4,1,0,66,0,1
126517,-88.8925134562062,4,1,0,66,0,1
126585,-89.8894936500082,4,1,0,66,0,1
126625,-89.8894936500082,4,1,0,65,0,1
126656,-90.9090909090909,4,1,0,65,0,0
143630,-89.8913401382944,4,1,0,65,0,0
143698,-88.8961250407034,4,1,0,65,0,0
143766,-87.9227053140097,4,1,0,65,0,0
143835,-86.9565217391304,4,1,0,65,0,0
143903,-86.0248936505436,4,1,0,65,0,0
143971,-85.1130163678878,4,1,0,65,0,0
144039,-84.2202683942619,4,1,0,65,0,0
144076,-83.3333333333333,4,1,0,65,0,0
144111,-83.3333333333333,4,1,0,65,0,1
148607,-83.9876828329484,4,1,0,65,0,1
148676,-84.3236140900045,4,1,0,64,0,1
148743,-84.6523898199876,4,1,0,64,0,1
148812,-84.6523898199876,4,1,0,63,0,1
148880,-85.3327076122876,4,1,0,63,0,1
149016,-86.0189620168332,4,1,0,62,0,1
149084,-86.366245126561,4,1,0,62,0,1
149152,-86.7163437655241,4,1,0,61,0,1
149221,-87.0745041701584,4,1,0,61,0,1
149289,-87.4303802540369,4,1,0,61,0,1
149358,-87.7944756271752,4,1,0,60,0,1
149425,-88.1509312002586,4,1,0,60,0,1
149561,-88.8834575746466,4,1,0,59,0,1
149698,-89.6337831453982,4,1,0,59,0,1
149766,-90.0109316667698,4,1,0,58,0,1
149834,-90.3912674247603,4,1,0,58,0,1
149903,-90.3912674247603,4,1,0,57,0,1
149971,-91.1673769532882,4,1,0,57,0,1
150107,-91.9511167298778,4,1,0,56,0,1
150175,-92.3480616218046,4,1,0,56,0,1
150243,-92.7484485250361,4,1,0,55,0,1
150380,-93.565746875067,4,1,0,55,0,1
150449,-93.565746875067,4,1,0,54,0,1
150516,-94.391451993165,4,1,0,54,0,1
150562,-94.391451993165,4,1,0,53,0,1
150584,-94.8097938256317,4,1,0,53,0,1
150652,-95.2318603382433,4,1,0,53,0,1
150789,-96.0937155943101,4,1,0,52,0,1
150925,-96.964849131227,4,1,0,52,0,1
150994,-96.964849131227,4,1,0,51,0,1
151061,-97.8519216108346,4,1,0,51,0,1
151130,-98.3082156292942,4,1,0,50,0,1
151198,-98.7620793446036,4,1,0,50,0,1
151266,-99.2201532410249,4,1,0,50,0,1
151334,-99.6824961739647,4,1,0,49,0,1
151471,-100.627190555248,4,1,0,48,0,1
151607,-101.582867783985,4,1,0,48,0,1
151743,-102.556871592405,4,1,0,47,0,1
151880,-103.557105906362,4,1,0,46,0,1
151948,-104.060853184539,4,1,0,46,0,1
152016,-104.569525315697,4,1,0,46,0,1
152085,-104.569525315697,4,1,0,45,0,1
152152,-105.601935874168,4,1,0,45,0,1
152221,-106.133566807724,4,1,0,44,0,1
152289,-106.662756024833,4,1,0,44,0,1
152357,-107.197248833211,4,1,0,44,0,1
152425,-107.737125364144,4,1,0,43,0,1
152561,-108.833358272233,4,1,0,42,0,1
152630,-109.398109849339,4,1,0,42,0,1
152698,-109.960440446494,4,1,0,42,0,1
152744,-109.960440446494,4,1,0,41,0,1
152767,-110.536980749747,4,1,0,41,0,1
152835,-110.536980749747,4,1,0,40,0,1
152838,-111.111111111111,4,1,0,40,0,0
152906,-111.111111111111,4,1,0,10,0,0

[HitObjects]
279,280,3383,5,0,0:0:0:0:
279,280,3520,1,8,0:0:0:0:
279,280,3656,1,0,0:0:0:0:
279,280,3792,1,8,0:0:0:0:
279,280,3929,1,0,0:0:0:0:
279,280,4065,1,8,0:0:0:0:
279,280,4201,1,0,0:0:0:0:
279,280,4338,1,8,0:0:0:0:
279,280,4474,1,0,0:0:0:0:
140,202,4747,1,8,0:0:0:0:
154,176,4883,1,0,0:0:0:0:
154,176,4951,1,8,0:0:0:0:
154,176,5020,1,0,0:0:0:0:
154,176,5088,1,0,0:0:0:0:
154,176,5156,1,8,0:0:0:0:
154,176,5292,1,0,0:0:0:0:
154,176,5361,1,0,0:0:0:0:
154,176,5429,1,8,0:0:0:0:
154,176,5565,1,0,0:0:0:0:
154,176,5838,1,8,0:0:0:0:
152,165,5974,1,8,0:0:0:0:
150,162,6042,1,8,0:0:0:0:
150,162,6111,1,0,0:0:0:0:
150,162,6179,1,0,0:0:0:0:
150,162,6247,1,8,0:0:0:0:
150,162,6383,1,0,0:0:0:0:
150,162,6451,1,0,0:0:0:0:
150,162,6520,1,8,0:0:0:0:
150,162,6588,1,0,0:0:0:0:
150,162,6656,1,0,0:0:0:0:
164,216,6929,1,8,0:0:0:0:
226,132,7065,1,0,0:0:0:0:
226,132,7133,1,0,0:0:0:0:
164,216,7201,1,0,0:0:0:0:
226,133,7270,1,0,0:0:0:0:
224,127,7338,1,8,0:0:0:0:
164,216,7474,1,8,0:0:0:0:
220,131,7542,1,0,0:0:0:0:
220,131,7611,1,8,0:0:0:0:
164,216,7747,1,0,0:0:0:0:
201,164,7883,1,0,0:0:0:0:
164,216,8020,1,8,0:0:0:0:
201,164,8156,1,8,0:0:0:0:
201,164,8224,1,8,0:0:0:0:
164,216,8292,1,0,0:0:0:0:
193,137,8361,1,0,0:0:0:0:
201,164,8429,1,8,0:0:0:0:
164,216,8565,1,8,0:0:0:0:
178,116,8633,1,0,0:0:0:0:
178,116,8701,1,8,0:0:0:0:
178,116,8770,1,8,0:0:0:0:
164,216,8838,1,0,0:0:0:0:
140,202,9111,1,8,0:0:0:0:
154,176,9247,1,0,0:0:0:0:
154,176,9315,1,8,0:0:0:0:
154,176,9384,1,0,0:0:0:0:
154,176,9452,1,0,0:0:0:0:
154,176,9520,1,8,0:0:0:0:
154,176,9656,1,0,0:0:0:0:
154,176,9725,1,0,0:0:0:0:
154,176,9793,1,8,0:0:0:0:
154,176,9929,1,0,0:0:0:0:
154,176,10202,1,8,0:0:0:0:
152,165,10338,1,8,0:0:0:0:
150,162,10406,1,8,0:0:0:0:
150,162,10474,1,0,0:0:0:0:
150,162,10543,1,0,0:0:0:0:
150,162,10611,1,8,0:0:0:0:
150,162,10747,1,8,0:0:0:0:
150,162,10815,1,0,0:0:0:0:
150,162,10884,1,8,0:0:0:0:
150,162,10952,1,8,0:0:0:0:
150,162,11020,1,0,0:0:0:0:
164,216,11293,1,8,0:0:0:0:
226,132,11429,1,8,0:0:0:0:
226,132,11497,1,0,0:0:0:0:
164,216,11565,1,8,0:0:0:0:
226,133,11634,1,8,0:0:0:0:
224,127,11702,1,0,0:0:0:0:
164,216,11838,1,8,0:0:0:0:
220,131,11906,1,0,0:0:0:0:
220,131,11975,1,8,0:0:0:0:
164,216,12111,1,0,0:0:0:0:
201,164,12247,1,0,0:0:0:0:
164,216,12384,1,8,0:0:0:0:
201,164,12520,1,0,0:0:0:0:
201,164,12588,1,0,0:0:0:0:
164,216,12656,1,0,0:0:0:0:
193,137,12725,1,0,0:0:0:0:
201,164,12793,1,8,0:0:0:0:
164,216,12929,1,8,0:0:0:0:
178,116,12997,1,0,0:0:0:0:
178,116,13065,1,8,0:0:0:0:
178,116,13134,1,8,0:0:0:0:
164,216,13202,1,0,0:0:0:0:
195,175,13338,1,0,0:0:0:0:
140,202,13474,1,8,0:0:0:0:
154,176,13610,1,0,0:0:0:0:
154,176,13678,1,8,0:0:0:0:
154,176,13747,1,0,0:0:0:0:
154,176,13815,1,0,0:0:0:0:
154,176,13883,1,8,0:0:0:0:
154,176,14019,1,0,0:0:0:0:
154,176,14088,1,0,0:0:0:0:
154,176,14156,1,8,0:0:0:0:
154,176,14292,1,0,0:0:0:0:
195,175,14429,1,0,0:0:0:0:
154,176,14565,1,8,0:0:0:0:
152,165,14701,1,0,0:0:0:0:
150,162,14769,1,8,0:0:0:0:
150,162,14838,1,0,0:0:0:0:
150,162,14906,1,0,0:0:0:0:
150,162,14974,1,8,0:0:0:0:
150,162,15110,1,8,0:0:0:0:
150,162,15178,1,0,0:0:0:0:
150,162,15247,1,8,0:0:0:0:
150,162,15315,1,8,0:0:0:0:
150,162,15383,1,0,0:0:0:0:
199,175,15520,1,0,0:0:0:0:
164,216,15656,1,8,0:0:0:0:
226,132,15792,1,0,0:0:0:0:
226,132,15860,1,8,0:0:0:0:
164,216,15928,1,0,0:0:0:0:
226,133,15997,1,0,0:0:0:0:
224,127,16065,1,8,0:0:0:0:
164,216,16201,1,0,0:0:0:0:
220,131,16269,1,0,0:0:0:0:
220,131,16338,1,8,0:0:0:0:
164,216,16474,1,0,0:0:0:0:
201,164,16610,1,0,0:0:0:0:
164,216,16747,1,8,0:0:0:0:
201,164,16883,1,0,0:0:0:0:
201,164,16951,1,8,0:0:0:0:
164,216,17019,1,0,0:0:0:0:
193,137,17088,1,0,0:0:0:0:
201,164,17156,1,8,0:0:0:0:
164,216,17292,1,8,0:0:0:0:
178,116,17361,1,8,0:0:0:0:
178,116,17428,1,8,0:0:0:0:
178,116,17497,1,8,0:0:0:0:
164,216,17565,1,0,0:0:0:0:
140,202,17838,1,8,0:0:0:0:
154,176,17974,1,8,0:0:0:0:
154,176,18042,1,0,0:0:0:0:
154,176,18111,1,8,0:0:0:0:
154,176,18179,1,8,0:0:0:0:
154,176,18247,1,0,0:0:0:0:
154,176,18383,1,8,0:0:0:0:
154,176,18452,1,0,0:0:0:0:
154,176,18520,1,8,0:0:0:0:
154,176,18656,1,0,0:0:0:0:
199,175,18792,1,0,0:0:0:0:
154,176,18929,1,8,0:0:0:0:
152,165,19065,1,8,0:0:0:0:
150,162,19133,1,0,0:0:0:0:
150,162,19202,1,8,0:0:0:0:
150,162,19270,1,8,0:0:0:0:
150,162,19338,1,0,0:0:0:0:
150,162,19474,1,8,0:0:0:0:
150,162,19542,1,8,0:0:0:0:
150,162,19611,1,0,0:0:0:0:
150,162,19679,1,8,0:0:0:0:
150,162,19747,1,0,0:0:0:0:
199,175,19883,1,0,0:0:0:0:
164,216,20020,1,8,0:0:0:0:
226,132,20156,1,8,0:0:0:0:
226,132,20224,1,0,0:0:0:0:
164,216,20292,1,8,0:0:0:0:
226,133,20361,1,8,0:0:0:0:
224,127,20429,1,0,0:0:0:0:
164,216,20565,1,8,0:0:0:0:
220,131,20633,1,0,0:0:0:0:
220,131,20702,1,8,0:0:0:0:
164,216,20838,1,0,0:0:0:0:
201,164,20974,1,0,0:0:0:0:
210,190,21042,1,0,0:0:0:0:
164,216,21111,1,8,0:0:0:0:
241,127,21179,1,8,0:0:0:0:
221,218,21247,1,8,0:0:0:0:
221,218,21315,1,8,0:0:0:0:
221,218,21383,1,0,0:0:0:0:
221,218,21451,1,0,0:0:0:0:
221,218,21520,1,0,0:0:0:0:
221,218,21588,1,0,0:0:0:0:
221,218,21656,1,8,0:0:0:0:
221,218,21724,1,8,0:0:0:0:
221,218,21792,1,8,0:0:0:0:
221,218,21861,1,8,0:0:0:0:
221,218,21929,1,4,0:0:0:0:
211,164,22474,1,8,0:0:0:0:
213,157,22747,1,0,0:0:0:0:
213,157,22883,1,8,0:0:0:0:
213,157,23020,1,0,0:0:0:0:
253,226,23292,1,0,0:0:0:0:
253,226,23565,1,8,0:0:0:0:
253,226,23701,1,0,0:0:0:0:
253,226,23838,1,8,0:0:0:0:
253,226,23974,1,8,0:0:0:0:
253,226,24111,1,0,0:0:0:0:
253,226,24383,1,0,0:0:0:0:
253,226,24656,1,8,0:0:0:0:
253,226,24929,1,8,0:0:0:0:
253,226,25065,1,8,0:0:0:0:
253,226,25201,1,0,0:0:0:0:
239,228,25338,1,0,0:0:0:0:
239,228,25474,1,8,0:0:0:0:
239,228,25611,1,0,0:0:0:0:
239,228,25747,1,8,0:0:0:0:
239,228,25883,1,8,0:0:0:0:
239,228,26020,1,0,0:0:0:0:
239,228,26156,1,8,0:0:0:0:
239,228,26292,1,0,0:0:0:0:
239,228,26565,1,8,0:0:0:0:
239,233,26701,1,8,0:0:0:0:
239,233,26838,1,0,0:0:0:0:
234,235,27111,1,0,0:0:0:0:
234,235,27247,1,0,0:0:0:0:
234,235,27383,1,8,0:0:0:0:
234,235,27656,1,0,0:0:0:0:
234,235,27929,1,8,0:0:0:0:
234,235,28201,1,8,0:0:0:0:
256,192,28474,8,0,30111,0:0:0:0:
198,205,30656,5,4,0:0:0:0:
214,243,30929,1,8,0:0:0:0:
188,214,31065,1,0,0:0:0:0:
188,214,31201,1,0,0:0:0:0:
183,215,31474,1,0,0:0:0:0:
183,215,31542,1,0,0:0:0:0:
183,215,31611,1,8,0:0:0:0:
183,215,31679,1,8,0:0:0:0:
183,215,31747,1,0,0:0:0:0:
183,215,31883,1,0,0:0:0:0:
183,215,32020,1,8,0:0:0:0:
183,215,32292,1,8,0:0:0:0:
173,189,32429,1,8,0:0:0:0:
174,195,32565,1,0,0:0:0:0:
162,197,32633,1,0,0:0:0:0:
174,195,32701,1,0,0:0:0:0:
162,197,32770,1,0,0:0:0:0:
162,197,32838,1,0,0:0:0:0:
162,197,32974,1,0,0:0:0:0:
166,114,33042,1,0,0:0:0:0:
162,197,33111,1,8,0:0:0:0:
189,166,33247,1,8,0:0:0:0:
189,166,33383,1,0,0:0:0:0:
189,166,33520,1,0,0:0:0:0:
189,166,33656,1,8,0:0:0:0:
189,166,33861,1,8,0:0:0:0:
189,166,33929,1,0,0:0:0:0:
189,166,34065,1,0,0:0:0:0:
189,166,34201,1,8,0:0:0:0:
189,166,34338,1,0,0:0:0:0:
189,166,34406,1,0,0:0:0:0:
189,166,34474,1,8,0:0:0:0:
189,166,34611,1,8,0:0:0:0:
189,166,34679,1,8,0:0:0:0:
189,166,34747,1,4,0:0:0:0:
155,84,35020,1,12,0:0:0:0:
117,124,35156,1,0,0:0:0:0:
117,124,35292,1,8,0:0:0:0:
117,124,35361,1,0,0:0:0:0:
117,124,35497,1,0,0:0:0:0:
117,124,35565,1,8,0:0:0:0:
117,124,35701,1,0,0:0:0:0:
117,124,35838,1,0,0:0:0:0:
117,124,35906,1,0,0:0:0:0:
117,124,35974,1,8,0:0:0:0:
117,124,36042,1,8,0:0:0:0:
117,124,36111,1,0,0:0:0:0:
117,124,36247,1,8,0:0:0:0:
117,124,36383,1,8,0:0:0:0:
127,180,36520,1,0,0:0:0:0:
127,180,36588,1,0,0:0:0:0:
191,118,36656,1,8,0:0:0:0:
191,118,36792,1,8,0:0:0:0:
191,118,36929,1,0,0:0:0:0:
191,118,36997,1,0,0:0:0:0:
191,118,37065,1,0,0:0:0:0:
170,149,37201,1,8,0:0:0:0:
195,110,37270,1,0,0:0:0:0:
155,177,37406,1,0,0:0:0:0:
155,177,37474,1,8,0:0:0:0:
155,177,37611,1,8,0:0:0:0:
155,177,37747,1,0,0:0:0:0:
155,177,37815,1,0,0:0:0:0:
155,177,37883,1,0,0:0:0:0:
155,177,37951,1,0,0:0:0:0:
155,177,38020,1,8,0:0:0:0:
155,177,38156,1,0,0:0:0:0:
155,177,38292,1,8,0:0:0:0:
155,177,38361,1,8,0:0:0:0:
155,177,38429,1,0,0:0:0:0:
155,177,38497,1,0,0:0:0:0:
155,177,38565,1,8,0:0:0:0:
155,177,38633,1,0,0:0:0:0:
155,177,38701,1,8,0:0:0:0:
155,177,38770,1,8,0:0:0:0:
155,177,38838,1,0,0:0:0:0:
155,177,38906,1,0,0:0:0:0:
155,177,38974,1,8,0:0:0:0:
146,184,39042,1,0,0:0:0:0:
150,180,39111,1,8,0:0:0:0:
183,238,39179,1,8,0:0:0:0:
183,238,39247,1,8,0:0:0:0:
183,238,39315,1,8,0:0:0:0:
150,180,39383,1,4,0:0:0:0:
161,213,39520,1,0,0:0:0:0:
183,238,39656,1,8,0:0:0:0:
161,213,39792,1,0,0:0:0:0:
183,238,39861,1,0,0:0:0:0:
183,238,39929,1,8,0:0:0:0:
161,213,40065,1,0,0:0:0:0:
161,213,40201,1,0,0:0:0:0:
183,238,40338,1,8,0:0:0:0:
161,213,40474,1,0,0:0:0:0:
183,238,40542,1,8,0:0:0:0:
161,213,40611,1,0,0:0:0:0:
184,244,40747,1,8,0:0:0:0:
184,244,40883,1,8,0:0:0:0:
184,246,40951,1,8,0:0:0:0:
161,213,41020,1,0,0:0:0:0:
184,246,41156,1,8,0:0:0:0:
184,246,41224,1,0,0:0:0:0:
184,246,41292,1,8,0:0:0:0:
161,213,41429,1,0,0:0:0:0:
138,181,41565,1,8,0:0:0:0:
161,213,41701,1,0,0:0:0:0:
138,181,41770,1,0,0:0:0:0:
138,181,41838,1,8,0:0:0:0:
138,181,41974,1,8,0:0:0:0:
190,105,42042,1,8,0:0:0:0:
161,213,42111,1,0,0:0:0:0:
138,181,42247,1,0,0:0:0:0:
161,213,42383,1,0,0:0:0:0:
138,181,42520,1,8,0:0:0:0:
161,213,42656,1,0,0:0:0:0:
161,213,42792,1,0,0:0:0:0:
177,107,42929,1,8,0:0:0:0:
177,107,42997,1,8,0:0:0:0:
161,213,43065,1,0,0:0:0:0:
177,107,43133,1,8,0:0:0:0:
161,213,43201,1,0,0:0:0:0:
161,213,43338,1,8,0:0:0:0:
141,144,43406,1,0,0:0:0:0:
161,213,43474,1,0,0:0:0:0:
190,208,43542,1,0,0:0:0:0:
141,144,43611,1,8,0:0:0:0:
194,215,43747,1,0,0:0:0:0:
194,215,43883,1,0,0:0:0:0:
194,215,44020,1,8,0:0:0:0:
194,215,44156,1,0,0:0:0:0:
177,166,44224,1,8,0:0:0:0:
177,166,44292,1,8,0:0:0:0:
177,166,44361,1,8,0:0:0:0:
194,215,44429,1,0,0:0:0:0:
194,215,44565,1,0,0:0:0:0:
205,131,44633,1,0,0:0:0:0:
177,166,44701,1,8,0:0:0:0:
194,215,44838,1,0,0:0:0:0:
194,215,44974,1,8,0:0:0:0:
194,215,45111,1,8,0:0:0:0:
141,49,45179,1,8,0:0:0:0:
194,215,45247,1,0,0:0:0:0:
171,117,45315,1,0,0:0:0:0:
172,180,45383,1,8,0:0:0:0:
172,180,45429,1,8,0:0:0:0:
186,170,45474,1,8,0:0:0:0:
194,215,45520,1,0,0:0:0:0:
194,215,45656,1,0,0:0:0:0:
181,120,45724,1,0,0:0:0:0:
194,215,45792,1,8,0:0:0:0:
194,215,45929,1,0,0:0:0:0:
194,215,46065,1,0,0:0:0:0:
143,160,46133,1,0,0:0:0:0:
195,184,46201,1,8,0:0:0:0:
195,184,46338,1,8,0:0:0:0:
195,184,46474,1,0,0:0:0:0:
195,184,46542,1,8,0:0:0:0:
194,215,46611,1,0,0:0:0:0:
194,215,46747,1,0,0:0:0:0:
201,161,46883,1,8,0:0:0:0:
194,215,47020,1,0,0:0:0:0:
194,163,47088,1,0,0:0:0:0:
194,215,47156,1,0,0:0:0:0:
192,164,47292,1,8,0:0:0:0:
189,164,47429,1,8,0:0:0:0:
189,164,47497,1,8,0:0:0:0:
194,215,47565,1,0,0:0:0:0:
194,215,47701,1,0,0:0:0:0:
194,163,47838,1,8,0:0:0:0:
194,215,47974,1,8,0:0:0:0:
192,164,48111,1,4,0:0:0:0:
194,215,48247,1,0,0:0:0:0:
172,135,48315,1,0,0:0:0:0:
197,128,48383,1,8,0:0:0:0:
158,188,48520,1,8,0:0:0:0:
158,188,48588,1,8,0:0:0:0:
158,188,48656,1,0,0:0:0:0:
158,188,48724,1,0,0:0:0:0:
177,105,48792,1,8,0:0:0:0:
176,111,48838,1,8,0:0:0:0:
176,111,48883,1,8,0:0:0:0:
177,115,48929,1,0,0:0:0:0:
232,172,49065,1,0,0:0:0:0:
232,172,49133,1,8,0:0:0:0:
194,215,49201,1,0,0:0:0:0:
276,178,49338,1,0,0:0:0:0:
276,178,49474,1,8,0:0:0:0:
266,159,49520,1,8,0:0:0:0:
266,159,49565,1,8,0:0:0:0:
266,159,49611,1,0,0:0:0:0:
240,176,49679,1,0,0:0:0:0:
240,176,49747,1,8,0:0:0:0:
239,177,49883,1,0,0:0:0:0:
155,55,49951,1,0,0:0:0:0:
228,184,50020,1,8,0:0:0:0:
240,176,50156,1,8,0:0:0:0:
194,215,50292,1,0,0:0:0:0:
240,176,50429,1,0,0:0:0:0:
234,180,50497,1,0,0:0:0:0:
235,179,50565,1,8,0:0:0:0:
234,180,50701,1,0,0:0:0:0:
230,184,50770,1,0,0:0:0:0:
194,215,50838,1,0,0:0:0:0:
229,184,50974,1,8,0:0:0:0:
127,135,51111,1,0,0:0:0:0:
127,135,51247,1,8,0:0:0:0:
161,152,51315,1,8,0:0:0:0:
127,135,51383,1,0,0:0:0:0:
121,153,51520,1,8,0:0:0:0:
194,215,51656,1,0,0:0:0:0:
163,143,51724,1,0,0:0:0:0:
163,143,51792,1,0,0:0:0:0:
163,143,51861,1,0,0:0:0:0:
194,215,51929,1,0,0:0:0:0:
163,143,52065,1,0,0:0:0:0:
163,143,52201,1,8,0:0:0:0:
160,149,52338,1,8,0:0:0:0:
160,149,52406,1,8,0:0:0:0:
194,215,52474,1,0,0:0:0:0:
158,151,52611,1,0,0:0:0:0:
158,151,52747,1,8,0:0:0:0:
158,151,52883,1,0,0:0:0:0:
158,151,52951,1,8,0:0:0:0:
194,215,53020,1,0,0:0:0:0:
188,161,53156,1,8,0:0:0:0:
194,215,53292,1,0,0:0:0:0:
205,160,53361,1,0,0:0:0:0:
205,160,53429,1,8,0:0:0:0:
205,160,53497,1,8,0:0:0:0:
194,215,53565,1,0,0:0:0:0:
210,144,53701,1,0,0:0:0:0:
210,144,53838,1,8,0:0:0:0:
210,144,53974,1,0,0:0:0:0:
210,146,54042,1,0,0:0:0:0:
194,215,54111,1,0,0:0:0:0:
210,146,54247,1,8,0:0:0:0:
201,148,54383,1,8,0:0:0:0:
201,148,54520,1,8,0:0:0:0:
201,148,54588,1,8,0:0:0:0:
194,215,54656,1,0,0:0:0:0:
194,150,54792,1,8,0:0:0:0:
194,215,54929,1,0,0:0:0:0:
174,158,55065,1,8,0:0:0:0:
163,167,55133,1,0,0:0:0:0:
194,215,55201,1,8,0:0:0:0:
149,171,55270,1,8,0:0:0:0:
149,171,55338,1,0,0:0:0:0:
125,173,55474,1,8,0:0:0:0:
125,173,55611,1,0,0:0:0:0:
125,173,55747,1,8,0:0:0:0:
125,173,55815,1,8,0:0:0:0:
125,173,55883,1,0,0:0:0:0:
119,182,55951,1,0,0:0:0:0:
194,215,56020,1,8,0:0:0:0:
181,129,56156,1,0,0:0:0:0:
181,129,56224,1,8,0:0:0:0:
194,215,56292,1,0,0:0:0:0:
210,155,56429,1,0,0:0:0:0:
194,215,56565,1,8,0:0:0:0:
210,155,56701,1,8,0:0:0:0:
194,215,56838,1,4,0:0:0:0:
231,199,56974,1,0,0:0:0:0:
231,199,57042,1,0,0:0:0:0:
231,199,57111,1,8,0:0:0:0:
231,199,57247,1,8,0:0:0:0:
264,201,57315,1,8,0:0:0:0:
248,186,57383,1,0,0:0:0:0:
166,189,57520,1,0,0:0:0:0:
166,189,57656,1,8,0:0:0:0:
166,189,57724,1,0,0:0:0:0:
166,189,57792,1,8,0:0:0:0:
166,189,57861,1,8,0:0:0:0:
246,180,57929,1,0,0:0:0:0:
166,189,58065,1,0,0:0:0:0:
166,189,58201,1,8,0:0:0:0:
166,189,58338,1,0,0:0:0:0:
166,189,58406,1,8,0:0:0:0:
166,189,58474,1,0,0:0:0:0:
166,189,58542,1,0,0:0:0:0:
166,189,58611,1,8,0:0:0:0:
166,189,58679,1,0,0:0:0:0:
166,189,58747,1,8,0:0:0:0:
166,189,58815,1,0,0:0:0:0:
166,189,58883,1,8,0:0:0:0:
230,190,58951,1,8,0:0:0:0:
246,180,59020,1,0,0:0:0:0:
141,208,59156,1,0,0:0:0:0:
165,237,59292,1,8,0:0:0:0:
165,237,59429,1,0,0:0:0:0:
165,237,59497,1,0,0:0:0:0:
165,237,59565,1,8,0:0:0:0:
165,237,59701,1,0,0:0:0:0:
165,237,59838,1,8,0:0:0:0:
165,237,59906,1,0,0:0:0:0:
165,237,59974,1,8,0:0:0:0:
165,237,60042,1,8,0:0:0:0:
246,180,60111,1,0,0:0:0:0:
165,237,60247,1,8,0:0:0:0:
246,180,60383,1,8,0:0:0:0:
159,172,60520,1,0,0:0:0:0:
159,172,60588,1,8,0:0:0:0:
246,180,60656,1,0,0:0:0:0:
189,153,60792,1,0,0:0:0:0:
189,153,60861,1,0,0:0:0:0:
172,177,60929,1,8,0:0:0:0:
172,177,60997,1,8,0:0:0:0:
168,178,61065,1,8,0:0:0:0:
168,178,61133,1,8,0:0:0:0:
246,180,61201,1,0,0:0:0:0:
268,205,61338,1,0,0:0:0:0:
268,205,61406,1,0,0:0:0:0:
268,205,61474,1,8,0:0:0:0:
259,208,61611,1,0,0:0:0:0:
261,208,61679,1,8,0:0:0:0:
246,180,61747,1,0,0:0:0:0:
259,208,61883,1,0,0:0:0:0:
259,208,62020,1,8,0:0:0:0:
148,157,62156,1,8,0:0:0:0:
148,157,62224,1,8,0:0:0:0:
246,180,62292,1,0,0:0:0:0:
148,157,62429,1,0,0:0:0:0:
148,157,62565,1,8,0:0:0:0:
140,179,62701,1,0,0:0:0:0:
140,179,62770,1,8,0:0:0:0:
246,180,62838,1,0,0:0:0:0:
137,184,62906,1,0,0:0:0:0:
137,184,62974,1,8,0:0:0:0:
136,187,63042,1,0,0:0:0:0:
136,187,63111,1,8,0:0:0:0:
132,195,63247,1,8,0:0:0:0:
246,180,63383,1,0,0:0:0:0:
220,200,63451,1,0,0:0:0:0:
220,200,63588,1,0,0:0:0:0:
220,200,63656,1,8,0:0:0:0:
220,200,63792,1,8,0:0:0:0:
220,200,63861,1,8,0:0:0:0:
246,180,63929,1,0,0:0:0:0:
214,203,63997,1,0,0:0:0:0:
212,204,64065,1,8,0:0:0:0:
212,204,64201,1,8,0:0:0:0:
212,204,64338,1,8,0:0:0:0:
212,204,64406,1,8,0:0:0:0:
246,180,64474,1,0,0:0:0:0:
212,204,64611,1,0,0:0:0:0:
183,133,64679,1,0,0:0:0:0:
183,133,64747,1,8,0:0:0:0:
183,133,64883,1,8,0:0:0:0:
163,160,65020,1,8,0:0:0:0:
163,160,65088,1,8,0:0:0:0:
163,160,65156,1,0,0:0:0:0:
163,160,65201,1,0,0:0:0:0:
197,146,65247,1,0,0:0:0:0:
158,157,65292,1,8,0:0:0:0:
180,144,65429,1,8,0:0:0:0:
194,215,65565,1,4,0:0:0:0:
231,199,65701,1,0,0:0:0:0:
231,199,65769,1,0,0:0:0:0:
231,199,65838,1,8,0:0:0:0:
231,199,65974,1,8,0:0:0:0:
264,201,66042,1,8,0:0:0:0:
248,186,66110,1,0,0:0:0:0:
166,189,66247,1,0,0:0:0:0:
166,189,66383,1,8,0:0:0:0:
166,189,66451,1,0,0:0:0:0:
166,189,66519,1,8,0:0:0:0:
166,189,66588,1,8,0:0:0:0:
246,180,66656,1,0,0:0:0:0:
166,189,66792,1,0,0:0:0:0:
166,189,66928,1,8,0:0:0:0:
166,189,67065,1,0,0:0:0:0:
170,209,67133,1,0,0:0:0:0:
166,189,67201,1,8,0:0:0:0:
166,189,67269,1,0,0:0:0:0:
166,189,67338,1,8,0:0:0:0:
166,189,67406,1,8,0:0:0:0:
166,189,67474,1,0,0:0:0:0:
166,189,67542,1,0,0:0:0:0:
166,189,67610,1,8,0:0:0:0:
230,190,67678,1,8,0:0:0:0:
246,180,67747,1,0,0:0:0:0:
141,208,67883,1,0,0:0:0:0:
165,237,68019,1,8,0:0:0:0:
165,237,68156,1,0,0:0:0:0:
165,237,68224,1,0,0:0:0:0:
165,237,68292,1,8,0:0:0:0:
165,237,68428,1,0,0:0:0:0:
165,237,68565,1,8,0:0:0:0:
165,237,68633,1,0,0:0:0:0:
165,237,68701,1,8,0:0:0:0:
165,237,68769,1,8,0:0:0:0:
246,180,68838,1,0,0:0:0:0:
165,237,68974,1,8,0:0:0:0:
246,180,69110,1,8,0:0:0:0:
159,172,69247,1,0,0:0:0:0:
159,172,69315,1,0,0:0:0:0:
246,180,69383,1,8,0:0:0:0:
169,144,69451,1,8,0:0:0:0:
189,153,69519,1,0,0:0:0:0:
189,153,69588,1,0,0:0:0:0:
172,177,69656,1,8,0:0:0:0:
172,177,69724,1,0,0:0:0:0:
168,178,69792,1,8,0:0:0:0:
168,178,69860,1,8,0:0:0:0:
246,180,69928,1,0,0:0:0:0:
268,205,70065,1,0,0:0:0:0:
268,205,70133,1,0,0:0:0:0:
268,205,70201,1,8,0:0:0:0:
259,208,70338,1,0,0:0:0:0:
261,208,70406,1,0,0:0:0:0:
246,180,70474,1,8,0:0:0:0:
259,208,70542,1,0,0:0:0:0:
259,208,70610,1,0,0:0:0:0:
257,209,70678,1,0,0:0:0:0:
259,208,70747,1,8,0:0:0:0:
148,157,70883,1,8,0:0:0:0:
148,157,70951,1,8,0:0:0:0:
246,180,71019,1,0,0:0:0:0:
148,157,71156,1,0,0:0:0:0:
148,157,71292,1,8,0:0:0:0:
140,179,71428,1,8,0:0:0:0:
140,179,71497,1,8,0:0:0:0:
246,180,71565,1,0,0:0:0:0:
137,184,71633,1,0,0:0:0:0:
137,184,71701,1,8,0:0:0:0:
136,187,71769,1,0,0:0:0:0:
136,187,71838,1,8,0:0:0:0:
132,195,71974,1,8,0:0:0:0:
246,180,72110,1,0,0:0:0:0:
220,200,72178,1,0,0:0:0:0:
220,200,72315,1,0,0:0:0:0:
220,200,72383,1,8,0:0:0:0:
220,200,72519,1,8,0:0:0:0:
220,200,72588,1,8,0:0:0:0:
246,180,72656,1,0,0:0:0:0:
214,203,72724,1,0,0:0:0:0:
212,204,72792,1,8,0:0:0:0:
212,204,72928,1,8,0:0:0:0:
212,204,73065,1,8,0:0:0:0:
212,204,73133,1,8,0:0:0:0:
246,180,73201,1,0,0:0:0:0:
212,204,73338,1,0,0:0:0:0:
183,133,73406,1,0,0:0:0:0:
183,133,73474,1,8,0:0:0:0:
183,133,73610,1,8,0:0:0:0:
247,189,73679,1,8,0:0:0:0:
247,189,73747,1,0,0:0:0:0:
247,189,73815,1,0,0:0:0:0:
247,189,73883,1,8,0:0:0:0:
158,157,74019,1,0,0:0:0:0:
226,131,74088,1,0,0:0:0:0:
180,144,74156,1,8,0:0:0:0:
276,140,74292,1,4,0:0:0:0:
81,163,74429,1,0,0:0:0:0:
208,183,74565,1,8,0:0:0:0:
201,180,74701,1,8,0:0:0:0:
201,180,74770,1,8,0:0:0:0:
201,180,74838,1,0,0:0:0:0:
201,181,74906,1,0,0:0:0:0:
201,181,74974,1,8,0:0:0:0:
201,181,75111,1,8,0:0:0:0:
201,181,75179,1,0,0:0:0:0:
201,181,75247,1,8,0:0:0:0:
201,181,75315,1,8,0:0:0:0:
276,140,75383,1,4,0:0:0:0:
81,163,75520,1,0,0:0:0:0:
245,165,75588,1,0,0:0:0:0:
208,183,75656,1,8,0:0:0:0:
201,180,75792,1,8,0:0:0:0:
201,180,75929,1,0,0:0:0:0:
201,181,75997,1,0,0:0:0:0:
201,181,76065,1,8,0:0:0:0:
245,165,76133,1,0,0:0:0:0:
201,181,76202,1,8,0:0:0:0:
201,181,76270,1,8,0:0:0:0:
201,181,76338,1,8,0:0:0:0:
183,220,76474,1,4,0:0:0:0:
81,163,76611,1,0,0:0:0:0:
208,183,76747,1,8,0:0:0:0:
201,180,76883,1,0,0:0:0:0:
201,180,76952,1,0,0:0:0:0:
201,180,77020,1,8,0:0:0:0:
201,181,77088,1,0,0:0:0:0:
201,181,77156,1,8,0:0:0:0:
201,181,77293,1,8,0:0:0:0:
201,181,77361,1,0,0:0:0:0:
201,181,77429,1,8,0:0:0:0:
201,181,77497,1,8,0:0:0:0:
190,171,77565,1,0,0:0:0:0:
191,125,77701,1,0,0:0:0:0:
191,125,77838,1,8,0:0:0:0:
191,125,77974,1,8,0:0:0:0:
191,125,78042,1,8,0:0:0:0:
145,217,78111,1,0,0:0:0:0:
139,211,78179,1,0,0:0:0:0:
139,211,78247,1,8,0:0:0:0:
134,220,78383,1,8,0:0:0:0:
134,220,78451,1,8,0:0:0:0:
134,220,78520,1,8,0:0:0:0:
130,224,78588,1,8,0:0:0:0:
276,140,78656,1,4,0:0:0:0:
81,163,78793,1,0,0:0:0:0:
208,183,78929,1,8,0:0:0:0:
201,180,79065,1,8,0:0:0:0:
201,180,79134,1,8,0:0:0:0:
201,180,79202,1,0,0:0:0:0:
201,181,79270,1,0,0:0:0:0:
201,181,79338,1,8,0:0:0:0:
201,181,79475,1,8,0:0:0:0:
201,181,79543,1,0,0:0:0:0:
201,181,79611,1,8,0:0:0:0:
201,181,79679,1,8,0:0:0:0:
276,140,79747,1,4,0:0:0:0:
81,163,79884,1,0,0:0:0:0:
245,165,79952,1,0,0:0:0:0:
208,183,80020,1,8,0:0:0:0:
201,180,80156,1,8,0:0:0:0:
201,180,80293,1,0,0:0:0:0:
201,181,80361,1,0,0:0:0:0:
201,181,80429,1,8,0:0:0:0:
245,165,80497,1,0,0:0:0:0:
201,181,80566,1,8,0:0:0:0:
201,181,80634,1,8,0:0:0:0:
201,181,80702,1,8,0:0:0:0:
183,220,80838,1,4,0:0:0:0:
81,163,80975,1,0,0:0:0:0:
208,183,81111,1,8,0:0:0:0:
201,180,81247,1,0,0:0:0:0:
201,180,81316,1,0,0:0:0:0:
201,180,81384,1,8,0:0:0:0:
201,181,81452,1,0,0:0:0:0:
201,181,81520,1,8,0:0:0:0:
201,181,81657,1,8,0:0:0:0:
201,181,81725,1,0,0:0:0:0:
201,181,81793,1,8,0:0:0:0:
201,181,81861,1,8,0:0:0:0:
190,171,81929,1,0,0:0:0:0:
191,125,82065,1,0,0:0:0:0:
191,125,82202,1,8,0:0:0:0:
191,125,82338,1,8,0:0:0:0:
191,125,82406,1,8,0:0:0:0:
145,217,82475,1,0,0:0:0:0:
139,211,82543,1,0,0:0:0:0:
139,211,82611,1,8,0:0:0:0:
134,220,82747,1,8,0:0:0:0:
134,220,82815,1,8,0:0:0:0:
134,220,82884,1,8,0:0:0:0:
130,224,82952,1,8,0:0:0:0:
276,140,83020,1,4,0:0:0:0:
81,163,83157,1,0,0:0:0:0:
208,183,83293,1,8,0:0:0:0:
201,180,83429,1,8,0:0:0:0:
201,180,83498,1,0,0:0:0:0:
201,180,83565,1,8,0:0:0:0:
201,181,83634,1,8,0:0:0:0:
130,158,83701,1,0,0:0:0:0:
201,181,83839,1,8,0:0:0:0:
201,181,83907,1,8,0:0:0:0:
201,181,83975,1,8,0:0:0:0:
276,140,84111,1,4,0:0:0:0:
81,163,84248,1,0,0:0:0:0:
245,165,84316,1,0,0:0:0:0:
208,183,84384,1,8,0:0:0:0:
201,180,84520,1,8,0:0:0:0:
277,153,84588,1,8,0:0:0:0:
201,180,84657,1,0,0:0:0:0:
201,181,84725,1,0,0:0:0:0:
201,181,84793,1,8,0:0:0:0:
245,165,84861,1,0,0:0:0:0:
201,181,84930,1,8,0:0:0:0:
201,181,84998,1,8,0:0:0:0:
201,181,85066,1,8,0:0:0:0:
201,181,85134,1,8,0:0:0:0:
183,220,85202,1,4,0:0:0:0:
81,163,85339,1,0,0:0:0:0:
208,183,85475,1,8,0:0:0:0:
201,180,85611,1,0,0:0:0:0:
201,180,85680,1,0,0:0:0:0:
201,180,85748,1,8,0:0:0:0:
201,181,85816,1,0,0:0:0:0:
201,181,85884,1,8,0:0:0:0:
199,148,85951,1,8,0:0:0:0:
201,181,86021,1,0,0:0:0:0:
201,181,86089,1,0,0:0:0:0:
201,181,86157,1,8,0:0:0:0:
190,171,86293,1,0,0:0:0:0:
191,125,86429,1,0,0:0:0:0:
191,125,86566,1,8,0:0:0:0:
191,125,86702,1,8,0:0:0:0:
191,125,86770,1,8,0:0:0:0:
145,217,86839,1,0,0:0:0:0:
139,211,86907,1,0,0:0:0:0:
139,211,86975,1,8,0:0:0:0:
134,220,87111,1,8,0:0:0:0:
134,220,87179,1,8,0:0:0:0:
134,220,87248,1,8,0:0:0:0:
130,224,87316,1,8,0:0:0:0:
276,140,87383,1,4,0:0:0:0:
81,163,87520,1,0,0:0:0:0:
208,183,87656,1,8,0:0:0:0:
201,180,87792,1,8,0:0:0:0:
201,180,87861,1,8,0:0:0:0:
201,180,87929,1,0,0:0:0:0:
201,181,87997,1,0,0:0:0:0:
201,181,88065,1,8,0:0:0:0:
201,181,88202,1,8,0:0:0:0:
201,181,88270,1,0,0:0:0:0:
201,181,88338,1,8,0:0:0:0:
201,181,88406,1,8,0:0:0:0:
276,140,88474,1,4,0:0:0:0:
81,163,88611,1,0,0:0:0:0:
245,165,88679,1,0,0:0:0:0:
208,183,88747,1,8,0:0:0:0:
201,180,88883,1,8,0:0:0:0:
201,180,89020,1,8,0:0:0:0:
201,181,89088,1,0,0:0:0:0:
201,181,89156,1,8,0:0:0:0:
245,165,89224,1,8,0:0:0:0:
201,181,89293,1,0,0:0:0:0:
139,185,89361,1,0,0:0:0:0:
201,181,89429,1,8,0:0:0:0:
228,235,89565,1,8,0:0:0:0:
228,235,89633,1,8,0:0:0:0:
228,235,89701,1,0,0:0:0:0:
228,235,89770,1,0,0:0:0:0:
228,235,89838,1,8,0:0:0:0:
228,235,89906,1,0,0:0:0:0:
228,235,89974,1,8,0:0:0:0:
219,237,90042,1,8,0:0:0:0:
228,235,90111,1,0,0:0:0:0:
228,235,90179,1,0,0:0:0:0:
219,237,90247,1,8,0:0:0:0:
219,237,90315,1,0,0:0:0:0:
218,237,90383,1,8,0:0:0:0:
218,237,90520,1,8,0:0:0:0:
218,237,90656,1,0,0:0:0:0:
217,227,90724,1,0,0:0:0:0:
217,227,90792,1,8,0:0:0:0:
217,227,90861,1,8,0:0:0:0:
217,227,90929,1,0,0:0:0:0:
215,228,91065,1,8,0:0:0:0:
215,228,91133,1,8,0:0:0:0:
215,228,91201,1,0,0:0:0:0:
215,228,91270,1,0,0:0:0:0:
215,228,91338,1,8,0:0:0:0:
215,228,91406,1,0,0:0:0:0:
215,229,91474,1,8,0:0:0:0:
214,229,91542,1,8,0:0:0:0:
213,229,91611,1,8,0:0:0:0:
94,233,91679,1,8,0:0:0:0:
208,178,91747,1,4,0:0:0:0:
187,285,92020,1,8,0:0:0:0:
187,285,92156,1,0,0:0:0:0:
238,318,92429,1,8,0:0:0:0:
238,318,92565,1,0,0:0:0:0:
238,318,92701,1,8,0:0:0:0:
238,318,92838,1,0,0:0:0:0:
238,318,93111,1,8,0:0:0:0:
238,318,93247,1,0,0:0:0:0:
238,318,93520,1,8,0:0:0:0:
238,318,93656,1,0,0:0:0:0:
238,318,93929,1,0,0:0:0:0:
238,318,94201,1,8,0:0:0:0:
238,318,94338,1,0,0:0:0:0:
238,318,94611,1,0,0:0:0:0:
238,318,94747,1,8,0:0:0:0:
238,318,94883,1,8,0:0:0:0:
238,318,95020,1,0,0:0:0:0:
238,318,95292,1,8,0:0:0:0:
238,318,95429,1,0,0:0:0:0:
238,318,95565,1,0,0:0:0:0:
238,318,95701,1,8,0:0:0:0:
238,318,95838,1,0,0:0:0:0:
238,318,96111,1,4,0:0:0:0:
232,322,96383,1,8,0:0:0:0:
232,322,96520,1,0,0:0:0:0:
232,322,96656,1,8,0:0:0:0:
226,324,96792,1,8,0:0:0:0:
226,324,96929,1,0,0:0:0:0:
226,324,97065,1,8,0:0:0:0:
226,324,97201,1,0,0:0:0:0:
226,324,97474,1,8,0:0:0:0:
226,324,97611,1,0,0:0:0:0:
226,324,97883,1,8,0:0:0:0:
226,324,98020,1,0,0:0:0:0:
226,324,98292,1,0,0:0:0:0:
226,324,98565,1,0,0:0:0:0:
226,324,98701,1,0,0:0:0:0:
226,324,98838,1,8,0:0:0:0:
226,324,98974,1,0,0:0:0:0:
226,324,99111,1,8,0:0:0:0:
226,324,99247,1,8,0:0:0:0:
226,324,99383,1,0,0:0:0:0:
226,324,99656,1,8,0:0:0:0:
226,324,99792,1,0,0:0:0:0:
226,324,99929,1,8,0:0:0:0:
226,324,100065,1,0,0:0:0:0:
226,324,100201,1,8,0:0:0:0:
226,324,100338,1,8,0:0:0:0:
226,324,100474,1,4,0:0:0:0:
180,211,100747,1,8,0:0:0:0:
180,211,100883,1,0,0:0:0:0:
189,179,100951,1,0,0:0:0:0:
180,211,101020,1,0,0:0:0:0:
180,211,101156,1,8,0:0:0:0:
180,211,101292,1,0,0:0:0:0:
180,211,101429,1,8,0:0:0:0:
180,211,101565,1,0,0:0:0:0:
248,162,101838,1,8,0:0:0:0:
180,211,101974,1,0,0:0:0:0:
248,162,102042,1,0,0:0:0:0:
248,162,102111,1,8,0:0:0:0:
248,162,102179,1,0,0:0:0:0:
248,162,102247,1,8,0:0:0:0:
180,211,102383,1,0,0:0:0:0:
248,162,102520,1,8,0:0:0:0:
180,211,102656,1,0,0:0:0:0:
243,164,102929,1,8,0:0:0:0:
180,211,103065,1,0,0:0:0:0:
243,164,103133,1,0,0:0:0:0:
243,164,103201,1,8,0:0:0:0:
243,164,103338,1,8,0:0:0:0:
176,215,103474,1,0,0:0:0:0:
243,164,103611,1,8,0:0:0:0:
163,220,103747,1,0,0:0:0:0:
243,164,104020,1,8,0:0:0:0:
157,228,104156,1,0,0:0:0:0:
243,164,104292,1,8,0:0:0:0:
243,164,104361,1,8,0:0:0:0:
233,173,104429,1,0,0:0:0:0:
233,173,104497,1,0,0:0:0:0:
233,173,104565,1,8,0:0:0:0:
155,229,104701,1,8,0:0:0:0:
155,229,104838,1,4,0:0:0:0:
154,231,105111,1,8,0:0:0:0:
154,231,105247,1,0,0:0:0:0:
175,164,105315,1,0,0:0:0:0:
175,164,105383,1,0,0:0:0:0:
170,137,105451,1,0,0:0:0:0:
155,229,105520,1,8,0:0:0:0:
155,229,105656,1,0,0:0:0:0:
154,231,105792,1,8,0:0:0:0:
154,231,105929,1,0,0:0:0:0:
230,79,106201,1,8,0:0:0:0:
152,237,106338,1,0,0:0:0:0:
178,83,106406,1,8,0:0:0:0:
152,237,106474,1,0,0:0:0:0:
178,83,106542,1,0,0:0:0:0:
178,83,106611,1,8,0:0:0:0:
192,182,106747,1,8,0:0:0:0:
178,83,106883,1,0,0:0:0:0:
178,83,106951,1,8,0:0:0:0:
152,237,107020,1,0,0:0:0:0:
171,86,107292,1,8,0:0:0:0:
152,237,107429,1,0,0:0:0:0:
170,88,107497,1,0,0:0:0:0:
170,88,107565,1,8,0:0:0:0:
170,88,107633,1,8,0:0:0:0:
170,89,107701,1,8,0:0:0:0:
152,237,107838,1,0,0:0:0:0:
171,86,107974,1,8,0:0:0:0:
144,244,108111,1,0,0:0:0:0:
170,88,108383,1,8,0:0:0:0:
143,245,108520,1,0,0:0:0:0:
143,242,108588,1,0,0:0:0:0:
171,86,108656,1,8,0:0:0:0:
171,86,108724,1,0,0:0:0:0:
171,86,108792,1,8,0:0:0:0:
171,86,108861,1,8,0:0:0:0:
144,244,108929,1,0,0:0:0:0:
144,244,108997,1,0,0:0:0:0:
163,90,109065,1,8,0:0:0:0:
163,91,109133,1,8,0:0:0:0:
143,245,109201,1,0,0:0:0:0:
194,186,109338,1,8,0:0:0:0:
194,186,109474,1,8,0:0:0:0:
194,186,109611,1,0,0:0:0:0:
194,186,109679,1,0,0:0:0:0:
194,186,109747,1,8,0:0:0:0:
194,186,109883,1,8,0:0:0:0:
194,186,110020,1,0,0:0:0:0:
194,186,110088,1,0,0:0:0:0:
181,171,110156,1,8,0:0:0:0:
210,227,110224,1,8,0:0:0:0:
210,227,110292,1,0,0:0:0:0:
159,153,110429,1,0,0:0:0:0:
225,172,110565,1,8,0:0:0:0:
170,214,110701,1,0,0:0:0:0:
186,148,110770,1,0,0:0:0:0:
186,148,110838,1,8,0:0:0:0:
225,172,110906,1,0,0:0:0:0:
225,172,110974,1,8,0:0:0:0:
225,172,111042,1,8,0:0:0:0:
199,120,111111,1,0,0:0:0:0:
199,120,111179,1,0,0:0:0:0:
199,120,111247,1,8,0:0:0:0:
199,120,111292,1,8,0:0:0:0:
228,151,111338,1,0,0:0:0:0:
199,120,111383,1,0,0:0:0:0:
228,137,111520,1,0,0:0:0:0:
228,138,111656,1,8,0:0:0:0:
228,138,111792,1,0,0:0:0:0:
224,144,111861,1,0,0:0:0:0:
228,138,111929,1,8,0:0:0:0:
200,151,112065,1,8,0:0:0:0:
200,151,112201,1,0,0:0:0:0:
200,151,112270,1,0,0:0:0:0:
200,151,112338,1,8,0:0:0:0:
200,151,112474,1,0,0:0:0:0:
200,151,112611,1,0,0:0:0:0:
200,151,112747,1,8,0:0:0:0:
200,151,112883,1,8,0:0:0:0:
200,151,112951,1,0,0:0:0:0:
200,151,113020,1,8,0:0:0:0:
200,151,113156,1,0,0:0:0:0:
221,148,113292,1,8,0:0:0:0:
223,106,113429,1,8,0:0:0:0:
223,106,113474,1,8,0:0:0:0:
226,111,113520,1,8,0:0:0:0:
200,151,113565,1,0,0:0:0:0:
199,158,113701,1,0,0:0:0:0:
225,122,113838,1,8,0:0:0:0:
199,158,113974,1,0,0:0:0:0:
199,158,114042,1,0,0:0:0:0:
201,111,114111,1,8,0:0:0:0:
201,111,114247,1,8,0:0:0:0:
201,111,114383,1,8,0:0:0:0:
201,111,114520,1,8,0:0:0:0:
173,160,114656,1,8,0:0:0:0:
172,160,114724,1,8,0:0:0:0:
173,160,114792,1,0,0:0:0:0:
172,161,114861,1,0,0:0:0:0:
172,162,114929,1,8,0:0:0:0:
170,164,115065,1,0,0:0:0:0:
170,164,115133,1,8,0:0:0:0:
170,164,115201,1,0,0:0:0:0:
169,165,115270,1,0,0:0:0:0:
170,164,115338,1,8,0:0:0:0:
169,165,115474,1,0,0:0:0:0:
169,165,115542,1,0,0:0:0:0:
169,165,115611,1,8,0:0:0:0:
314,132,115656,1,8,0:0:0:0:
314,132,115701,1,8,0:0:0:0:
169,166,115747,1,0,0:0:0:0:
145,155,115883,1,0,0:0:0:0:
145,155,116020,1,8,0:0:0:0:
170,134,116156,1,0,0:0:0:0:
170,134,116224,1,0,0:0:0:0:
170,134,116292,1,8,0:0:0:0:
155,135,116361,1,0,0:0:0:0:
170,134,116429,1,8,0:0:0:0:
156,135,116565,1,0,0:0:0:0:
156,135,116633,1,0,0:0:0:0:
156,135,116701,1,8,0:0:0:0:
155,135,116838,1,0,0:0:0:0:
155,135,116974,1,0,0:0:0:0:
155,135,117111,1,8,0:0:0:0:
155,135,117247,1,8,0:0:0:0:
155,135,117315,1,8,0:0:0:0:
156,135,117383,1,0,0:0:0:0:
156,135,117520,1,0,0:0:0:0:
156,135,117565,1,0,0:0:0:0:
215,168,117611,1,0,0:0:0:0:
155,135,117656,1,8,0:0:0:0:
272,86,117724,1,0,0:0:0:0:
272,86,117792,1,8,0:0:0:0:
224,178,117929,1,4,0:0:0:0:
224,178,118201,1,4,0:0:0:0:
224,178,118474,1,4,0:0:0:0:
224,178,118747,1,4,0:0:0:0:
199,182,118883,1,12,0:0:0:0:
224,178,119020,1,4,0:0:0:0:
199,182,119156,1,12,0:0:0:0:
224,178,119292,1,4,0:0:0:0:
224,178,119565,1,4,0:0:0:0:
192,178,119701,1,4,0:0:0:0:
168,172,119838,1,12,0:0:0:0:
168,173,119974,1,12,0:0:0:0:
217,180,120111,1,4,0:0:0:0:
217,180,120383,1,4,0:0:0:0:
214,182,120656,1,4,0:0:0:0:
217,180,120929,1,4,0:0:0:0:
181,180,121065,1,12,0:0:0:0:
210,182,121201,1,4,0:0:0:0:
214,182,121474,1,4,0:0:0:0:
201,178,121747,1,4,0:0:0:0:
181,180,121883,1,4,0:0:0:0:
181,180,122020,1,12,0:0:0:0:
181,180,122156,1,12,0:0:0:0:
201,178,122292,1,4,0:0:0:0:
201,178,122565,1,4,0:0:0:0:
201,178,122838,1,4,0:0:0:0:
201,178,123111,1,4,0:0:0:0:
180,186,123247,1,12,0:0:0:0:
201,178,123383,1,4,0:0:0:0:
180,186,123520,1,12,0:0:0:0:
201,178,123656,1,4,0:0:0:0:
201,178,123929,1,4,0:0:0:0:
180,186,124065,1,4,0:0:0:0:
201,178,124201,1,12,0:0:0:0:
180,186,124338,1,12,0:0:0:0:
201,178,124474,1,4,0:0:0:0:
201,178,124747,1,4,0:0:0:0:
180,186,124883,1,4,0:0:0:0:
201,178,125020,1,12,0:0:0:0:
180,186,125156,1,4,0:0:0:0:
201,178,125292,1,12,0:0:0:0:
201,178,125565,1,4,0:0:0:0:
181,147,125701,1,12,0:0:0:0:
201,178,125838,1,4,0:0:0:0:
189,178,125974,1,4,0:0:0:0:
201,178,126111,1,12,0:0:0:0:
201,178,126383,1,8,0:0:0:0:
270,39,126451,1,8,0:0:0:0:
274,35,126520,1,8,0:0:0:0:
270,39,126588,1,8,0:0:0:0:
263,44,126656,1,4,0:0:0:0:
233,193,126792,1,0,0:0:0:0:
233,193,126929,1,8,0:0:0:0:
233,193,127065,1,0,0:0:0:0:
233,193,127133,1,0,0:0:0:0:
233,193,127201,1,0,0:0:0:0:
228,198,127338,1,8,0:0:0:0:
221,214,127474,1,0,0:0:0:0:
221,215,127542,1,0,0:0:0:0:
220,216,127611,1,8,0:0:0:0:
208,216,127747,1,0,0:0:0:0:
199,217,127883,1,0,0:0:0:0:
198,217,127951,1,0,0:0:0:0:
197,217,128020,1,8,0:0:0:0:
197,217,128156,1,8,0:0:0:0:
196,217,128224,1,8,0:0:0:0:
196,217,128292,1,0,0:0:0:0:
196,217,128361,1,0,0:0:0:0:
196,217,128429,1,8,0:0:0:0:
196,217,128565,1,0,0:0:0:0:
199,217,128633,1,0,0:0:0:0:
198,217,128701,1,8,0:0:0:0:
198,202,128770,1,8,0:0:0:0:
198,202,128838,1,0,0:0:0:0:
233,193,128974,1,0,0:0:0:0:
233,193,129111,1,8,0:0:0:0:
233,193,129247,1,8,0:0:0:0:
233,193,129315,1,8,0:0:0:0:
233,193,129383,1,0,0:0:0:0:
228,198,129520,1,8,0:0:0:0:
221,214,129656,1,0,0:0:0:0:
221,215,129724,1,0,0:0:0:0:
220,216,129793,1,8,0:0:0:0:
208,216,129929,1,0,0:0:0:0:
199,217,130065,1,0,0:0:0:0:
198,217,130133,1,0,0:0:0:0:
197,217,130202,1,8,0:0:0:0:
197,217,130338,1,0,0:0:0:0:
196,217,130474,1,0,0:0:0:0:
196,217,130543,1,0,0:0:0:0:
196,217,130611,1,8,0:0:0:0:
196,217,130747,1,0,0:0:0:0:
199,217,130815,1,8,0:0:0:0:
198,217,130883,1,8,0:0:0:0:
198,202,130952,1,8,0:0:0:0:
198,202,131020,1,0,0:0:0:0:
237,119,131156,1,0,0:0:0:0:
237,119,131292,1,8,0:0:0:0:
187,164,131429,1,0,0:0:0:0:
237,119,131497,1,0,0:0:0:0:
186,169,131565,1,8,0:0:0:0:
186,171,131633,1,0,0:0:0:0:
186,169,131701,1,8,0:0:0:0:
157,176,131838,1,0,0:0:0:0:
157,176,131974,1,8,0:0:0:0:
157,176,132111,1,0,0:0:0:0:
157,176,132247,1,0,0:0:0:0:
157,176,132315,1,0,0:0:0:0:
157,176,132383,1,8,0:0:0:0:
157,176,132520,1,0,0:0:0:0:
157,176,132656,1,8,0:0:0:0:
157,176,132724,1,8,0:0:0:0:
157,176,132792,1,0,0:0:0:0:
157,176,132861,1,0,0:0:0:0:
165,183,132929,1,8,0:0:0:0:
165,183,132997,1,0,0:0:0:0:
165,183,133065,1,8,0:0:0:0:
160,189,133133,1,8,0:0:0:0:
160,189,133201,1,0,0:0:0:0:
187,125,133338,1,0,0:0:0:0:
187,125,133474,1,8,0:0:0:0:
174,132,133611,1,0,0:0:0:0:
170,133,133679,1,0,0:0:0:0:
168,135,133747,1,0,0:0:0:0:
168,135,133883,1,8,0:0:0:0:
168,135,134020,1,0,0:0:0:0:
168,135,134156,1,8,0:0:0:0:
173,98,134292,1,0,0:0:0:0:
170,117,134429,1,0,0:0:0:0:
165,124,134497,1,0,0:0:0:0:
165,124,134565,1,8,0:0:0:0:
165,125,134701,1,0,0:0:0:0:
163,125,134838,1,0,0:0:0:0:
162,126,134906,1,0,0:0:0:0:
159,133,134974,1,8,0:0:0:0:
157,137,135042,1,8,0:0:0:0:
157,137,135111,1,0,0:0:0:0:
152,138,135179,1,8,0:0:0:0:
156,138,135247,1,8,0:0:0:0:
159,137,135315,1,8,0:0:0:0:
263,44,135383,1,0,0:0:0:0:
233,193,135519,1,0,0:0:0:0:
233,193,135656,1,8,0:0:0:0:
233,193,135792,1,0,0:0:0:0:
233,193,135860,1,0,0:0:0:0:
233,193,135928,1,0,0:0:0:0:
228,198,136065,1,8,0:0:0:0:
221,214,136201,1,0,0:0:0:0:
221,215,136269,1,0,0:0:0:0:
220,216,136338,1,8,0:0:0:0:
208,216,136474,1,0,0:0:0:0:
198,217,136611,1,0,0:0:0:0:
201,162,136679,1,0,0:0:0:0:
197,217,136747,1,8,0:0:0:0:
197,217,136883,1,0,0:0:0:0:
196,217,137019,1,8,0:0:0:0:
196,217,137088,1,8,0:0:0:0:
182,68,137156,1,8,0:0:0:0:
182,68,137224,1,8,0:0:0:0:
182,68,137292,1,0,0:0:0:0:
199,217,137361,1,0,0:0:0:0:
198,217,137428,1,8,0:0:0:0:
198,202,137565,1,0,0:0:0:0:
233,193,137701,1,0,0:0:0:0:
233,193,137838,1,8,0:0:0:0:
233,193,137974,1,8,0:0:0:0:
233,193,138042,1,0,0:0:0:0:
233,193,138110,1,0,0:0:0:0:
228,198,138247,1,8,0:0:0:0:
221,214,138383,1,0,0:0:0:0:
220,216,138520,1,8,0:0:0:0:
208,216,138656,1,0,0:0:0:0:
199,217,138792,1,0,0:0:0:0:
198,217,138860,1,0,0:0:0:0:
197,217,138929,1,8,0:0:0:0:
197,217,139065,1,0,0:0:0:0:
196,217,139201,1,0,0:0:0:0:
196,217,139270,1,0,0:0:0:0:
196,217,139338,1,8,0:0:0:0:
196,217,139474,1,0,0:0:0:0:
198,217,139610,1,8,0:0:0:0:
266,155,139679,1,8,0:0:0:0:
198,202,139747,1,0,0:0:0:0:
237,119,139883,1,0,0:0:0:0:
237,119,140019,1,8,0:0:0:0:
187,164,140156,1,0,0:0:0:0:
237,119,140224,1,0,0:0:0:0:
186,169,140292,1,8,0:0:0:0:
154,87,140361,1,8,0:0:0:0:
186,169,140428,1,8,0:0:0:0:
161,132,140497,1,8,0:0:0:0:
157,176,140565,1,0,0:0:0:0:
157,176,140701,1,8,0:0:0:0:
157,176,140838,1,0,0:0:0:0:
157,176,140974,1,0,0:0:0:0:
157,176,141042,1,0,0:0:0:0:
157,176,141110,1,8,0:0:0:0:
157,176,141247,1,0,0:0:0:0:
157,176,141383,1,8,0:0:0:0:
157,176,141451,1,8,0:0:0:0:
157,176,141519,1,0,0:0:0:0:
157,176,141588,1,0,0:0:0:0:
165,183,141656,1,8,0:0:0:0:
165,183,141792,1,8,0:0:0:0:
197,136,141861,1,8,0:0:0:0:
160,189,141928,1,0,0:0:0:0:
187,125,142065,1,0,0:0:0:0:
187,125,142201,1,8,0:0:0:0:
174,132,142338,1,0,0:0:0:0:
170,133,142406,1,0,0:0:0:0:
168,135,142474,1,8,0:0:0:0:
168,135,142611,1,0,0:0:0:0:
168,135,142747,1,8,0:0:0:0:
168,135,142883,1,8,0:0:0:0:
179,155,142951,1,8,0:0:0:0:
173,98,143019,1,0,0:0:0:0:
170,117,143156,1,0,0:0:0:0:
165,124,143224,1,0,0:0:0:0:
165,124,143292,1,8,0:0:0:0:
165,125,143428,1,0,0:0:0:0:
163,125,143565,1,0,0:0:0:0:
162,126,143633,1,0,0:0:0:0:
159,133,143701,1,8,0:0:0:0:
157,137,143769,1,0,0:0:0:0:
157,137,143838,1,8,0:0:0:0:
152,138,143906,1,8,0:0:0:0:
156,138,143974,1,8,0:0:0:0:
159,137,144042,1,8,0:0:0:0:
151,62,144111,1,4,0:0:0:0:
193,228,144247,1,0,0:0:0:0:
173,215,144383,1,8,0:0:0:0:
193,228,144520,1,0,0:0:0:0:
229,209,144588,1,0,0:0:0:0:
229,209,144656,1,8,0:0:0:0:
229,209,144724,1,0,0:0:0:0:
229,209,144792,1,8,0:0:0:0:
193,228,144929,1,0,0:0:0:0:
229,209,145065,1,8,0:0:0:0:
193,228,145201,1,0,0:0:0:0:
193,228,145338,1,8,0:0:0:0:
229,209,145406,1,0,0:0:0:0:
193,228,145474,1,8,0:0:0:0:
193,228,145611,1,0,0:0:0:0:
193,228,145747,1,0,0:0:0:0:
248,144,145815,1,0,0:0:0:0:
248,144,145883,1,8,0:0:0:0:
193,228,146020,1,0,0:0:0:0:
243,140,146156,1,8,0:0:0:0:
248,144,146224,1,8,0:0:0:0:
193,228,146292,1,0,0:0:0:0:
193,228,146429,1,0,0:0:0:0:
185,55,146565,1,8,0:0:0:0:
193,228,146701,1,0,0:0:0:0:
185,55,146770,1,0,0:0:0:0:
185,55,146838,1,8,0:0:0:0:
185,55,146906,1,0,0:0:0:0:
185,55,146974,1,8,0:0:0:0:
193,228,147111,1,0,0:0:0:0:
185,55,147247,1,8,0:0:0:0:
193,228,147383,1,0,0:0:0:0:
193,228,147520,1,0,0:0:0:0:
185,55,147588,1,0,0:0:0:0:
185,55,147656,1,8,0:0:0:0:
193,228,147792,1,0,0:0:0:0:
203,52,147861,1,0,0:0:0:0:
203,52,147929,1,8,0:0:0:0:
203,52,147997,1,0,0:0:0:0:
203,52,148065,1,8,0:0:0:0:
193,228,148201,1,0,0:0:0:0:
203,52,148270,1,0,0:0:0:0:
203,52,148338,1,8,0:0:0:0:
232,163,148383,1,8,0:0:0:0:
232,163,148429,1,8,0:0:0:0:
151,62,148474,1,0,0:0:0:0:
193,228,148610,1,0,0:0:0:0:
225,153,148679,1,0,0:0:0:0:
173,215,148746,1,8,0:0:0:0:
193,228,148883,1,0,0:0:0:0:
229,209,149019,1,8,0:0:0:0:
229,209,149087,1,0,0:0:0:0:
229,209,149155,1,8,0:0:0:0:
216,147,149224,1,8,0:0:0:0:
193,228,149292,1,0,0:0:0:0:
215,147,149361,1,0,0:0:0:0:
229,209,149428,1,8,0:0:0:0:
193,228,149564,1,0,0:0:0:0:
193,228,149701,1,8,0:0:0:0:
229,209,149769,1,0,0:0:0:0:
193,228,149837,1,8,0:0:0:0:
193,228,149974,1,0,0:0:0:0:
193,228,150110,1,0,0:0:0:0:
248,144,150178,1,0,0:0:0:0:
248,144,150246,1,8,0:0:0:0:
193,228,150383,1,0,0:0:0:0:
243,140,150519,1,8,0:0:0:0:
248,144,150587,1,8,0:0:0:0:
193,228,150655,1,0,0:0:0:0:
193,228,150792,1,0,0:0:0:0:
185,55,150928,1,8,0:0:0:0:
193,228,151064,1,0,0:0:0:0:
185,55,151133,1,0,0:0:0:0:
185,55,151201,1,8,0:0:0:0:
185,55,151269,1,0,0:0:0:0:
185,55,151337,1,8,0:0:0:0:
193,228,151474,1,0,0:0:0:0:
185,55,151610,1,8,0:0:0:0:
193,228,151746,1,0,0:0:0:0:
193,228,151883,1,0,0:0:0:0:
185,55,151951,1,0,0:0:0:0:
185,55,152019,1,8,0:0:0:0:
193,228,152155,1,0,0:0:0:0:
203,52,152224,1,0,0:0:0:0:
203,52,152292,1,8,0:0:0:0:
203,52,152360,1,0,0:0:0:0:
203,52,152428,1,8,0:0:0:0:
193,228,152564,1,0,0:0:0:0:
203,52,152633,1,0,0:0:0:0:
203,52,152701,1,8,0:0:0:0:
232,163,152770,1,8,0:0:0:0:
175,162,152838,1,4,0:0:0:0:
256,192,152974,12,0,157201,0:0:0:0:
