osu file format v14

[General]
AudioFilename: audio.mp3
AudioLeadIn: 0
PreviewTime: 108588
Countdown: 0
SampleSet: Normal
StackLeniency: 0.7
Mode: 1
LetterboxInBreaks: 0
WidescreenStoryboard: 1

[Editor]
Bookmarks: 13181,39363,144090,152817
DistanceSpacing: 0.5
BeatDivisor: 4
GridSize: 32
TimelineZoom: 2.699999

[Metadata]
Title:Super Sonic Raving
TitleUnicode:Super Sonic Raving
Artist:Teletexter
ArtistUnicode:Teletexter
Creator:ZTH
Version:Oni
Source:Sonic R
Tags:liku ssr sega racing video game english breakcore Richard Jacques Digitizer the hedgehog electronic tj davis ost original soundtrack music sound team zak glynn
BeatmapID:3985043
BeatmapSetID:1321693

[Difficulty]
HPDrainRate:5.5
CircleSize:5
OverallDifficulty:6
ApproachRate:5
SliderMultiplier:1.4
SliderTickRate:1

[Events]
//Background and Video events
0,0,"YEA FAST.jpeg",0,68
//Break Periods
//Storyboard Layer 0 (Background)
//Storyboard Layer 1 (Fail)
//Storyboard Layer 2 (Pass)
//Storyboard Layer 3 (Foreground)
//Storyboard Layer 4 (Overlay)
//Storyboard Sound Samples

[TimingPoints]
111,272.727272727273,4,1,0,45,1,0
111,-121.212121212121,4,1,0,45,0,0
3380,-121.212121212121,4,1,0,45,0,0
3653,-120.642855124126,4,1,0,45,0,0
3926,-120.078911095375,4,1,0,45,0,0
4198,-119.522251858633,4,1,0,46,0,0
4471,-118.96871164083,4,1,0,46,0,0
4608,-118.692855338096,4,1,0,46,0,0
4744,-118.420274979164,4,1,0,46,0,0
4880,-118.148943723413,4,1,0,46,0,0
4948,-118.01374382916,4,1,0,47,0,0
5017,-117.876871616503,4,1,0,47,0,0
5153,-117.608021973941,4,1,0,47,0,0
5289,-117.340395907309,4,1,0,47,0,0
5562,-116.806835662609,4,1,0,48,0,0
5698,-116.542839405202,4,1,0,48,0,0
5835,-116.278105773046,4,1,0,48,0,0
5971,-116.016491405114,4,1,0,48,0,0
6039,-115.88612518015,4,1,0,48,0,0
6108,-115.754140939922,4,1,0,49,0,0
6244,-115.494876370605,4,1,0,49,0,0
6380,-115.236770600421,4,1,0,49,0,0
6653,-114.722127769462,4,1,0,49,0,0
6789,-114.467460484942,4,1,0,50,0,0
6926,-114.212061249679,4,1,0,50,0,0
7062,-113.959650994216,4,1,0,50,0,0
7130,-113.833863777341,4,1,0,50,0,0
7198,-113.708353938967,4,1,0,50,0,0
7335,-113.456327172085,4,1,0,51,0,0
7471,-113.207242588431,4,1,0,51,0,0
7744,-112.710528641998,4,1,0,51,0,0
7880,-112.464704433639,4,1,0,51,0,0
7948,-112.342194002543,4,1,0,51,0,0
8017,-112.218154469696,4,1,0,52,0,0
8153,-111.974471006732,4,1,0,52,0,0
8289,-111.731843575419,4,1,0,52,0,0
8358,-111.609147448438,4,1,0,52,0,0
8426,-111.488492884064,4,1,0,52,0,0
8562,-111.247964665344,4,1,0,53,0,0
8835,-110.76825876765,4,1,0,53,0,0
8971,-110.530824905799,4,1,0,53,0,0
9108,-110.292672131497,4,1,0,53,0,0
9244,-110.057270584173,4,1,0,54,0,0
9312,-109.939946228191,4,1,0,54,0,0
9380,-109.822871748407,4,1,0,54,0,0
9517,-109.587756710269,4,1,0,54,0,0
9653,-109.355351428536,4,1,0,54,0,0
9926,-108.891794740409,4,1,0,55,0,0
10062,-108.662328880074,4,1,0,55,0,0
10198,-108.433828085223,4,1,0,55,0,0
10335,-108.204616715618,4,1,0,55,0,0
10403,-108.091207047837,4,1,0,56,0,0
10471,-107.978034861354,4,1,0,56,0,0
10608,-107.750744366901,4,1,0,56,0,0
10744,-107.526057381547,4,1,0,56,0,0
11017,-107.077847929388,4,1,0,56,0,0
11153,-106.855955603299,4,1,0,57,0,0
11289,-106.634981009242,4,1,0,57,0,0
11426,-106.413303722298,4,1,0,57,0,0
11494,-106.303616033678,4,1,0,57,0,0
11562,-106.194154237869,4,1,0,57,0,0
11698,-105.975905539179,4,1,0,58,0,0
11835,-105.756957198485,4,1,0,58,0,0
12108,-105.323345244519,4,1,0,58,0,0
12244,-105.108657600358,4,1,0,58,0,0
12312,-105.001641653289,4,1,0,58,0,0
12380,-104.894843400268,4,1,0,59,0,0
12517,-104.68033474677,4,1,0,59,0,0
12653,-104.46825784443,4,1,0,59,0,0
12721,-104.36254130973,4,1,0,59,0,0
12789,-104.257038518187,4,1,0,60,0,0
12926,-104.045127905141,4,1,0,60,0,0
13198,-103.626943005181,4,1,0,60,0,0
20903,-102.698301383274,4,1,0,61,0,0
20971,-101.786155776668,4,1,0,62,0,0
21108,-99.9967920369191,4,1,0,62,0,0
21176,-99.1318016818787,4,1,0,63,0,0
21244,-98.281647636421,4,1,0,64,0,0
21312,-97.4459514377967,4,1,0,65,0,0
21380,-96.6243473871129,4,1,0,65,0,0
21517,-95.0104285048703,4,1,0,66,0,0
21653,-93.4607460583294,4,1,0,67,0,0
21721,-92.7047087364204,4,1,0,68,0,0
21789,-91.9608049731324,4,1,0,68,0,0
21858,-91.2180663609342,4,1,0,69,0,0
21926,-90.4977375565611,4,1,0,70,0,0
22440,-90.4977375565611,4,1,0,69,0,0
22986,-90.4977375565611,4,1,0,68,0,0
23531,-90.4977375565611,4,1,0,67,0,0
23804,-90.4977375565611,4,1,0,66,0,0
24349,-90.4977375565611,4,1,0,65,0,0
24926,-93.6653940597686,4,1,0,63,0,0
25198,-95.3276407049725,4,1,0,62,0,0
25471,-97.0563987592154,4,1,0,60,0,0
25744,-98.8490166443767,4,1,0,59,0,0
26017,-100.709099390847,4,1,0,57,0,0
26289,-102.63331857347,4,1,0,56,0,0
26562,-104.639994679756,4,1,0,54,0,0
26835,-106.726704242328,4,1,0,53,0,0
27108,-108.898332718878,4,1,0,51,0,0
27380,-111.151714890825,4,1,0,50,0,0
27653,-113.509141633938,4,1,0,48,0,0
27926,-115.968732947338,4,1,0,47,0,0
28198,-118.527661041601,4,1,0,45,0,0
28444,-121.212121212121,4,1,0,40,0,0
30630,-90.4977375565611,4,1,0,65,0,0
30903,-107.52688172043,4,1,0,55,0,0
34721,-97.799511002445,4,1,0,60,0,0
34994,-90.4977375565611,4,1,0,65,0,0
35267,-107.52688172043,4,1,0,55,0,0
37335,-107.021114844152,4,1,0,55,0,0
37403,-106.771840028185,4,1,0,55,0,0
37471,-106.523723741316,4,1,0,56,0,0
37608,-106.027328033587,4,1,0,56,0,0
37744,-105.539110414611,4,1,0,56,0,0
37812,-105.296683781801,4,1,0,56,0,0
37880,-105.055368319692,4,1,0,57,0,0
38017,-104.572532217637,4,1,0,57,0,0
38153,-104.097590298219,4,1,0,57,0,0
38221,-103.861733472323,4,1,0,57,0,0
38289,-103.626943005181,4,1,0,58,0,0
38426,-103.157118408487,4,1,0,58,0,0
38562,-102.694917966434,4,1,0,58,0,0
38698,-102.236840872246,4,1,0,58,0,0
38835,-101.779508827577,4,1,0,59,0,0
38903,-101.554027952956,4,1,0,59,0,0
38971,-101.329543924175,4,1,0,59,0,0
39039,-101.106050145265,4,1,0,59,0,0
39108,-100.880275178459,4,1,0,60,0,0
39358,-100,4,1,0,60,0,0
55743,-100,4,1,0,61,0,0
56016,-100,4,1,0,62,0,0
56288,-100,4,1,0,63,0,0
56561,-100,4,1,0,64,0,0
56838,-100,4,1,0,65,0,1
73197,-100.882723833544,4,1,0,65,0,1
73335,-101.782832193602,4,1,0,65,0,1
73403,-102.236840872246,4,1,0,65,0,1
73471,-102.694917966434,4,1,0,65,0,1
73608,-103.630388115276,4,1,0,65,0,1
73676,-104.101066773535,4,1,0,65,0,1
73744,-104.576040488469,4,1,0,65,0,1
73812,-105.055368319692,4,1,0,65,0,1
73880,-105.539110414611,4,1,0,65,0,1
74017,-106.527364155641,4,1,0,65,0,1
74153,-107.52688172043,4,1,0,65,0,1
74267,-93.4579439252336,4,1,0,65,0,1
74292,-93.4579439252336,4,1,0,65,0,0
74539,-107.52688172043,4,1,0,60,0,0
75358,-93.4579439252336,4,1,0,65,0,0
75630,-107.52688172043,4,1,0,60,0,0
76448,-93.4579439252336,4,1,0,65,0,0
76720,-107.52688172043,4,1,0,60,0,0
78630,-93.4579439252336,4,1,0,65,0,0
78902,-107.52688172043,4,1,0,60,0,0
79721,-93.4579439252336,4,1,0,65,0,0
79993,-107.52688172043,4,1,0,60,0,0
80812,-93.4579439252336,4,1,0,65,0,0
81084,-107.52688172043,4,1,0,60,0,0
82994,-90.4977375565611,4,1,0,65,0,0
83266,-107.52688172043,4,1,0,60,0,0
84085,-90.4977375565611,4,1,0,65,0,0
84357,-107.52688172043,4,1,0,60,0,0
85176,-90.4977375565611,4,1,0,65,0,0
85448,-107.52688172043,4,1,0,60,0,0
87358,-90.4977375565611,4,1,0,65,0,0
87630,-107.52688172043,4,1,0,60,0,0
88448,-90.4977375565611,4,1,0,65,0,0
88720,-107.52688172043,4,1,0,60,0,0
89562,-93.4579439252336,4,1,0,70,0,0
89630,-94.1296245168415,4,1,0,70,0,0
89698,-94.8110297120908,4,1,0,70,0,0
89767,-95.5126142748023,4,1,0,70,0,0
89835,-96.2142641394622,4,1,0,70,0,0
89971,-97.6489515715798,4,1,0,70,0,0
90039,-98.3824606887223,4,1,0,70,0,0
90108,-99.1381072890589,4,1,0,70,0,0
90244,-100.662007242867,4,1,0,70,0,0
90380,-102.233487792422,4,1,0,70,0,0
90448,-103.037772646352,4,1,0,70,0,0
90517,-103.866924667919,4,1,0,70,0,0
90653,-105.540897097625,4,1,0,70,0,0
90789,-107.26971056351,4,1,0,70,0,0
90858,-108.168667770496,4,1,0,70,0,0
90926,-109.069460551046,4,1,0,70,0,0
91062,-110.916817470161,4,1,0,70,0,0
91130,-111.86416347958,4,1,0,70,0,0
91198,-112.827831554563,4,1,0,70,0,0
91267,-113.82279220559,4,1,0,70,0,0
91335,-114.820651930823,4,1,0,70,0,0
91471,-116.869796227709,4,1,0,70,0,0
91608,-119.009310215057,4,1,0,70,0,0
91676,-120.100615914708,4,1,0,70,0,0
91744,-121.212121212121,4,1,0,70,0,0
91994,-121.212121212121,4,1,0,55,0,0
96085,-100,4,1,0,65,0,0
96358,-116.279069767442,4,1,0,55,0,0
100448,-96.6183574879227,4,1,0,65,0,0
100721,-111.731843575419,4,1,0,60,0,0
104812,-93.4579439252336,4,1,0,65,0,0
105085,-107.52688172043,4,1,0,60,0,0
108517,-106.188256980774,4,1,0,61,0,0
108585,-105.536131287979,4,1,0,61,0,0
108653,-104.891966403796,4,1,0,62,0,0
108789,-103.626943005181,4,1,0,62,0,0
108926,-102.383098027436,4,1,0,63,0,0
108994,-101.776738167521,4,1,0,64,0,0
109062,-101.177518305957,4,1,0,64,0,0
109198,-100,4,1,0,65,0,0
109201,-100,4,1,0,65,0,1
116835,-98.4621305665582,4,1,0,65,0,1
116971,-96.9815671842176,4,1,0,65,0,1
117039,-96.2578581842695,4,1,0,66,0,1
117108,-95.534463980084,4,1,0,66,0,1
117244,-94.1400141056699,4,1,0,67,0,1
117312,-93.4579439252337,4,1,0,67,0,1
117380,-92.7856862211745,4,1,0,67,0,1
117517,-91.4602356516169,4,1,0,68,0,1
117585,-90.8163114378263,4,1,0,68,0,1
117653,-90.1813909084233,4,1,0,68,0,1
117721,-89.5552865331603,4,1,0,69,0,1
117789,-88.9378159537639,4,1,0,69,0,1
117926,-87.719298245614,4,1,0,70,0,1
117929,-87.719298245614,4,1,0,70,0,1
126380,-91.9458784627324,4,1,0,68,0,1
126448,-93.0669398907104,4,1,0,67,0,1
126517,-94.2327809044618,4,1,0,66,0,1
126649,-96.6183574879227,4,1,0,65,0,1
126656,-96.6183574879227,4,1,0,65,0,0
143153,-95.8105918565388,4,1,0,65,0,0
143221,-95.4117528739402,4,1,0,65,0,0
143289,-95.0162206884539,4,1,0,65,0,0
143358,-94.6182098859118,4,1,0,65,0,0
143426,-94.2292162392092,4,1,0,65,0,0
143562,-93.4607460583294,4,1,0,65,0,0
143630,-93.0811922241798,4,1,0,65,0,0
143698,-92.7047087364204,4,1,0,65,0,0
143835,-91.955379305404,4,1,0,65,0,0
143903,-91.587929869334,4,1,0,65,0,0
143971,-91.2234053672139,4,1,0,65,0,0
144108,-90.4977375565611,4,1,0,65,0,0
144111,-90.4977375565611,4,1,0,65,0,1
148471,-90.4977375565611,4,1,0,65,0,1
148608,-90.4977375565611,4,1,0,65,0,1
148676,-90.4977375565611,4,1,0,64,0,1
148744,-90.4977375565611,4,1,0,64,0,1
148812,-90.4977375565611,4,1,0,63,0,1
148881,-90.4977375565611,4,1,0,63,0,1
148949,-90.4977375565611,4,1,0,63,0,1
149017,-90.4977375565611,4,1,0,62,0,1
149085,-90.4977375565611,4,1,0,62,0,1
149153,-90.4977375565611,4,1,0,61,0,1
149221,-90.4977375565611,4,1,0,61,0,1
149290,-90.4977375565611,4,1,0,61,0,1
149358,-90.4977375565611,4,1,0,60,0,1
149426,-90.4977375565611,4,1,0,60,0,1
149562,-90.4977375565611,4,1,0,59,0,1
149631,-90.4977375565611,4,1,0,59,0,1
149699,-90.4977375565611,4,1,0,59,0,1
149767,-90.4977375565611,4,1,0,58,0,1
149835,-90.4977375565611,4,1,0,58,0,1
149903,-90.4977375565611,4,1,0,57,0,1
149971,-90.4977375565611,4,1,0,57,0,1
150040,-90.4977375565611,4,1,0,57,0,1
150108,-90.4977375565611,4,1,0,56,0,1
150176,-90.4977375565611,4,1,0,56,0,1
150244,-90.4977375565611,4,1,0,55,0,1
150312,-90.4977375565611,4,1,0,55,0,1
150381,-90.4977375565611,4,1,0,55,0,1
150449,-90.4977375565611,4,1,0,54,0,1
150517,-90.4977375565611,4,1,0,54,0,1
150562,-90.4977375565611,4,1,0,53,0,1
150608,-90.4977375565611,4,1,0,53,0,1
150653,-90.4977375565611,4,1,0,53,0,1
150790,-90.4977375565611,4,1,0,52,0,1
150858,-90.4977375565611,4,1,0,52,0,1
150926,-90.4977375565611,4,1,0,52,0,1
150994,-90.4977375565611,4,1,0,51,0,1
151062,-90.4977375565611,4,1,0,51,0,1
151131,-90.4977375565611,4,1,0,50,0,1
151199,-90.4977375565611,4,1,0,50,0,1
151267,-90.4977375565611,4,1,0,50,0,1
151335,-90.4977375565611,4,1,0,49,0,1
151403,-90.4977375565611,4,1,0,49,0,1
151471,-90.4977375565611,4,1,0,48,0,1
151540,-90.4977375565611,4,1,0,48,0,1
151608,-90.4977375565611,4,1,0,48,0,1
151744,-90.4977375565611,4,1,0,47,0,1
151812,-90.4977375565611,4,1,0,47,0,1
151881,-90.4977375565611,4,1,0,46,0,1
151949,-90.4977375565611,4,1,0,46,0,1
152017,-90.4977375565611,4,1,0,46,0,1
152085,-90.4977375565611,4,1,0,45,0,1
152153,-90.4977375565611,4,1,0,45,0,1
152221,-90.4977375565611,4,1,0,44,0,1
152290,-90.4977375565611,4,1,0,44,0,1
152358,-90.4977375565611,4,1,0,44,0,1
152426,-90.4977375565611,4,1,0,43,0,1
152494,-90.4977375565611,4,1,0,43,0,1
152562,-90.4977375565611,4,1,0,42,0,1
152631,-90.4977375565611,4,1,0,42,0,1
152699,-90.4977375565611,4,1,0,42,0,1
152744,-90.4977375565611,4,1,0,41,0,1
152790,-90.4977375565611,4,1,0,41,0,1
152835,-90.4977375565611,4,1,0,40,0,1
152838,-90.4977375565611,4,1,0,40,0,0

[HitObjects]
253,206,3383,5,0,0:0:0:0:
253,206,3656,1,0,0:0:0:0:
253,206,3929,1,0,0:0:0:0:
253,206,4201,1,0,0:0:0:0:
253,206,4474,1,0,0:0:0:0:
253,206,4611,1,0,0:0:0:0:
253,206,4747,1,8,0:0:0:0:
253,206,4883,1,0,0:0:0:0:
267,213,4951,1,0,0:0:0:0:
253,206,5020,1,0,0:0:0:0:
267,213,5156,1,0,0:0:0:0:
228,242,5292,1,8,0:0:0:0:
229,225,5565,1,0,0:0:0:0:
253,206,5701,1,0,0:0:0:0:
253,206,5838,1,8,0:0:0:0:
267,213,5974,1,8,0:0:0:0:
253,206,6042,1,8,0:0:0:0:
267,213,6111,1,0,0:0:0:0:
253,206,6247,1,0,0:0:0:0:
253,206,6383,1,8,0:0:0:0:
253,206,6656,1,0,0:0:0:0:
225,222,6792,1,0,0:0:0:0:
225,222,6929,1,8,0:0:0:0:
225,222,7065,1,0,0:0:0:0:
225,222,7133,1,8,0:0:0:0:
225,222,7201,1,0,0:0:0:0:
225,222,7338,1,0,0:0:0:0:
225,222,7474,1,8,0:0:0:0:
248,208,7747,1,0,0:0:0:0:
225,222,7883,1,0,0:0:0:0:
247,229,7951,1,0,0:0:0:0:
225,222,8020,1,8,0:0:0:0:
225,222,8156,1,8,0:0:0:0:
245,231,8292,1,0,0:0:0:0:
244,240,8361,1,0,0:0:0:0:
245,231,8429,1,0,0:0:0:0:
226,219,8565,1,8,0:0:0:0:
225,222,8838,1,0,0:0:0:0:
252,233,8974,1,0,0:0:0:0:
252,233,9111,1,8,0:0:0:0:
252,233,9247,1,0,0:0:0:0:
252,233,9315,1,0,0:0:0:0:
252,233,9383,1,0,0:0:0:0:
252,233,9520,1,0,0:0:0:0:
245,231,9656,1,8,0:0:0:0:
252,233,9929,1,0,0:0:0:0:
245,231,10065,1,0,0:0:0:0:
252,233,10201,1,8,0:0:0:0:
216,219,10338,1,8,0:0:0:0:
216,219,10406,1,8,0:0:0:0:
245,231,10474,1,0,0:0:0:0:
245,231,10611,1,0,0:0:0:0:
245,231,10747,1,8,0:0:0:0:
245,231,11020,1,0,0:0:0:0:
226,235,11156,1,0,0:0:0:0:
216,219,11292,1,8,0:0:0:0:
226,235,11429,1,0,0:0:0:0:
226,235,11497,1,8,0:0:0:0:
226,235,11565,1,0,0:0:0:0:
226,235,11701,1,0,0:0:0:0:
226,235,11838,1,8,0:0:0:0:
226,235,12111,1,0,0:0:0:0:
226,235,12247,1,0,0:0:0:0:
219,229,12315,1,0,0:0:0:0:
226,235,12383,1,8,0:0:0:0:
226,235,12520,1,8,0:0:0:0:
226,235,12656,1,0,0:0:0:0:
226,235,12724,1,8,0:0:0:0:
226,235,12792,1,0,0:0:0:0:
232,229,12929,1,8,0:0:0:0:
225,222,13201,1,0,0:0:0:0:
252,233,13338,1,0,0:0:0:0:
252,233,13474,1,8,0:0:0:0:
252,233,13611,1,0,0:0:0:0:
252,233,13679,1,0,0:0:0:0:
252,233,13747,1,0,0:0:0:0:
252,233,13883,1,0,0:0:0:0:
245,231,14020,1,8,0:0:0:0:
252,233,14292,1,0,0:0:0:0:
245,231,14429,1,0,0:0:0:0:
238,242,14497,1,0,0:0:0:0:
252,233,14565,1,8,0:0:0:0:
216,219,14701,1,8,0:0:0:0:
245,231,14838,1,0,0:0:0:0:
208,229,14906,1,0,0:0:0:0:
245,231,14974,1,0,0:0:0:0:
245,231,15111,1,8,0:0:0:0:
245,231,15383,1,0,0:0:0:0:
226,235,15520,1,0,0:0:0:0:
252,233,15656,1,8,0:0:0:0:
226,235,15792,1,0,0:0:0:0:
226,235,15861,1,8,0:0:0:0:
226,235,15929,1,0,0:0:0:0:
226,235,16065,1,8,0:0:0:0:
226,235,16201,1,8,0:0:0:0:
226,235,16474,1,0,0:0:0:0:
226,235,16611,1,8,0:0:0:0:
223,225,16679,1,0,0:0:0:0:
226,235,16747,1,8,0:0:0:0:
226,235,16883,1,0,0:0:0:0:
226,235,17020,1,8,0:0:0:0:
226,235,17156,1,0,0:0:0:0:
226,235,17224,1,0,0:0:0:0:
226,235,17292,1,8,0:0:0:0:
225,222,17565,1,0,0:0:0:0:
252,233,17701,1,0,0:0:0:0:
252,233,17838,1,8,0:0:0:0:
252,233,17974,1,8,0:0:0:0:
252,233,18042,1,8,0:0:0:0:
252,233,18111,1,0,0:0:0:0:
252,233,18247,1,0,0:0:0:0:
245,231,18383,1,8,0:0:0:0:
252,233,18656,1,0,0:0:0:0:
245,231,18792,1,0,0:0:0:0:
226,235,18861,1,0,0:0:0:0:
252,233,18929,1,8,0:0:0:0:
216,219,19065,1,8,0:0:0:0:
245,231,19201,1,0,0:0:0:0:
245,231,19270,1,8,0:0:0:0:
245,231,19338,1,0,0:0:0:0:
245,231,19474,1,8,0:0:0:0:
245,231,19747,1,0,0:0:0:0:
226,235,19883,1,8,0:0:0:0:
252,233,19951,1,0,0:0:0:0:
216,219,20020,1,8,0:0:0:0:
226,235,20156,1,0,0:0:0:0:
226,235,20292,1,8,0:0:0:0:
286,235,20429,1,0,0:0:0:0:
286,235,20497,1,0,0:0:0:0:
286,235,20565,1,8,0:0:0:0:
226,235,20838,1,0,0:0:0:0:
226,235,20906,1,0,0:0:0:0:
226,235,20974,1,8,0:0:0:0:
226,235,21111,1,8,0:0:0:0:
216,219,21179,1,8,0:0:0:0:
226,235,21247,1,8,0:0:0:0:
226,235,21315,1,8,0:0:0:0:
226,235,21383,1,0,0:0:0:0:
226,235,21520,1,8,0:0:0:0:
226,235,21656,1,0,0:0:0:0:
241,223,21724,1,0,0:0:0:0:
226,235,21792,1,8,0:0:0:0:
216,219,21861,1,8,0:0:0:0:
226,235,21929,1,0,0:0:0:0:
210,230,22474,1,8,0:0:0:0:
210,230,23020,1,0,0:0:0:0:
220,238,23565,1,8,0:0:0:0:
231,225,23838,1,0,0:0:0:0:
224,233,24383,1,8,0:0:0:0:
224,233,24929,1,8,0:0:0:0:
224,233,25201,1,0,0:0:0:0:
224,233,25474,1,8,0:0:0:0:
224,233,25747,1,0,0:0:0:0:
224,233,26020,1,8,0:0:0:0:
224,233,26292,1,0,0:0:0:0:
233,242,26565,1,0,0:0:0:0:
233,242,26838,1,0,0:0:0:0:
233,241,27111,1,0,0:0:0:0:
233,241,27383,1,8,0:0:0:0:
233,242,27656,1,8,0:0:0:0:
245,247,27929,1,8,0:0:0:0:
245,244,28201,1,0,0:0:0:0:
256,192,28474,12,0,30111,0:0:0:0:
242,177,30656,5,4,0:0:0:0:
242,177,30929,1,8,0:0:0:0:
239,197,31065,1,0,0:0:0:0:
239,197,31201,1,0,0:0:0:0:
239,197,31270,1,8,0:0:0:0:
239,197,31338,1,0,0:0:0:0:
242,177,31474,1,8,0:0:0:0:
242,177,31747,1,8,0:0:0:0:
242,177,31883,1,0,0:0:0:0:
243,176,32020,1,8,0:0:0:0:
230,207,32088,1,8,0:0:0:0:
245,205,32156,1,0,0:0:0:0:
245,205,32292,1,8,0:0:0:0:
245,205,32429,1,0,0:0:0:0:
245,205,32565,1,8,0:0:0:0:
245,205,32838,1,0,0:0:0:0:
245,205,32974,1,0,0:0:0:0:
233,218,33042,1,0,0:0:0:0:
245,205,33111,1,8,0:0:0:0:
252,217,33247,1,8,0:0:0:0:
252,217,33383,1,0,0:0:0:0:
246,224,33451,1,8,0:0:0:0:
252,217,33520,1,0,0:0:0:0:
252,217,33656,1,8,0:0:0:0:
252,217,33929,1,0,0:0:0:0:
252,217,34065,1,0,0:0:0:0:
252,217,34201,1,8,0:0:0:0:
252,217,34338,1,0,0:0:0:0:
257,207,34406,1,8,0:0:0:0:
252,217,34474,1,0,0:0:0:0:
234,209,34542,1,0,0:0:0:0:
252,217,34611,1,8,0:0:0:0:
252,217,34747,1,4,0:0:0:0:
221,209,35020,1,12,0:0:0:0:
238,217,35292,1,8,0:0:0:0:
240,217,35429,1,0,0:0:0:0:
239,217,35497,1,0,0:0:0:0:
248,214,35565,1,8,0:0:0:0:
246,212,35701,1,0,0:0:0:0:
246,212,35838,1,8,0:0:0:0:
246,220,35906,1,0,0:0:0:0:
246,220,35974,1,8,0:0:0:0:
260,218,36111,1,0,0:0:0:0:
254,220,36247,1,0,0:0:0:0:
257,218,36315,1,0,0:0:0:0:
257,218,36383,1,8,0:0:0:0:
257,218,36520,1,0,0:0:0:0:
257,218,36656,1,8,0:0:0:0:
260,216,36724,1,0,0:0:0:0:
257,218,36792,1,8,0:0:0:0:
257,218,36929,1,8,0:0:0:0:
254,220,37201,1,0,0:0:0:0:
257,218,37338,1,8,0:0:0:0:
260,218,37406,1,0,0:0:0:0:
248,232,37474,1,8,0:0:0:0:
289,228,37611,1,0,0:0:0:0:
273,226,37747,1,8,0:0:0:0:
273,226,37815,1,8,0:0:0:0:
273,226,37883,1,0,0:0:0:0:
273,226,38020,1,8,0:0:0:0:
276,230,38156,1,8,0:0:0:0:
276,230,38224,1,8,0:0:0:0:
276,230,38292,1,0,0:0:0:0:
276,230,38429,1,0,0:0:0:0:
249,225,38565,1,8,0:0:0:0:
257,232,38701,1,0,0:0:0:0:
249,225,38838,1,8,0:0:0:0:
249,225,38906,1,8,0:0:0:0:
249,225,38974,1,0,0:0:0:0:
249,225,39042,1,0,0:0:0:0:
249,225,39111,1,8,0:0:0:0:
249,225,39383,1,4,0:0:0:0:
233,225,39656,1,8,0:0:0:0:
233,225,39792,1,0,0:0:0:0:
233,225,39861,1,0,0:0:0:0:
233,225,39929,1,8,0:0:0:0:
233,225,40065,1,0,0:0:0:0:
233,225,40201,1,8,0:0:0:0:
237,231,40474,1,0,0:0:0:0:
237,231,40611,1,0,0:0:0:0:
244,231,40679,1,0,0:0:0:0:
237,231,40747,1,8,0:0:0:0:
253,228,40883,1,0,0:0:0:0:
253,228,41020,1,0,0:0:0:0:
261,214,41088,1,0,0:0:0:0:
253,228,41156,1,0,0:0:0:0:
253,228,41292,1,8,0:0:0:0:
253,228,41565,1,0,0:0:0:0:
259,231,41838,1,8,0:0:0:0:
262,245,41974,1,0,0:0:0:0:
262,245,42111,1,8,0:0:0:0:
262,245,42179,1,8,0:0:0:0:
262,245,42247,1,0,0:0:0:0:
233,244,42383,1,8,0:0:0:0:
250,252,42656,1,0,0:0:0:0:
250,252,42792,1,0,0:0:0:0:
250,252,42861,1,0,0:0:0:0:
250,252,42929,1,8,0:0:0:0:
250,252,43065,1,0,0:0:0:0:
250,252,43133,1,8,0:0:0:0:
262,245,43201,1,0,0:0:0:0:
263,245,43338,1,8,0:0:0:0:
263,245,43474,1,8,0:0:0:0:
254,252,43747,1,0,0:0:0:0:
252,256,44020,1,8,0:0:0:0:
250,252,44156,1,8,0:0:0:0:
252,254,44292,1,0,0:0:0:0:
250,250,44361,1,8,0:0:0:0:
244,269,44429,1,0,0:0:0:0:
262,266,44565,1,8,0:0:0:0:
209,238,44838,1,0,0:0:0:0:
235,235,44974,1,8,0:0:0:0:
239,236,45042,1,8,0:0:0:0:
235,235,45111,1,0,0:0:0:0:
236,235,45247,1,8,0:0:0:0:
235,235,45383,1,8,0:0:0:0:
250,239,45451,1,8,0:0:0:0:
204,208,45520,1,0,0:0:0:0:
240,235,45656,1,8,0:0:0:0:
235,235,45929,1,0,0:0:0:0:
230,230,46201,1,8,0:0:0:0:
250,238,46338,1,8,0:0:0:0:
250,238,46474,1,0,0:0:0:0:
259,227,46542,1,8,0:0:0:0:
259,244,46611,1,0,0:0:0:0:
261,224,46747,1,8,0:0:0:0:
261,224,47020,1,0,0:0:0:0:
267,222,47156,1,8,0:0:0:0:
235,224,47224,1,8,0:0:0:0:
267,222,47292,1,0,0:0:0:0:
267,222,47429,1,8,0:0:0:0:
267,222,47565,1,0,0:0:0:0:
267,222,47633,1,0,0:0:0:0:
267,222,47701,1,8,0:0:0:0:
267,222,47838,1,8,0:0:0:0:
267,222,48111,1,12,0:0:0:0:
267,222,48383,1,8,0:0:0:0:
273,238,48520,1,0,0:0:0:0:
273,236,48588,1,8,0:0:0:0:
274,236,48656,1,0,0:0:0:0:
274,236,48792,1,8,0:0:0:0:
279,232,48861,1,8,0:0:0:0:
300,238,48929,1,0,0:0:0:0:
297,235,49065,1,8,0:0:0:0:
278,241,49338,1,8,0:0:0:0:
292,237,49474,1,8,0:0:0:0:
307,255,49542,1,8,0:0:0:0:
292,237,49611,1,0,0:0:0:0:
296,255,49747,1,8,0:0:0:0:
298,246,49883,1,0,0:0:0:0:
281,231,49951,1,0,0:0:0:0:
310,244,50020,1,8,0:0:0:0:
305,255,50292,1,0,0:0:0:0:
297,250,50565,1,8,0:0:0:0:
296,255,50701,1,0,0:0:0:0:
298,246,50838,1,8,0:0:0:0:
280,232,50906,1,0,0:0:0:0:
291,229,50974,1,8,0:0:0:0:
291,229,51111,1,0,0:0:0:0:
285,229,51383,5,0,0:0:0:0:
285,229,51520,1,8,0:0:0:0:
294,227,51588,1,8,0:0:0:0:
285,229,51656,1,0,0:0:0:0:
285,229,51792,1,8,0:0:0:0:
280,209,51929,1,8,0:0:0:0:
278,216,51997,1,8,0:0:0:0:
280,209,52065,1,0,0:0:0:0:
354,220,52133,1,0,0:0:0:0:
280,209,52201,1,8,0:0:0:0:
280,209,52474,1,0,0:0:0:0:
287,208,52747,1,8,0:0:0:0:
287,208,52883,1,0,0:0:0:0:
292,222,53020,1,8,0:0:0:0:
284,222,53088,1,0,0:0:0:0:
292,221,53156,1,8,0:0:0:0:
292,221,53292,1,0,0:0:0:0:
292,221,53429,1,8,0:0:0:0:
292,221,53701,1,8,0:0:0:0:
275,223,53770,1,0,0:0:0:0:
292,221,53838,1,8,0:0:0:0:
292,222,53974,1,0,0:0:0:0:
292,221,54111,1,0,0:0:0:0:
292,221,54179,1,0,0:0:0:0:
292,221,54247,1,8,0:0:0:0:
292,221,54383,1,8,0:0:0:0:
292,221,54656,1,0,0:0:0:0:
256,224,54792,1,8,0:0:0:0:
285,219,54929,1,0,0:0:0:0:
296,216,54997,1,0,0:0:0:0:
292,227,55065,1,8,0:0:0:0:
292,227,55201,1,8,0:0:0:0:
292,227,55338,1,0,0:0:0:0:
281,220,55406,1,0,0:0:0:0:
292,227,55474,1,8,0:0:0:0:
292,227,55611,1,0,0:0:0:0:
292,227,55747,5,8,0:0:0:0:
236,186,55815,1,8,0:0:0:0:
266,215,55883,1,0,0:0:0:0:
217,170,56020,1,8,0:0:0:0:
292,227,56156,1,0,0:0:0:0:
254,171,56224,1,0,0:0:0:0:
292,227,56292,1,8,0:0:0:0:
296,227,56361,1,8,0:0:0:0:
287,216,56429,1,0,0:0:0:0:
287,216,56565,1,8,0:0:0:0:
225,201,56838,5,4,0:0:0:0:
231,208,56974,1,0,0:0:0:0:
242,219,57042,1,0,0:0:0:0:
242,219,57111,1,8,0:0:0:0:
242,219,57247,1,0,0:0:0:0:
242,219,57383,1,8,0:0:0:0:
242,219,57451,1,8,0:0:0:0:
242,219,57520,1,0,0:0:0:0:
242,219,57656,1,8,0:0:0:0:
242,219,57792,1,0,0:0:0:0:
249,203,57861,1,8,0:0:0:0:
242,219,57929,1,0,0:0:0:0:
231,208,57997,1,8,0:0:0:0:
249,203,58065,1,0,0:0:0:0:
229,196,58201,1,8,0:0:0:0:
213,204,58474,1,0,0:0:0:0:
213,204,58611,1,8,0:0:0:0:
213,204,58679,1,8,0:0:0:0:
213,204,58747,1,0,0:0:0:0:
244,176,58883,5,8,0:0:0:0:
244,176,59020,1,0,0:0:0:0:
232,207,59156,1,8,0:0:0:0:
232,207,59224,1,0,0:0:0:0:
232,207,59292,1,8,0:0:0:0:
213,204,59429,1,0,0:0:0:0:
213,204,59565,1,8,0:0:0:0:
213,204,59633,1,8,0:0:0:0:
213,204,59701,1,0,0:0:0:0:
213,204,59770,1,0,0:0:0:0:
213,204,59838,1,8,0:0:0:0:
213,204,59974,1,8,0:0:0:0:
232,207,60247,1,8,0:0:0:0:
232,207,60315,1,0,0:0:0:0:
213,204,60383,1,8,0:0:0:0:
213,204,60520,1,0,0:0:0:0:
213,204,60656,1,8,0:0:0:0:
213,204,60724,1,8,0:0:0:0:
213,204,60792,1,0,0:0:0:0:
213,204,60929,1,8,0:0:0:0:
232,207,61065,1,8,0:0:0:0:
225,201,61201,5,0,0:0:0:0:
231,208,61338,1,0,0:0:0:0:
242,219,61406,1,0,0:0:0:0:
242,219,61474,1,8,0:0:0:0:
242,219,61611,1,0,0:0:0:0:
242,219,61747,1,8,0:0:0:0:
242,219,61815,1,8,0:0:0:0:
242,219,61883,1,0,0:0:0:0:
242,219,62020,1,8,0:0:0:0:
242,219,62156,1,8,0:0:0:0:
249,203,62224,1,8,0:0:0:0:
242,219,62292,1,0,0:0:0:0:
226,213,62361,1,8,0:0:0:0:
249,203,62429,1,0,0:0:0:0:
229,196,62565,1,8,0:0:0:0:
213,204,62838,1,8,0:0:0:0:
213,204,62974,1,8,0:0:0:0:
213,204,63111,1,0,0:0:0:0:
213,204,63179,1,0,0:0:0:0:
244,176,63247,5,8,0:0:0:0:
244,176,63383,1,0,0:0:0:0:
232,207,63520,1,8,0:0:0:0:
232,207,63588,1,0,0:0:0:0:
232,207,63656,1,8,0:0:0:0:
213,204,63792,1,8,0:0:0:0:
213,204,63861,1,8,0:0:0:0:
213,204,63929,1,0,0:0:0:0:
213,204,64065,1,8,0:0:0:0:
213,204,64201,1,0,0:0:0:0:
213,204,64270,1,0,0:0:0:0:
213,204,64338,1,8,0:0:0:0:
232,207,64611,1,0,0:0:0:0:
183,216,64679,1,0,0:0:0:0:
213,204,64747,1,8,0:0:0:0:
213,204,64883,1,8,0:0:0:0:
213,204,65020,1,8,0:0:0:0:
213,204,65088,1,8,0:0:0:0:
213,204,65156,1,0,0:0:0:0:
213,204,65224,1,0,0:0:0:0:
213,204,65292,1,8,0:0:0:0:
198,196,65429,1,8,0:0:0:0:
225,201,65565,5,4,0:0:0:0:
231,208,65701,1,0,0:0:0:0:
242,219,65770,1,0,0:0:0:0:
242,219,65838,1,8,0:0:0:0:
242,219,65974,1,0,0:0:0:0:
242,219,66111,1,8,0:0:0:0:
242,219,66179,1,8,0:0:0:0:
242,219,66247,1,0,0:0:0:0:
242,219,66383,1,8,0:0:0:0:
242,219,66520,1,0,0:0:0:0:
249,203,66588,1,8,0:0:0:0:
242,219,66656,1,0,0:0:0:0:
231,208,66724,1,8,0:0:0:0:
249,203,66792,1,0,0:0:0:0:
229,196,66929,1,8,0:0:0:0:
213,204,67201,1,0,0:0:0:0:
213,204,67270,1,0,0:0:0:0:
213,204,67338,1,8,0:0:0:0:
213,204,67474,1,0,0:0:0:0:
244,176,67611,5,8,0:0:0:0:
226,207,67679,1,8,0:0:0:0:
244,176,67747,1,0,0:0:0:0:
232,207,67883,1,8,0:0:0:0:
232,207,67951,1,0,0:0:0:0:
232,207,68020,1,8,0:0:0:0:
213,204,68156,1,0,0:0:0:0:
213,204,68292,1,8,0:0:0:0:
213,204,68361,1,8,0:0:0:0:
213,204,68429,1,0,0:0:0:0:
213,204,68497,1,0,0:0:0:0:
213,204,68565,1,8,0:0:0:0:
213,204,68701,1,8,0:0:0:0:
232,207,68974,1,8,0:0:0:0:
232,207,69042,1,0,0:0:0:0:
213,204,69111,1,8,0:0:0:0:
213,204,69247,1,0,0:0:0:0:
213,204,69383,1,8,0:0:0:0:
213,204,69451,1,8,0:0:0:0:
213,204,69520,1,0,0:0:0:0:
213,204,69656,1,8,0:0:0:0:
232,207,69792,1,8,0:0:0:0:
225,201,69929,5,0,0:0:0:0:
231,208,70065,1,0,0:0:0:0:
242,219,70133,1,0,0:0:0:0:
242,219,70201,1,8,0:0:0:0:
242,219,70338,1,8,0:0:0:0:
251,229,70406,1,0,0:0:0:0:
242,219,70474,1,8,0:0:0:0:
242,219,70611,1,0,0:0:0:0:
242,219,70747,1,8,0:0:0:0:
242,219,70883,1,8,0:0:0:0:
249,203,70951,1,8,0:0:0:0:
242,219,71020,1,0,0:0:0:0:
231,208,71088,1,8,0:0:0:0:
249,203,71156,1,0,0:0:0:0:
229,196,71292,1,8,0:0:0:0:
213,204,71565,1,8,0:0:0:0:
213,204,71633,1,0,0:0:0:0:
213,204,71701,1,8,0:0:0:0:
213,204,71838,1,0,0:0:0:0:
213,204,71906,1,0,0:0:0:0:
244,176,71974,5,8,0:0:0:0:
244,176,72111,1,0,0:0:0:0:
232,207,72247,1,8,0:0:0:0:
232,207,72315,1,0,0:0:0:0:
232,207,72383,1,8,0:0:0:0:
213,204,72520,1,0,0:0:0:0:
213,204,72656,1,8,0:0:0:0:
213,204,72724,1,8,0:0:0:0:
213,204,72792,1,0,0:0:0:0:
213,204,72861,1,0,0:0:0:0:
213,204,72929,1,8,0:0:0:0:
224,192,73065,1,8,0:0:0:0:
224,192,73338,1,0,0:0:0:0:
224,192,73406,1,0,0:0:0:0:
213,204,73474,1,8,0:0:0:0:
224,192,73611,1,0,0:0:0:0:
224,192,73679,1,8,0:0:0:0:
224,192,73747,1,0,0:0:0:0:
224,192,73815,1,0,0:0:0:0:
224,192,73883,1,8,0:0:0:0:
224,192,74020,1,0,0:0:0:0:
224,192,74156,1,8,0:0:0:0:
225,201,74292,5,4,0:0:0:0:
230,218,74565,1,8,0:0:0:0:
228,217,74701,1,0,0:0:0:0:
230,217,74838,1,0,0:0:0:0:
230,217,74906,1,0,0:0:0:0:
231,217,74974,1,0,0:0:0:0:
231,217,75111,1,8,0:0:0:0:
259,227,75383,1,4,0:0:0:0:
259,227,75656,1,8,0:0:0:0:
259,227,75792,1,0,0:0:0:0:
259,227,75861,1,0,0:0:0:0:
259,227,75929,1,0,0:0:0:0:
259,227,76065,1,0,0:0:0:0:
274,219,76201,1,8,0:0:0:0:
274,219,76474,1,4,0:0:0:0:
230,218,76747,1,8,0:0:0:0:
228,217,76883,1,0,0:0:0:0:
247,222,76951,1,0,0:0:0:0:
230,217,77020,1,0,0:0:0:0:
231,217,77156,1,8,0:0:0:0:
231,217,77292,1,0,0:0:0:0:
279,233,77361,1,0,0:0:0:0:
231,217,77429,1,8,0:0:0:0:
259,227,77565,1,0,0:0:0:0:
285,223,77701,1,8,0:0:0:0:
257,213,77770,1,0,0:0:0:0:
259,227,77838,1,8,0:0:0:0:
259,227,77974,1,8,0:0:0:0:
259,227,78111,1,0,0:0:0:0:
259,227,78179,1,0,0:0:0:0:
259,227,78247,1,8,0:0:0:0:
274,219,78383,1,8,0:0:0:0:
225,201,78656,5,4,0:0:0:0:
230,218,78929,1,8,0:0:0:0:
228,217,79065,1,0,0:0:0:0:
230,217,79201,1,8,0:0:0:0:
230,217,79270,1,8,0:0:0:0:
231,217,79338,1,0,0:0:0:0:
231,217,79474,1,8,0:0:0:0:
259,227,79747,1,4,0:0:0:0:
259,227,80020,1,8,0:0:0:0:
259,227,80156,1,0,0:0:0:0:
259,227,80224,1,0,0:0:0:0:
259,227,80292,1,8,0:0:0:0:
259,227,80429,1,0,0:0:0:0:
274,219,80565,1,8,0:0:0:0:
274,219,80838,1,4,0:0:0:0:
230,218,81111,1,8,0:0:0:0:
228,217,81247,1,8,0:0:0:0:
247,222,81315,1,8,0:0:0:0:
230,217,81383,1,0,0:0:0:0:
231,217,81520,1,8,0:0:0:0:
231,217,81656,1,8,0:0:0:0:
279,233,81724,1,0,0:0:0:0:
231,217,81792,1,8,0:0:0:0:
259,227,81929,1,0,0:0:0:0:
285,223,82065,1,0,0:0:0:0:
225,233,82133,1,0,0:0:0:0:
259,227,82201,1,8,0:0:0:0:
259,227,82338,1,8,0:0:0:0:
260,221,82406,1,8,0:0:0:0:
259,227,82474,1,0,0:0:0:0:
259,227,82611,1,0,0:0:0:0:
274,219,82747,1,8,0:0:0:0:
225,201,83020,5,4,0:0:0:0:
230,218,83292,1,8,0:0:0:0:
228,217,83429,1,0,0:0:0:0:
230,217,83565,1,8,0:0:0:0:
230,217,83633,1,8,0:0:0:0:
231,217,83701,1,0,0:0:0:0:
225,201,83770,1,0,0:0:0:0:
231,217,83838,1,8,0:0:0:0:
259,227,84111,1,4,0:0:0:0:
259,227,84383,1,8,0:0:0:0:
259,227,84520,1,0,0:0:0:0:
259,227,84588,1,0,0:0:0:0:
259,227,84656,1,8,0:0:0:0:
259,227,84724,1,8,0:0:0:0:
259,227,84792,1,0,0:0:0:0:
274,219,84929,1,8,0:0:0:0:
274,219,85201,1,4,0:0:0:0:
230,218,85474,1,8,0:0:0:0:
228,217,85611,1,0,0:0:0:0:
247,222,85679,1,8,0:0:0:0:
230,217,85747,1,0,0:0:0:0:
231,217,85883,1,8,0:0:0:0:
257,218,85951,1,8,0:0:0:0:
231,217,86020,1,0,0:0:0:0:
279,233,86088,1,0,0:0:0:0:
231,217,86156,1,8,0:0:0:0:
259,227,86292,1,0,0:0:0:0:
285,223,86429,1,8,0:0:0:0:
257,213,86497,1,0,0:0:0:0:
259,227,86565,1,8,0:0:0:0:
259,227,86701,1,8,0:0:0:0:
259,227,86838,1,0,0:0:0:0:
259,227,86906,1,0,0:0:0:0:
259,227,86974,1,8,0:0:0:0:
274,219,87111,1,8,0:0:0:0:
225,201,87383,5,4,0:0:0:0:
230,218,87656,1,8,0:0:0:0:
196,223,87724,1,8,0:0:0:0:
228,217,87792,1,0,0:0:0:0:
247,222,87861,1,8,0:0:0:0:
230,217,87929,1,0,0:0:0:0:
231,217,88065,1,8,0:0:0:0:
238,209,88133,1,0,0:0:0:0:
231,217,88201,1,8,0:0:0:0:
259,227,88474,1,4,0:0:0:0:
259,227,88747,1,8,0:0:0:0:
200,181,88815,1,8,0:0:0:0:
259,227,88883,1,0,0:0:0:0:
259,227,88951,1,0,0:0:0:0:
259,227,89020,1,8,0:0:0:0:
259,227,89156,1,8,0:0:0:0:
182,200,89224,1,0,0:0:0:0:
274,219,89292,1,8,0:0:0:0:
230,179,89565,5,8,0:0:0:0:
230,179,89633,1,8,0:0:0:0:
230,179,89701,1,0,0:0:0:0:
230,179,89770,1,0,0:0:0:0:
230,179,89838,1,8,0:0:0:0:
230,179,89974,1,8,0:0:0:0:
230,179,90042,1,8,0:0:0:0:
230,179,90111,1,0,0:0:0:0:
230,179,90247,1,8,0:0:0:0:
230,179,90383,1,0,0:0:0:0:
230,179,90451,1,0,0:0:0:0:
230,179,90520,1,8,0:0:0:0:
230,179,90656,1,0,0:0:0:0:
230,179,90792,1,8,0:0:0:0:
230,179,90861,1,0,0:0:0:0:
230,179,90929,1,8,0:0:0:0:
230,179,91065,1,0,0:0:0:0:
230,179,91133,1,0,0:0:0:0:
230,179,91201,1,8,0:0:0:0:
230,179,91270,1,8,0:0:0:0:
230,179,91338,1,0,0:0:0:0:
230,179,91474,1,8,0:0:0:0:
230,179,91611,1,0,0:0:0:0:
224,185,91679,1,8,0:0:0:0:
230,179,91747,1,0,0:0:0:0:
230,203,92020,1,8,0:0:0:0:
231,203,92156,1,0,0:0:0:0:
231,203,92429,1,8,0:0:0:0:
242,207,92565,1,0,0:0:0:0:
242,207,92838,1,0,0:0:0:0:
242,207,93111,1,8,0:0:0:0:
258,198,93247,1,0,0:0:0:0:
254,216,93520,1,8,0:0:0:0:
254,216,93656,1,0,0:0:0:0:
254,216,93929,1,0,0:0:0:0:
258,225,94201,1,8,0:0:0:0:
258,225,94338,1,0,0:0:0:0:
258,225,94611,1,8,0:0:0:0:
264,227,94747,1,0,0:0:0:0:
264,227,95020,1,0,0:0:0:0:
271,235,95292,1,8,0:0:0:0:
279,234,95429,1,0,0:0:0:0:
311,239,95565,1,8,0:0:0:0:
281,247,95838,1,0,0:0:0:0:
264,227,96111,1,4,0:0:0:0:
279,234,96383,1,8,0:0:0:0:
278,235,96520,1,0,0:0:0:0:
278,235,96792,1,8,0:0:0:0:
278,234,96929,1,0,0:0:0:0:
278,234,97201,1,0,0:0:0:0:
278,235,97474,1,8,0:0:0:0:
295,238,97611,1,0,0:0:0:0:
287,227,97883,1,8,0:0:0:0:
287,227,98020,1,0,0:0:0:0:
277,225,98292,1,0,0:0:0:0:
277,225,98565,1,8,0:0:0:0:
277,225,98701,1,0,0:0:0:0:
276,241,98974,1,8,0:0:0:0:
254,228,99111,1,0,0:0:0:0:
280,243,99383,1,0,0:0:0:0:
280,243,99656,1,8,0:0:0:0:
283,241,99792,1,0,0:0:0:0:
261,238,99929,1,8,0:0:0:0:
265,241,100201,1,0,0:0:0:0:
253,206,100474,1,4,0:0:0:0:
253,206,100747,1,8,0:0:0:0:
253,206,100883,1,0,0:0:0:0:
267,213,100951,1,0,0:0:0:0:
253,206,101020,1,0,0:0:0:0:
267,213,101156,1,8,0:0:0:0:
228,242,101292,1,0,0:0:0:0:
229,225,101361,1,0,0:0:0:0:
229,225,101429,1,8,0:0:0:0:
229,225,101565,1,0,0:0:0:0:
253,206,101838,1,8,0:0:0:0:
267,213,101974,1,0,0:0:0:0:
253,206,102042,1,8,0:0:0:0:
267,213,102111,1,0,0:0:0:0:
253,206,102247,1,8,0:0:0:0:
253,206,102383,1,0,0:0:0:0:
196,190,102451,1,0,0:0:0:0:
253,206,102520,1,8,0:0:0:0:
253,206,102656,1,0,0:0:0:0:
225,222,102929,1,8,0:0:0:0:
225,222,103065,1,0,0:0:0:0:
225,222,103133,1,0,0:0:0:0:
225,222,103201,1,0,0:0:0:0:
225,222,103338,1,8,0:0:0:0:
225,222,103474,1,0,0:0:0:0:
225,222,103542,1,0,0:0:0:0:
225,222,103611,1,8,0:0:0:0:
248,208,103747,1,0,0:0:0:0:
225,222,104020,1,8,0:0:0:0:
225,222,104156,1,8,0:0:0:0:
225,222,104224,1,8,0:0:0:0:
245,231,104292,1,0,0:0:0:0:
245,231,104429,1,8,0:0:0:0:
245,231,104565,1,8,0:0:0:0:
245,231,104633,1,0,0:0:0:0:
245,231,104701,1,8,0:0:0:0:
225,222,104838,1,4,0:0:0:0:
252,233,105111,1,8,0:0:0:0:
252,233,105247,1,0,0:0:0:0:
252,233,105315,1,8,0:0:0:0:
252,233,105383,1,0,0:0:0:0:
252,233,105520,1,8,0:0:0:0:
245,231,105656,1,0,0:0:0:0:
245,231,105724,1,0,0:0:0:0:
252,233,105792,1,8,0:0:0:0:
252,233,105929,1,0,0:0:0:0:
252,233,106201,1,8,0:0:0:0:
216,219,106338,1,8,0:0:0:0:
216,219,106406,1,8,0:0:0:0:
245,231,106474,1,0,0:0:0:0:
245,231,106611,1,8,0:0:0:0:
245,231,106747,1,0,0:0:0:0:
245,231,106815,1,0,0:0:0:0:
245,231,106883,1,8,0:0:0:0:
245,231,107020,1,0,0:0:0:0:
216,219,107292,1,8,0:0:0:0:
226,235,107429,1,0,0:0:0:0:
226,235,107497,1,8,0:0:0:0:
226,235,107565,1,0,0:0:0:0:
226,235,107701,1,8,0:0:0:0:
226,235,107838,1,0,0:0:0:0:
226,235,107906,1,0,0:0:0:0:
226,235,107974,1,8,0:0:0:0:
226,235,108111,1,0,0:0:0:0:
226,235,108383,1,8,0:0:0:0:
226,235,108520,1,8,0:0:0:0:
226,235,108588,1,8,0:0:0:0:
226,235,108656,1,0,0:0:0:0:
226,235,108792,1,8,0:0:0:0:
226,235,108929,1,0,0:0:0:0:
226,235,108997,1,0,0:0:0:0:
226,235,109065,1,8,0:0:0:0:
225,201,109201,5,4,0:0:0:0:
231,208,109338,1,8,0:0:0:0:
242,219,109406,1,0,0:0:0:0:
242,219,109474,1,8,0:0:0:0:
242,219,109611,1,0,0:0:0:0:
242,219,109747,1,8,0:0:0:0:
276,220,109815,1,0,0:0:0:0:
242,219,109883,1,8,0:0:0:0:
242,219,110020,1,8,0:0:0:0:
226,206,110088,1,8,0:0:0:0:
260,222,110156,1,0,0:0:0:0:
273,217,110224,1,0,0:0:0:0:
242,219,110292,1,8,0:0:0:0:
249,203,110429,1,0,0:0:0:0:
229,196,110565,1,8,0:0:0:0:
213,204,110838,1,0,0:0:0:0:
213,204,110906,1,0,0:0:0:0:
213,204,110974,1,8,0:0:0:0:
213,204,111042,1,8,0:0:0:0:
213,204,111111,1,0,0:0:0:0:
244,176,111247,5,8,0:0:0:0:
244,176,111383,1,0,0:0:0:0:
232,207,111520,1,0,0:0:0:0:
232,207,111588,1,0,0:0:0:0:
232,207,111656,1,8,0:0:0:0:
213,204,111792,1,0,0:0:0:0:
213,204,111929,1,8,0:0:0:0:
213,204,111997,1,8,0:0:0:0:
213,204,112065,1,0,0:0:0:0:
213,204,112133,1,8,0:0:0:0:
213,204,112201,1,0,0:0:0:0:
213,204,112338,1,8,0:0:0:0:
232,207,112611,1,0,0:0:0:0:
232,207,112679,1,0,0:0:0:0:
213,204,112747,1,8,0:0:0:0:
213,204,112883,1,0,0:0:0:0:
213,204,113020,1,8,0:0:0:0:
213,204,113088,1,8,0:0:0:0:
213,204,113156,1,0,0:0:0:0:
213,204,113292,1,8,0:0:0:0:
242,219,113361,1,0,0:0:0:0:
220,219,113429,1,8,0:0:0:0:
225,201,113565,5,0,0:0:0:0:
231,208,113701,1,8,0:0:0:0:
242,219,113770,1,0,0:0:0:0:
242,219,113838,1,8,0:0:0:0:
242,219,113974,1,0,0:0:0:0:
242,219,114111,1,8,0:0:0:0:
252,210,114179,1,0,0:0:0:0:
242,219,114247,1,8,0:0:0:0:
247,217,114383,1,8,0:0:0:0:
261,208,114451,1,8,0:0:0:0:
242,219,114520,1,0,0:0:0:0:
252,211,114588,1,0,0:0:0:0:
266,213,114656,1,8,0:0:0:0:
251,229,114792,1,0,0:0:0:0:
229,196,114929,1,8,0:0:0:0:
213,204,115201,1,0,0:0:0:0:
213,204,115270,1,0,0:0:0:0:
213,204,115338,1,8,0:0:0:0:
213,204,115406,1,8,0:0:0:0:
213,204,115474,1,0,0:0:0:0:
244,176,115611,5,8,0:0:0:0:
244,176,115747,1,0,0:0:0:0:
232,207,115883,1,0,0:0:0:0:
232,207,115951,1,0,0:0:0:0:
232,207,116020,1,8,0:0:0:0:
213,204,116156,1,0,0:0:0:0:
213,204,116292,1,8,0:0:0:0:
213,204,116361,1,8,0:0:0:0:
213,204,116429,1,0,0:0:0:0:
213,204,116497,1,8,0:0:0:0:
213,204,116565,1,0,0:0:0:0:
213,204,116701,1,8,0:0:0:0:
232,207,116974,1,8,0:0:0:0:
232,207,117042,1,0,0:0:0:0:
213,204,117111,1,8,0:0:0:0:
213,204,117247,1,0,0:0:0:0:
224,224,117315,1,8,0:0:0:0:
213,204,117383,1,0,0:0:0:0:
213,204,117520,1,8,0:0:0:0:
213,204,117588,1,8,0:0:0:0:
213,204,117656,1,0,0:0:0:0:
233,230,117724,1,0,0:0:0:0:
213,204,117792,1,8,0:0:0:0:
220,227,117929,1,4,0:0:0:0:
232,207,118201,1,4,0:0:0:0:
232,207,118474,1,12,0:0:0:0:
232,207,118747,1,12,0:0:0:0:
229,273,119020,1,4,0:0:0:0:
232,205,119292,1,4,0:0:0:0:
229,270,119565,1,12,0:0:0:0:
234,205,119838,1,12,0:0:0:0:
229,267,120111,1,4,0:0:0:0:
235,204,120383,1,12,0:0:0:0:
229,265,120656,1,4,0:0:0:0:
235,243,120929,1,12,0:0:0:0:
235,243,121201,1,4,0:0:0:0:
235,243,121474,1,4,0:0:0:0:
235,243,121747,1,4,0:0:0:0:
235,243,122020,1,12,0:0:0:0:
220,227,122292,1,4,0:0:0:0:
232,207,122565,1,4,0:0:0:0:
232,207,122838,1,12,0:0:0:0:
232,207,123111,1,12,0:0:0:0:
229,273,123383,1,4,0:0:0:0:
232,205,123656,1,4,0:0:0:0:
229,270,123929,1,12,0:0:0:0:
234,205,124201,1,12,0:0:0:0:
229,267,124474,1,4,0:0:0:0:
235,204,124747,1,12,0:0:0:0:
229,265,125020,1,4,0:0:0:0:
235,243,125292,1,12,0:0:0:0:
235,243,125565,1,4,0:0:0:0:
235,243,125838,1,4,0:0:0:0:
235,243,126111,1,4,0:0:0:0:
235,243,126383,1,8,0:0:0:0:
177,219,126451,1,8,0:0:0:0:
206,220,126520,1,8,0:0:0:0:
229,246,126656,1,4,0:0:0:0:
235,243,126929,1,8,0:0:0:0:
235,243,127065,1,0,0:0:0:0:
235,243,127133,1,8,0:0:0:0:
235,243,127201,1,0,0:0:0:0:
235,243,127338,1,8,0:0:0:0:
229,246,127474,1,0,0:0:0:0:
199,207,127542,1,0,0:0:0:0:
229,246,127611,1,8,0:0:0:0:
235,243,127747,1,0,0:0:0:0:
235,243,128020,1,8,0:0:0:0:
235,237,128156,1,0,0:0:0:0:
235,237,128224,1,8,0:0:0:0:
235,237,128292,1,0,0:0:0:0:
235,237,128361,1,0,0:0:0:0:
235,237,128429,1,8,0:0:0:0:
235,237,128565,1,0,0:0:0:0:
235,237,128701,1,8,0:0:0:0:
235,237,128838,1,0,0:0:0:0:
225,239,129111,1,8,0:0:0:0:
226,239,129247,1,0,0:0:0:0:
226,239,129315,1,8,0:0:0:0:
226,239,129383,1,0,0:0:0:0:
226,239,129520,1,8,0:0:0:0:
227,240,129588,1,8,0:0:0:0:
226,239,129656,1,0,0:0:0:0:
226,239,129724,1,0,0:0:0:0:
226,239,129792,1,8,0:0:0:0:
226,239,129929,1,0,0:0:0:0:
230,249,130065,1,8,0:0:0:0:
230,249,130133,1,0,0:0:0:0:
230,249,130201,1,8,0:0:0:0:
261,241,130338,1,0,0:0:0:0:
250,235,130474,1,8,0:0:0:0:
250,235,130542,1,0,0:0:0:0:
250,235,130611,1,8,0:0:0:0:
248,242,130747,1,0,0:0:0:0:
248,242,130815,1,0,0:0:0:0:
201,251,130883,1,8,0:0:0:0:
248,242,131020,1,4,0:0:0:0:
231,238,131292,1,8,0:0:0:0:
232,238,131429,1,0,0:0:0:0:
237,237,131565,1,8,0:0:0:0:
237,237,131633,1,8,0:0:0:0:
237,237,131701,1,8,0:0:0:0:
237,237,131770,1,8,0:0:0:0:
237,237,131838,1,0,0:0:0:0:
237,237,131974,1,8,0:0:0:0:
237,237,132111,1,0,0:0:0:0:
237,237,132179,1,0,0:0:0:0:
237,237,132247,1,8,0:0:0:0:
237,237,132383,1,8,0:0:0:0:
237,237,132520,1,0,0:0:0:0:
250,234,132588,1,0,0:0:0:0:
237,237,132656,1,8,0:0:0:0:
250,234,132792,1,0,0:0:0:0:
250,234,132929,1,8,0:0:0:0:
250,239,133065,1,8,0:0:0:0:
241,261,133133,1,8,0:0:0:0:
241,257,133201,1,0,0:0:0:0:
230,248,133474,1,8,0:0:0:0:
230,248,133611,1,0,0:0:0:0:
263,223,133679,1,0,0:0:0:0:
238,248,133747,1,8,0:0:0:0:
271,235,133883,1,8,0:0:0:0:
268,211,133951,1,8,0:0:0:0:
271,235,134020,1,0,0:0:0:0:
258,189,134088,1,0,0:0:0:0:
256,245,134156,1,8,0:0:0:0:
259,201,134292,1,0,0:0:0:0:
247,210,134429,1,0,0:0:0:0:
279,234,134497,1,0,0:0:0:0:
247,210,134565,1,8,0:0:0:0:
247,210,134701,1,0,0:0:0:0:
247,210,134838,1,8,0:0:0:0:
247,210,134906,1,0,0:0:0:0:
247,210,134974,1,8,0:0:0:0:
247,210,135111,1,0,0:0:0:0:
228,219,135179,1,0,0:0:0:0:
247,210,135247,1,8,0:0:0:0:
229,246,135383,1,4,0:0:0:0:
235,243,135656,1,8,0:0:0:0:
235,243,135792,1,0,0:0:0:0:
235,243,135861,1,0,0:0:0:0:
235,243,135929,1,8,0:0:0:0:
235,243,136065,1,8,0:0:0:0:
235,243,136133,1,8,0:0:0:0:
229,246,136201,1,0,0:0:0:0:
229,246,136338,1,8,0:0:0:0:
235,243,136474,1,0,0:0:0:0:
235,243,136611,1,0,0:0:0:0:
235,243,136679,1,0,0:0:0:0:
235,243,136747,1,8,0:0:0:0:
235,237,136883,1,8,0:0:0:0:
235,237,136951,1,8,0:0:0:0:
235,237,137020,1,0,0:0:0:0:
235,237,137088,1,0,0:0:0:0:
235,237,137156,1,8,0:0:0:0:
235,237,137292,1,0,0:0:0:0:
235,237,137429,1,8,0:0:0:0:
235,237,137565,1,0,0:0:0:0:
225,239,137838,1,8,0:0:0:0:
226,239,137974,1,0,0:0:0:0:
226,239,138042,1,8,0:0:0:0:
226,239,138111,1,0,0:0:0:0:
226,239,138247,1,8,0:0:0:0:
227,240,138315,1,8,0:0:0:0:
226,239,138383,1,0,0:0:0:0:
226,239,138451,1,0,0:0:0:0:
226,239,138520,1,8,0:0:0:0:
226,239,138656,1,0,0:0:0:0:
230,249,138792,1,8,0:0:0:0:
230,249,138861,1,0,0:0:0:0:
230,249,138929,1,8,0:0:0:0:
261,241,139065,1,0,0:0:0:0:
250,235,139201,1,8,0:0:0:0:
250,235,139270,1,0,0:0:0:0:
250,235,139338,1,8,0:0:0:0:
248,242,139474,1,0,0:0:0:0:
248,242,139542,1,0,0:0:0:0:
201,251,139611,1,8,0:0:0:0:
248,242,139747,1,4,0:0:0:0:
231,238,140020,1,8,0:0:0:0:
232,238,140156,1,0,0:0:0:0:
237,237,140292,1,8,0:0:0:0:
237,237,140361,1,8,0:0:0:0:
237,237,140429,1,8,0:0:0:0:
237,237,140497,1,8,0:0:0:0:
237,237,140565,1,0,0:0:0:0:
237,237,140701,1,8,0:0:0:0:
237,237,140838,1,8,0:0:0:0:
241,221,140906,1,8,0:0:0:0:
237,237,140974,1,0,0:0:0:0:
212,214,141042,1,0,0:0:0:0:
237,237,141111,1,8,0:0:0:0:
237,237,141247,1,8,0:0:0:0:
237,237,141315,1,8,0:0:0:0:
237,237,141383,1,0,0:0:0:0:
250,234,141520,1,8,0:0:0:0:
250,234,141656,1,0,0:0:0:0:
212,246,141724,1,0,0:0:0:0:
250,239,141792,1,8,0:0:0:0:
241,257,141929,1,0,0:0:0:0:
230,248,142201,1,8,0:0:0:0:
230,248,142338,1,0,0:0:0:0:
263,223,142406,1,0,0:0:0:0:
238,248,142474,1,8,0:0:0:0:
271,235,142611,1,8,0:0:0:0:
271,235,142747,1,0,0:0:0:0:
259,201,142815,1,0,0:0:0:0:
256,245,142883,1,8,0:0:0:0:
258,189,143020,1,0,0:0:0:0:
247,210,143156,1,8,0:0:0:0:
247,210,143224,1,8,0:0:0:0:
247,210,143292,1,8,0:0:0:0:
258,220,143361,1,8,0:0:0:0:
247,210,143429,1,0,0:0:0:0:
247,210,143565,1,8,0:0:0:0:
247,210,143633,1,8,0:0:0:0:
247,210,143701,1,0,0:0:0:0:
247,210,143838,1,8,0:0:0:0:
228,219,143906,1,0,0:0:0:0:
192,256,143974,1,8,0:0:0:0:
229,246,144111,1,4,0:0:0:0:
235,243,144383,1,8,0:0:0:0:
239,245,144451,1,8,0:0:0:0:
235,243,144520,1,0,0:0:0:0:
235,243,144588,1,8,0:0:0:0:
235,243,144656,1,0,0:0:0:0:
235,243,144792,1,8,0:0:0:0:
235,243,144861,1,8,0:0:0:0:
229,246,144929,1,0,0:0:0:0:
229,246,145065,1,8,0:0:0:0:
235,243,145201,1,0,0:0:0:0:
224,256,145270,1,8,0:0:0:0:
256,256,145338,1,0,0:0:0:0:
235,243,145474,1,8,0:0:0:0:
236,221,145542,1,8,0:0:0:0:
235,237,145611,1,0,0:0:0:0:
235,237,145679,1,0,0:0:0:0:
235,237,145747,1,8,0:0:0:0:
235,237,145883,1,8,0:0:0:0:
235,237,145951,1,8,0:0:0:0:
235,237,146020,1,0,0:0:0:0:
235,237,146156,1,8,0:0:0:0:
235,237,146292,1,0,0:0:0:0:
225,239,146565,1,8,0:0:0:0:
226,239,146701,1,0,0:0:0:0:
226,239,146770,1,8,0:0:0:0:
226,239,146838,1,0,0:0:0:0:
226,239,146974,1,8,0:0:0:0:
227,240,147042,1,8,0:0:0:0:
226,239,147111,1,0,0:0:0:0:
226,239,147179,1,0,0:0:0:0:
226,239,147247,1,8,0:0:0:0:
226,239,147383,1,0,0:0:0:0:
230,249,147520,1,8,0:0:0:0:
230,249,147588,1,0,0:0:0:0:
230,249,147656,1,8,0:0:0:0:
261,241,147792,1,0,0:0:0:0:
250,235,147929,1,8,0:0:0:0:
250,235,147997,1,0,0:0:0:0:
250,235,148065,1,8,0:0:0:0:
248,242,148201,1,0,0:0:0:0:
248,242,148270,1,0,0:0:0:0:
201,251,148338,1,8,0:0:0:0:
301,207,148406,1,8,0:0:0:0:
248,242,148474,1,0,0:0:0:0:
231,238,148747,1,8,0:0:0:0:
248,243,148815,1,8,0:0:0:0:
232,238,148883,1,0,0:0:0:0:
248,243,148951,1,0,0:0:0:0:
237,237,149020,1,8,0:0:0:0:
237,237,149156,1,8,0:0:0:0:
237,237,149292,1,0,0:0:0:0:
237,237,149361,1,0,0:0:0:0:
237,237,149429,1,8,0:0:0:0:
237,237,149565,1,0,0:0:0:0:
224,224,149633,1,8,0:0:0:0:
237,237,149701,1,0,0:0:0:0:
256,256,149770,1,0,0:0:0:0:
237,237,149838,1,8,0:0:0:0:
237,237,149974,1,0,0:0:0:0:
237,237,150042,1,8,0:0:0:0:
237,237,150111,1,0,0:0:0:0:
250,234,150247,1,8,0:0:0:0:
250,234,150383,1,0,0:0:0:0:
192,256,150451,1,0,0:0:0:0:
212,246,150520,1,8,0:0:0:0:
287,239,150588,1,8,0:0:0:0:
241,257,150656,1,0,0:0:0:0:
230,248,150929,1,8,0:0:0:0:
263,223,150997,1,8,0:0:0:0:
230,248,151065,1,0,0:0:0:0:
261,236,151133,1,8,0:0:0:0:
238,248,151201,1,0,0:0:0:0:
271,235,151338,1,8,0:0:0:0:
271,235,151474,1,0,0:0:0:0:
294,220,151542,1,0,0:0:0:0:
256,245,151611,1,8,0:0:0:0:
258,189,151747,1,0,0:0:0:0:
247,210,151883,1,8,0:0:0:0:
247,210,151951,1,0,0:0:0:0:
247,210,152020,1,8,0:0:0:0:
247,210,152156,1,0,0:0:0:0:
247,210,152292,1,8,0:0:0:0:
247,210,152361,1,0,0:0:0:0:
247,210,152429,1,8,0:0:0:0:
247,210,152565,1,0,0:0:0:0:
228,219,152633,1,0,0:0:0:0:
247,210,152701,1,8,0:0:0:0:
180,207,152770,1,8,0:0:0:0:
229,246,152838,1,0,0:0:0:0:
