osu file format v14

[General]
AudioFilename: audio.mp3
AudioLeadIn: 0
PreviewTime: 108588
Countdown: 0
SampleSet: Normal
StackLeniency: 0.7
Mode: 1
LetterboxInBreaks: 0
WidescreenStoryboard: 0

[Editor]
Bookmarks: 13181,39363,144090,152817
DistanceSpacing: 0.5
BeatDivisor: 8
GridSize: 32
TimelineZoom: 2.699999

[Metadata]
Title:Super Sonic Raving
TitleUnicode:Super Sonic Raving
Artist:Teletexter
ArtistUnicode:Teletexter
Creator:ZTH
Version:Let's go!
Source:Sonic R
Tags:liku ssr sega racing video game english breakcore Richard Jacques Digitizer the hedgehog electronic tj davis ost original soundtrack music sound team zak glynn
BeatmapID:2737702
BeatmapSetID:1321693

[Difficulty]
HPDrainRate:5
CircleSize:5
OverallDifficulty:7
ApproachRate:5
SliderMultiplier:1.4
SliderTickRate:1

[Events]
//Background and Video events
0,0,"YEA FAST.jpeg",0,68
//Break Periods
//Storyboard Layer 0 (Background)
//Storyboard Layer 1 (Fail)
//Storyboard Layer 2 (Pass)
//Storyboard Layer 3 (Foreground)
//Storyboard Layer 4 (Overlay)
//Storyboard Sound Samples

[TimingPoints]
111,272.727272727273,4,1,0,45,1,0
111,-121.212121212121,4,1,0,45,0,0
3384,-121.212121212121,4,1,0,45,0,0
4448,-121.212121212121,4,1,0,45,0,0
4585,-120.889748549323,4,1,0,45,0,0
4721,-120.569086086327,4,1,0,45,0,0
4858,-120.25012025012,4,1,0,46,0,0
4926,-120.091269364717,4,1,0,46,0,0
4994,-119.947223221782,4,1,0,46,0,0
5062,-119.789171058936,4,1,0,46,0,0
5130,-119.631534872592,4,1,0,46,0,0
5267,-119.317503877819,4,1,0,46,0,0
5335,-119.161105815062,4,1,0,47,0,0
5403,-119.00511722004,4,1,0,47,0,0
5539,-118.694362017804,4,1,0,47,0,0
5676,-118.385225523855,4,1,0,47,0,0
5744,-118.231260345235,4,1,0,47,0,0
5812,-118.077695123391,4,1,0,47,0,0
5948,-117.785630153121,4,1,0,48,0,0
6017,-117.633219621221,4,1,0,48,0,0
6085,-117.481203007519,4,1,0,48,0,0
6153,-117.329578786812,4,1,0,48,0,0
6221,-117.178345441762,4,1,0,48,0,0
6358,-116.877045348294,4,1,0,48,0,0
6426,-116.726975604062,4,1,0,48,0,0
6494,-116.577290743763,4,1,0,49,0,0
6630,-116.279069767442,4,1,0,49,0,0
6767,-115.982370679657,4,1,0,49,0,0
6903,-115.700566932778,4,1,0,49,0,0
7039,-115.406809001731,4,1,0,49,0,0
7108,-115.260488704472,4,1,0,49,0,0
7176,-115.114538966271,4,1,0,50,0,0
7244,-114.968958381237,4,1,0,50,0,0
7312,-114.82374555058,4,1,0,50,0,0
7448,-114.534417592487,4,1,0,50,0,0
7517,-114.390299702585,4,1,0,50,0,0
7585,-114.246544042043,4,1,0,50,0,0
7721,-113.960113960114,4,1,0,51,0,0
7858,-113.675116516994,4,1,0,51,0,0
7926,-113.546042920404,4,1,0,51,0,0
7994,-113.404400090724,4,1,0,51,0,0
8130,-113.122171945701,4,1,0,51,0,0
8198,-112.981584001808,4,1,0,51,0,0
8267,-112.841345068833,4,1,0,51,0,0
8335,-112.701453848755,4,1,0,52,0,0
8403,-112.561909049977,4,1,0,52,0,0
8539,-112.283853581855,4,1,0,52,0,0
8608,-112.145340361108,4,1,0,52,0,0
8676,-112.007168458781,4,1,0,52,0,0
8812,-111.731843575419,4,1,0,52,0,0
8948,-111.470293166871,4,1,0,53,0,0
9085,-111.19759813188,4,1,0,53,0,0
9221,-110.926234054354,4,1,0,53,0,0
9289,-110.791048083315,4,1,0,53,0,0
9358,-110.656191213898,4,1,0,53,0,0
9426,-110.5216622458,4,1,0,53,0,0
9494,-110.387459984546,4,1,0,54,0,0
9630,-110.120030833609,4,1,0,54,0,0
9698,-109.98680158381,4,1,0,54,0,0
9767,-109.853894320554,4,1,0,54,0,0
9903,-109.601052170101,4,1,0,54,0,0
10039,-109.337415263503,4,1,0,54,0,0
10108,-109.206071857595,4,1,0,54,0,0
10176,-109.075043630017,4,1,0,55,0,0
10312,-108.813928182807,4,1,0,55,0,0
10380,-108.683838713183,4,1,0,55,0,0
10448,-108.554059921841,4,1,0,55,0,0
10517,-108.42459069717,4,1,0,55,0,0
10585,-108.295429932857,4,1,0,55,0,0
10721,-108.038029386344,4,1,0,56,0,0
10789,-107.909787417719,4,1,0,56,0,0
10858,-107.793467715856,4,1,0,56,0,0
10926,-107.665805340224,4,1,0,56,0,0
10994,-107.538444994085,4,1,0,56,0,0
11130,-107.284626113078,4,1,0,56,0,0
11267,-107.032002568768,4,1,0,57,0,0
11403,-106.780565936999,4,1,0,57,0,0
11471,-106.655290102389,4,1,0,57,0,0
11539,-106.53030787259,4,1,0,57,0,0
11608,-106.405618216642,4,1,0,57,0,0
11676,-106.281220108407,4,1,0,57,0,0
11812,-106.044538706257,4,1,0,57,0,0
11880,-105.920982946722,4,1,0,58,0,0
11948,-105.797714769361,4,1,0,58,0,0
12085,-105.552037154317,4,1,0,58,0,0
12221,-105.30749789385,4,1,0,58,0,0
12289,-105.185652676975,4,1,0,58,0,0
12358,-105.064089094348,4,1,0,58,0,0
12494,-104.82180293501,4,1,0,59,0,0
12562,-104.701078421108,4,1,0,59,0,0
12630,-104.580631667015,4,1,0,59,0,0
12698,-104.460461715241,4,1,0,59,0,0
12767,-104.340567612688,4,1,0,59,0,0
12835,-104.231811548885,4,1,0,59,0,0
12903,-104.112441436752,4,1,0,60,0,0
12971,-103.993344425957,4,1,0,60,0,0
13039,-103.874519580347,4,1,0,60,0,0
13176,-103.626943005181,4,1,0,60,0,0
20903,-102.012669767877,4,1,0,60,0,0
20971,-100.44791853683,4,1,0,60,0,0
21039,-98.9304449149661,4,1,0,60,0,0
21108,-97.4368134321693,4,1,0,60,0,0
21176,-96.0083072265831,4,1,0,60,0,0
21244,-94.6210820280654,4,1,0,60,0,0
21312,-93.2733739142329,4,1,0,60,0,0
21380,-91.9635180471029,4,1,0,60,0,0
21448,-90.6899418121363,4,1,0,60,0,0
21517,-89.4331935683516,4,1,0,60,0,0
21585,-88.2282775268587,4,1,0,60,0,0
21653,-87.0553970755451,4,1,0,60,0,0
21721,-85.9132913610288,4,1,0,60,0,0
21789,-84.8007648391623,4,1,0,60,0,0
21858,-83.7009474855192,4,1,0,60,0,0
21926,-82.6446280991736,4,1,0,70,0,0
22469,-82.6446280991736,4,1,0,69,0,0
23015,-82.6446280991736,4,1,0,68,0,0
23560,-82.6446280991736,4,1,0,67,0,0
23833,-82.6446280991736,4,1,0,66,0,0
24377,-82.6446280991736,4,1,0,65,0,0
24926,-86.3098377602903,4,1,0,64,0,0
25198,-88.2597871064338,4,1,0,63,0,0
25335,-89.2756798514327,4,1,0,62,0,0
25471,-90.3075556144214,4,1,0,61,0,0
25608,-91.371420020414,4,1,0,60,0,0
25744,-92.4526041984466,4,1,0,59,0,0
25880,-93.5596817461425,4,1,0,58,0,0
26017,-94.7020335126213,4,1,0,57,0,0
26289,-97.054786964624,4,1,0,56,0,0
26426,-98.2846434749183,4,1,0,55,0,0
26562,-99.53674416794,4,1,0,54,0,0
26698,-100.821158888823,4,1,0,53,0,0
26835,-102.148973703693,4,1,0,52,0,0
26971,-103.502147334333,4,1,0,51,0,0
27108,-104.902008549091,4,1,0,50,0,0
27244,-106.329614006087,4,1,0,49,0,0
27380,-107.796611955912,4,1,0,48,0,0
27653,-110.86705844572,4,1,0,47,0,0
27926,-114.117548606656,4,1,0,46,0,0
28198,-117.551391020005,4,1,0,45,0,0
28471,-121.212121212121,4,1,0,40,0,0
30630,-87.719298245614,4,1,0,65,0,0
30903,-116.279069767442,4,1,0,55,0,0
34721,-100,4,1,0,60,0,0
34994,-87.719298245614,4,1,0,65,0,0
35267,-116.279069767442,4,1,0,55,0,0
37176,-116.279069767442,4,1,0,56,0,0
37312,-115.110961211059,4,1,0,56,0,0
37380,-114.53559823661,4,1,0,56,0,0
37448,-113.965958368235,4,1,0,56,0,0
37517,-113.402085237543,4,1,0,56,0,0
37585,-112.843637085836,4,1,0,56,0,0
37721,-111.743205175051,4,1,0,57,0,0
37789,-111.200936756691,4,1,0,57,0,0
37858,-110.664028436229,4,1,0,57,0,0
37926,-110.132158590308,4,1,0,57,0,0
37994,-109.605376801364,4,1,0,57,0,0
38130,-108.566905984316,4,1,0,57,0,0
38198,-108.054956751004,4,1,0,57,0,0
38267,-107.547928734441,4,1,0,58,0,0
38403,-106.547901272715,4,1,0,58,0,0
38471,-106.054773048088,4,1,0,58,0,0
38539,-105.566188416644,4,1,0,58,0,0
38676,-104.602510460251,4,1,0,58,0,0
38744,-104.12718510898,4,1,0,59,0,0
38812,-103.656267524388,4,1,0,59,0,0
38880,-103.189483753332,4,1,0,59,0,0
38948,-102.726885166751,4,1,0,59,0,0
39017,-102.268520317687,4,1,0,59,0,0
39085,-101.814124062546,4,1,0,59,0,0
39153,-101.363850609957,4,1,0,59,0,0
39221,-100.917440451141,4,1,0,60,0,0
39358,-100.036413254425,4,1,0,60,0,0
55721,-100,4,1,0,60,0,0
55858,-99.1370123078601,4,1,0,60,0,0
55926,-98.7111287913711,4,1,0,60,0,0
55994,-98.2888887359951,4,1,0,60,0,0
56062,-97.8701498000513,4,1,0,60,0,0
56130,-97.4550585997267,4,1,0,60,0,0
56267,-96.6352569869707,4,1,0,61,0,0
56335,-96.230553008119,4,1,0,61,0,0
56403,-95.8292246553262,4,1,0,62,0,0
56471,-95.4311387988655,4,1,0,62,0,0
56539,-95.0364369699343,4,1,0,63,0,0
56608,-94.6449866550569,4,1,0,63,0,0
56676,-94.2566589973165,4,1,0,64,0,0
56812,-93.4896605109958,4,1,0,65,0,0
56838,-93.4896605109958,4,1,0,65,0,1
72926,-93.4579439252336,4,1,0,65,0,1
73062,-94.8332496038954,4,1,0,65,0,1
73130,-95.5361939688398,4,1,0,65,0,1
73198,-96.2496372008378,4,1,0,65,0,1
73267,-96.984547286883,4,1,0,65,0,1
73335,-97.7198697068404,4,1,0,65,0,1
73403,-98.4664275224499,4,1,0,65,0,1
73471,-99.2244802238414,4,1,0,65,0,1
73539,-99.9942953539733,4,1,0,65,0,1
73608,-100.787737902596,4,1,0,65,0,1
73676,-101.582097707573,4,1,0,65,0,1
73744,-102.389078498294,4,1,0,65,0,1
73812,-103.208983471422,4,1,0,65,0,1
73880,-104.042125613696,4,1,0,65,0,1
73948,-104.88882810029,4,1,0,65,0,1
74017,-105.762185924234,4,1,0,65,0,1
74085,-106.637233515552,4,1,0,65,0,1
74153,-107.52688172043,4,1,0,65,0,1
74267,-87.719298245614,4,1,0,65,0,1
74292,-87.719298245614,4,1,0,65,0,0
74539,-107.52688172043,4,1,0,60,0,0
75358,-87.719298245614,4,1,0,65,0,0
75630,-107.52688172043,4,1,0,60,0,0
76448,-87.719298245614,4,1,0,65,0,0
76720,-107.52688172043,4,1,0,60,0,0
78630,-87.719298245614,4,1,0,65,0,0
78902,-107.52688172043,4,1,0,60,0,0
79721,-87.719298245614,4,1,0,65,0,0
79993,-107.52688172043,4,1,0,60,0,0
80812,-87.719298245614,4,1,0,65,0,0
81084,-107.52688172043,4,1,0,60,0,0
82994,-82.6446280991736,4,1,0,65,0,0
83266,-107.52688172043,4,1,0,60,0,0
84085,-82.6446280991736,4,1,0,65,0,0
84357,-107.52688172043,4,1,0,60,0,0
85176,-82.6446280991736,4,1,0,65,0,0
85448,-107.52688172043,4,1,0,60,0,0
87358,-82.6446280991736,4,1,0,65,0,0
87630,-107.52688172043,4,1,0,60,0,0
88448,-82.6446280991736,4,1,0,65,0,0
88720,-107.52688172043,4,1,0,60,0,0
89535,-82.6446280991736,4,1,0,70,0,0
89604,-83.4724540901503,4,1,0,70,0,0
89672,-84.3170320404722,4,1,0,70,0,0
89740,-85.1788756388416,4,1,0,70,0,0
89808,-86.0585197934596,4,1,0,70,0,0
89876,-86.9565217391304,4,1,0,70,0,0
89944,-87.8734622144113,4,1,0,70,0,0
90013,-88.809946714032,4,1,0,70,0,0
90081,-89.7666068222621,4,1,0,70,0,0
90149,-90.7441016333938,4,1,0,70,0,0
90217,-91.743119266055,4,1,0,70,0,0
90285,-92.7643784786642,4,1,0,70,0,0
90354,-93.8086303939962,4,1,0,70,0,0
90422,-94.876660341556,4,1,0,70,0,0
90490,-95.9692898272553,4,1,0,70,0,0
90558,-97.0873786407767,4,1,0,70,0,0
90626,-98.2318271119843,4,1,0,70,0,0
90694,-99.403578528827,4,1,0,70,0,0
90763,-100.603621730382,4,1,0,70,0,0
90831,-101.83299389002,4,1,0,70,0,0
90899,-103.092783505155,4,1,0,70,0,0
90967,-104.384133611691,4,1,0,70,0,0
91035,-105.708245243129,4,1,0,70,0,0
91104,-107.066381156317,4,1,0,70,0,0
91172,-108.459869848156,4,1,0,70,0,0
91240,-109.89010989011,4,1,0,70,0,0
91308,-111.358574610245,4,1,0,70,0,0
91376,-112.866817155756,4,1,0,70,0,0
91444,-114.41647597254,4,1,0,70,0,0
91513,-116.009280742459,4,1,0,70,0,0
91581,-117.647058823529,4,1,0,70,0,0
91649,-119.331742243437,4,1,0,70,0,0
91717,-121.065375302663,4,1,0,70,0,0
91994,-121.212121212121,4,1,0,55,0,0
96085,-96.6183574879227,4,1,0,65,0,0
96358,-116.279069767442,4,1,0,55,0,0
100448,-93.0232558139535,4,1,0,65,0,0
100721,-111.731843575419,4,1,0,60,0,0
104812,-90.4977375565611,4,1,0,65,0,0
105085,-107.52688172043,4,1,0,60,0,0
108085,-107.52688172043,4,1,0,60,0,0
108221,-105.551034452913,4,1,0,60,0,0
108289,-104.59003842638,4,1,0,60,0,0
108358,-103.64638341492,4,1,0,60,0,0
108494,-101.809355872567,4,1,0,60,0,0
108562,-100.914996271191,4,1,0,61,0,0
108630,-100.036313181685,4,1,0,61,0,0
108698,-99.1727013255423,4,1,0,62,0,0
108767,-98.3238729380255,4,1,0,62,0,0
108835,-97.4895466833569,4,1,0,63,0,0
108903,-96.6691671757909,4,1,0,63,0,0
108971,-95.8624795213778,4,1,0,64,0,0
109039,-95.0692341697841,4,1,0,64,0,0
109176,-93.5213111687826,4,1,0,65,0,0
109201,-93.5213111687826,4,1,0,65,0,1
116833,-93.4579439252336,4,1,0,65,0,1
116901,-92.3452270907652,4,1,0,65,0,1
116969,-91.2587779537044,4,1,0,66,0,1
117038,-90.19751451729,4,1,0,66,0,1
117106,-89.1607300480576,4,1,0,66,0,1
117174,-88.1474318686462,4,1,0,66,0,1
117242,-87.1569827995694,4,1,0,67,0,1
117310,-86.1884700512304,4,1,0,67,0,1
117379,-85.2413181717442,4,1,0,67,0,1
117447,-84.314686016325,4,1,0,68,0,1
117515,-83.4079834785466,4,1,0,68,0,1
117560,-82.1167733363552,4,1,0,68,0,1
117606,-80.9352226851717,4,1,0,69,0,1
117651,-79.7872552625679,4,1,0,69,0,1
117719,-78.125,4,1,0,69,0,1
117788,-76.5305927217876,4,1,0,69,0,1
117918,-73.5294117647059,4,1,0,70,0,1
117929,-73.5294117647059,4,1,0,70,0,1
126080,-79.1556937086263,4,1,0,69,0,1
126216,-82.3045267489712,4,1,0,68,0,1
126353,-85.7142612244968,4,1,0,67,0,1
126421,-87.527352297593,4,1,0,67,0,1
126489,-89.4188045957689,4,1,0,66,0,1
126557,-91.3937269173719,4,1,0,66,0,1
126625,-93.4579439252336,4,1,0,65,0,1
126656,-93.4579439252336,4,1,0,65,0,0
142994,-93.4579439252336,4,1,0,65,0,0
143062,-92.8912206649525,4,1,0,65,0,0
143130,-92.3312438772844,4,1,0,65,0,0
143198,-91.7780622897709,4,1,0,65,0,0
143267,-91.231386516366,4,1,0,65,0,0
143335,-90.6912669751379,4,1,0,65,0,0
143403,-90.1574238778331,4,1,0,65,0,0
143471,-89.6299091421611,4,1,0,65,0,0
143539,-89.1084521149,4,1,0,65,0,0
143608,-88.5931060388605,4,1,0,65,0,0
143676,-88.0836089616264,4,1,0,65,0,0
143744,-87.5800152914707,4,1,0,65,0,0
143812,-87.0820713689824,4,1,0,65,0,0
143880,-86.5898326218535,4,1,0,65,0,0
143948,-86.1030533003731,4,1,0,65,0,0
144017,-85.6217897180218,4,1,0,65,0,0
144085,-85.1458036742117,4,1,0,65,0,0
144111,-85.1426138782461,4,1,0,65,0,1
148471,-85.1426138782461,4,1,0,65,0,1
148608,-85.1426138782461,4,1,0,65,0,1
148676,-85.1426138782461,4,1,0,64,0,1
148744,-85.1426138782461,4,1,0,64,0,1
148812,-85.1426138782461,4,1,0,63,0,1
148881,-85.1426138782461,4,1,0,63,0,1
148949,-85.1426138782461,4,1,0,63,0,1
149017,-85.1426138782461,4,1,0,62,0,1
149085,-85.1426138782461,4,1,0,62,0,1
149153,-85.1426138782461,4,1,0,61,0,1
149221,-85.1426138782461,4,1,0,61,0,1
149290,-85.1426138782461,4,1,0,61,0,1
149358,-85.1426138782461,4,1,0,60,0,1
149426,-85.1426138782461,4,1,0,60,0,1
149562,-85.1426138782461,4,1,0,59,0,1
149631,-85.1426138782461,4,1,0,59,0,1
149699,-85.1426138782461,4,1,0,59,0,1
149767,-85.1426138782461,4,1,0,58,0,1
149835,-85.1426138782461,4,1,0,58,0,1
149903,-85.1426138782461,4,1,0,57,0,1
149971,-85.1426138782461,4,1,0,57,0,1
150040,-85.1426138782461,4,1,0,57,0,1
150108,-85.1426138782461,4,1,0,56,0,1
150176,-85.1426138782461,4,1,0,56,0,1
150244,-85.1426138782461,4,1,0,55,0,1
150312,-85.1426138782461,4,1,0,55,0,1
150381,-85.1426138782461,4,1,0,55,0,1
150449,-85.1426138782461,4,1,0,54,0,1
150517,-85.1426138782461,4,1,0,54,0,1
150562,-85.1426138782461,4,1,0,53,0,1
150608,-85.1426138782461,4,1,0,53,0,1
150653,-85.1426138782461,4,1,0,53,0,1
150790,-85.1426138782461,4,1,0,52,0,1
150858,-85.1426138782461,4,1,0,52,0,1
150926,-85.1426138782461,4,1,0,52,0,1
150994,-85.1426138782461,4,1,0,51,0,1
151062,-85.1426138782461,4,1,0,51,0,1
151131,-85.1426138782461,4,1,0,50,0,1
151199,-85.1426138782461,4,1,0,50,0,1
151267,-85.1426138782461,4,1,0,50,0,1
151335,-85.1426138782461,4,1,0,49,0,1
151403,-85.1426138782461,4,1,0,49,0,1
151471,-85.1426138782461,4,1,0,48,0,1
151540,-85.1426138782461,4,1,0,48,0,1
151608,-85.1426138782461,4,1,0,48,0,1
151744,-85.1426138782461,4,1,0,47,0,1
151812,-85.1426138782461,4,1,0,47,0,1
151881,-85.1426138782461,4,1,0,46,0,1
151949,-85.1426138782461,4,1,0,46,0,1
152017,-85.1426138782461,4,1,0,46,0,1
152085,-85.1426138782461,4,1,0,45,0,1
152153,-85.1426138782461,4,1,0,45,0,1
152221,-85.1426138782461,4,1,0,44,0,1
152290,-85.1426138782461,4,1,0,44,0,1
152358,-85.1426138782461,4,1,0,44,0,1
152426,-85.1426138782461,4,1,0,43,0,1
152494,-85.1426138782461,4,1,0,43,0,1
152562,-85.1426138782461,4,1,0,42,0,1
152631,-85.1426138782461,4,1,0,42,0,1
152699,-85.1426138782461,4,1,0,42,0,1
152744,-85.1426138782461,4,1,0,41,0,1
152790,-85.1426138782461,4,1,0,41,0,1
152835,-85.1426138782461,4,1,0,40,0,1
152838,-85.1426138782461,4,1,0,40,0,0

[HitObjects]
253,206,3383,5,0,0:0:0:0:
253,206,3520,1,8,0:0:0:0:
253,206,3656,1,0,0:0:0:0:
253,206,3792,1,8,0:0:0:0:
253,206,3929,1,0,0:0:0:0:
253,206,4065,1,8,0:0:0:0:
253,206,4201,1,0,0:0:0:0:
253,206,4338,1,8,0:0:0:0:
253,206,4474,1,0,0:0:0:0:
253,206,4611,1,0,0:0:0:0:
253,206,4747,1,8,0:0:0:0:
253,206,4883,1,0,0:0:0:0:
267,213,4951,1,8,0:0:0:0:
253,206,5020,1,0,0:0:0:0:
267,213,5088,1,0,0:0:0:0:
267,213,5156,1,8,0:0:0:0:
228,242,5292,1,0,0:0:0:0:
229,225,5361,1,0,0:0:0:0:
229,225,5429,1,8,0:0:0:0:
229,225,5565,1,0,0:0:0:0:
253,206,5701,1,0,0:0:0:0:
253,206,5770,1,0,0:0:0:0:
253,206,5838,1,8,0:0:0:0:
267,213,5974,1,8,0:0:0:0:
253,206,6042,1,8,0:0:0:0:
267,213,6111,1,0,0:0:0:0:
267,213,6179,1,0,0:0:0:0:
253,206,6247,1,8,0:0:0:0:
253,206,6383,1,8,0:0:0:0:
253,206,6451,1,0,0:0:0:0:
253,206,6520,1,8,0:0:0:0:
253,206,6656,1,0,0:0:0:0:
225,222,6792,1,0,0:0:0:0:
225,222,6929,1,8,0:0:0:0:
225,222,7065,1,0,0:0:0:0:
225,222,7133,1,8,0:0:0:0:
225,222,7201,1,8,0:0:0:0:
225,222,7270,1,0,0:0:0:0:
225,222,7338,1,8,0:0:0:0:
225,222,7474,1,0,0:0:0:0:
225,222,7542,1,0,0:0:0:0:
225,222,7611,1,8,0:0:0:0:
248,208,7747,1,0,0:0:0:0:
225,222,7883,1,0,0:0:0:0:
225,222,7951,1,0,0:0:0:0:
225,222,8020,1,8,0:0:0:0:
225,222,8156,1,8,0:0:0:0:
225,222,8224,1,8,0:0:0:0:
245,231,8292,1,0,0:0:0:0:
245,231,8361,1,0,0:0:0:0:
245,231,8429,1,8,0:0:0:0:
245,231,8565,1,8,0:0:0:0:
245,231,8633,1,0,0:0:0:0:
245,231,8701,1,8,0:0:0:0:
225,222,8838,1,0,0:0:0:0:
252,233,8974,1,0,0:0:0:0:
252,233,9111,1,8,0:0:0:0:
252,233,9247,1,0,0:0:0:0:
252,233,9315,1,8,0:0:0:0:
252,233,9383,1,0,0:0:0:0:
252,233,9451,1,0,0:0:0:0:
252,233,9520,1,8,0:0:0:0:
245,231,9656,1,0,0:0:0:0:
245,231,9724,1,0,0:0:0:0:
252,233,9792,1,8,0:0:0:0:
252,233,9929,1,0,0:0:0:0:
245,231,10065,1,0,0:0:0:0:
265,200,10133,1,0,0:0:0:0:
252,233,10201,1,8,0:0:0:0:
216,219,10338,1,8,0:0:0:0:
216,219,10406,1,8,0:0:0:0:
245,231,10474,1,0,0:0:0:0:
245,231,10542,1,0,0:0:0:0:
245,231,10611,1,8,0:0:0:0:
245,231,10747,1,8,0:0:0:0:
245,231,10815,1,8,0:0:0:0:
245,231,10883,1,0,0:0:0:0:
245,231,10951,1,8,0:0:0:0:
245,231,11020,1,0,0:0:0:0:
226,235,11156,1,0,0:0:0:0:
216,219,11292,1,8,0:0:0:0:
226,235,11429,1,0,0:0:0:0:
226,235,11497,1,8,0:0:0:0:
226,235,11565,1,8,0:0:0:0:
226,235,11633,1,0,0:0:0:0:
226,235,11701,1,8,0:0:0:0:
226,235,11838,1,0,0:0:0:0:
226,235,11906,1,0,0:0:0:0:
226,235,11974,1,8,0:0:0:0:
226,235,12111,1,0,0:0:0:0:
226,235,12247,1,0,0:0:0:0:
190,203,12315,1,0,0:0:0:0:
226,235,12383,1,8,0:0:0:0:
226,235,12520,1,8,0:0:0:0:
226,235,12588,1,8,0:0:0:0:
226,235,12656,1,0,0:0:0:0:
226,235,12724,1,0,0:0:0:0:
226,235,12792,1,8,0:0:0:0:
250,238,12861,1,0,0:0:0:0:
232,229,12929,1,8,0:0:0:0:
226,235,12997,1,8,0:0:0:0:
226,235,13065,1,0,0:0:0:0:
225,222,13201,1,0,0:0:0:0:
252,233,13338,1,8,0:0:0:0:
252,233,13406,1,0,0:0:0:0:
252,233,13474,1,8,0:0:0:0:
252,233,13611,1,0,0:0:0:0:
252,233,13679,1,8,0:0:0:0:
252,233,13747,1,0,0:0:0:0:
252,233,13815,1,0,0:0:0:0:
252,233,13883,1,8,0:0:0:0:
245,231,14020,1,0,0:0:0:0:
245,231,14088,1,0,0:0:0:0:
252,233,14156,1,8,0:0:0:0:
252,233,14224,1,8,0:0:0:0:
252,233,14292,1,0,0:0:0:0:
245,231,14429,1,0,0:0:0:0:
226,235,14497,1,0,0:0:0:0:
252,233,14565,1,8,0:0:0:0:
216,219,14701,1,8,0:0:0:0:
216,219,14770,1,8,0:0:0:0:
245,231,14838,1,0,0:0:0:0:
245,231,14906,1,0,0:0:0:0:
245,231,14974,1,8,0:0:0:0:
245,231,15111,1,8,0:0:0:0:
245,231,15179,1,0,0:0:0:0:
245,231,15247,1,8,0:0:0:0:
245,231,15315,1,8,0:0:0:0:
245,231,15383,1,0,0:0:0:0:
226,235,15520,1,8,0:0:0:0:
252,233,15588,1,0,0:0:0:0:
216,219,15656,1,8,0:0:0:0:
226,235,15792,1,0,0:0:0:0:
226,235,15861,1,8,0:0:0:0:
226,235,15929,1,8,0:0:0:0:
226,235,15997,1,0,0:0:0:0:
226,235,16065,1,8,0:0:0:0:
226,235,16201,1,0,0:0:0:0:
226,235,16270,1,0,0:0:0:0:
226,235,16338,1,8,0:0:0:0:
226,235,16474,1,0,0:0:0:0:
226,235,16611,1,8,0:0:0:0:
243,237,16679,1,0,0:0:0:0:
226,235,16747,1,8,0:0:0:0:
226,235,16883,1,0,0:0:0:0:
226,235,16951,1,8,0:0:0:0:
226,235,17020,1,0,0:0:0:0:
226,235,17088,1,0,0:0:0:0:
226,235,17156,1,8,0:0:0:0:
263,233,17224,1,8,0:0:0:0:
226,235,17292,1,0,0:0:0:0:
226,235,17361,1,0,0:0:0:0:
226,235,17429,1,8,0:0:0:0:
225,222,17565,1,0,0:0:0:0:
252,233,17701,1,8,0:0:0:0:
252,233,17770,1,0,0:0:0:0:
252,233,17838,1,8,0:0:0:0:
252,233,17974,1,0,0:0:0:0:
252,233,18042,1,8,0:0:0:0:
252,233,18111,1,0,0:0:0:0:
252,233,18179,1,0,0:0:0:0:
252,233,18247,1,8,0:0:0:0:
245,231,18383,1,0,0:0:0:0:
245,231,18451,1,0,0:0:0:0:
252,233,18520,1,8,0:0:0:0:
252,233,18656,1,0,0:0:0:0:
245,231,18792,1,0,0:0:0:0:
226,235,18861,1,0,0:0:0:0:
252,233,18929,1,8,0:0:0:0:
216,219,19065,1,8,0:0:0:0:
216,219,19133,1,8,0:0:0:0:
245,231,19201,1,0,0:0:0:0:
245,231,19270,1,0,0:0:0:0:
245,231,19338,1,8,0:0:0:0:
245,231,19474,1,8,0:0:0:0:
245,231,19542,1,8,0:0:0:0:
245,231,19611,1,0,0:0:0:0:
245,231,19679,1,8,0:0:0:0:
245,231,19747,1,0,0:0:0:0:
226,235,19883,1,8,0:0:0:0:
252,233,19951,1,0,0:0:0:0:
216,219,20020,1,8,0:0:0:0:
226,235,20156,1,0,0:0:0:0:
226,235,20224,1,8,0:0:0:0:
226,235,20292,1,8,0:0:0:0:
226,235,20361,1,0,0:0:0:0:
226,235,20429,1,8,0:0:0:0:
226,235,20565,1,0,0:0:0:0:
226,235,20633,1,0,0:0:0:0:
226,235,20701,1,8,0:0:0:0:
226,235,20838,1,0,0:0:0:0:
226,235,20906,1,0,0:0:0:0:
226,235,20974,1,8,0:0:0:0:
243,237,21042,1,0,0:0:0:0:
226,235,21111,1,8,0:0:0:0:
216,219,21179,1,8,0:0:0:0:
226,235,21247,1,8,0:0:0:0:
226,235,21315,1,8,0:0:0:0:
226,235,21383,1,0,0:0:0:0:
226,235,21451,1,0,0:0:0:0:
226,235,21520,1,8,0:0:0:0:
216,219,21588,1,0,0:0:0:0:
226,235,21656,1,8,0:0:0:0:
226,235,21724,1,8,0:0:0:0:
226,235,21792,1,0,0:0:0:0:
216,219,21861,1,8,0:0:0:0:
226,235,21929,1,0,0:0:0:0:
210,230,22474,1,8,0:0:0:0:
210,230,23020,1,0,0:0:0:0:
220,238,23565,1,8,0:0:0:0:
231,225,23838,1,0,0:0:0:0:
224,233,24383,1,8,0:0:0:0:
224,233,24929,1,8,0:0:0:0:
224,233,25201,1,0,0:0:0:0:
224,233,25338,1,0,0:0:0:0:
224,233,25474,1,8,0:0:0:0:
224,233,25611,1,8,0:0:0:0:
224,233,25747,1,0,0:0:0:0:
224,233,25883,1,0,0:0:0:0:
224,233,26020,1,8,0:0:0:0:
224,233,26292,1,0,0:0:0:0:
219,228,26429,1,8,0:0:0:0:
233,242,26565,1,0,0:0:0:0:
233,242,26701,1,8,0:0:0:0:
233,242,26838,1,0,0:0:0:0:
233,242,26974,1,8,0:0:0:0:
233,241,27111,1,0,0:0:0:0:
252,245,27247,1,8,0:0:0:0:
233,241,27383,1,0,0:0:0:0:
233,242,27656,1,8,0:0:0:0:
245,247,27929,1,8,0:0:0:0:
245,244,28201,1,0,0:0:0:0:
256,192,28474,12,0,30111,0:0:0:0:
242,177,30656,5,4,0:0:0:0:
242,177,30929,1,8,0:0:0:0:
239,197,31065,1,0,0:0:0:0:
239,197,31201,1,0,0:0:0:0:
239,197,31270,1,8,0:0:0:0:
239,197,31338,1,0,0:0:0:0:
242,177,31474,1,8,0:0:0:0:
242,177,31542,1,8,0:0:0:0:
242,177,31611,1,0,0:0:0:0:
242,177,31679,1,0,0:0:0:0:
242,177,31747,1,8,0:0:0:0:
242,177,31883,1,0,0:0:0:0:
243,176,32020,1,8,0:0:0:0:
230,207,32088,1,8,0:0:0:0:
245,205,32156,1,0,0:0:0:0:
245,205,32292,1,8,0:0:0:0:
278,218,32361,1,0,0:0:0:0:
245,205,32429,1,8,0:0:0:0:
245,205,32565,1,8,0:0:0:0:
245,205,32633,1,8,0:0:0:0:
245,205,32701,1,0,0:0:0:0:
241,222,32770,1,8,0:0:0:0:
245,205,32838,1,0,0:0:0:0:
245,205,32974,1,0,0:0:0:0:
233,218,33042,1,0,0:0:0:0:
245,205,33111,1,8,0:0:0:0:
252,217,33247,1,8,0:0:0:0:
254,219,33315,1,8,0:0:0:0:
252,217,33383,1,0,0:0:0:0:
246,224,33451,1,8,0:0:0:0:
252,217,33520,1,0,0:0:0:0:
252,217,33656,1,8,0:0:0:0:
252,217,33792,1,8,0:0:0:0:
230,223,33861,1,8,0:0:0:0:
252,217,33929,1,0,0:0:0:0:
252,217,34065,1,8,0:0:0:0:
253,197,34133,1,0,0:0:0:0:
252,217,34201,1,8,0:0:0:0:
252,217,34338,1,0,0:0:0:0:
257,207,34406,1,8,0:0:0:0:
252,217,34474,1,8,0:0:0:0:
234,209,34542,1,0,0:0:0:0:
252,217,34611,1,8,0:0:0:0:
252,217,34747,1,4,0:0:0:0:
221,209,35020,1,12,0:0:0:0:
238,217,35292,1,8,0:0:0:0:
240,217,35429,1,0,0:0:0:0:
239,217,35497,1,0,0:0:0:0:
248,214,35565,1,8,0:0:0:0:
246,212,35701,1,0,0:0:0:0:
246,212,35838,1,8,0:0:0:0:
246,220,35906,1,0,0:0:0:0:
246,220,35974,1,8,0:0:0:0:
260,218,36042,1,8,0:0:0:0:
260,218,36111,1,0,0:0:0:0:
254,220,36247,1,8,0:0:0:0:
257,218,36315,1,0,0:0:0:0:
257,218,36383,1,8,0:0:0:0:
257,218,36520,1,0,0:0:0:0:
257,218,36656,1,8,0:0:0:0:
260,216,36724,1,0,0:0:0:0:
257,218,36792,1,8,0:0:0:0:
257,218,36929,1,0,0:0:0:0:
257,218,36997,1,0,0:0:0:0:
260,218,37065,1,8,0:0:0:0:
254,220,37201,1,0,0:0:0:0:
257,218,37338,1,8,0:0:0:0:
260,218,37406,1,0,0:0:0:0:
248,232,37474,1,8,0:0:0:0:
273,226,37542,1,8,0:0:0:0:
289,228,37611,1,0,0:0:0:0:
273,226,37747,1,8,0:0:0:0:
273,226,37815,1,8,0:0:0:0:
273,226,37883,1,0,0:0:0:0:
297,233,37951,1,0,0:0:0:0:
273,226,38020,1,8,0:0:0:0:
276,230,38156,1,8,0:0:0:0:
276,230,38224,1,8,0:0:0:0:
276,230,38292,1,0,0:0:0:0:
276,230,38429,1,8,0:0:0:0:
278,224,38497,1,0,0:0:0:0:
249,225,38565,1,8,0:0:0:0:
249,225,38701,1,0,0:0:0:0:
249,225,38770,1,0,0:0:0:0:
249,225,38838,1,8,0:0:0:0:
249,225,38906,1,0,0:0:0:0:
249,225,38974,1,8,0:0:0:0:
249,225,39042,1,8,0:0:0:0:
249,225,39111,1,0,0:0:0:0:
239,233,39179,1,0,0:0:0:0:
249,225,39247,1,8,0:0:0:0:
249,225,39383,1,4,0:0:0:0:
233,225,39656,1,8,0:0:0:0:
233,225,39792,1,0,0:0:0:0:
233,225,39861,1,0,0:0:0:0:
233,225,39929,1,8,0:0:0:0:
233,225,40065,1,0,0:0:0:0:
233,225,40201,1,8,0:0:0:0:
237,231,40270,1,0,0:0:0:0:
237,231,40338,1,8,0:0:0:0:
225,202,40406,1,8,0:0:0:0:
237,231,40474,1,0,0:0:0:0:
237,231,40611,1,8,0:0:0:0:
244,231,40679,1,0,0:0:0:0:
237,231,40747,1,8,0:0:0:0:
253,228,40883,1,0,0:0:0:0:
253,228,40951,1,8,0:0:0:0:
253,228,41020,1,0,0:0:0:0:
261,214,41088,1,0,0:0:0:0:
253,228,41156,1,8,0:0:0:0:
253,228,41292,1,8,0:0:0:0:
265,229,41361,1,8,0:0:0:0:
253,228,41429,1,0,0:0:0:0:
253,228,41565,1,0,0:0:0:0:
259,231,41701,1,8,0:0:0:0:
259,231,41770,1,0,0:0:0:0:
259,231,41838,1,8,0:0:0:0:
262,245,41974,1,0,0:0:0:0:
262,245,42042,1,0,0:0:0:0:
262,245,42111,1,8,0:0:0:0:
262,245,42179,1,8,0:0:0:0:
262,245,42247,1,0,0:0:0:0:
233,244,42383,1,8,0:0:0:0:
270,250,42451,1,0,0:0:0:0:
237,240,42520,1,8,0:0:0:0:
250,252,42656,1,0,0:0:0:0:
250,252,42792,1,0,0:0:0:0:
250,252,42861,1,0,0:0:0:0:
250,252,42929,1,8,0:0:0:0:
250,252,43065,1,0,0:0:0:0:
250,252,43133,1,8,0:0:0:0:
262,245,43201,1,0,0:0:0:0:
262,245,43270,1,0,0:0:0:0:
263,245,43338,1,8,0:0:0:0:
263,245,43474,1,8,0:0:0:0:
248,238,43542,1,0,0:0:0:0:
252,239,43611,1,8,0:0:0:0:
254,252,43747,1,0,0:0:0:0:
250,252,43883,1,0,0:0:0:0:
215,260,43951,1,0,0:0:0:0:
252,256,44020,1,8,0:0:0:0:
250,252,44156,1,8,0:0:0:0:
251,254,44224,1,8,0:0:0:0:
252,254,44292,1,0,0:0:0:0:
250,250,44361,1,8,0:0:0:0:
244,269,44429,1,0,0:0:0:0:
262,266,44565,1,8,0:0:0:0:
263,225,44633,1,0,0:0:0:0:
209,236,44701,1,8,0:0:0:0:
209,238,44838,1,0,0:0:0:0:
235,235,44974,1,8,0:0:0:0:
239,236,45042,1,8,0:0:0:0:
235,235,45111,1,0,0:0:0:0:
256,215,45179,1,0,0:0:0:0:
236,235,45247,1,8,0:0:0:0:
235,235,45383,1,8,0:0:0:0:
235,235,45417,1,8,0:0:0:0:
250,239,45451,1,8,0:0:0:0:
204,208,45520,1,0,0:0:0:0:
240,235,45656,1,8,0:0:0:0:
251,241,45724,1,0,0:0:0:0:
222,235,45792,1,8,0:0:0:0:
235,235,45929,1,0,0:0:0:0:
230,230,46065,1,0,0:0:0:0:
265,227,46133,1,0,0:0:0:0:
230,230,46201,1,8,0:0:0:0:
250,238,46338,1,8,0:0:0:0:
249,224,46406,1,8,0:0:0:0:
250,238,46474,1,0,0:0:0:0:
259,227,46542,1,8,0:0:0:0:
259,244,46611,1,0,0:0:0:0:
261,224,46747,1,8,0:0:0:0:
259,237,46815,1,0,0:0:0:0:
261,224,46883,1,8,0:0:0:0:
261,224,47020,1,0,0:0:0:0:
274,211,47088,1,8,0:0:0:0:
267,222,47156,1,8,0:0:0:0:
235,224,47224,1,0,0:0:0:0:
267,222,47292,1,8,0:0:0:0:
267,222,47429,1,8,0:0:0:0:
267,222,47497,1,8,0:0:0:0:
267,222,47565,1,0,0:0:0:0:
267,222,47633,1,0,0:0:0:0:
267,222,47701,1,8,0:0:0:0:
267,214,47770,1,0,0:0:0:0:
267,222,47838,1,8,0:0:0:0:
267,222,47974,1,0,0:0:0:0:
267,222,48111,1,12,0:0:0:0:
267,222,48383,1,8,0:0:0:0:
273,238,48520,1,0,0:0:0:0:
273,236,48588,1,8,0:0:0:0:
274,236,48656,1,0,0:0:0:0:
274,236,48792,1,8,0:0:0:0:
280,212,48826,1,8,0:0:0:0:
279,232,48861,1,8,0:0:0:0:
300,238,48929,1,0,0:0:0:0:
297,235,49065,1,8,0:0:0:0:
290,226,49201,1,0,0:0:0:0:
278,241,49338,1,8,0:0:0:0:
241,221,49406,1,0,0:0:0:0:
292,237,49474,1,8,0:0:0:0:
292,237,49508,1,8,0:0:0:0:
307,255,49542,1,8,0:0:0:0:
292,237,49611,1,0,0:0:0:0:
296,255,49747,1,8,0:0:0:0:
298,246,49883,1,0,0:0:0:0:
287,235,49951,1,0,0:0:0:0:
310,244,50020,1,8,0:0:0:0:
297,239,50088,1,0,0:0:0:0:
305,255,50156,1,8,0:0:0:0:
305,255,50292,1,0,0:0:0:0:
305,255,50429,1,0,0:0:0:0:
297,250,50497,1,0,0:0:0:0:
297,250,50565,1,8,0:0:0:0:
296,255,50701,1,0,0:0:0:0:
286,238,50770,1,8,0:0:0:0:
298,246,50838,1,8,0:0:0:0:
280,232,50906,1,0,0:0:0:0:
291,229,50974,1,8,0:0:0:0:
291,229,51111,1,8,0:0:0:0:
272,207,51179,1,0,0:0:0:0:
291,229,51247,1,8,0:0:0:0:
285,229,51383,5,0,0:0:0:0:
285,229,51520,1,8,0:0:0:0:
294,227,51588,1,8,0:0:0:0:
285,229,51656,1,0,0:0:0:0:
240,203,51724,1,8,0:0:0:0:
285,229,51792,1,0,0:0:0:0:
280,209,51929,1,8,0:0:0:0:
278,216,51997,1,8,0:0:0:0:
280,209,52065,1,0,0:0:0:0:
354,220,52133,1,0,0:0:0:0:
280,209,52201,1,8,0:0:0:0:
280,196,52270,1,0,0:0:0:0:
280,209,52338,1,8,0:0:0:0:
280,209,52474,1,0,0:0:0:0:
287,208,52611,1,8,0:0:0:0:
284,222,52679,1,0,0:0:0:0:
287,208,52747,1,8,0:0:0:0:
287,208,52883,1,0,0:0:0:0:
284,222,52951,1,8,0:0:0:0:
292,222,53020,1,8,0:0:0:0:
284,222,53088,1,0,0:0:0:0:
292,221,53156,1,8,0:0:0:0:
292,221,53292,1,0,0:0:0:0:
284,222,53361,1,0,0:0:0:0:
292,221,53429,1,8,0:0:0:0:
318,249,53497,1,8,0:0:0:0:
292,221,53565,1,0,0:0:0:0:
292,221,53701,1,8,0:0:0:0:
305,217,53770,1,0,0:0:0:0:
292,221,53838,1,8,0:0:0:0:
292,222,53974,1,0,0:0:0:0:
275,223,54042,1,8,0:0:0:0:
292,221,54111,1,0,0:0:0:0:
292,221,54247,1,8,0:0:0:0:
292,221,54315,1,0,0:0:0:0:
292,221,54383,1,8,0:0:0:0:
304,222,54451,1,0,0:0:0:0:
292,221,54520,1,8,0:0:0:0:
292,221,54656,1,0,0:0:0:0:
285,219,54792,1,8,0:0:0:0:
285,219,54929,1,0,0:0:0:0:
296,216,54997,1,0,0:0:0:0:
292,227,55065,1,8,0:0:0:0:
292,227,55201,1,8,0:0:0:0:
281,220,55270,1,8,0:0:0:0:
292,227,55338,1,0,0:0:0:0:
281,220,55406,1,0,0:0:0:0:
292,227,55474,1,8,0:0:0:0:
330,219,55542,1,8,0:0:0:0:
292,227,55611,1,0,0:0:0:0:
292,227,55747,5,8,0:0:0:0:
292,227,55883,1,0,0:0:0:0:
268,213,55951,1,0,0:0:0:0:
292,227,56020,1,8,0:0:0:0:
217,170,56088,1,0,0:0:0:0:
292,227,56156,1,8,0:0:0:0:
292,227,56292,1,8,0:0:0:0:
296,227,56361,1,8,0:0:0:0:
287,216,56429,1,0,0:0:0:0:
296,227,56497,1,0,0:0:0:0:
287,216,56565,1,8,0:0:0:0:
296,227,56633,1,0,0:0:0:0:
287,216,56701,1,8,0:0:0:0:
225,201,56838,5,4,0:0:0:0:
231,208,56974,1,0,0:0:0:0:
242,219,57042,1,0,0:0:0:0:
242,219,57111,1,8,0:0:0:0:
242,219,57247,1,0,0:0:0:0:
251,229,57315,1,0,0:0:0:0:
242,219,57383,1,8,0:0:0:0:
242,219,57451,1,8,0:0:0:0:
242,219,57520,1,0,0:0:0:0:
242,219,57656,1,8,0:0:0:0:
242,219,57792,1,0,0:0:0:0:
249,203,57861,1,8,0:0:0:0:
242,219,57929,1,0,0:0:0:0:
231,208,57997,1,8,0:0:0:0:
249,203,58065,1,0,0:0:0:0:
229,196,58201,1,8,0:0:0:0:
213,204,58338,1,0,0:0:0:0:
243,211,58406,1,8,0:0:0:0:
213,204,58474,1,0,0:0:0:0:
213,204,58542,1,0,0:0:0:0:
213,204,58611,1,8,0:0:0:0:
213,204,58679,1,8,0:0:0:0:
213,204,58747,1,0,0:0:0:0:
213,204,58815,1,0,0:0:0:0:
244,176,58883,5,8,0:0:0:0:
244,176,59020,1,0,0:0:0:0:
232,207,59156,1,8,0:0:0:0:
232,207,59224,1,0,0:0:0:0:
232,207,59292,1,8,0:0:0:0:
213,204,59429,1,0,0:0:0:0:
213,204,59497,1,0,0:0:0:0:
213,204,59565,1,8,0:0:0:0:
213,204,59633,1,0,0:0:0:0:
213,204,59701,1,0,0:0:0:0:
213,204,59770,1,0,0:0:0:0:
213,204,59838,1,8,0:0:0:0:
251,213,59906,1,0,0:0:0:0:
213,204,59974,1,8,0:0:0:0:
232,207,60111,1,0,0:0:0:0:
232,207,60247,1,8,0:0:0:0:
232,207,60315,1,0,0:0:0:0:
213,204,60383,1,8,0:0:0:0:
213,204,60520,1,0,0:0:0:0:
213,204,60588,1,0,0:0:0:0:
213,204,60656,1,8,0:0:0:0:
213,204,60724,1,8,0:0:0:0:
213,204,60792,1,8,0:0:0:0:
213,204,60861,1,0,0:0:0:0:
213,204,60929,1,8,0:0:0:0:
213,204,60997,1,0,0:0:0:0:
232,207,61065,1,8,0:0:0:0:
225,201,61201,5,0,0:0:0:0:
231,208,61338,1,0,0:0:0:0:
242,219,61406,1,0,0:0:0:0:
242,219,61474,1,8,0:0:0:0:
242,219,61611,1,8,0:0:0:0:
251,229,61679,1,0,0:0:0:0:
242,219,61747,1,8,0:0:0:0:
242,219,61815,1,8,0:0:0:0:
242,219,61883,1,0,0:0:0:0:
242,219,62020,1,8,0:0:0:0:
242,219,62156,1,8,0:0:0:0:
249,203,62224,1,8,0:0:0:0:
242,219,62292,1,0,0:0:0:0:
231,208,62361,1,8,0:0:0:0:
249,203,62429,1,0,0:0:0:0:
229,196,62565,1,8,0:0:0:0:
213,204,62701,1,0,0:0:0:0:
243,211,62770,1,0,0:0:0:0:
213,204,62838,1,8,0:0:0:0:
213,204,62906,1,0,0:0:0:0:
213,204,62974,1,8,0:0:0:0:
213,204,63042,1,8,0:0:0:0:
213,204,63111,1,0,0:0:0:0:
213,204,63179,1,0,0:0:0:0:
244,176,63247,5,8,0:0:0:0:
244,176,63383,1,0,0:0:0:0:
232,207,63520,1,8,0:0:0:0:
232,207,63588,1,0,0:0:0:0:
232,207,63656,1,8,0:0:0:0:
213,204,63792,1,0,0:0:0:0:
213,204,63861,1,0,0:0:0:0:
213,204,63929,1,8,0:0:0:0:
213,204,63997,1,8,0:0:0:0:
213,204,64065,1,0,0:0:0:0:
213,204,64133,1,0,0:0:0:0:
213,204,64201,1,8,0:0:0:0:
238,214,64270,1,0,0:0:0:0:
213,204,64338,1,8,0:0:0:0:
232,207,64474,1,0,0:0:0:0:
232,207,64611,1,0,0:0:0:0:
232,207,64679,1,0,0:0:0:0:
213,204,64747,1,8,0:0:0:0:
213,204,64883,1,8,0:0:0:0:
228,217,64951,1,0,0:0:0:0:
213,204,65020,1,8,0:0:0:0:
213,204,65088,1,8,0:0:0:0:
213,204,65156,1,0,0:0:0:0:
213,204,65201,1,0,0:0:0:0:
213,204,65247,1,0,0:0:0:0:
213,204,65292,1,8,0:0:0:0:
198,196,65429,1,8,0:0:0:0:
225,201,65565,5,4,0:0:0:0:
231,208,65701,1,0,0:0:0:0:
242,219,65770,1,0,0:0:0:0:
242,219,65838,1,8,0:0:0:0:
242,219,65974,1,0,0:0:0:0:
251,229,66042,1,0,0:0:0:0:
242,219,66111,1,8,0:0:0:0:
242,219,66179,1,8,0:0:0:0:
242,219,66247,1,0,0:0:0:0:
242,219,66383,1,8,0:0:0:0:
242,219,66520,1,0,0:0:0:0:
249,203,66588,1,8,0:0:0:0:
242,219,66656,1,0,0:0:0:0:
231,208,66724,1,8,0:0:0:0:
249,203,66792,1,0,0:0:0:0:
229,196,66929,1,8,0:0:0:0:
213,204,67065,1,0,0:0:0:0:
243,211,67133,1,8,0:0:0:0:
213,204,67201,1,0,0:0:0:0:
213,204,67270,1,0,0:0:0:0:
213,204,67338,1,8,0:0:0:0:
213,204,67406,1,8,0:0:0:0:
213,204,67474,1,0,0:0:0:0:
213,204,67542,1,0,0:0:0:0:
244,176,67611,5,8,0:0:0:0:
226,207,67679,1,8,0:0:0:0:
244,176,67747,1,0,0:0:0:0:
232,207,67883,1,8,0:0:0:0:
232,207,67951,1,0,0:0:0:0:
232,207,68020,1,8,0:0:0:0:
213,204,68156,1,0,0:0:0:0:
213,204,68224,1,0,0:0:0:0:
213,204,68292,1,8,0:0:0:0:
213,204,68361,1,0,0:0:0:0:
213,204,68429,1,0,0:0:0:0:
213,204,68497,1,0,0:0:0:0:
213,204,68565,1,8,0:0:0:0:
251,213,68633,1,0,0:0:0:0:
213,204,68701,1,8,0:0:0:0:
232,207,68838,1,0,0:0:0:0:
232,207,68974,1,8,0:0:0:0:
232,207,69042,1,0,0:0:0:0:
213,204,69111,1,8,0:0:0:0:
213,204,69247,1,0,0:0:0:0:
213,204,69315,1,0,0:0:0:0:
213,204,69383,1,8,0:0:0:0:
213,204,69451,1,8,0:0:0:0:
213,204,69520,1,8,0:0:0:0:
213,204,69588,1,0,0:0:0:0:
213,204,69656,1,8,0:0:0:0:
213,204,69724,1,0,0:0:0:0:
232,207,69792,1,8,0:0:0:0:
222,211,69861,1,8,0:0:0:0:
225,201,69929,5,0,0:0:0:0:
231,208,70065,1,0,0:0:0:0:
242,219,70133,1,0,0:0:0:0:
242,219,70201,1,8,0:0:0:0:
242,219,70338,1,8,0:0:0:0:
251,229,70406,1,0,0:0:0:0:
242,219,70474,1,8,0:0:0:0:
242,219,70542,1,8,0:0:0:0:
242,219,70611,1,0,0:0:0:0:
242,219,70747,1,8,0:0:0:0:
242,219,70883,1,8,0:0:0:0:
249,203,70951,1,8,0:0:0:0:
242,219,71020,1,0,0:0:0:0:
231,208,71088,1,8,0:0:0:0:
249,203,71156,1,0,0:0:0:0:
252,216,71224,1,0,0:0:0:0:
229,196,71292,1,8,0:0:0:0:
213,204,71429,1,0,0:0:0:0:
243,211,71497,1,0,0:0:0:0:
213,204,71565,1,8,0:0:0:0:
213,204,71633,1,0,0:0:0:0:
213,204,71701,1,8,0:0:0:0:
213,204,71770,1,8,0:0:0:0:
213,204,71838,1,0,0:0:0:0:
213,204,71906,1,0,0:0:0:0:
244,176,71974,5,8,0:0:0:0:
244,176,72111,1,0,0:0:0:0:
232,207,72247,1,8,0:0:0:0:
232,207,72315,1,0,0:0:0:0:
232,207,72383,1,8,0:0:0:0:
213,204,72520,1,0,0:0:0:0:
213,204,72588,1,0,0:0:0:0:
213,204,72656,1,8,0:0:0:0:
213,204,72724,1,8,0:0:0:0:
213,204,72792,1,0,0:0:0:0:
213,204,72861,1,0,0:0:0:0:
213,204,72929,1,8,0:0:0:0:
213,204,73065,1,8,0:0:0:0:
238,214,73133,1,8,0:0:0:0:
232,207,73201,1,0,0:0:0:0:
198,219,73270,1,0,0:0:0:0:
232,207,73338,1,8,0:0:0:0:
232,207,73406,1,0,0:0:0:0:
213,204,73474,1,8,0:0:0:0:
225,217,73542,1,8,0:0:0:0:
213,204,73611,1,0,0:0:0:0:
228,217,73679,1,8,0:0:0:0:
213,204,73747,1,0,0:0:0:0:
213,204,73815,1,0,0:0:0:0:
213,204,73883,1,8,0:0:0:0:
249,228,73951,1,8,0:0:0:0:
213,204,74020,1,8,0:0:0:0:
222,206,74088,1,0,0:0:0:0:
198,196,74156,1,8,0:0:0:0:
225,201,74292,5,4,0:0:0:0:
230,218,74565,1,8,0:0:0:0:
228,217,74701,1,0,0:0:0:0:
247,222,74770,1,8,0:0:0:0:
230,217,74838,1,0,0:0:0:0:
230,217,74906,1,8,0:0:0:0:
231,217,74974,1,0,0:0:0:0:
231,217,75111,1,8,0:0:0:0:
290,239,75179,1,0,0:0:0:0:
231,217,75247,1,8,0:0:0:0:
259,227,75383,1,4,0:0:0:0:
259,227,75656,1,8,0:0:0:0:
259,227,75792,1,0,0:0:0:0:
259,227,75861,1,8,0:0:0:0:
259,227,75929,1,0,0:0:0:0:
259,227,75997,1,0,0:0:0:0:
259,227,76065,1,8,0:0:0:0:
274,219,76201,1,0,0:0:0:0:
274,219,76270,1,0,0:0:0:0:
274,219,76338,1,8,0:0:0:0:
274,219,76474,1,4,0:0:0:0:
230,218,76747,1,8,0:0:0:0:
228,217,76883,1,8,0:0:0:0:
247,222,76951,1,8,0:0:0:0:
230,217,77020,1,0,0:0:0:0:
230,217,77088,1,8,0:0:0:0:
231,217,77156,1,0,0:0:0:0:
231,217,77292,1,8,0:0:0:0:
279,233,77361,1,0,0:0:0:0:
231,217,77429,1,8,0:0:0:0:
259,227,77565,1,0,0:0:0:0:
285,223,77701,1,8,0:0:0:0:
257,213,77770,1,0,0:0:0:0:
259,227,77838,1,8,0:0:0:0:
259,227,77974,1,8,0:0:0:0:
259,227,78042,1,8,0:0:0:0:
259,227,78111,1,0,0:0:0:0:
259,227,78179,1,0,0:0:0:0:
259,227,78247,1,8,0:0:0:0:
274,219,78383,1,0,0:0:0:0:
270,223,78451,1,0,0:0:0:0:
274,219,78520,1,8,0:0:0:0:
225,201,78656,5,4,0:0:0:0:
230,218,78929,1,8,0:0:0:0:
228,217,79065,1,0,0:0:0:0:
247,222,79133,1,8,0:0:0:0:
230,217,79201,1,0,0:0:0:0:
230,217,79270,1,8,0:0:0:0:
231,217,79338,1,0,0:0:0:0:
231,217,79474,1,8,0:0:0:0:
290,239,79542,1,0,0:0:0:0:
231,217,79611,1,8,0:0:0:0:
259,227,79747,1,4,0:0:0:0:
259,227,80020,1,8,0:0:0:0:
259,227,80156,1,0,0:0:0:0:
259,227,80224,1,8,0:0:0:0:
259,227,80292,1,8,0:0:0:0:
259,227,80361,1,0,0:0:0:0:
259,227,80429,1,8,0:0:0:0:
274,219,80565,1,0,0:0:0:0:
274,219,80633,1,0,0:0:0:0:
274,219,80701,1,8,0:0:0:0:
274,219,80838,1,4,0:0:0:0:
230,218,81111,1,8,0:0:0:0:
228,217,81247,1,8,0:0:0:0:
247,222,81315,1,8,0:0:0:0:
230,217,81383,1,0,0:0:0:0:
230,217,81451,1,8,0:0:0:0:
231,217,81520,1,0,0:0:0:0:
231,217,81656,1,8,0:0:0:0:
279,233,81724,1,0,0:0:0:0:
231,217,81792,1,8,0:0:0:0:
259,227,81929,1,0,0:0:0:0:
238,225,81997,1,0,0:0:0:0:
285,223,82065,1,8,0:0:0:0:
257,213,82133,1,0,0:0:0:0:
259,227,82201,1,8,0:0:0:0:
259,227,82338,1,8,0:0:0:0:
259,227,82406,1,8,0:0:0:0:
259,227,82474,1,0,0:0:0:0:
259,227,82611,1,8,0:0:0:0:
259,227,82679,1,0,0:0:0:0:
274,219,82747,1,0,0:0:0:0:
270,223,82815,1,0,0:0:0:0:
274,219,82883,1,8,0:0:0:0:
225,201,83020,5,4,0:0:0:0:
230,218,83292,1,8,0:0:0:0:
228,217,83429,1,0,0:0:0:0:
247,222,83497,1,8,0:0:0:0:
230,217,83565,1,0,0:0:0:0:
230,217,83633,1,0,0:0:0:0:
231,217,83701,1,8,0:0:0:0:
225,201,83770,1,8,0:0:0:0:
231,217,83838,1,0,0:0:0:0:
290,239,83906,1,0,0:0:0:0:
231,217,83974,1,8,0:0:0:0:
259,227,84111,1,4,0:0:0:0:
259,227,84383,1,8,0:0:0:0:
259,227,84520,1,8,0:0:0:0:
259,227,84588,1,8,0:0:0:0:
259,227,84656,1,0,0:0:0:0:
259,227,84724,1,0,0:0:0:0:
259,227,84792,1,8,0:0:0:0:
220,232,84861,1,8,0:0:0:0:
274,219,84929,1,8,0:0:0:0:
274,219,84997,1,0,0:0:0:0:
274,219,85065,1,8,0:0:0:0:
274,219,85201,1,4,0:0:0:0:
230,218,85474,1,8,0:0:0:0:
228,217,85611,1,0,0:0:0:0:
247,222,85679,1,8,0:0:0:0:
230,217,85747,1,8,0:0:0:0:
230,217,85815,1,0,0:0:0:0:
231,217,85883,1,8,0:0:0:0:
257,218,85951,1,8,0:0:0:0:
231,217,86020,1,0,0:0:0:0:
279,233,86088,1,0,0:0:0:0:
231,217,86156,1,8,0:0:0:0:
259,227,86292,1,0,0:0:0:0:
269,216,86361,1,0,0:0:0:0:
285,223,86429,1,8,0:0:0:0:
257,213,86497,1,0,0:0:0:0:
259,227,86565,1,8,0:0:0:0:
259,227,86701,1,8,0:0:0:0:
259,227,86770,1,8,0:0:0:0:
259,227,86838,1,0,0:0:0:0:
259,227,86906,1,0,0:0:0:0:
259,227,86974,1,8,0:0:0:0:
270,214,87042,1,0,0:0:0:0:
274,219,87111,1,0,0:0:0:0:
270,223,87179,1,0,0:0:0:0:
274,219,87247,1,8,0:0:0:0:
225,201,87383,5,4,0:0:0:0:
230,218,87656,1,8,0:0:0:0:
196,223,87724,1,8,0:0:0:0:
228,217,87792,1,0,0:0:0:0:
247,222,87861,1,8,0:0:0:0:
230,217,87929,1,0,0:0:0:0:
230,217,87997,1,0,0:0:0:0:
231,217,88065,1,8,0:0:0:0:
238,209,88133,1,8,0:0:0:0:
231,217,88201,1,0,0:0:0:0:
290,239,88270,1,0,0:0:0:0:
231,217,88338,1,8,0:0:0:0:
259,227,88474,1,4,0:0:0:0:
259,227,88747,1,8,0:0:0:0:
200,181,88815,1,8,0:0:0:0:
259,227,88883,1,0,0:0:0:0:
259,227,88951,1,8,0:0:0:0:
259,227,89020,1,8,0:0:0:0:
259,227,89088,1,0,0:0:0:0:
259,227,89156,1,8,0:0:0:0:
182,200,89224,1,0,0:0:0:0:
274,219,89292,1,0,0:0:0:0:
274,219,89361,1,0,0:0:0:0:
274,219,89429,1,8,0:0:0:0:
230,179,89565,5,8,0:0:0:0:
230,179,89633,1,8,0:0:0:0:
230,179,89701,1,0,0:0:0:0:
230,179,89770,1,0,0:0:0:0:
230,179,89838,1,8,0:0:0:0:
230,179,89906,1,0,0:0:0:0:
230,179,89974,1,8,0:0:0:0:
230,179,90042,1,8,0:0:0:0:
230,179,90111,1,8,0:0:0:0:
230,179,90179,1,0,0:0:0:0:
230,179,90247,1,8,0:0:0:0:
230,179,90315,1,8,0:0:0:0:
230,179,90383,1,0,0:0:0:0:
230,179,90451,1,0,0:0:0:0:
230,179,90520,1,8,0:0:0:0:
230,179,90588,1,8,0:0:0:0:
230,179,90656,1,0,0:0:0:0:
230,179,90724,1,0,0:0:0:0:
230,179,90792,1,8,0:0:0:0:
230,179,90861,1,0,0:0:0:0:
230,179,90929,1,8,0:0:0:0:
230,179,90997,1,8,0:0:0:0:
230,179,91065,1,0,0:0:0:0:
230,179,91133,1,0,0:0:0:0:
230,179,91201,1,8,0:0:0:0:
230,179,91270,1,0,0:0:0:0:
230,179,91338,1,8,0:0:0:0:
230,179,91406,1,0,0:0:0:0:
230,179,91474,1,0,0:0:0:0:
230,179,91542,1,8,0:0:0:0:
230,179,91611,1,0,0:0:0:0:
230,179,91679,1,8,0:0:0:0:
230,179,91747,1,0,0:0:0:0:
230,203,92020,1,8,0:0:0:0:
231,203,92156,1,0,0:0:0:0:
231,203,92429,1,8,0:0:0:0:
242,207,92565,1,0,0:0:0:0:
242,207,92838,1,0,0:0:0:0:
242,207,93111,1,8,0:0:0:0:
258,198,93247,1,0,0:0:0:0:
254,216,93520,1,8,0:0:0:0:
254,216,93656,1,0,0:0:0:0:
254,216,93792,1,8,0:0:0:0:
254,216,93929,1,0,0:0:0:0:
258,225,94201,1,8,0:0:0:0:
258,225,94338,1,0,0:0:0:0:
258,225,94611,1,8,0:0:0:0:
264,227,94747,1,0,0:0:0:0:
264,227,95020,1,0,0:0:0:0:
271,235,95292,1,8,0:0:0:0:
279,234,95429,1,0,0:0:0:0:
311,239,95565,1,8,0:0:0:0:
272,235,95701,1,8,0:0:0:0:
272,235,95838,1,0,0:0:0:0:
264,227,96111,1,4,0:0:0:0:
279,234,96383,1,8,0:0:0:0:
278,235,96520,1,0,0:0:0:0:
278,235,96792,1,8,0:0:0:0:
278,234,96929,1,0,0:0:0:0:
278,234,97201,1,0,0:0:0:0:
278,235,97474,1,8,0:0:0:0:
295,238,97611,1,0,0:0:0:0:
287,227,97883,1,8,0:0:0:0:
287,227,98020,1,0,0:0:0:0:
279,227,98156,1,8,0:0:0:0:
277,225,98292,1,0,0:0:0:0:
277,225,98565,1,8,0:0:0:0:
277,225,98701,1,0,0:0:0:0:
276,241,98974,1,8,0:0:0:0:
254,228,99111,1,0,0:0:0:0:
280,243,99383,1,0,0:0:0:0:
280,243,99656,1,8,0:0:0:0:
283,241,99792,1,0,0:0:0:0:
261,238,99929,1,8,0:0:0:0:
311,242,100065,1,8,0:0:0:0:
274,235,100201,1,0,0:0:0:0:
253,206,100474,1,4,0:0:0:0:
253,206,100747,1,8,0:0:0:0:
253,206,100883,1,0,0:0:0:0:
267,213,100951,1,0,0:0:0:0:
253,206,101020,1,0,0:0:0:0:
267,213,101088,1,0,0:0:0:0:
267,213,101156,1,8,0:0:0:0:
228,242,101292,1,0,0:0:0:0:
229,225,101361,1,0,0:0:0:0:
229,225,101429,1,8,0:0:0:0:
229,225,101565,1,0,0:0:0:0:
253,206,101701,1,0,0:0:0:0:
253,206,101770,1,0,0:0:0:0:
253,206,101838,1,8,0:0:0:0:
267,213,101974,1,0,0:0:0:0:
253,206,102042,1,8,0:0:0:0:
267,213,102111,1,0,0:0:0:0:
267,213,102179,1,0,0:0:0:0:
253,206,102247,1,8,0:0:0:0:
253,206,102383,1,0,0:0:0:0:
196,190,102451,1,0,0:0:0:0:
253,206,102520,1,8,0:0:0:0:
253,206,102588,1,8,0:0:0:0:
253,206,102656,1,0,0:0:0:0:
225,222,102792,1,0,0:0:0:0:
225,222,102929,1,8,0:0:0:0:
225,222,103065,1,0,0:0:0:0:
225,222,103133,1,8,0:0:0:0:
225,222,103201,1,8,0:0:0:0:
225,222,103270,1,0,0:0:0:0:
225,222,103338,1,8,0:0:0:0:
225,222,103474,1,0,0:0:0:0:
225,222,103542,1,0,0:0:0:0:
225,222,103611,1,8,0:0:0:0:
248,208,103747,1,0,0:0:0:0:
225,222,103883,1,0,0:0:0:0:
225,222,103951,1,0,0:0:0:0:
225,222,104020,1,8,0:0:0:0:
225,222,104156,1,8,0:0:0:0:
225,222,104224,1,8,0:0:0:0:
245,231,104292,1,0,0:0:0:0:
245,231,104361,1,0,0:0:0:0:
245,231,104429,1,8,0:0:0:0:
245,231,104565,1,8,0:0:0:0:
245,231,104633,1,0,0:0:0:0:
245,231,104701,1,8,0:0:0:0:
225,222,104838,1,4,0:0:0:0:
252,233,105111,1,8,0:0:0:0:
252,233,105247,1,0,0:0:0:0:
252,233,105315,1,8,0:0:0:0:
252,233,105383,1,0,0:0:0:0:
252,233,105451,1,0,0:0:0:0:
252,233,105520,1,8,0:0:0:0:
245,231,105656,1,0,0:0:0:0:
245,231,105724,1,0,0:0:0:0:
252,233,105792,1,8,0:0:0:0:
252,233,105929,1,0,0:0:0:0:
245,231,106065,1,0,0:0:0:0:
226,235,106133,1,0,0:0:0:0:
252,233,106201,1,8,0:0:0:0:
216,219,106338,1,8,0:0:0:0:
216,219,106406,1,8,0:0:0:0:
245,231,106474,1,0,0:0:0:0:
245,231,106542,1,0,0:0:0:0:
245,231,106611,1,8,0:0:0:0:
245,231,106747,1,0,0:0:0:0:
245,231,106815,1,0,0:0:0:0:
245,231,106883,1,8,0:0:0:0:
260,229,106951,1,8,0:0:0:0:
245,231,107020,1,0,0:0:0:0:
226,235,107156,1,0,0:0:0:0:
216,219,107292,1,8,0:0:0:0:
226,235,107429,1,0,0:0:0:0:
226,235,107497,1,8,0:0:0:0:
226,235,107565,1,8,0:0:0:0:
226,235,107633,1,0,0:0:0:0:
226,235,107701,1,8,0:0:0:0:
226,235,107838,1,0,0:0:0:0:
226,235,107906,1,0,0:0:0:0:
226,235,107974,1,8,0:0:0:0:
226,235,108111,1,0,0:0:0:0:
226,235,108247,1,0,0:0:0:0:
243,237,108315,1,0,0:0:0:0:
226,235,108383,1,8,0:0:0:0:
226,235,108520,1,8,0:0:0:0:
226,235,108588,1,8,0:0:0:0:
226,235,108656,1,0,0:0:0:0:
226,235,108724,1,0,0:0:0:0:
226,235,108792,1,8,0:0:0:0:
215,220,108861,1,8,0:0:0:0:
226,235,108929,1,8,0:0:0:0:
226,235,108997,1,0,0:0:0:0:
226,235,109065,1,8,0:0:0:0:
225,201,109201,5,4,0:0:0:0:
231,208,109338,1,8,0:0:0:0:
242,219,109406,1,0,0:0:0:0:
242,219,109474,1,8,0:0:0:0:
265,213,109542,1,8,0:0:0:0:
242,219,109611,1,0,0:0:0:0:
242,219,109747,1,8,0:0:0:0:
242,219,109815,1,0,0:0:0:0:
242,219,109883,1,8,0:0:0:0:
276,220,109951,1,8,0:0:0:0:
242,219,110020,1,0,0:0:0:0:
230,204,110088,1,0,0:0:0:0:
260,222,110156,1,8,0:0:0:0:
273,217,110224,1,0,0:0:0:0:
242,219,110292,1,8,0:0:0:0:
273,214,110361,1,8,0:0:0:0:
249,203,110429,1,0,0:0:0:0:
281,201,110497,1,0,0:0:0:0:
229,196,110565,1,8,0:0:0:0:
213,204,110701,1,0,0:0:0:0:
244,209,110770,1,8,0:0:0:0:
213,204,110838,1,0,0:0:0:0:
213,204,110906,1,0,0:0:0:0:
213,204,110974,1,8,0:0:0:0:
213,204,111042,1,8,0:0:0:0:
213,204,111111,1,0,0:0:0:0:
213,204,111179,1,0,0:0:0:0:
244,176,111247,5,8,0:0:0:0:
244,176,111292,1,8,0:0:0:0:
244,176,111338,1,0,0:0:0:0:
244,176,111383,1,0,0:0:0:0:
232,207,111520,1,0,0:0:0:0:
232,207,111588,1,0,0:0:0:0:
232,207,111656,1,8,0:0:0:0:
213,204,111724,1,8,0:0:0:0:
213,204,111792,1,0,0:0:0:0:
213,204,111929,1,8,0:0:0:0:
213,204,111997,1,0,0:0:0:0:
213,204,112065,1,8,0:0:0:0:
213,204,112133,1,8,0:0:0:0:
213,204,112201,1,0,0:0:0:0:
213,204,112270,1,0,0:0:0:0:
213,204,112338,1,8,0:0:0:0:
232,207,112474,1,0,0:0:0:0:
204,212,112542,1,0,0:0:0:0:
232,207,112611,1,8,0:0:0:0:
232,207,112679,1,0,0:0:0:0:
213,204,112747,1,8,0:0:0:0:
199,214,112815,1,8,0:0:0:0:
213,204,112883,1,0,0:0:0:0:
213,204,112951,1,0,0:0:0:0:
213,204,113020,1,8,0:0:0:0:
213,204,113088,1,0,0:0:0:0:
213,204,113156,1,8,0:0:0:0:
213,204,113224,1,0,0:0:0:0:
213,204,113292,1,8,0:0:0:0:
213,204,113361,1,0,0:0:0:0:
232,207,113429,1,8,0:0:0:0:
232,207,113474,1,8,0:0:0:0:
232,207,113520,1,8,0:0:0:0:
225,201,113565,5,0,0:0:0:0:
231,208,113701,1,8,0:0:0:0:
242,219,113770,1,0,0:0:0:0:
242,219,113838,1,8,0:0:0:0:
251,229,113906,1,8,0:0:0:0:
242,219,113974,1,0,0:0:0:0:
242,219,114111,1,8,0:0:0:0:
252,210,114179,1,0,0:0:0:0:
242,219,114247,1,8,0:0:0:0:
242,219,114315,1,0,0:0:0:0:
247,217,114383,1,8,0:0:0:0:
261,208,114451,1,8,0:0:0:0:
242,219,114520,1,0,0:0:0:0:
252,211,114588,1,0,0:0:0:0:
266,213,114656,1,8,0:0:0:0:
231,208,114724,1,8,0:0:0:0:
249,203,114792,1,8,0:0:0:0:
251,229,114861,1,0,0:0:0:0:
229,196,114929,1,8,0:0:0:0:
213,204,115065,1,0,0:0:0:0:
213,204,115133,1,8,0:0:0:0:
213,204,115201,1,0,0:0:0:0:
213,204,115270,1,0,0:0:0:0:
213,204,115338,1,8,0:0:0:0:
213,204,115406,1,8,0:0:0:0:
213,204,115474,1,0,0:0:0:0:
213,204,115542,1,0,0:0:0:0:
244,176,115611,5,8,0:0:0:0:
244,176,115656,1,8,0:0:0:0:
244,176,115701,1,0,0:0:0:0:
244,176,115747,1,0,0:0:0:0:
232,207,115883,1,0,0:0:0:0:
232,207,115951,1,0,0:0:0:0:
232,207,116020,1,8,0:0:0:0:
213,204,116088,1,8,0:0:0:0:
213,204,116156,1,0,0:0:0:0:
213,204,116292,1,8,0:0:0:0:
213,204,116361,1,0,0:0:0:0:
213,204,116429,1,8,0:0:0:0:
213,204,116497,1,8,0:0:0:0:
213,204,116565,1,0,0:0:0:0:
213,204,116633,1,0,0:0:0:0:
213,204,116701,1,8,0:0:0:0:
232,207,116838,1,0,0:0:0:0:
221,194,116906,1,0,0:0:0:0:
232,207,116974,1,8,0:0:0:0:
232,207,117042,1,0,0:0:0:0:
213,204,117111,1,8,0:0:0:0:
192,195,117179,1,8,0:0:0:0:
213,204,117247,1,0,0:0:0:0:
213,204,117315,1,0,0:0:0:0:
213,204,117383,1,8,0:0:0:0:
205,208,117451,1,0,0:0:0:0:
213,204,117520,1,8,0:0:0:0:
213,204,117565,1,8,0:0:0:0:
213,204,117611,1,8,0:0:0:0:
213,204,117656,1,0,0:0:0:0:
213,204,117724,1,0,0:0:0:0:
213,204,117792,1,8,0:0:0:0:
220,227,117929,1,4,0:0:0:0:
232,207,118201,1,4,0:0:0:0:
232,207,118474,1,4,0:0:0:0:
241,246,118611,1,8,0:0:0:0:
232,207,118747,1,4,0:0:0:0:
246,235,118883,1,8,0:0:0:0:
229,273,119020,1,4,0:0:0:0:
232,205,119292,1,4,0:0:0:0:
229,270,119565,1,4,0:0:0:0:
224,230,119701,1,4,0:0:0:0:
234,205,119838,1,12,0:0:0:0:
235,243,119974,1,12,0:0:0:0:
229,267,120111,1,4,0:0:0:0:
235,204,120383,1,4,0:0:0:0:
219,242,120520,1,8,0:0:0:0:
229,265,120656,1,4,0:0:0:0:
235,243,120792,1,8,0:0:0:0:
235,243,120929,1,4,0:0:0:0:
238,244,121065,1,8,0:0:0:0:
235,243,121201,1,4,0:0:0:0:
235,243,121474,1,4,0:0:0:0:
235,243,121747,1,4,0:0:0:0:
204,235,121883,1,12,0:0:0:0:
235,243,122020,1,12,0:0:0:0:
227,246,122156,1,12,0:0:0:0:
220,227,122292,1,4,0:0:0:0:
232,207,122565,1,4,0:0:0:0:
232,207,122838,1,4,0:0:0:0:
239,246,122974,1,8,0:0:0:0:
232,207,123111,1,4,0:0:0:0:
227,237,123247,1,8,0:0:0:0:
229,273,123383,1,4,0:0:0:0:
232,205,123656,1,4,0:0:0:0:
229,270,123929,1,4,0:0:0:0:
224,230,124065,1,4,0:0:0:0:
234,205,124201,1,12,0:0:0:0:
235,243,124338,1,12,0:0:0:0:
229,267,124474,1,4,0:0:0:0:
235,204,124747,1,4,0:0:0:0:
267,237,124883,1,8,0:0:0:0:
229,265,125020,1,4,0:0:0:0:
237,233,125156,1,8,0:0:0:0:
235,243,125292,1,4,0:0:0:0:
238,244,125429,1,8,0:0:0:0:
235,243,125565,1,4,0:0:0:0:
235,243,125838,1,4,0:0:0:0:
235,243,126111,1,4,0:0:0:0:
204,235,126247,1,4,0:0:0:0:
235,243,126383,1,8,0:0:0:0:
177,219,126451,1,8,0:0:0:0:
206,220,126520,1,8,0:0:0:0:
209,227,126588,1,8,0:0:0:0:
229,246,126656,1,0,0:0:0:0:
235,243,126792,1,8,0:0:0:0:
235,243,126861,1,0,0:0:0:0:
235,243,126929,1,8,0:0:0:0:
235,243,127065,1,0,0:0:0:0:
235,243,127133,1,8,0:0:0:0:
235,243,127201,1,0,0:0:0:0:
235,243,127270,1,0,0:0:0:0:
235,243,127338,1,8,0:0:0:0:
235,243,127406,1,8,0:0:0:0:
229,246,127474,1,0,0:0:0:0:
199,207,127542,1,0,0:0:0:0:
229,246,127611,1,8,0:0:0:0:
235,243,127747,1,0,0:0:0:0:
235,243,127883,1,0,0:0:0:0:
235,243,127951,1,0,0:0:0:0:
235,243,128020,1,8,0:0:0:0:
235,237,128156,1,8,0:0:0:0:
235,237,128224,1,8,0:0:0:0:
235,237,128292,1,0,0:0:0:0:
235,237,128361,1,0,0:0:0:0:
235,237,128429,1,8,0:0:0:0:
235,237,128497,1,8,0:0:0:0:
235,237,128565,1,0,0:0:0:0:
235,237,128701,1,0,0:0:0:0:
235,237,128770,1,8,0:0:0:0:
235,237,128838,1,0,0:0:0:0:
219,239,128974,1,0,0:0:0:0:
249,232,129042,1,0,0:0:0:0:
225,239,129111,1,8,0:0:0:0:
226,239,129247,1,0,0:0:0:0:
226,239,129315,1,8,0:0:0:0:
226,239,129383,1,0,0:0:0:0:
226,239,129451,1,0,0:0:0:0:
226,239,129520,1,8,0:0:0:0:
227,240,129588,1,8,0:0:0:0:
226,239,129656,1,0,0:0:0:0:
226,239,129724,1,0,0:0:0:0:
226,239,129792,1,8,0:0:0:0:
226,239,129929,1,0,0:0:0:0:
230,249,130065,1,8,0:0:0:0:
230,249,130133,1,0,0:0:0:0:
230,249,130201,1,8,0:0:0:0:
261,241,130338,1,0,0:0:0:0:
252,244,130406,1,0,0:0:0:0:
250,235,130474,1,8,0:0:0:0:
250,235,130542,1,0,0:0:0:0:
250,235,130611,1,8,0:0:0:0:
288,242,130679,1,8,0:0:0:0:
248,242,130747,1,8,0:0:0:0:
248,242,130815,1,0,0:0:0:0:
201,251,130883,1,8,0:0:0:0:
225,257,130951,1,8,0:0:0:0:
248,242,131020,1,0,0:0:0:0:
231,229,131156,1,0,0:0:0:0:
235,248,131224,1,0,0:0:0:0:
231,238,131292,1,8,0:0:0:0:
232,238,131429,1,0,0:0:0:0:
237,237,131565,1,8,0:0:0:0:
237,237,131633,1,0,0:0:0:0:
237,237,131701,1,8,0:0:0:0:
237,237,131770,1,8,0:0:0:0:
237,237,131838,1,0,0:0:0:0:
237,237,131906,1,0,0:0:0:0:
237,237,131974,1,8,0:0:0:0:
237,237,132111,1,0,0:0:0:0:
237,237,132179,1,0,0:0:0:0:
237,237,132247,1,8,0:0:0:0:
237,237,132315,1,0,0:0:0:0:
237,237,132383,1,8,0:0:0:0:
222,236,132451,1,0,0:0:0:0:
237,237,132520,1,0,0:0:0:0:
237,237,132588,1,8,0:0:0:0:
237,237,132656,1,8,0:0:0:0:
250,234,132724,1,0,0:0:0:0:
250,234,132792,1,8,0:0:0:0:
250,234,132861,1,0,0:0:0:0:
250,234,132929,1,8,0:0:0:0:
212,246,132997,1,8,0:0:0:0:
250,239,133065,1,0,0:0:0:0:
241,261,133133,1,8,0:0:0:0:
241,257,133201,1,0,0:0:0:0:
230,248,133338,1,0,0:0:0:0:
230,248,133406,1,0,0:0:0:0:
230,248,133474,1,8,0:0:0:0:
230,248,133611,1,0,0:0:0:0:
263,223,133679,1,8,0:0:0:0:
238,248,133747,1,8,0:0:0:0:
271,235,133815,1,0,0:0:0:0:
271,235,133883,1,8,0:0:0:0:
268,211,133951,1,8,0:0:0:0:
271,235,134020,1,0,0:0:0:0:
258,189,134088,1,0,0:0:0:0:
256,245,134156,1,8,0:0:0:0:
259,201,134292,1,0,0:0:0:0:
246,196,134361,1,8,0:0:0:0:
247,210,134429,1,0,0:0:0:0:
279,234,134497,1,0,0:0:0:0:
247,210,134565,1,8,0:0:0:0:
247,210,134633,1,8,0:0:0:0:
247,210,134701,1,0,0:0:0:0:
247,210,134770,1,0,0:0:0:0:
247,210,134838,1,8,0:0:0:0:
247,210,134906,1,0,0:0:0:0:
247,210,134974,1,8,0:0:0:0:
241,201,135042,1,0,0:0:0:0:
247,210,135111,1,0,0:0:0:0:
228,219,135179,1,0,0:0:0:0:
247,210,135247,1,8,0:0:0:0:
247,210,135315,1,8,0:0:0:0:
229,246,135383,1,0,0:0:0:0:
235,243,135520,1,8,0:0:0:0:
235,243,135588,1,0,0:0:0:0:
235,243,135656,1,8,0:0:0:0:
235,243,135792,1,0,0:0:0:0:
235,243,135861,1,0,0:0:0:0:
235,243,135929,1,8,0:0:0:0:
235,243,135997,1,0,0:0:0:0:
235,243,136065,1,8,0:0:0:0:
235,243,136133,1,8,0:0:0:0:
229,246,136201,1,0,0:0:0:0:
199,207,136270,1,0,0:0:0:0:
229,246,136338,1,8,0:0:0:0:
235,243,136474,1,0,0:0:0:0:
235,243,136611,1,0,0:0:0:0:
235,243,136679,1,0,0:0:0:0:
235,243,136747,1,8,0:0:0:0:
235,237,136883,1,8,0:0:0:0:
235,237,136951,1,8,0:0:0:0:
235,237,137020,1,0,0:0:0:0:
235,237,137088,1,0,0:0:0:0:
235,237,137156,1,8,0:0:0:0:
235,237,137224,1,8,0:0:0:0:
235,237,137292,1,0,0:0:0:0:
235,237,137429,1,0,0:0:0:0:
235,237,137497,1,8,0:0:0:0:
235,237,137565,1,0,0:0:0:0:
219,239,137701,1,0,0:0:0:0:
249,232,137770,1,0,0:0:0:0:
225,239,137838,1,8,0:0:0:0:
226,239,137974,1,0,0:0:0:0:
226,239,138042,1,8,0:0:0:0:
226,239,138111,1,8,0:0:0:0:
226,239,138179,1,0,0:0:0:0:
226,239,138247,1,8,0:0:0:0:
227,240,138315,1,8,0:0:0:0:
226,239,138383,1,0,0:0:0:0:
226,239,138451,1,0,0:0:0:0:
226,239,138520,1,8,0:0:0:0:
226,239,138656,1,0,0:0:0:0:
230,249,138792,1,8,0:0:0:0:
230,249,138861,1,0,0:0:0:0:
230,249,138929,1,8,0:0:0:0:
261,241,139065,1,0,0:0:0:0:
252,244,139133,1,0,0:0:0:0:
250,235,139201,1,8,0:0:0:0:
250,235,139270,1,0,0:0:0:0:
250,235,139338,1,8,0:0:0:0:
288,242,139406,1,8,0:0:0:0:
248,242,139474,1,8,0:0:0:0:
248,242,139542,1,0,0:0:0:0:
201,251,139611,1,8,0:0:0:0:
225,257,139679,1,8,0:0:0:0:
248,242,139747,1,0,0:0:0:0:
231,229,139883,1,0,0:0:0:0:
235,248,139951,1,0,0:0:0:0:
231,238,140020,1,8,0:0:0:0:
232,238,140156,1,0,0:0:0:0:
237,237,140292,1,8,0:0:0:0:
237,237,140361,1,8,0:0:0:0:
237,237,140429,1,8,0:0:0:0:
237,237,140497,1,8,0:0:0:0:
237,237,140565,1,0,0:0:0:0:
237,237,140633,1,0,0:0:0:0:
237,237,140701,1,8,0:0:0:0:
237,237,140838,1,8,0:0:0:0:
241,221,140906,1,8,0:0:0:0:
237,237,140974,1,0,0:0:0:0:
212,214,141042,1,0,0:0:0:0:
237,237,141111,1,8,0:0:0:0:
237,237,141179,1,0,0:0:0:0:
237,237,141247,1,8,0:0:0:0:
237,237,141315,1,8,0:0:0:0:
237,237,141383,1,0,0:0:0:0:
250,234,141451,1,0,0:0:0:0:
250,234,141520,1,8,0:0:0:0:
250,234,141588,1,0,0:0:0:0:
250,234,141656,1,0,0:0:0:0:
212,246,141724,1,0,0:0:0:0:
250,239,141792,1,8,0:0:0:0:
259,230,141861,1,8,0:0:0:0:
241,257,141929,1,0,0:0:0:0:
230,248,142065,1,8,0:0:0:0:
230,248,142133,1,0,0:0:0:0:
230,248,142201,1,8,0:0:0:0:
230,248,142338,1,0,0:0:0:0:
263,223,142406,1,0,0:0:0:0:
238,248,142474,1,8,0:0:0:0:
271,235,142542,1,0,0:0:0:0:
271,235,142611,1,8,0:0:0:0:
268,211,142679,1,8,0:0:0:0:
271,235,142747,1,0,0:0:0:0:
259,201,142815,1,0,0:0:0:0:
256,245,142883,1,8,0:0:0:0:
258,189,143020,1,0,0:0:0:0:
256,224,143088,1,0,0:0:0:0:
247,210,143156,1,8,0:0:0:0:
247,210,143224,1,8,0:0:0:0:
247,210,143292,1,8,0:0:0:0:
258,220,143361,1,8,0:0:0:0:
247,210,143429,1,0,0:0:0:0:
247,210,143497,1,0,0:0:0:0:
247,210,143565,1,8,0:0:0:0:
247,210,143633,1,0,0:0:0:0:
247,210,143701,1,8,0:0:0:0:
241,201,143770,1,8,0:0:0:0:
247,210,143838,1,8,0:0:0:0:
228,219,143906,1,0,0:0:0:0:
247,210,143974,1,8,0:0:0:0:
247,210,144042,1,8,0:0:0:0:
229,246,144111,1,0,0:0:0:0:
235,243,144247,1,8,0:0:0:0:
235,243,144315,1,0,0:0:0:0:
235,243,144383,1,8,0:0:0:0:
239,245,144451,1,8,0:0:0:0:
235,243,144520,1,0,0:0:0:0:
235,243,144588,1,8,0:0:0:0:
235,243,144656,1,0,0:0:0:0:
235,243,144724,1,0,0:0:0:0:
235,243,144792,1,8,0:0:0:0:
235,243,144861,1,8,0:0:0:0:
229,246,144929,1,0,0:0:0:0:
199,207,144997,1,0,0:0:0:0:
229,246,145065,1,8,0:0:0:0:
235,243,145201,1,0,0:0:0:0:
239,236,145270,1,8,0:0:0:0:
235,243,145338,1,0,0:0:0:0:
235,243,145406,1,0,0:0:0:0:
235,243,145474,1,8,0:0:0:0:
236,221,145542,1,8,0:0:0:0:
235,237,145611,1,0,0:0:0:0:
235,237,145679,1,0,0:0:0:0:
235,237,145747,1,8,0:0:0:0:
235,237,145815,1,0,0:0:0:0:
235,237,145883,1,8,0:0:0:0:
235,237,145951,1,0,0:0:0:0:
235,237,146020,1,0,0:0:0:0:
237,221,146088,1,8,0:0:0:0:
235,237,146156,1,0,0:0:0:0:
235,237,146201,1,8,0:0:0:0:
245,238,146247,1,8,0:0:0:0:
235,237,146292,1,0,0:0:0:0:
219,239,146429,1,8,0:0:0:0:
249,232,146497,1,0,0:0:0:0:
225,239,146565,1,8,0:0:0:0:
234,221,146633,1,8,0:0:0:0:
226,239,146701,1,0,0:0:0:0:
226,239,146770,1,8,0:0:0:0:
226,239,146838,1,0,0:0:0:0:
226,239,146906,1,0,0:0:0:0:
226,239,146974,1,8,0:0:0:0:
227,240,147042,1,8,0:0:0:0:
226,239,147111,1,8,0:0:0:0:
226,239,147179,1,0,0:0:0:0:
226,239,147247,1,8,0:0:0:0:
226,239,147383,1,0,0:0:0:0:
241,234,147451,1,0,0:0:0:0:
230,249,147520,1,8,0:0:0:0:
230,249,147588,1,0,0:0:0:0:
230,249,147656,1,8,0:0:0:0:
241,234,147724,1,0,0:0:0:0:
261,241,147792,1,0,0:0:0:0:
252,244,147861,1,0,0:0:0:0:
250,235,147929,1,8,0:0:0:0:
250,235,147997,1,0,0:0:0:0:
250,235,148065,1,8,0:0:0:0:
288,242,148133,1,8,0:0:0:0:
248,242,148201,1,0,0:0:0:0:
248,242,148270,1,0,0:0:0:0:
201,251,148338,1,8,0:0:0:0:
225,257,148383,1,8,0:0:0:0:
301,207,148429,1,8,0:0:0:0:
248,242,148474,1,0,0:0:0:0:
231,229,148611,1,8,0:0:0:0:
235,248,148679,1,0,0:0:0:0:
231,238,148747,1,8,0:0:0:0:
248,243,148815,1,8,0:0:0:0:
232,238,148883,1,0,0:0:0:0:
248,243,148951,1,0,0:0:0:0:
237,237,149020,1,8,0:0:0:0:
237,237,149088,1,0,0:0:0:0:
237,237,149156,1,8,0:0:0:0:
237,237,149224,1,8,0:0:0:0:
237,237,149292,1,0,0:0:0:0:
237,237,149361,1,0,0:0:0:0:
237,237,149429,1,8,0:0:0:0:
237,237,149565,1,0,0:0:0:0:
237,237,149633,1,8,0:0:0:0:
237,237,149701,1,0,0:0:0:0:
237,237,149770,1,0,0:0:0:0:
237,237,149838,1,8,0:0:0:0:
237,237,149906,1,8,0:0:0:0:
237,237,149974,1,0,0:0:0:0:
237,237,150042,1,0,0:0:0:0:
237,237,150111,1,8,0:0:0:0:
250,234,150179,1,0,0:0:0:0:
250,234,150247,1,8,0:0:0:0:
250,234,150315,1,0,0:0:0:0:
250,234,150383,1,0,0:0:0:0:
212,246,150451,1,8,0:0:0:0:
250,239,150520,1,0,0:0:0:0:
287,239,150565,1,8,0:0:0:0:
243,207,150611,1,8,0:0:0:0:
241,257,150656,1,0,0:0:0:0:
230,248,150792,1,8,0:0:0:0:
230,248,150861,1,0,0:0:0:0:
230,248,150929,1,8,0:0:0:0:
263,223,150997,1,8,0:0:0:0:
230,248,151065,1,0,0:0:0:0:
261,236,151133,1,0,0:0:0:0:
238,248,151201,1,8,0:0:0:0:
271,235,151270,1,0,0:0:0:0:
271,235,151338,1,8,0:0:0:0:
268,211,151406,1,8,0:0:0:0:
271,235,151474,1,8,0:0:0:0:
294,220,151542,1,0,0:0:0:0:
256,245,151611,1,8,0:0:0:0:
258,189,151747,1,0,0:0:0:0:
259,201,151815,1,0,0:0:0:0:
247,210,151883,1,8,0:0:0:0:
247,210,151951,1,0,0:0:0:0:
247,210,152020,1,8,0:0:0:0:
284,205,152088,1,0,0:0:0:0:
247,210,152156,1,0,0:0:0:0:
247,210,152224,1,0,0:0:0:0:
247,210,152292,1,8,0:0:0:0:
247,210,152361,1,0,0:0:0:0:
247,210,152429,1,8,0:0:0:0:
241,201,152497,1,8,0:0:0:0:
247,210,152565,1,0,0:0:0:0:
228,219,152633,1,0,0:0:0:0:
247,210,152701,1,8,0:0:0:0:
247,210,152747,1,8,0:0:0:0:
180,207,152792,1,8,0:0:0:0:
229,246,152838,1,0,0:0:0:0:
