osu file format v14

[General]
AudioFilename: audio.mp3
AudioLeadIn: 0
PreviewTime: 108588
Countdown: 0
SampleSet: Normal
StackLeniency: 0.7
Mode: 1
LetterboxInBreaks: 0
WidescreenStoryboard: 1

[Editor]
Bookmarks: 13181,39363,144090,152817
DistanceSpacing: 0.5
BeatDivisor: 1
GridSize: 32
TimelineZoom: 2.699999

[Metadata]
Title:Super Sonic Raving
TitleUnicode:Super Sonic Raving
Artist:Teletexter
ArtistUnicode:Teletexter
Creator:ZTH
Version:Kantan
Source:Sonic R
Tags:liku ssr sega racing video game english breakcore Richard Jacques Digitizer the hedgehog electronic tj davis ost original soundtrack music sound team zak glynn
BeatmapID:3989642
BeatmapSetID:1321693

[Difficulty]
HPDrainRate:7
CircleSize:5
OverallDifficulty:3
ApproachRate:5
SliderMultiplier:1.4
SliderTickRate:1

[Events]
//Background and Video events
0,0,"YEA FAST.jpeg",0,68
//Break Periods
//Storyboard Layer 0 (Background)
//Storyboard Layer 1 (Fail)
//Storyboard Layer 2 (Pass)
//Storyboard Layer 3 (Foreground)
//Storyboard Layer 4 (Overlay)
//Storyboard Sound Samples

[TimingPoints]
111,272.727272727273,4,1,0,45,1,0
111,-100,4,1,0,45,0,0
3380,-100,4,1,0,45,0,0
3926,-100,4,1,0,45,0,0
4471,-100,4,1,0,46,0,0
5289,-100,4,1,0,47,0,0
5562,-100,4,1,0,48,0,0
6380,-100,4,1,0,49,0,0
6653,-100,4,1,0,49,0,0
6926,-100,4,1,0,50,0,0
7471,-100,4,1,0,51,0,0
7744,-100,4,1,0,51,0,0
8562,-100,4,1,0,53,0,0
8835,-100,4,1,0,53,0,0
9108,-100,4,1,0,53,0,0
9653,-100,4,1,0,54,0,0
9926,-100,4,1,0,55,0,0
10471,-100,4,1,0,55,0,0
11017,-100,4,1,0,56,0,0
11289,-100,4,1,0,57,0,0
11835,-100,4,1,0,58,0,0
12108,-100,4,1,0,58,0,0
12653,-100,4,1,0,59,0,0
12926,-100,4,1,0,60,0,0
13198,-100,4,1,0,60,0,0
21108,-100,4,1,0,62,0,0
21380,-100,4,1,0,64,0,0
21926,-100,4,1,0,70,0,0
22440,-100,4,1,0,69,0,0
22986,-100,4,1,0,68,0,0
23531,-100,4,1,0,67,0,0
23804,-100,4,1,0,66,0,0
24349,-100,4,1,0,65,0,0
25198,-100,4,1,0,62,0,0
25471,-100,4,1,0,60,0,0
25744,-100,4,1,0,58,0,0
26289,-100,4,1,0,57,0,0
26562,-100,4,1,0,55,0,0
26835,-100,4,1,0,53,0,0
27380,-100,4,1,0,50,0,0
27926,-100,4,1,0,47,0,0
28198,-100,4,1,0,45,0,0
28471,-100,4,1,0,40,0,0
30630,-100,4,1,0,65,0,0
30903,-100,4,1,0,55,0,0
34721,-100,4,1,0,60,0,0
34994,-100,4,1,0,65,0,0
35267,-100,4,1,0,55,0,0
37471,-100,4,1,0,56,0,0
38017,-100,4,1,0,57,0,0
38289,-100,4,1,0,58,0,0
38835,-100,4,1,0,59,0,0
39108,-100,4,1,0,59,0,0
39358,-100,4,1,0,60,0,0
56288,-100,4,1,0,62,0,0
56561,-100,4,1,0,64,0,0
56838,-100,4,1,0,65,0,1
73197,-100,4,1,0,65,0,1
74017,-100,4,1,0,65,0,1
74267,-100,4,1,0,65,0,1
74292,-100,4,1,0,65,0,0
74539,-100,4,1,0,60,0,0
75358,-100,4,1,0,65,0,0
75630,-100,4,1,0,60,0,0
76448,-100,4,1,0,65,0,0
76720,-100,4,1,0,60,0,0
78630,-100,4,1,0,65,0,0
78902,-100,4,1,0,60,0,0
79721,-100,4,1,0,65,0,0
79993,-100,4,1,0,60,0,0
80812,-100,4,1,0,65,0,0
81084,-100,4,1,0,60,0,0
82994,-100,4,1,0,65,0,0
83266,-100,4,1,0,60,0,0
84085,-100,4,1,0,65,0,0
84357,-100,4,1,0,60,0,0
85176,-100,4,1,0,65,0,0
85448,-100,4,1,0,60,0,0
87358,-100,4,1,0,65,0,0
87630,-100,4,1,0,60,0,0
88448,-100,4,1,0,65,0,0
88720,-100,4,1,0,60,0,0
89562,-100,4,1,0,70,0,0
91994,-100,4,1,0,55,0,0
96085,-100,4,1,0,65,0,0
96358,-100,4,1,0,55,0,0
100448,-100,4,1,0,65,0,0
100721,-100,4,1,0,60,0,0
104812,-100,4,1,0,65,0,0
105085,-100,4,1,0,60,0,0
108653,-100,4,1,0,62,0,0
108926,-100,4,1,0,63,0,0
109201,-100,4,1,0,65,0,1
117108,-100,4,1,0,66,0,1
117926,-100,4,1,0,70,0,1
117929,-100,4,1,0,70,0,1
126649,-100,4,1,0,65,0,1
126656,-100,4,1,0,65,0,0
144108,-100,4,1,0,65,0,0
144111,-100,4,1,0,65,0,1
148471,-100,4,1,0,65,0,1
148608,-100,4,1,0,65,0,1
148676,-100,4,1,0,64,0,1
148744,-100,4,1,0,64,0,1
148812,-100,4,1,0,63,0,1
148881,-100,4,1,0,63,0,1
148949,-100,4,1,0,63,0,1
149017,-100,4,1,0,62,0,1
149085,-100,4,1,0,62,0,1
149153,-100,4,1,0,61,0,1
149221,-100,4,1,0,61,0,1
149290,-100,4,1,0,61,0,1
149358,-100,4,1,0,60,0,1
149426,-100,4,1,0,60,0,1
149562,-100,4,1,0,59,0,1
149631,-100,4,1,0,59,0,1
149699,-100,4,1,0,59,0,1
149767,-100,4,1,0,58,0,1
149835,-100,4,1,0,58,0,1
149903,-100,4,1,0,57,0,1
149971,-100,4,1,0,57,0,1
150040,-100,4,1,0,57,0,1
150108,-100,4,1,0,56,0,1
150176,-100,4,1,0,56,0,1
150244,-100,4,1,0,55,0,1
150312,-100,4,1,0,55,0,1
150381,-100,4,1,0,55,0,1
150449,-100,4,1,0,54,0,1
150517,-100,4,1,0,54,0,1
150562,-100,4,1,0,53,0,1
150608,-100,4,1,0,53,0,1
150653,-100,4,1,0,53,0,1
150790,-100,4,1,0,52,0,1
150858,-100,4,1,0,52,0,1
150926,-100,4,1,0,52,0,1
150994,-100,4,1,0,51,0,1
151062,-100,4,1,0,51,0,1
151131,-100,4,1,0,50,0,1
151199,-100,4,1,0,50,0,1
151267,-100,4,1,0,50,0,1
151335,-100,4,1,0,49,0,1
151403,-100,4,1,0,49,0,1
151471,-100,4,1,0,48,0,1
151540,-100,4,1,0,48,0,1
151608,-100,4,1,0,48,0,1
151744,-100,4,1,0,47,0,1
151812,-100,4,1,0,47,0,1
151881,-100,4,1,0,46,0,1
151949,-100,4,1,0,46,0,1
152017,-100,4,1,0,46,0,1
152085,-100,4,1,0,45,0,1
152153,-100,4,1,0,45,0,1
152221,-100,4,1,0,44,0,1
152290,-100,4,1,0,44,0,1
152358,-100,4,1,0,44,0,1
152426,-100,4,1,0,43,0,1
152494,-100,4,1,0,43,0,1
152562,-100,4,1,0,42,0,1
152631,-100,4,1,0,42,0,1
152699,-100,4,1,0,42,0,1
152744,-100,4,1,0,41,0,1
152790,-100,4,1,0,41,0,1
152835,-100,4,1,0,40,0,1
152838,-100,4,1,0,40,0,0

[HitObjects]
253,206,3383,5,0,0:0:0:0:
253,206,3929,1,0,0:0:0:0:
253,206,4474,1,0,0:0:0:0:
228,242,5292,1,8,0:0:0:0:
229,225,5565,1,0,0:0:0:0:
253,206,6383,1,8,0:0:0:0:
253,206,6656,1,0,0:0:0:0:
225,222,6929,1,8,0:0:0:0:
247,220,7474,1,8,0:0:0:0:
248,208,7747,1,0,0:0:0:0:
229,229,8565,1,8,0:0:0:0:
225,222,8838,1,0,0:0:0:0:
244,202,9111,1,8,0:0:0:0:
245,231,9656,1,8,0:0:0:0:
252,233,9929,1,0,0:0:0:0:
265,205,10474,1,8,0:0:0:0:
245,231,11020,1,0,0:0:0:0:
198,203,11292,1,0,0:0:0:0:
226,235,11838,1,8,0:0:0:0:
226,235,12111,1,0,0:0:0:0:
213,237,12656,1,0,0:0:0:0:
232,229,12929,1,8,0:0:0:0:
225,222,13201,1,0,0:0:0:0:
245,231,14020,1,8,0:0:0:0:
252,233,14292,1,0,0:0:0:0:
245,231,15111,1,8,0:0:0:0:
245,231,15383,1,0,0:0:0:0:
252,233,15656,1,8,0:0:0:0:
226,235,16201,1,8,0:0:0:0:
226,235,16474,1,0,0:0:0:0:
252,239,17020,1,0,0:0:0:0:
226,235,17292,1,8,0:0:0:0:
225,222,17565,1,0,0:0:0:0:
245,231,18383,1,8,0:0:0:0:
252,233,18656,1,0,0:0:0:0:
252,235,19201,1,0,0:0:0:0:
245,231,19474,1,8,0:0:0:0:
245,231,19747,1,0,0:0:0:0:
254,248,20292,1,8,0:0:0:0:
226,235,20838,1,0,0:0:0:0:
226,235,21111,1,0,0:0:0:0:
226,235,21383,1,8,0:0:0:0:
226,235,21929,1,4,0:0:0:0:
210,230,22474,1,8,0:0:0:0:
210,230,23020,1,0,0:0:0:0:
220,238,23565,1,8,0:0:0:0:
231,225,23838,1,0,0:0:0:0:
224,233,24383,1,8,0:0:0:0:
224,233,25201,1,0,0:0:0:0:
224,233,25474,1,8,0:0:0:0:
224,233,25747,1,8,0:0:0:0:
224,233,26292,1,0,0:0:0:0:
233,242,26565,1,0,0:0:0:0:
233,242,26838,1,0,0:0:0:0:
233,241,27383,1,8,0:0:0:0:
245,247,27929,1,8,0:0:0:0:
245,244,28201,1,0,0:0:0:0:
256,192,28474,12,0,30111,0:0:0:0:
242,177,30656,5,4,0:0:0:0:
242,177,31474,1,8,0:0:0:0:
242,177,31747,1,0,0:0:0:0:
243,176,32020,1,8,0:0:0:0:
245,205,32565,1,0,0:0:0:0:
245,205,32838,1,0,0:0:0:0:
226,208,33111,1,8,0:0:0:0:
252,217,33656,1,8,0:0:0:0:
252,217,33929,1,0,0:0:0:0:
252,217,34747,1,4,0:0:0:0:
221,209,35020,1,12,0:0:0:0:
246,212,35838,1,8,0:0:0:0:
260,218,36111,1,0,0:0:0:0:
257,218,36383,1,8,0:0:0:0:
257,218,36929,1,0,0:0:0:0:
254,220,37201,1,0,0:0:0:0:
248,232,37474,1,8,0:0:0:0:
273,226,38020,1,8,0:0:0:0:
276,230,38292,1,0,0:0:0:0:
249,225,38838,1,8,0:0:0:0:
236,223,39111,1,8,0:0:0:0:
249,225,39383,1,4,0:0:0:0:
233,225,40201,1,8,0:0:0:0:
237,231,40474,1,0,0:0:0:0:
237,231,40747,1,8,0:0:0:0:
253,228,41565,1,0,0:0:0:0:
259,231,41838,1,8,0:0:0:0:
233,244,42383,1,8,0:0:0:0:
250,252,42656,1,8,0:0:0:0:
250,252,42929,1,8,0:0:0:0:
258,232,43474,1,8,0:0:0:0:
254,252,43747,1,0,0:0:0:0:
262,266,44565,1,8,0:0:0:0:
209,238,44838,1,0,0:0:0:0:
260,251,45111,1,8,0:0:0:0:
235,235,45656,1,8,0:0:0:0:
235,235,45929,1,0,0:0:0:0:
230,230,46474,1,8,0:0:0:0:
261,224,47020,1,0,0:0:0:0:
267,222,47292,1,8,0:0:0:0:
262,208,47838,1,0,0:0:0:0:
267,222,48111,1,12,0:0:0:0:
300,238,48929,1,8,0:0:0:0:
284,216,49201,1,0,0:0:0:0:
292,237,49474,1,8,0:0:0:0:
296,255,50020,1,8,0:0:0:0:
305,255,50292,1,0,0:0:0:0:
298,246,50838,1,8,0:0:0:0:
280,209,51383,1,0,0:0:0:0:
285,229,51656,1,8,0:0:0:0:
259,208,52201,1,8,0:0:0:0:
280,209,52474,1,0,0:0:0:0:
292,221,53292,1,8,0:0:0:0:
292,221,53565,1,0,0:0:0:0:
275,211,53838,1,8,0:0:0:0:
288,224,54383,1,8,0:0:0:0:
280,237,54656,1,0,0:0:0:0:
292,227,55201,1,8,0:0:0:0:
292,227,55474,1,0,0:0:0:0:
292,227,55747,5,8,0:0:0:0:
289,241,56292,1,0,0:0:0:0:
287,216,56565,1,8,0:0:0:0:
225,201,56838,5,4,0:0:0:0:
232,209,57383,1,8,0:0:0:0:
241,203,57929,1,0,0:0:0:0:
243,211,58201,1,0,0:0:0:0:
213,204,58747,1,8,0:0:0:0:
244,176,59020,1,0,0:0:0:0:
213,204,59565,1,8,0:0:0:0:
230,222,59838,1,0,0:0:0:0:
213,204,60111,1,8,0:0:0:0:
213,204,60929,1,8,0:0:0:0:
225,201,61201,5,0,0:0:0:0:
242,219,61747,1,8,0:0:0:0:
249,203,62292,1,0,0:0:0:0:
249,203,62565,1,0,0:0:0:0:
213,204,63111,1,0,0:0:0:0:
244,176,63383,1,8,0:0:0:0:
213,204,63929,1,0,0:0:0:0:
213,204,64201,1,0,0:0:0:0:
224,218,64474,1,8,0:0:0:0:
213,204,65292,1,8,0:0:0:0:
225,201,65565,5,4,0:0:0:0:
242,219,66111,1,0,0:0:0:0:
242,219,66383,1,8,0:0:0:0:
242,219,66656,1,0,0:0:0:0:
213,204,66929,1,0,0:0:0:0:
213,204,67474,1,8,0:0:0:0:
244,176,67747,1,0,0:0:0:0:
232,207,68292,1,8,0:0:0:0:
213,204,68565,1,0,0:0:0:0:
232,207,68838,1,8,0:0:0:0:
232,207,69656,1,8,0:0:0:0:
225,201,69929,5,0,0:0:0:0:
242,219,70474,1,8,0:0:0:0:
203,190,70747,1,0,0:0:0:0:
242,219,71020,1,0,0:0:0:0:
249,203,71292,1,8,0:0:0:0:
213,204,71838,1,0,0:0:0:0:
244,176,72111,1,8,0:0:0:0:
213,204,72656,1,0,0:0:0:0:
213,204,72929,1,8,0:0:0:0:
224,192,73201,1,0,0:0:0:0:
224,192,74020,1,8,0:0:0:0:
225,201,74292,5,4,0:0:0:0:
231,217,75111,1,8,0:0:0:0:
259,227,75383,1,4,0:0:0:0:
274,219,76201,1,8,0:0:0:0:
274,219,76474,1,4,0:0:0:0:
231,217,77292,1,8,0:0:0:0:
259,227,77565,1,0,0:0:0:0:
259,227,77838,1,8,0:0:0:0:
225,217,78383,1,8,0:0:0:0:
225,201,78656,5,4,0:0:0:0:
231,217,79474,1,8,0:0:0:0:
259,227,79747,1,4,0:0:0:0:
274,219,80565,1,8,0:0:0:0:
274,219,80838,1,4,0:0:0:0:
231,217,81656,1,8,0:0:0:0:
259,227,81929,1,0,0:0:0:0:
259,227,82201,1,8,0:0:0:0:
260,221,82747,1,8,0:0:0:0:
225,201,83020,5,4,0:0:0:0:
230,217,83565,1,0,0:0:0:0:
231,217,83838,1,8,0:0:0:0:
259,227,84111,1,4,0:0:0:0:
259,227,84656,1,0,0:0:0:0:
274,219,84929,1,8,0:0:0:0:
274,219,85201,1,4,0:0:0:0:
274,212,85747,1,0,0:0:0:0:
231,217,86020,1,8,0:0:0:0:
259,227,86292,1,0,0:0:0:0:
259,227,86565,1,8,0:0:0:0:
225,201,87383,5,4,0:0:0:0:
230,217,87929,1,8,0:0:0:0:
231,217,88201,1,8,0:0:0:0:
259,227,88474,1,4,0:0:0:0:
259,227,89020,1,8,0:0:0:0:
190,181,89292,1,8,0:0:0:0:
230,179,89565,5,0,0:0:0:0:
230,179,89838,1,0,0:0:0:0:
230,179,90383,1,8,0:0:0:0:
230,179,90656,1,0,0:0:0:0:
230,179,90929,1,8,0:0:0:0:
230,179,91474,1,8,0:0:0:0:
230,179,91747,1,4,0:0:0:0:
242,207,92565,1,0,0:0:0:0:
242,207,92838,1,0,0:0:0:0:
254,216,93656,1,0,0:0:0:0:
254,216,93929,1,0,0:0:0:0:
264,227,94747,1,0,0:0:0:0:
264,227,95020,1,0,0:0:0:0:
311,239,95838,1,0,0:0:0:0:
264,227,96111,1,4,0:0:0:0:
278,234,96929,1,0,0:0:0:0:
278,234,97201,1,0,0:0:0:0:
287,227,98020,1,0,0:0:0:0:
277,225,98292,1,0,0:0:0:0:
254,228,99111,1,0,0:0:0:0:
280,243,99383,1,0,0:0:0:0:
261,238,100201,1,0,0:0:0:0:
253,206,100474,1,4,0:0:0:0:
228,242,101292,1,0,0:0:0:0:
229,225,101565,1,0,0:0:0:0:
253,206,101838,1,8,0:0:0:0:
253,206,102383,1,8,0:0:0:0:
253,206,102656,1,0,0:0:0:0:
225,222,102929,1,8,0:0:0:0:
225,222,103474,1,0,0:0:0:0:
248,208,103747,1,0,0:0:0:0:
225,222,104020,1,8,0:0:0:0:
245,231,104565,1,8,0:0:0:0:
225,222,104838,1,4,0:0:0:0:
244,239,105656,1,0,0:0:0:0:
252,233,105929,1,0,0:0:0:0:
245,231,106201,1,8,0:0:0:0:
245,231,106747,1,8,0:0:0:0:
234,233,107020,1,0,0:0:0:0:
216,219,107292,1,8,0:0:0:0:
226,235,107838,1,8,0:0:0:0:
226,235,108111,1,8,0:0:0:0:
226,235,108656,1,0,0:0:0:0:
226,235,108929,1,8,0:0:0:0:
225,201,109201,5,4,0:0:0:0:
242,219,109747,1,8,0:0:0:0:
242,219,110020,1,8,0:0:0:0:
232,204,110292,1,0,0:0:0:0:
234,197,110565,1,8,0:0:0:0:
232,228,111111,1,8,0:0:0:0:
244,176,111383,1,0,0:0:0:0:
198,176,111929,1,8,0:0:0:0:
213,204,112201,1,0,0:0:0:0:
232,207,112474,1,8,0:0:0:0:
252,221,112747,1,8,0:0:0:0:
225,201,113565,5,0,0:0:0:0:
242,219,114111,1,8,0:0:0:0:
260,224,114383,5,0,0:0:0:0:
249,220,114656,1,8,0:0:0:0:
251,229,114929,1,0,0:0:0:0:
213,204,115474,1,0,0:0:0:0:
244,176,115747,1,8,0:0:0:0:
213,204,116292,1,8,0:0:0:0:
213,204,116565,1,0,0:0:0:0:
213,204,116838,1,8,0:0:0:0:
251,208,117111,1,8,0:0:0:0:
220,227,117929,1,4,0:0:0:0:
232,207,118474,1,4,0:0:0:0:
229,273,119020,1,4,0:0:0:0:
229,267,120111,1,4,0:0:0:0:
229,265,120656,1,4,0:0:0:0:
235,243,121201,1,12,0:0:0:0:
220,227,122292,1,4,0:0:0:0:
232,207,122838,1,12,0:0:0:0:
229,273,123383,1,12,0:0:0:0:
229,267,124474,1,12,0:0:0:0:
229,265,125020,1,12,0:0:0:0:
235,243,125565,1,12,0:0:0:0:
229,246,126656,1,4,0:0:0:0:
235,243,127201,1,8,0:0:0:0:
229,246,127474,1,0,0:0:0:0:
235,243,128020,1,8,0:0:0:0:
246,255,128292,1,0,0:0:0:0:
235,237,128565,1,8,0:0:0:0:
235,237,129111,1,0,0:0:0:0:
226,239,129383,1,8,0:0:0:0:
226,239,129656,1,0,0:0:0:0:
250,235,130474,1,0,0:0:0:0:
247,258,130747,1,8,0:0:0:0:
248,242,131020,1,4,0:0:0:0:
237,237,131565,1,8,0:0:0:0:
237,237,131838,1,8,0:0:0:0:
237,237,132383,1,8,0:0:0:0:
237,237,132656,1,8,0:0:0:0:
250,239,133201,1,0,0:0:0:0:
251,203,133747,1,0,0:0:0:0:
258,189,134020,1,8,0:0:0:0:
232,200,134292,1,0,0:0:0:0:
247,210,134565,1,8,0:0:0:0:
247,210,135111,1,8,0:0:0:0:
229,246,135383,1,4,0:0:0:0:
229,246,136201,1,0,0:0:0:0:
235,243,136474,1,0,0:0:0:0:
235,243,136747,1,8,0:0:0:0:
235,237,137292,1,8,0:0:0:0:
235,237,137565,1,0,0:0:0:0:
225,239,137838,1,8,0:0:0:0:
226,239,138383,1,8,0:0:0:0:
226,239,138656,1,0,0:0:0:0:
230,249,138929,1,0,0:0:0:0:
250,235,139201,1,8,0:0:0:0:
248,242,139747,1,4,0:0:0:0:
234,244,140292,1,8,0:0:0:0:
237,237,140565,1,8,0:0:0:0:
237,237,140838,1,8,0:0:0:0:
224,224,141383,1,0,0:0:0:0:
250,234,141656,1,8,0:0:0:0:
241,257,141929,1,0,0:0:0:0:
238,248,142474,1,8,0:0:0:0:
271,235,142747,1,0,0:0:0:0:
258,189,143020,1,0,0:0:0:0:
241,247,143292,1,8,0:0:0:0:
229,246,144111,1,4,0:0:0:0:
235,243,144656,1,8,0:0:0:0:
229,246,144929,1,0,0:0:0:0:
257,231,145201,1,0,0:0:0:0:
235,243,145474,1,8,0:0:0:0:
239,228,146020,1,8,0:0:0:0:
235,237,146292,1,0,0:0:0:0:
226,239,146837,1,8,0:0:0:0:
226,239,147111,1,8,0:0:0:0:
226,239,147383,1,0,0:0:0:0:
230,249,147656,1,8,0:0:0:0:
248,242,148474,1,4,0:0:0:0:
237,237,149020,1,8,0:0:0:0:
230,233,149292,1,0,0:0:0:0:
237,237,149565,1,8,0:0:0:0:
237,237,149838,1,8,0:0:0:0:
250,234,150383,1,8,0:0:0:0:
241,257,150656,1,0,0:0:0:0:
238,248,151201,1,8,0:0:0:0:
271,235,151474,1,0,0:0:0:0:
258,189,151747,1,0,0:0:0:0:
247,210,152020,1,8,0:0:0:0:
247,210,152565,1,8,0:0:0:0:
229,246,152838,1,4,0:0:0:0:
