osu file format v14

[General]
AudioFilename: audio.mp3
AudioLeadIn: 0
PreviewTime: 108588
Countdown: 0
SampleSet: Normal
StackLeniency: 0.7
Mode: 1
LetterboxInBreaks: 0
WidescreenStoryboard: 1

[Editor]
Bookmarks: 13181,39363,144090,152817
DistanceSpacing: 0.5
BeatDivisor: 2
GridSize: 32
TimelineZoom: 2.699999

[Metadata]
Title:Super Sonic Raving
TitleUnicode:Super Sonic Raving
Artist:Teletexter
ArtistUnicode:Teletexter
Creator:ZTH
Version:Futsuu
Source:Sonic R
Tags:liku ssr sega racing video game english breakcore Richard Jacques Digitizer the hedgehog electronic tj davis ost original soundtrack music sound team zak glynn
BeatmapID:3989575
BeatmapSetID:1321693

[Difficulty]
HPDrainRate:6.5
CircleSize:5
OverallDifficulty:4
ApproachRate:5
SliderMultiplier:1.4
SliderTickRate:1

[Events]
//Background and Video events
0,0,"YEA FAST.jpeg",0,68
//Break Periods
//Storyboard Layer 0 (Background)
//Storyboard Layer 1 (Fail)
//Storyboard Layer 2 (Pass)
//Storyboard Layer 3 (Foreground)
//Storyboard Layer 4 (Overlay)
//Storyboard Sound Samples

[TimingPoints]
111,272.727272727273,4,1,0,45,1,0
111,-107.52688172043,4,1,0,45,0,0
3380,-107.52688172043,4,1,0,45,0,0
3653,-107.52688172043,4,1,0,45,0,0
3926,-107.52688172043,4,1,0,45,0,0
4198,-107.52688172043,4,1,0,46,0,0
4471,-107.52688172043,4,1,0,46,0,0
4744,-107.52688172043,4,1,0,46,0,0
5289,-107.52688172043,4,1,0,47,0,0
5562,-107.52688172043,4,1,0,48,0,0
5835,-107.52688172043,4,1,0,48,0,0
6244,-107.52688172043,4,1,0,49,0,0
6380,-107.52688172043,4,1,0,49,0,0
6653,-107.52688172043,4,1,0,49,0,0
6926,-107.52688172043,4,1,0,50,0,0
7198,-107.52688172043,4,1,0,50,0,0
7335,-107.52688172043,4,1,0,51,0,0
7471,-107.52688172043,4,1,0,51,0,0
7744,-107.52688172043,4,1,0,51,0,0
8017,-107.52688172043,4,1,0,52,0,0
8289,-107.52688172043,4,1,0,52,0,0
8426,-107.52688172043,4,1,0,52,0,0
8562,-107.52688172043,4,1,0,53,0,0
8835,-107.52688172043,4,1,0,53,0,0
9108,-107.52688172043,4,1,0,53,0,0
9653,-107.52688172043,4,1,0,54,0,0
9926,-107.52688172043,4,1,0,55,0,0
10198,-107.52688172043,4,1,0,55,0,0
10608,-107.52688172043,4,1,0,56,0,0
10744,-107.52688172043,4,1,0,56,0,0
11017,-107.52688172043,4,1,0,56,0,0
11289,-107.52688172043,4,1,0,57,0,0
11562,-107.52688172043,4,1,0,57,0,0
11698,-107.52688172043,4,1,0,58,0,0
11835,-107.52688172043,4,1,0,58,0,0
12108,-107.52688172043,4,1,0,58,0,0
12380,-107.52688172043,4,1,0,59,0,0
12517,-107.52688172043,4,1,0,59,0,0
12653,-107.52688172043,4,1,0,59,0,0
12926,-107.52688172043,4,1,0,60,0,0
13198,-107.52688172043,4,1,0,60,0,0
20971,-106.527364155641,4,1,0,61,0,0
21108,-105.539110414611,4,1,0,62,0,0
21244,-104.576040488469,4,1,0,63,0,0
21380,-103.630388115276,4,1,0,64,0,0
21653,-101.782832193602,4,1,0,67,0,0
21926,-100,4,1,0,70,0,0
22440,-100,4,1,0,69,0,0
22986,-100,4,1,0,68,0,0
23531,-100,4,1,0,67,0,0
23804,-100,4,1,0,66,0,0
24349,-100,4,1,0,65,0,0
24926,-101.904069188155,4,1,0,63,0,0
25198,-102.879934011991,4,1,0,62,0,0
25471,-103.878362525582,4,1,0,60,0,0
25744,-104.896360037333,4,1,0,58,0,0
26289,-106.989491963366,4,1,0,57,0,0
26562,-108.069697161817,4,1,0,55,0,0
26835,-109.171937128066,4,1,0,53,0,0
27108,-110.296893030078,4,1,0,52,0,0
27380,-111.441024244075,4,1,0,50,0,0
27926,-113.810869758747,4,1,0,47,0,0
28198,-115.029467338492,4,1,0,45,0,0
28471,-116.279069767442,4,1,0,40,0,0
30630,-107.52688172043,4,1,0,65,0,0
30903,-107.52688172043,4,1,0,55,0,0
34721,-107.52688172043,4,1,0,60,0,0
34994,-107.52688172043,4,1,0,65,0,0
35267,-107.52688172043,4,1,0,55,0,0
37471,-106.523723741316,4,1,0,56,0,0
37608,-106.027328033587,4,1,0,56,0,0
37744,-105.539110414611,4,1,0,56,0,0
38017,-104.572532217637,4,1,0,57,0,0
38289,-103.626943005181,4,1,0,58,0,0
38426,-103.157118408487,4,1,0,58,0,0
38562,-102.694917966434,4,1,0,58,0,0
38835,-101.779508827577,4,1,0,59,0,0
39358,-100,4,1,0,60,0,0
56152,-100,4,1,0,61,0,0
56288,-100,4,1,0,62,0,0
56425,-100,4,1,0,63,0,0
56561,-100,4,1,0,64,0,0
56838,-100,4,1,0,65,0,1
73197,-100.882723833544,4,1,0,65,0,1
73471,-102.694917966434,4,1,0,65,0,1
73744,-104.576040488469,4,1,0,65,0,1
73880,-105.539110414611,4,1,0,65,0,1
74017,-106.527364155641,4,1,0,65,0,1
74267,-107.52688172043,4,1,0,65,0,1
74292,-107.52688172043,4,1,0,65,0,0
74539,-107.52688172043,4,1,0,60,0,0
75358,-107.52688172043,4,1,0,65,0,0
75630,-107.52688172043,4,1,0,60,0,0
76448,-107.52688172043,4,1,0,65,0,0
76720,-107.52688172043,4,1,0,60,0,0
78630,-107.52688172043,4,1,0,65,0,0
78902,-107.52688172043,4,1,0,60,0,0
79721,-107.52688172043,4,1,0,65,0,0
79993,-107.52688172043,4,1,0,60,0,0
80812,-107.52688172043,4,1,0,65,0,0
81084,-107.52688172043,4,1,0,60,0,0
82994,-107.52688172043,4,1,0,65,0,0
83266,-107.52688172043,4,1,0,60,0,0
84085,-107.52688172043,4,1,0,65,0,0
84357,-107.52688172043,4,1,0,60,0,0
85176,-107.52688172043,4,1,0,65,0,0
85448,-107.52688172043,4,1,0,60,0,0
87358,-107.52688172043,4,1,0,65,0,0
87630,-107.52688172043,4,1,0,60,0,0
88448,-107.52688172043,4,1,0,65,0,0
88720,-107.52688172043,4,1,0,60,0,0
89562,-100,4,1,0,70,0,0
89698,-100.880275178459,4,1,0,70,0,0
89835,-101.782832193602,4,1,0,70,0,0
89971,-102.694917966434,4,1,0,70,0,0
90244,-104.576040488469,4,1,0,70,0,0
90517,-106.527364155641,4,1,0,70,0,0
90653,-107.52688172043,4,1,0,70,0,0
90789,-108.545333346599,4,1,0,70,0,0
90926,-109.590967534555,4,1,0,70,0,0
91198,-111.727838767819,4,1,0,70,0,0
91471,-113.958030855364,4,1,0,70,0,0
91608,-115.11110173247,4,1,0,70,0,0
91744,-116.279069767442,4,1,0,70,0,0
91994,-116.279069767442,4,1,0,55,0,0
96085,-111.731843575419,4,1,0,65,0,0
96358,-111.731843575419,4,1,0,55,0,0
100448,-107.52688172043,4,1,0,65,0,0
100721,-107.52688172043,4,1,0,60,0,0
104812,-103.626943005181,4,1,0,65,0,0
105085,-103.626943005181,4,1,0,60,0,0
108653,-103.626943005181,4,1,0,62,0,0
108789,-103.626943005181,4,1,0,62,0,0
108926,-103.626943005181,4,1,0,63,0,0
109198,-100,4,1,0,65,0,0
109201,-100,4,1,0,65,0,1
117108,-100,4,1,0,66,0,1
117380,-98.0392156862745,4,1,0,67,0,1
117517,-97.0873786407767,4,1,0,68,0,1
117653,-96.1538461538461,4,1,0,68,0,1
117926,-93.4579439252336,4,1,0,70,0,1
117929,-93.4579439252336,4,1,0,70,0,1
126649,-100,4,1,0,65,0,1
126656,-100,4,1,0,65,0,0
144108,-95.2380952380952,4,1,0,65,0,0
144111,-95.2380952380952,4,1,0,65,0,1
148471,-95.2380952380952,4,1,0,65,0,1
148608,-95.2380952380952,4,1,0,65,0,1
148676,-95.2380952380952,4,1,0,64,0,1
148744,-95.2380952380952,4,1,0,64,0,1
148812,-95.2380952380952,4,1,0,63,0,1
148881,-95.2380952380952,4,1,0,63,0,1
148949,-95.2380952380952,4,1,0,63,0,1
149017,-95.2380952380952,4,1,0,62,0,1
149085,-95.2380952380952,4,1,0,62,0,1
149153,-95.2380952380952,4,1,0,61,0,1
149221,-95.2380952380952,4,1,0,61,0,1
149290,-95.2380952380952,4,1,0,61,0,1
149358,-95.2380952380952,4,1,0,60,0,1
149426,-95.2380952380952,4,1,0,60,0,1
149562,-95.2380952380952,4,1,0,59,0,1
149631,-95.2380952380952,4,1,0,59,0,1
149699,-95.2380952380952,4,1,0,59,0,1
149767,-95.2380952380952,4,1,0,58,0,1
149835,-95.2380952380952,4,1,0,58,0,1
149903,-95.2380952380952,4,1,0,57,0,1
149971,-95.2380952380952,4,1,0,57,0,1
150040,-95.2380952380952,4,1,0,57,0,1
150108,-95.2380952380952,4,1,0,56,0,1
150176,-95.2380952380952,4,1,0,56,0,1
150244,-95.2380952380952,4,1,0,55,0,1
150312,-95.2380952380952,4,1,0,55,0,1
150381,-95.2380952380952,4,1,0,55,0,1
150449,-95.2380952380952,4,1,0,54,0,1
150517,-95.2380952380952,4,1,0,54,0,1
150562,-95.2380952380952,4,1,0,53,0,1
150608,-95.2380952380952,4,1,0,53,0,1
150653,-95.2380952380952,4,1,0,53,0,1
150790,-95.2380952380952,4,1,0,52,0,1
150858,-95.2380952380952,4,1,0,52,0,1
150926,-95.2380952380952,4,1,0,52,0,1
150994,-95.2380952380952,4,1,0,51,0,1
151062,-95.2380952380952,4,1,0,51,0,1
151131,-95.2380952380952,4,1,0,50,0,1
151199,-95.2380952380952,4,1,0,50,0,1
151267,-95.2380952380952,4,1,0,50,0,1
151335,-95.2380952380952,4,1,0,49,0,1
151403,-95.2380952380952,4,1,0,49,0,1
151471,-95.2380952380952,4,1,0,48,0,1
151540,-95.2380952380952,4,1,0,48,0,1
151608,-95.2380952380952,4,1,0,48,0,1
151744,-95.2380952380952,4,1,0,47,0,1
151812,-95.2380952380952,4,1,0,47,0,1
151881,-95.2380952380952,4,1,0,46,0,1
151949,-95.2380952380952,4,1,0,46,0,1
152017,-95.2380952380952,4,1,0,46,0,1
152085,-95.2380952380952,4,1,0,45,0,1
152153,-95.2380952380952,4,1,0,45,0,1
152221,-95.2380952380952,4,1,0,44,0,1
152290,-95.2380952380952,4,1,0,44,0,1
152358,-95.2380952380952,4,1,0,44,0,1
152426,-95.2380952380952,4,1,0,43,0,1
152494,-95.2380952380952,4,1,0,43,0,1
152562,-95.2380952380952,4,1,0,42,0,1
152631,-95.2380952380952,4,1,0,42,0,1
152699,-95.2380952380952,4,1,0,42,0,1
152744,-95.2380952380952,4,1,0,41,0,1
152790,-95.2380952380952,4,1,0,41,0,1
152835,-95.2380952380952,4,1,0,40,0,1
152838,-95.2380952380952,4,1,0,40,0,0

[HitObjects]
253,206,3383,5,0,0:0:0:0:
253,206,3656,1,0,0:0:0:0:
253,206,3929,1,0,0:0:0:0:
253,206,4201,1,0,0:0:0:0:
253,206,4474,1,0,0:0:0:0:
222,245,4747,1,8,0:0:0:0:
228,242,5292,1,8,0:0:0:0:
229,225,5565,1,0,0:0:0:0:
253,206,5838,1,8,0:0:0:0:
253,206,6247,1,0,0:0:0:0:
253,206,6383,1,8,0:0:0:0:
253,206,6656,1,0,0:0:0:0:
225,222,6929,1,8,0:0:0:0:
225,222,7338,1,0,0:0:0:0:
225,222,7474,1,8,0:0:0:0:
248,208,7747,1,0,0:0:0:0:
225,222,8020,1,8,0:0:0:0:
245,231,8292,1,8,0:0:0:0:
245,231,8429,1,0,0:0:0:0:
226,219,8565,1,8,0:0:0:0:
225,222,8838,1,0,0:0:0:0:
244,202,9111,1,8,0:0:0:0:
245,231,9656,1,8,0:0:0:0:
252,233,9929,1,0,0:0:0:0:
252,233,10201,1,8,0:0:0:0:
245,231,10611,1,0,0:0:0:0:
245,231,10747,1,8,0:0:0:0:
245,231,11020,1,0,0:0:0:0:
216,219,11292,1,8,0:0:0:0:
241,227,11701,1,0,0:0:0:0:
226,235,11838,1,8,0:0:0:0:
226,235,12111,1,0,0:0:0:0:
226,235,12383,1,8,0:0:0:0:
226,235,12520,1,0,0:0:0:0:
226,235,12656,1,8,0:0:0:0:
232,229,12929,1,8,0:0:0:0:
225,222,13201,1,0,0:0:0:0:
252,233,13474,1,8,0:0:0:0:
245,231,14020,1,8,0:0:0:0:
252,233,14292,1,0,0:0:0:0:
252,233,14565,1,8,0:0:0:0:
216,219,14701,1,8,0:0:0:0:
245,231,14838,1,0,0:0:0:0:
245,231,15111,1,8,0:0:0:0:
245,231,15383,1,0,0:0:0:0:
252,233,15656,1,8,0:0:0:0:
226,235,16065,1,0,0:0:0:0:
226,235,16201,1,8,0:0:0:0:
226,235,16474,1,0,0:0:0:0:
226,235,16747,1,8,0:0:0:0:
205,240,16883,1,0,0:0:0:0:
226,235,17020,1,8,0:0:0:0:
226,235,17292,1,8,0:0:0:0:
225,222,17565,1,0,0:0:0:0:
252,233,17838,1,8,0:0:0:0:
245,231,18383,1,8,0:0:0:0:
252,233,18656,1,0,0:0:0:0:
252,233,18929,1,8,0:0:0:0:
245,231,19201,1,0,0:0:0:0:
245,231,19338,1,0,0:0:0:0:
245,231,19474,1,8,0:0:0:0:
245,231,19747,1,0,0:0:0:0:
216,219,20020,1,8,0:0:0:0:
212,239,20429,1,0,0:0:0:0:
286,235,20565,1,8,0:0:0:0:
226,235,20838,1,0,0:0:0:0:
239,232,20974,1,0,0:0:0:0:
226,235,21111,1,8,0:0:0:0:
226,235,21247,1,8,0:0:0:0:
226,235,21383,1,0,0:0:0:0:
226,235,21656,1,8,0:0:0:0:
226,235,21929,1,4,0:0:0:0:
210,230,22474,1,8,0:0:0:0:
210,230,23020,1,0,0:0:0:0:
220,238,23565,1,8,0:0:0:0:
231,225,23838,1,0,0:0:0:0:
224,233,24383,1,8,0:0:0:0:
224,233,24929,1,8,0:0:0:0:
224,233,25201,1,0,0:0:0:0:
224,233,25474,1,8,0:0:0:0:
224,233,25747,1,8,0:0:0:0:
224,233,26292,1,0,0:0:0:0:
233,242,26565,1,0,0:0:0:0:
233,242,26838,1,0,0:0:0:0:
233,241,27111,1,0,0:0:0:0:
233,241,27383,1,8,0:0:0:0:
245,247,27929,1,8,0:0:0:0:
245,244,28201,1,0,0:0:0:0:
256,192,28474,12,0,30111,0:0:0:0:
242,177,30656,5,4,0:0:0:0:
239,197,31201,1,0,0:0:0:0:
242,177,31474,1,8,0:0:0:0:
242,177,31747,1,0,0:0:0:0:
243,176,32020,1,8,0:0:0:0:
245,205,32156,1,0,0:0:0:0:
245,205,32292,1,8,0:0:0:0:
245,205,32565,1,8,0:0:0:0:
245,205,32838,1,0,0:0:0:0:
226,208,33111,1,8,0:0:0:0:
252,217,33247,1,8,0:0:0:0:
252,217,33383,1,0,0:0:0:0:
252,217,33656,1,8,0:0:0:0:
252,217,33929,1,0,0:0:0:0:
252,217,34201,1,8,0:0:0:0:
252,217,34338,1,0,0:0:0:0:
257,207,34474,1,8,0:0:0:0:
252,217,34747,1,4,0:0:0:0:
221,209,35020,1,12,0:0:0:0:
248,214,35565,1,8,0:0:0:0:
246,212,35838,1,8,0:0:0:0:
246,220,35974,1,8,0:0:0:0:
260,218,36111,1,0,0:0:0:0:
257,218,36383,1,8,0:0:0:0:
257,218,36656,1,0,0:0:0:0:
257,218,36792,1,0,0:0:0:0:
257,218,36929,1,8,0:0:0:0:
254,220,37201,1,0,0:0:0:0:
248,232,37474,1,8,0:0:0:0:
289,228,37611,1,0,0:0:0:0:
273,226,37747,1,8,0:0:0:0:
273,226,38020,1,8,0:0:0:0:
276,230,38292,1,0,0:0:0:0:
276,230,38429,1,0,0:0:0:0:
249,225,38565,1,8,0:0:0:0:
249,225,38838,1,8,0:0:0:0:
249,225,39383,1,4,0:0:0:0:
233,225,39656,1,8,0:0:0:0:
233,225,40065,1,0,0:0:0:0:
233,225,40201,1,8,0:0:0:0:
237,231,40474,1,0,0:0:0:0:
237,231,40747,1,8,0:0:0:0:
253,228,40883,1,0,0:0:0:0:
253,228,41156,1,0,0:0:0:0:
253,228,41292,1,8,0:0:0:0:
253,228,41565,1,0,0:0:0:0:
259,231,41838,1,8,0:0:0:0:
262,245,42247,1,0,0:0:0:0:
233,244,42383,1,8,0:0:0:0:
250,252,42656,1,0,0:0:0:0:
250,252,42929,1,8,0:0:0:0:
250,252,43065,1,0,0:0:0:0:
262,245,43201,1,8,0:0:0:0:
254,252,43747,1,0,0:0:0:0:
252,256,44020,1,8,0:0:0:0:
250,252,44156,1,0,0:0:0:0:
262,266,44565,1,8,0:0:0:0:
209,238,44838,1,0,0:0:0:0:
237,234,45111,1,0,0:0:0:0:
237,233,45247,1,0,0:0:0:0:
235,235,45383,1,8,0:0:0:0:
240,235,45656,1,8,0:0:0:0:
235,235,45929,1,0,0:0:0:0:
230,230,46201,1,8,0:0:0:0:
250,238,46338,1,8,0:0:0:0:
259,244,46611,1,0,0:0:0:0:
261,224,46747,1,8,0:0:0:0:
261,224,47020,1,0,0:0:0:0:
267,222,47292,1,8,0:0:0:0:
267,222,47429,1,0,0:0:0:0:
267,222,47565,1,8,0:0:0:0:
267,222,48111,1,12,0:0:0:0:
267,222,48383,1,0,0:0:0:0:
273,238,48520,1,0,0:0:0:0:
274,236,48792,1,8,0:0:0:0:
300,238,48929,1,8,0:0:0:0:
284,216,49201,1,0,0:0:0:0:
292,237,49474,1,8,0:0:0:0:
292,237,49611,1,0,0:0:0:0:
296,255,49747,1,8,0:0:0:0:
273,239,50156,1,8,0:0:0:0:
305,255,50292,1,0,0:0:0:0:
297,250,50565,1,8,0:0:0:0:
298,246,50838,1,8,0:0:0:0:
291,229,50974,1,8,0:0:0:0:
291,229,51111,1,0,0:0:0:0:
285,229,51383,5,0,0:0:0:0:
285,229,51656,1,8,0:0:0:0:
285,229,51792,1,0,0:0:0:0:
280,209,51929,1,8,0:0:0:0:
280,209,52474,1,0,0:0:0:0:
287,208,52747,1,8,0:0:0:0:
292,222,53156,1,0,0:0:0:0:
292,221,53292,1,8,0:0:0:0:
292,221,53565,1,0,0:0:0:0:
275,211,53838,1,8,0:0:0:0:
292,222,53974,1,0,0:0:0:0:
286,239,54247,1,8,0:0:0:0:
288,224,54383,1,8,0:0:0:0:
280,237,54656,1,0,0:0:0:0:
285,219,54929,1,0,0:0:0:0:
281,225,55065,1,0,0:0:0:0:
292,227,55201,1,8,0:0:0:0:
292,227,55474,1,0,0:0:0:0:
292,227,55747,5,8,0:0:0:0:
289,241,56292,1,0,0:0:0:0:
290,240,56429,1,0,0:0:0:0:
287,216,56565,1,8,0:0:0:0:
225,201,56838,5,4,0:0:0:0:
242,219,57111,1,8,0:0:0:0:
242,219,57383,1,0,0:0:0:0:
232,209,57656,1,8,0:0:0:0:
242,219,57792,1,0,0:0:0:0:
241,203,58065,1,8,0:0:0:0:
213,204,58474,1,0,0:0:0:0:
236,198,58611,1,0,0:0:0:0:
213,204,58747,1,8,0:0:0:0:
244,176,59020,1,0,0:0:0:0:
232,207,59292,1,8,0:0:0:0:
213,204,59565,1,0,0:0:0:0:
213,204,59838,1,0,0:0:0:0:
213,204,59974,1,8,0:0:0:0:
232,207,60247,1,8,0:0:0:0:
213,204,60383,1,0,0:0:0:0:
213,204,60656,1,8,0:0:0:0:
213,204,60929,1,8,0:0:0:0:
232,207,61065,1,8,0:0:0:0:
225,201,61201,5,0,0:0:0:0:
242,219,61474,1,8,0:0:0:0:
242,219,61747,1,0,0:0:0:0:
242,219,62020,1,8,0:0:0:0:
249,203,62156,1,0,0:0:0:0:
249,203,62429,1,8,0:0:0:0:
213,204,62974,1,8,0:0:0:0:
213,204,63111,1,0,0:0:0:0:
244,176,63383,1,8,0:0:0:0:
232,207,63656,1,8,0:0:0:0:
213,204,63792,1,0,0:0:0:0:
213,204,63929,1,0,0:0:0:0:
213,204,64065,1,8,0:0:0:0:
213,204,64338,1,8,0:0:0:0:
224,218,64611,1,0,0:0:0:0:
213,204,64747,1,8,0:0:0:0:
213,204,65020,1,8,0:0:0:0:
213,204,65156,1,8,0:0:0:0:
213,204,65292,1,8,0:0:0:0:
225,201,65565,5,4,0:0:0:0:
242,219,65838,1,8,0:0:0:0:
242,219,66111,1,0,0:0:0:0:
242,219,66383,1,8,0:0:0:0:
242,219,66520,1,0,0:0:0:0:
249,203,66792,1,8,0:0:0:0:
213,204,67201,1,0,0:0:0:0:
213,204,67338,1,0,0:0:0:0:
213,204,67474,1,8,0:0:0:0:
244,176,67747,1,0,0:0:0:0:
232,207,68020,1,8,0:0:0:0:
213,204,68292,1,0,0:0:0:0:
213,204,68565,1,0,0:0:0:0:
213,204,68701,1,8,0:0:0:0:
213,204,69383,1,8,0:0:0:0:
213,204,69656,1,8,0:0:0:0:
232,207,69792,1,8,0:0:0:0:
225,201,69929,5,0,0:0:0:0:
242,219,70201,1,8,0:0:0:0:
242,219,70474,1,0,0:0:0:0:
242,219,70747,1,8,0:0:0:0:
242,219,70883,1,0,0:0:0:0:
249,203,71156,1,8,0:0:0:0:
213,204,71701,1,8,0:0:0:0:
213,204,71838,1,0,0:0:0:0:
244,176,72111,1,8,0:0:0:0:
232,207,72383,1,8,0:0:0:0:
213,204,72520,1,0,0:0:0:0:
213,204,72656,1,0,0:0:0:0:
213,204,72792,1,8,0:0:0:0:
224,192,73065,1,8,0:0:0:0:
224,192,73201,1,0,0:0:0:0:
213,204,73474,1,8,0:0:0:0:
224,192,73747,1,8,0:0:0:0:
224,192,73883,1,0,0:0:0:0:
224,192,74020,1,8,0:0:0:0:
225,201,74292,5,4,0:0:0:0:
230,217,74838,1,0,0:0:0:0:
231,217,74974,1,0,0:0:0:0:
231,217,75111,1,8,0:0:0:0:
259,227,75383,1,4,0:0:0:0:
259,227,75929,1,0,0:0:0:0:
259,227,76065,1,0,0:0:0:0:
274,219,76201,1,8,0:0:0:0:
274,219,76474,1,4,0:0:0:0:
230,217,77020,1,0,0:0:0:0:
304,224,77156,1,0,0:0:0:0:
231,217,77292,1,8,0:0:0:0:
259,227,77565,1,0,0:0:0:0:
259,227,77838,1,8,0:0:0:0:
259,227,77974,1,8,0:0:0:0:
259,227,78111,1,0,0:0:0:0:
225,201,78656,5,4,0:0:0:0:
230,217,79201,1,8,0:0:0:0:
239,228,79338,1,8,0:0:0:0:
231,217,79474,1,8,0:0:0:0:
259,227,79747,1,4,0:0:0:0:
259,227,80292,1,8,0:0:0:0:
259,227,80429,1,8,0:0:0:0:
274,219,80565,1,8,0:0:0:0:
274,219,80838,1,4,0:0:0:0:
230,217,81383,1,8,0:0:0:0:
231,217,81520,1,8,0:0:0:0:
231,217,81656,1,8,0:0:0:0:
259,227,81929,1,0,0:0:0:0:
259,227,82201,1,8,0:0:0:0:
259,227,82338,1,0,0:0:0:0:
260,221,82474,1,8,0:0:0:0:
225,201,83020,5,4,0:0:0:0:
230,218,83292,1,8,0:0:0:0:
230,217,83565,1,0,0:0:0:0:
231,217,83701,1,0,0:0:0:0:
231,217,83838,1,8,0:0:0:0:
259,227,84111,1,4,0:0:0:0:
259,227,84383,1,8,0:0:0:0:
259,227,84656,1,0,0:0:0:0:
259,227,84792,1,0,0:0:0:0:
274,219,84929,1,8,0:0:0:0:
274,219,85201,1,4,0:0:0:0:
230,218,85474,1,8,0:0:0:0:
230,217,85747,1,0,0:0:0:0:
257,218,85883,1,0,0:0:0:0:
231,217,86020,1,8,0:0:0:0:
259,227,86292,1,0,0:0:0:0:
259,227,86565,1,8,0:0:0:0:
259,227,86701,1,8,0:0:0:0:
259,227,86838,1,0,0:0:0:0:
225,201,87383,5,4,0:0:0:0:
230,218,87656,1,8,0:0:0:0:
230,217,87929,1,8,0:0:0:0:
238,209,88065,1,8,0:0:0:0:
231,217,88201,1,8,0:0:0:0:
259,227,88474,1,4,0:0:0:0:
259,227,88747,1,8,0:0:0:0:
259,227,89020,1,8,0:0:0:0:
182,200,89156,1,8,0:0:0:0:
274,219,89292,1,8,0:0:0:0:
230,179,89565,5,8,0:0:0:0:
230,179,89701,1,0,0:0:0:0:
230,179,89838,1,8,0:0:0:0:
230,179,89974,1,0,0:0:0:0:
230,179,90247,1,8,0:0:0:0:
230,179,90520,1,8,0:0:0:0:
230,179,90656,1,0,0:0:0:0:
230,179,90792,1,8,0:0:0:0:
230,179,90929,1,8,0:0:0:0:
230,179,91201,1,8,0:0:0:0:
230,179,91474,1,0,0:0:0:0:
230,179,91611,1,8,0:0:0:0:
230,179,91747,1,4,0:0:0:0:
228,194,92156,1,0,0:0:0:0:
242,207,92565,1,0,0:0:0:0:
242,207,92838,1,0,0:0:0:0:
254,216,93656,1,0,0:0:0:0:
254,216,93929,1,0,0:0:0:0:
258,225,94338,1,0,0:0:0:0:
264,227,94747,1,0,0:0:0:0:
264,227,95020,1,0,0:0:0:0:
311,239,95838,1,0,0:0:0:0:
264,227,96111,1,4,0:0:0:0:
243,213,96520,1,0,0:0:0:0:
278,234,96929,1,0,0:0:0:0:
278,234,97201,1,0,0:0:0:0:
287,227,98020,1,0,0:0:0:0:
277,225,98292,1,0,0:0:0:0:
277,225,98701,1,0,0:0:0:0:
254,228,99111,1,0,0:0:0:0:
280,243,99383,1,0,0:0:0:0:
261,238,100201,1,0,0:0:0:0:
253,206,100474,1,4,0:0:0:0:
223,224,100747,1,8,0:0:0:0:
250,222,100883,1,0,0:0:0:0:
184,232,101156,1,8,0:0:0:0:
228,242,101292,1,0,0:0:0:0:
229,225,101565,1,0,0:0:0:0:
253,206,101838,1,8,0:0:0:0:
259,217,102247,1,0,0:0:0:0:
253,206,102383,1,8,0:0:0:0:
253,206,102656,1,0,0:0:0:0:
225,222,102929,1,8,0:0:0:0:
250,222,103065,1,0,0:0:0:0:
225,222,103338,1,8,0:0:0:0:
225,222,103474,1,0,0:0:0:0:
248,208,103747,1,0,0:0:0:0:
225,222,104020,1,8,0:0:0:0:
245,231,104565,1,8,0:0:0:0:
225,222,104838,1,4,0:0:0:0:
252,233,105111,1,8,0:0:0:0:
252,233,105247,1,0,0:0:0:0:
245,231,105520,1,8,0:0:0:0:
244,239,105656,1,0,0:0:0:0:
252,233,105929,1,0,0:0:0:0:
245,231,106201,1,8,0:0:0:0:
265,236,106611,1,0,0:0:0:0:
245,231,106747,1,8,0:0:0:0:
234,233,107020,1,0,0:0:0:0:
216,219,107292,1,8,0:0:0:0:
226,235,107429,1,0,0:0:0:0:
232,226,107701,1,0,0:0:0:0:
226,235,107838,1,8,0:0:0:0:
226,235,108111,1,8,0:0:0:0:
226,235,108656,1,0,0:0:0:0:
242,221,108793,1,0,0:0:0:0:
226,235,108929,1,8,0:0:0:0:
225,201,109201,5,4,0:0:0:0:
242,219,109474,1,8,0:0:0:0:
242,219,109747,1,8,0:0:0:0:
242,219,110020,1,0,0:0:0:0:
260,222,110156,1,8,0:0:0:0:
232,204,110292,1,0,0:0:0:0:
234,197,110429,1,8,0:0:0:0:
213,204,110838,1,0,0:0:0:0:
213,204,110974,1,0,0:0:0:0:
213,204,111111,1,8,0:0:0:0:
244,176,111383,1,0,0:0:0:0:
232,207,111656,1,8,0:0:0:0:
213,204,111792,1,0,0:0:0:0:
213,204,111929,1,8,0:0:0:0:
213,204,112201,1,0,0:0:0:0:
213,204,112338,1,8,0:0:0:0:
228,197,112611,1,0,0:0:0:0:
213,204,112747,1,8,0:0:0:0:
213,204,112883,1,0,0:0:0:0:
213,204,113020,1,8,0:0:0:0:
225,201,113565,5,0,0:0:0:0:
242,219,113838,1,8,0:0:0:0:
242,219,114111,1,8,0:0:0:0:
247,221,114247,1,8,0:0:0:0:
260,224,114383,5,0,0:0:0:0:
249,220,114520,1,8,0:0:0:0:
251,229,114792,1,0,0:0:0:0:
213,204,115201,1,0,0:0:0:0:
213,204,115338,1,8,0:0:0:0:
213,204,115474,1,0,0:0:0:0:
244,176,115747,1,8,0:0:0:0:
232,207,116020,1,8,0:0:0:0:
213,204,116156,1,0,0:0:0:0:
213,204,116292,1,8,0:0:0:0:
213,204,116565,1,0,0:0:0:0:
213,204,116701,1,8,0:0:0:0:
251,208,117111,1,0,0:0:0:0:
213,204,117383,1,8,0:0:0:0:
213,204,117520,1,8,0:0:0:0:
233,230,117656,1,8,0:0:0:0:
220,227,117929,1,4,0:0:0:0:
232,207,118474,1,4,0:0:0:0:
229,273,119020,1,4,0:0:0:0:
229,270,119565,1,12,0:0:0:0:
229,267,120111,1,4,0:0:0:0:
229,265,120656,1,12,0:0:0:0:
235,243,121201,1,12,0:0:0:0:
235,243,121747,1,12,0:0:0:0:
220,227,122292,1,4,0:0:0:0:
232,207,122838,1,4,0:0:0:0:
229,273,123383,1,4,0:0:0:0:
229,270,123929,1,12,0:0:0:0:
229,267,124474,1,4,0:0:0:0:
229,265,125020,1,12,0:0:0:0:
235,243,125565,1,12,0:0:0:0:
235,243,126111,1,12,0:0:0:0:
229,246,126656,1,4,0:0:0:0:
235,243,126929,1,8,0:0:0:0:
235,243,127338,1,8,0:0:0:0:
229,246,127474,1,0,0:0:0:0:
235,243,127747,1,0,0:0:0:0:
235,243,128020,1,8,0:0:0:0:
235,237,128429,1,8,0:0:0:0:
235,237,128565,1,0,0:0:0:0:
235,237,128701,1,8,0:0:0:0:
235,237,128838,1,0,0:0:0:0:
225,239,129111,1,8,0:0:0:0:
226,239,129520,1,8,0:0:0:0:
226,239,129656,1,0,0:0:0:0:
226,239,129929,1,0,0:0:0:0:
233,238,130201,1,8,0:0:0:0:
261,241,130338,1,0,0:0:0:0:
250,235,130474,1,8,0:0:0:0:
248,242,131020,1,4,0:0:0:0:
231,238,131292,1,8,0:0:0:0:
237,237,131565,1,8,0:0:0:0:
237,237,131701,1,8,0:0:0:0:
237,237,131838,1,0,0:0:0:0:
237,237,132111,1,0,0:0:0:0:
237,237,132383,1,8,0:0:0:0:
237,237,132520,1,0,0:0:0:0:
230,221,132792,1,0,0:0:0:0:
250,234,132929,1,8,0:0:0:0:
250,239,133201,1,0,0:0:0:0:
230,248,133474,1,8,0:0:0:0:
251,203,133747,1,0,0:0:0:0:
271,235,133883,1,8,0:0:0:0:
258,189,134020,1,0,0:0:0:0:
232,200,134292,1,0,0:0:0:0:
247,210,134565,1,8,0:0:0:0:
247,210,134701,1,8,0:0:0:0:
247,210,134838,1,0,0:0:0:0:
229,246,135383,1,4,0:0:0:0:
235,243,135656,1,8,0:0:0:0:
235,243,136065,1,8,0:0:0:0:
229,246,136201,1,0,0:0:0:0:
235,243,136474,1,0,0:0:0:0:
235,243,136747,1,8,0:0:0:0:
235,237,137156,1,8,0:0:0:0:
235,237,137292,1,0,0:0:0:0:
235,237,137429,1,8,0:0:0:0:
235,237,137565,1,0,0:0:0:0:
225,239,137838,1,8,0:0:0:0:
226,239,138247,1,8,0:0:0:0:
226,239,138383,1,0,0:0:0:0:
226,239,138656,1,0,0:0:0:0:
230,249,138929,1,8,0:0:0:0:
261,241,139065,1,0,0:0:0:0:
250,235,139201,1,8,0:0:0:0:
248,242,139747,1,4,0:0:0:0:
231,238,140020,1,8,0:0:0:0:
237,237,140292,1,8,0:0:0:0:
237,237,140429,1,8,0:0:0:0:
237,237,140565,1,8,0:0:0:0:
237,237,140838,1,8,0:0:0:0:
237,237,141111,1,8,0:0:0:0:
224,224,141247,1,0,0:0:0:0:
250,234,141520,1,8,0:0:0:0:
250,234,141656,1,0,0:0:0:0:
250,239,141792,1,8,0:0:0:0:
241,257,141929,1,0,0:0:0:0:
230,248,142201,1,8,0:0:0:0:
238,248,142474,1,8,0:0:0:0:
271,235,142747,1,0,0:0:0:0:
256,245,142883,1,8,0:0:0:0:
258,189,143156,1,8,0:0:0:0:
247,210,143292,1,8,0:0:0:0:
247,210,143429,1,0,0:0:0:0:
247,210,143565,1,8,0:0:0:0:
229,246,144111,1,4,0:0:0:0:
235,243,144383,1,8,0:0:0:0:
223,260,144520,1,0,0:0:0:0:
235,243,144656,1,8,0:0:0:0:
229,246,144929,1,0,0:0:0:0:
235,243,145065,1,8,0:0:0:0:
257,231,145201,1,0,0:0:0:0:
235,243,145474,1,8,0:0:0:0:
235,237,145611,1,0,0:0:0:0:
235,237,145747,1,0,0:0:0:0:
235,237,145883,1,0,0:0:0:0:
239,228,146020,1,8,0:0:0:0:
235,237,146292,1,0,0:0:0:0:
225,239,146565,1,8,0:0:0:0:
234,231,146701,1,0,0:0:0:0:
226,239,146837,1,8,0:0:0:0:
226,239,147111,1,8,0:0:0:0:
230,224,147247,1,8,0:0:0:0:
226,239,147383,1,0,0:0:0:0:
230,249,147656,1,8,0:0:0:0:
261,241,147792,1,8,0:0:0:0:
250,235,147929,1,8,0:0:0:0:
248,242,148474,1,4,0:0:0:0:
231,238,148747,1,8,0:0:0:0:
239,231,148883,1,0,0:0:0:0:
237,237,149020,1,8,0:0:0:0:
237,237,149292,1,0,0:0:0:0:
230,233,149429,1,8,0:0:0:0:
237,237,149565,1,0,0:0:0:0:
237,237,149838,1,8,0:0:0:0:
237,237,149974,1,8,0:0:0:0:
237,237,150111,1,0,0:0:0:0:
250,234,150247,1,8,0:0:0:0:
250,234,150383,1,8,0:0:0:0:
241,257,150656,1,0,0:0:0:0:
230,248,150929,1,8,0:0:0:0:
230,248,151065,1,0,0:0:0:0:
238,248,151201,1,8,0:0:0:0:
271,235,151474,1,8,0:0:0:0:
256,245,151611,1,8,0:0:0:0:
258,189,151747,1,0,0:0:0:0:
247,210,152020,1,8,0:0:0:0:
247,210,152156,1,8,0:0:0:0:
247,210,152292,1,0,0:0:0:0:
247,210,152429,1,0,0:0:0:0:
247,210,152565,1,8,0:0:0:0:
229,246,152838,1,4,0:0:0:0:
