osu file format v14

[General]
AudioFilename: audio.mp3
AudioLeadIn: 0
PreviewTime: 66136
Countdown: 0
SampleSet: Soft
StackLeniency: 0.5
Mode: 0
LetterboxInBreaks: 0
WidescreenStoryboard: 1

[Editor]
Bookmarks: 108291
DistanceSpacing: 1.3
BeatDivisor: 4
GridSize: 8
TimelineZoom: 2.1

[Metadata]
Title:The Monk
TitleUnicode:The Monk
Artist:Telekinesis
ArtistUnicode:Telekinesis
Creator:ShiiTsuin
Version:Shadow Boxing
Source:
Tags:blackout drum and bass cut version neurofunk dnb judgement day electronic instrumental
BeatmapID:2083431
BeatmapSetID:996026

[Difficulty]
HPDrainRate:5
CircleSize:4
OverallDifficulty:8.5
ApproachRate:9.2
SliderMultiplier:1.8
SliderTickRate:1

[Events]
//Background and Video events
0,0,"JudgementDay.jpg",0,0
//Break Periods
2,61481,64239
//Storyboard Layer 0 (Background)
//Storyboard Layer 1 (Fail)
//Storyboard Layer 2 (Pass)
//Storyboard Layer 3 (Foreground)
//Storyboard Layer 4 (Overlay)
//Storyboard Sound Samples

[TimingPoints]
110,344.827586206897,4,2,2,46,1,0
110,-125,4,2,2,46,0,0
5627,-90.9090909090909,4,2,2,46,0,0
6144,-125,4,2,2,46,0,0
7006,-90.9090909090909,4,2,2,46,0,0
7523,-125,4,2,2,46,0,0
11144,-100,4,2,2,46,0,0
16661,-83.3333333333333,4,2,2,46,0,0
17178,-100,4,2,2,46,0,0
18041,-83.3333333333333,4,2,2,46,0,0
18558,-100,4,2,2,46,0,0
27696,-83.3333333333333,4,2,2,46,0,0
28213,-100,4,2,2,46,0,0
29075,-83.3333333333333,4,2,2,46,0,0
29420,-100,4,2,2,46,0,0
38730,-83.3333333333333,4,2,2,46,0,0
39420,-100,4,2,2,46,0,0
40110,-83.3333333333333,4,2,2,46,0,0
40454,-100,4,2,2,46,0,0
44247,-200,4,2,1,62,0,0
45627,-50,4,2,1,62,0,0
46316,-133.333333333333,4,2,1,62,0,0
47006,-66.6666666666667,4,2,1,62,0,0
47523,-50,4,2,1,62,0,0
47868,-100,4,2,1,62,0,0
48816,-66.6666666666667,4,2,1,62,0,0
48989,-80,4,2,1,62,0,0
49161,-100,4,2,1,62,0,0
49334,-133.333333333333,4,2,1,62,0,0
49765,-66.6666666666667,4,2,1,62,0,0
50023,-66.6666666666667,4,2,1,62,0,0
50110,-66.6666666666667,4,2,1,5,0,0
50196,-66.6666666666667,4,2,1,62,0,0
50282,-66.6666666666667,4,2,1,5,0,0
50368,-66.6666666666667,4,2,1,62,0,0
50454,-66.6666666666667,4,2,1,5,0,0
50541,-66.6666666666667,4,2,1,62,0,0
50627,-100,4,2,1,62,0,0
50799,-100,4,2,1,5,0,0
50885,-125,4,2,1,62,0,0
51058,-125,4,2,1,5,0,0
51144,-166.666666666667,4,2,1,62,0,0
51316,-166.666666666667,4,2,1,5,0,0
51489,-125,4,2,1,62,0,0
51834,-125,4,2,1,30,0,0
52006,-125,4,2,1,62,0,0
52351,-125,4,2,1,30,0,0
53213,-250,4,2,1,62,0,0
53903,-250,4,2,1,30,0,0
54075,-250,4,2,1,62,0,0
57953,-250,4,2,1,5,0,0
58041,-250,4,2,1,62,0,0
60713,-250,4,2,1,5,0,0
64937,-100,4,2,1,62,0,0
65282,-100,4,2,1,5,0,0
65368,-100,4,2,1,62,0,0
65713,-100,4,2,1,30,0,0
66316,-83.3333333333333,4,2,1,72,0,1
75972,-71.4285714285714,4,2,1,72,0,1
76661,-83.3333333333333,4,2,1,72,0,0
77351,-83.3333333333333,4,2,1,72,0,1
85627,-200,4,2,1,72,0,0
86575,-133.333333333333,4,2,1,72,0,0
86834,-133.333333333333,4,2,1,5,0,0
86920,-133.333333333333,4,2,1,72,0,0
87006,-133.333333333333,4,2,1,5,0,0
87092,-100,4,2,1,72,0,0
87265,-100,4,2,1,5,0,0
87351,-100,4,2,1,72,0,0
87523,-100,4,2,1,5,0,0
87610,-100,4,2,1,72,0,0
87782,-100,4,2,1,5,0,0
87868,-100,4,2,1,72,0,0
87954,-100,4,2,1,5,0,0
88041,-100,4,2,1,72,0,0
88385,-83.3333333333333,4,2,1,72,0,1
98730,-83.3333333333333,4,2,1,72,0,0
99420,-83.3333333333333,4,2,1,72,0,1
109765,-200,4,2,1,72,0,0
110454,-83.3333333333333,4,2,1,72,0,1
120799,-83.3333333333333,4,2,1,72,0,0
121834,-83.3333333333333,4,2,1,72,0,1
129765,-133.333333333333,4,2,1,72,0,0
130282,-133.333333333333,4,2,1,72,0,0
130454,-100,4,2,1,72,0,0
130627,-80,4,2,1,72,0,0
130799,-66.6666666666667,4,2,1,72,0,0
131316,-100,4,2,1,72,0,0
131661,-133.333333333333,4,2,1,72,0,0
136661,-100,4,2,1,5,0,0

[Colours]
Combo1 : 211,168,215
Combo2 : 147,87,117
Combo3 : 87,132,147
Combo4 : 60,81,132
Combo5 : 109,75,137
Combo6 : 181,117,223
Combo7 : 48,148,207
Combo8 : 168,198,215

[HitObjects]
148,269,110,6,0,P|165:193|156:114,1,144,6|0,3:2|0:0,0:0:0:0:
129,54,627,1,0,3:0:0:0:
253,187,799,2,0,P|246:109|210:39,1,144,2|2,0:0|0:0,0:0:0:0:
336,269,1489,22,0,L|343:110,1,144,2|0,3:2|0:0,0:0:0:0:
347,47,2006,1,0,0:0:0:0:
419,7,2178,1,2,0:0:0:0:
490,62,2351,1,2,0:0:0:0:
490,62,2437,1,2,0:0:0:0:
490,62,2523,2,0,L|486:133,1,72,2|0,3:2|0:0,0:0:0:0:
472,284,2868,102,0,P|401:257|318:278,1,144,4|0,3:0|0:0,0:0:0:0:
212,373,3385,2,0,P|253:346|272:323,1,72,4|2,3:0|0:0,0:0:0:0:
252,240,3730,1,2,2:2:0:0:
252,240,3816,1,2,2:0:0:0:
252,240,3903,2,0,P|207:217|179:212,1,72,2|0,3:2|0:0,0:0:0:0:
89,279,4247,22,0,L|76:349,2,72,2|0|0,3:2|0:0|0:0,0:0:0:0:
107,189,4765,1,0,3:0:0:0:
21,219,4937,1,2,0:0:0:0:
40,128,5110,1,2,3:2:0:0:
40,128,5196,1,2,3:2:0:0:
40,128,5282,2,0,L|52:57,1,72,2|0,3:2|0:0,0:0:0:0:
57,32,5541,1,0,3:0:0:0:
62,0,5627,54,0,P|144:38|264:11,1,198.000006042481,4|0,3:0|0:0,0:0:0:0:
155,119,6144,2,0,P|210:119|253:105,1,72,4|2,3:0|0:0,0:0:0:0:
323,105,6489,1,2,2:0:0:0:
323,105,6575,1,2,2:0:0:0:
323,105,6661,2,0,P|295:152|286:196,1,72,2|0,3:2|0:0,0:0:0:0:
491,202,7006,102,0,L|513:1,1,198.000006042481,0|0,3:0|0:0,0:0:0:0:
405,174,7523,2,0,L|409:79,1,72,0|2,3:0|0:0,0:0:0:0:
319,202,7868,1,2,0:0:0:0:
319,202,7954,1,2,0:0:0:0:
319,202,8041,2,0,L|322:294,1,72,2|0,3:2|0:0,0:0:0:0:
144,358,8385,22,0,P|204:341|297:363,1,144,4|0,3:0|0:0,0:0:0:0:
99,286,8903,2,0,P|146:265|188:257,1,72,4|2,3:0|0:0,0:0:0:0:
25,244,9247,1,2,2:0:0:0:
25,244,9334,1,2,2:0:0:0:
25,244,9420,2,0,P|57:212|100:190,1,72,2|0,3:2|0:0,0:0:0:0:
211,136,9765,6,0,L|55:112,1,144,0|0,3:0|0:0,0:0:0:0:
216,44,10282,2,0,L|310:33,1,72,0|2,3:0|0:0,0:0:0:0:
382,132,10627,1,2,2:0:0:0:
382,132,10713,1,2,2:0:0:0:
382,132,10799,2,0,L|288:121,1,72,2|0,3:2|0:0,0:0:0:0:
467,52,11144,102,0,P|498:126|459:220,1,180,4|0,3:0|0:0,0:0:0:0:
391,370,11661,2,0,P|394:311|412:274,1,90,4|2,3:0|0:0,0:0:0:0:
281,258,12006,1,2,2:0:0:0:
281,258,12092,1,2,2:0:0:0:
281,258,12178,2,0,P|296:300|296:344,1,90,2|0,3:2|0:0,0:0:0:0:
136,367,12523,6,0,L|123:164,1,180,0|0,3:0|0:0,0:0:0:0:
55,57,13041,2,0,L|46:152,1,90,0|2,3:0|0:0,0:0:0:0:
191,104,13385,1,2,0:0:0:0:
191,104,13472,1,2,0:0:0:0:
191,104,13558,2,0,L|182:14,1,90,2|0,3:2|0:0,0:0:0:0:
257,186,13903,6,0,P|293:142|421:110,1,180,4|0,3:0|0:0,0:0:0:0:
325,284,14420,2,0,P|343:231|386:198,1,90,4|2,3:0|0:2,0:0:0:0:
463,212,14765,1,2,0:0:0:0:
463,212,14851,1,2,0:0:0:0:
463,212,14937,2,0,P|499:254|506:307,1,90,2|0,3:2|0:0,0:0:0:0:
389,373,15282,6,0,L|184:366,1,180,2|0,3:2|0:0,0:0:0:0:
84,300,15799,2,0,L|173:290,1,90,0|2,3:0|0:0,0:0:0:0:
182,183,16144,1,2,2:0:0:0:
182,183,16230,1,2,2:0:0:0:
182,183,16316,2,0,L|93:173,1,90,2|0,3:2|3:0,0:0:0:0:
58,167,16575,1,0,3:0:0:0:
22,162,16661,54,0,P|75:118|8:4,1,215.999993408203,4|0,3:0|0:0,0:0:0:0:
174,84,17178,2,0,P|162:23|140:-12,1,90,4|0,3:0|0:0,0:0:0:0:
257,139,17523,1,2,0:0:0:0:
257,139,17610,1,2,0:0:0:0:
257,139,17696,2,0,P|269:78|291:43,1,90,0|0,3:0|0:0,0:0:0:0:
447,50,18041,102,0,L|470:272,1,215.999993408203,0|0,3:0|0:0,0:0:0:0:
360,349,18558,2,0,L|370:150,1,180,0|0,3:0|0:0,0:0:0:0:
256,145,19075,2,0,L|259:239,1,90,0|0,3:0|0:0,0:0:0:0:
92,363,19420,22,0,P|176:328|269:353,1,180,4|0,3:0|0:0,0:0:0:0:
19,318,19937,2,0,P|58:276|115:251,1,90,4|0,3:0|0:0,0:0:0:0:
177,242,20282,2,0,L|182:184,2,45,2|2|0,0:0|0:0|3:0,0:0:0:0:
95,171,20627,1,0,0:0:0:0:
198,83,20799,6,0,L|406:62,1,180,0|0,3:0|0:0,0:0:0:0:
279,165,21316,2,0,L|401:177,1,90,2|0,0:0|0:0,0:0:0:0:
481,243,21661,2,0,B|379:269|379:269|270:255,1,180
167,358,22178,6,0,P|215:291|330:260,1,180,4|0,3:0|0:0,0:0:0:0:
439,356,22696,2,0,P|383:355|331:335,1,90,4|2,3:0|0:0,0:0:0:0:
458,192,23041,2,0,P|430:240|386:275,1,90,0|0,0:0|0:0,0:0:0:0:
314,180,23385,1,0,0:0:0:0:
154,275,23558,6,0,L|135:81,1,180,0|0,3:0|0:0,0:0:0:0:
239,131,24075,2,0,L|252:35,1,90,0|2,0:0|0:0,0:0:0:0:
375,38,24420,1,2,0:0:0:0:
375,38,24506,1,2,0:0:0:0:
375,38,24592,2,0,L|387:127,1,90,0|0,0:0|0:0,0:0:0:0:
512,249,24937,70,0,P|429:213|337:236,1,180,4|0,3:0|0:0,0:0:0:0:
484,357,25454,2,0,P|445:315|406:309,1,90,4|2,3:0|0:0,0:0:0:0:
251,354,25799,1,2,0:0:0:0:
251,354,25885,1,2,0:0:0:0:
251,354,25972,2,0,P|306:341|331:310,1,90,0|0,3:0|0:0,0:0:0:0:
275,155,26316,6,0,L|76:142,1,180,0|0,3:0|0:0,0:0:0:0:
86,42,26834,2,0,L|186:37,1,90,0|0,0:0|0:0,0:0:0:0:
272,74,27178,1,2,2:0:0:0:
272,74,27265,1,2,2:0:0:0:
272,74,27351,2,0,L|393:81,1,90,0|0,3:0|0:0,0:0:0:0:
509,11,27696,86,0,P|469:62|488:209,1,215.999993408203,4|0,3:0|0:0,0:0:0:0:
512,340,28213,2,0,L|454:354,2,45,4|0|2,3:0|0:0|0:0,0:0:0:0:
387,264,28558,1,2,0:0:0:0:
387,264,28644,1,2,0:0:0:0:
387,264,28730,2,0,P|321:246|264:257,1,90,0|0,3:0|0:0,0:0:0:0:
140,377,29075,102,0,L|111:136,1,215.999993408203,2|0,0:0|0:0,0:0:0:0:
102,54,29592,1,2,0:0:0:0:
102,54,29678,1,2,0:0:0:0:
102,54,29765,1,2,0:0:0:0:
202,104,29937,1,2,0:0:0:0:
202,104,30023,1,2,0:0:0:0:
202,104,30110,2,0,L|299:95,1,90,2|0,3:2|0:0,0:0:0:0:
432,271,30454,22,0,P|327:248|237:284,1,180,4|0,3:0|0:0,0:0:0:0:
85,344,30972,2,0,P|152:334|190:310,1,90,4|2,3:0|0:0,0:0:0:0:
192,218,31316,2,0,P|149:164|110:144,1,90,0|0,0:0|0:0,0:0:0:0:
22,124,31661,1,0,0:0:0:0:
163,46,31834,6,0,B|256:26|256:26|338:48,1,180,0|0,3:0|0:0,0:0:0:0:
436,89,32351,1,2,0:0:0:0:
436,89,32437,1,2,0:0:0:0:
436,89,32523,1,2,0:0:0:0:
440,194,32696,1,2,0:0:0:0:
440,194,32782,1,2,0:0:0:0:
440,194,32868,2,0,L|349:179,1,90,0|0,3:0|0:0,0:0:0:0:
147,296,33213,6,0,P|227:265|345:290,1,180,4|0,3:0|0:0,0:0:0:0:
394,338,33730,1,4,3:0:0:0:
198,368,33903,2,0,P|244:352|307:368,1,90,2|0,0:0|0:0,0:0:0:0:
102,382,34247,2,0,P|66:349|47:287,1,90,0|0,0:0|0:0,0:0:0:0:
172,174,34592,6,0,L|373:156,1,180,0|0,3:0|0:0,0:0:0:0:
179,69,35110,2,0,L|-22:51,1,180,0|0,3:0|0:0,0:0:0:0:
177,179,35627,2,0,L|283:168,1,90,0|0,0:0|0:0,0:0:0:0:
477,71,35972,70,0,P|438:152|477:253,1,180,4|0,3:0|0:0,0:0:0:0:
359,377,36489,2,0,P|382:291|343:212,1,180,4|0,3:0|0:0,0:0:0:0:
472,66,37006,2,0,P|442:112|434:163,1,90,0|0,0:0|0:0,0:0:0:0:
512,294,37351,6,0,L|303:300,1,180,0|0,3:0|0:0,0:0:0:0:
213,380,37868,2,0,L|4:374,1,180,0|0,3:0|0:0,0:0:0:0:
5,295,38299,1,2,0:0:0:0:
5,295,38385,2,0,L|119:287,1,90,2|0,3:2|0:0,0:0:0:0:
392,342,38730,86,0,P|358:259|393:129,1,215.999993408203,4|0,3:0|0:0,0:0:0:0:
501,88,39247,1,4,3:0:0:0:
467,281,39420,2,0,P|451:225|474:174,1,90,2|0,0:0|0:0,0:0:0:0:
392,44,39765,2,0,P|399:87|386:130,1,90,0|0,0:0|0:0,0:0:0:0:
228,264,40110,102,0,L|-22:269,1,215.999993408203,0|0,3:0|0:0,0:0:0:0:
59,356,40627,1,0,3:0:0:0:
174,178,40799,1,2,0:0:0:0:
273,178,40972,1,2,2:0:0:0:
273,178,41058,1,2,2:0:0:0:
273,178,41144,2,0,L|362:176,1,90,2|0,3:2|0:0,0:0:0:0:
476,329,41489,22,0,P|449:251|475:145,1,180,4|0,3:0|0:0,0:0:0:0:
371,4,42006,2,0,P|390:90|362:175,1,180,4|0,3:0|0:0,0:0:0:0:
471,334,42523,2,0,P|447:280|443:233,1,90,0|0,0:0|0:0,0:0:0:0:
485,81,42868,6,0,L|279:84,1,180,0|0,3:0|0:0,0:0:0:0:
119,214,43385,2,0,L|325:217,1,180,0|0,3:0|0:0,0:0:0:0:
480,76,43903,1,0,3:0:0:0:
300,78,44075,1,0,3:0:0:0:
398,330,44247,38,0,P|429:335|380:259,1,225,6|0,0:0|0:0,0:0:0:0:
320,314,45282,2,0,L|268:297,1,45,0|0,0:0|0:0,0:0:0:0:
196,273,45627,6,0,P|157:134|252:226,1,360,6|0,0:0|0:3,0:0:0:0:
69,341,46316,2,0,L|47:250,1,67.5000025749208,0|0,0:3|0:3,0:0:0:0:
78,189,46661,2,0,L|84:146,3,33.7500012874604,0|0|0|0,0:3|0:3|0:3|0:0,0:0:0:0:
194,149,47006,6,0,P|261:169|198:82,1,270.000010299683,6|0,0:3|0:3,0:0:0:0:
150,254,47523,2,0,P|149:301|196:237,1,180,6|0,0:3|0:3,0:0:0:0:
387,256,47868,2,0,P|346:231|378:304,1,180,6|0,0:3|0:3,0:0:0:0:
459,321,48385,1,0,0:3:0:0:
501,203,48558,2,0,P|502:153|486:109,1,90,2|0,0:0|0:0,0:0:0:0:
416,138,48816,6,0,P|398:186|357:213,1,67.5000025749208,2|0,0:3|0:3,0:0:0:0:
313,183,48989,2,0,P|294:134|253:107,1,56.25,2|0,0:3|0:3,0:0:0:0:
220,151,49161,2,0,P|216:193|188:225,1,45,2|0,0:3|0:3,0:0:0:0:
142,198,49334,2,0,P|137:177|129:164,1,33.7500012874604,2|0,0:3|0:3,0:0:0:0:
452,364,49765,6,0,L|441:284,1,67.5000025749208,4|0,0:0|0:0,0:0:0:0:
376,267,49937,1,2,0:0:0:0:
376,267,50023,2,0,L|363:341,1,67.5000025749208,2|0,0:0|0:0,0:0:0:0:
303,384,50196,2,0,L|291:317,1,67.5000025749208,2|0,0:0|0:0,0:0:0:0:
231,277,50368,2,0,L|219:343,1,67.5000025749208,2|0,0:0|0:0,0:0:0:0:
178,381,50541,1,2,0:0:0:0:
133,364,50627,102,0,P|109:321|119:247,1,90,2|0,0:3|0:3,0:0:0:0:
173,234,50885,2,0,P|128:258|78:254,1,72,2|0,0:3|0:3,0:0:0:0:
70,205,51144,2,0,P|97:231|102:253,1,53.9999983520508,2|0,0:0|0:0,0:0:0:0:
0,140,51489,2,0,P|50:108|138:127,1,144,2|0,0:0|0:0,0:0:0:0:
239,197,52006,6,0,P|414:145|297:5,1,432,2|2,0:3|0:3,0:0:0:0:
308,117,53213,2,0,L|451:132,1,144,2|0,0:0|0:0,0:0:0:0:
500,206,54075,2,0,L|505:242,1,36,2|0,0:3|0:3,0:0:0:0:
442,320,54420,2,0,L|299:305,1,144
205,296,55282,53,4,0:0:0:0:
256,192,55368,12,0,57954,0:0:0:0:
96,155,58041,53,4,0:0:0:0:
256,192,58127,12,0,60799,0:0:0:0:
27,254,64937,86,0,L|8:58,1,180,2|0,0:0|0:0,0:0:0:0:
31,61,65368,6,0,L|48:240,1,180,2|0,0:0|0:0,0:0:0:0:
67,338,66316,5,0,3:0:0:0:
164,156,66489,1,0,3:0:0:0:
332,361,66661,1,10,3:0:0:0:
159,269,66834,1,2,0:0:0:0:
323,210,67006,1,2,0:0:0:0:
183,378,67178,1,0,3:0:0:0:
56,142,67351,2,0,L|48:24,1,107.999996704102,12|0,3:0|0:0,0:0:0:0:
274,50,67696,6,0,L|266:157,1,107.999996704102,4|0,3:0|0:0,0:0:0:0:
369,376,68041,1,8,3:0:0:0:
417,228,68213,1,2,0:0:0:0:
271,295,68385,1,2,0:0:0:0:
466,375,68558,1,2,3:0:0:0:
389,130,68730,2,0,P|320:105|177:144,1,215.999993408203,12|0,3:0|0:0,0:0:0:0:
108,229,69247,69,4,0:3:0:0:
263,11,69420,1,8,3:0:0:0:
284,185,69592,1,2,0:0:0:0:
265,32,69765,1,2,0:0:0:0:
197,238,69937,1,2,3:0:0:0:
382,21,70110,2,0,L|510:12,1,107.999996704102,12|0,3:0|0:0,0:0:0:0:
465,215,70454,6,0,L|357:207,1,107.999996704102,4|0,3:0|0:0,0:0:0:0:
140,102,70799,1,8,3:0:0:0:
234,254,70972,1,2,0:0:0:0:
156,118,71144,1,2,0:0:0:0:
94,317,71316,1,2,3:0:0:0:
293,150,71489,2,0,P|355:141|408:157,1,107.999996704102,12|0,3:0|0:0,0:0:0:0:
468,326,71834,5,0,3:0:0:0:
405,140,72006,1,0,3:0:0:0:
249,354,72178,1,8,3:0:0:0:
389,249,72351,1,0,0:0:0:0:
235,229,72523,1,0,0:0:0:0:
368,384,72696,1,0,3:0:0:0:
494,153,72868,2,0,L|503:45,1,107.999996704102,12|0,3:0|0:0,0:0:0:0:
281,24,73213,6,0,L|290:131,1,107.999996704102,4|0,3:0|0:0,0:0:0:0:
311,343,73558,1,8,3:0:0:0:
190,221,73730,1,2,0:0:0:0:
342,232,73903,1,2,0:0:0:0:
179,369,74075,1,2,3:0:0:0:
113,147,74247,2,0,P|57:130|0:134,1,107.999996704102,12|0,3:0|0:0,0:0:0:0:
190,221,74592,69,0,3:0:0:0:
242,24,74765,1,0,3:0:0:0:
432,157,74937,1,8,3:0:0:0:
264,162,75110,1,2,0:0:0:0:
361,41,75282,1,2,0:0:0:0:
349,256,75454,1,2,3:0:0:0:
121,93,75627,2,0,L|103:222,1,107.999996704102,12|0,3:0|0:0,0:0:0:0:
294,358,75972,6,0,P|199:321|55:355,1,251.999992309571,4|8,3:0|3:0,0:0:0:0:
60,358,76661,1,0,0:0:0:0:
60,358,76834,1,0,0:0:0:0:
142,326,77006,1,0,0:0:0:0:
142,326,77179,1,0,0:0:0:0:
293,359,77351,6,0,P|304:310|293:248,1,107.999996704102,4|0,3:0|0:0,0:0:0:0:
82,188,77696,1,8,3:0:0:0:
143,74,77868,1,2,0:0:0:0:
70,195,78041,1,2,0:0:0:0:
274,164,78213,1,2,3:0:0:0:
21,282,78385,2,0,L|150:272,1,107.999996704102,12|0,3:0|0:0,0:0:0:0:
297,361,78730,6,0,L|168:351,1,107.999996704102,4|0,3:0|0:0,0:0:0:0:
350,189,79075,1,8,3:0:0:0:
422,367,79247,1,2,0:0:0:0:
485,183,79420,1,2,0:0:0:0:
297,361,79592,1,2,3:0:0:0:
246,107,79765,2,0,P|149:60|32:112,1,215.999993408203,12|0,3:0|0:0,0:0:0:0:
230,0,80282,69,4,0:3:0:0:
87,188,80454,1,8,3:0:0:0:
255,191,80627,1,2,0:0:0:0:
145,69,80799,1,2,0:0:0:0:
211,285,80972,1,2,3:0:0:0:
371,113,81144,2,0,L|383:-1,1,107.999996704102,12|0,3:0|0:0,0:0:0:0:
140,12,81489,6,0,L|151:119,1,107.999996704102,0|0,3:0|0:0,0:0:0:0:
292,299,81834,1,8,3:0:0:0:
281,110,82006,1,2,0:0:0:0:
290,286,82178,1,2,0:0:0:0:
397,100,82351,1,2,3:0:0:0:
252,365,82523,2,0,P|193:376|130:365,1,107.999996704102,12|0,3:0|0:0,0:0:0:0:
297,190,82868,5,0,3:0:0:0:
350,377,83041,1,0,3:0:0:0:
474,181,83213,5,8,3:0:0:0:
512,311,83385,1,2,0:0:0:0:
475,152,83558,1,2,0:0:0:0:
439,383,83730,1,2,3:0:0:0:
295,119,83903,69,8,3:0:0:0:
252,274,84075,1,2,0:0:0:0:
296,91,84248,1,2,3:0:0:0:
340,345,84420,1,2,0:0:0:0:
108,83,84592,5,8,3:0:0:0:
159,261,84765,1,2,0:0:0:0:
108,56,84937,1,2,0:0:0:0:
56,360,85110,1,2,3:0:0:0:
257,58,85282,5,8,3:0:0:0:
308,369,85454,1,2,0:0:0:0:
182,106,85627,6,0,P|180:146|201:192,1,90,6|0,3:3|0:3,0:0:0:0:
290,222,86144,2,0,L|351:227,2,45,2|2|2,0:0|0:0|0:0,0:0:0:0:
229,271,86575,2,0,L|123:280,1,101.250003862381,2|0,0:0|0:0,0:0:0:0:
108,269,86920,2,0,L|149:260,1,33.7500012874604,2|0,3:2|0:0,0:0:0:0:
202,197,87092,2,0,P|231:147|224:83,1,90,2|0,3:2|0:0,0:0:0:0:
176,64,87351,2,0,L|53:48,1,90,2|0,0:0|0:0,0:0:0:0:
70,84,87610,2,0,L|180:72,1,90,2|0,0:0|0:0,0:0:0:0:
230,11,87868,2,0,L|283:21,1,45,2|0,0:0|0:0,0:0:0:0:
314,134,88041,1,0,0:0:0:0:
213,187,88213,1,0,3:3:0:0:
283,362,88385,70,0,L|426:342,1,107.999996704102,0|0,3:0|0:0,0:0:0:0:
458,138,88730,5,8,3:0:0:0:
491,319,88903,1,2,0:0:0:0:
441,46,89075,1,2,3:0:0:0:
474,228,89248,1,2,0:0:0:0:
270,103,89420,5,8,3:0:0:0:
258,307,89593,1,2,0:0:0:0:
275,0,89765,1,2,3:0:0:0:
263,205,89938,1,2,0:0:0:0:
63,66,90110,69,8,3:0:0:0:
97,296,90283,1,2,0:0:0:0:
333,166,90454,2,0,B|382:161|382:161|391:168|391:168|447:165,1,107.999996704102,4|0,3:0|0:0,0:0:0:0:
447,374,90799,2,0,B|397:378|397:378|388:371|388:371|332:374,1,107.999996704102,8|0,3:0|0:0,0:0:0:0:
101,384,91144,6,0,L|223:376,1,107.999996704102,0|0,3:0|0:0,0:0:0:0:
351,279,91489,5,8,3:0:0:0:
162,269,91662,1,2,0:0:0:0:
445,284,91834,1,2,0:0:0:0:
256,274,92007,1,2,3:0:0:0:
402,140,92178,5,8,3:0:0:0:
190,151,92351,1,2,0:0:0:0:
507,134,92523,1,2,3:0:0:0:
296,145,92696,1,2,0:0:0:0:
494,15,92868,69,8,3:0:0:0:
256,0,93041,1,2,0:0:0:0:
476,237,93213,2,0,B|488:295|488:295|480:347,1,107.999996704102,4|0,3:0|0:0,0:0:0:0:
256,355,93558,2,0,B|244:297|244:297|252:245,1,107.999996704102,8|0,3:0|0:0,0:0:0:0:
408,163,93903,6,0,P|354:176|299:163,1,107.999996704102,0|0,3:0|0:0,0:0:0:0:
79,146,94247,1,8,3:0:0:0:
43,352,94420,1,2,0:0:0:0:
66,50,94592,1,2,3:0:0:0:
102,255,94765,1,2,0:0:0:0:
272,143,94937,5,8,3:0:0:0:
231,367,95110,1,2,0:0:0:0:
256,35,95282,1,2,3:0:0:0:
296,261,95455,1,2,0:0:0:0:
427,73,95627,5,8,3:0:0:0:
482,318,95799,1,2,0:0:0:0:
239,131,95972,2,0,B|185:117|185:117|114:117,1,107.999996704102,4|0,3:0|0:0,0:0:0:0:
216,358,96316,2,0,B|268:358|268:358|322:344,1,107.999996704102,4|0,3:0|0:0,0:0:0:0:
497,286,96661,1,0,3:0:0:0:
497,286,97006,69,8,3:0:0:0:
388,146,97178,1,2,0:0:0:0:
339,313,97351,1,2,0:0:0:0:
512,100,97523,1,2,3:0:0:0:
165,50,97696,2,0,B|123:50|123:50|107:63|107:63|56:62,1,107.999996704102,8|0,3:0|0:0,0:0:0:0:
0,244,98041,6,0,B|86:245|86:245|120:273|120:273|229:274,2,215.999993408203,0|8|0,3:0|3:0|0:0,0:0:0:0:
401,354,99420,5,2,3:1:0:0:
401,354,99592,1,2,0:1:0:0:
350,83,99765,1,8,3:1:0:0:
303,256,99937,1,2,0:3:0:0:
438,162,100110,5,2,3:1:0:0:
438,162,100282,1,2,0:1:0:0:
164,137,100454,1,8,3:1:0:0:
296,251,100627,1,0,0:1:0:0:
267,89,100799,69,2,3:1:0:0:
267,89,100972,1,2,0:1:0:0:
163,337,101144,1,8,3:1:0:0:
294,264,101316,1,2,0:1:0:0:
423,364,101489,2,0,B|434:320|434:320|431:245,1,107.999996704102,6|2,3:1|0:1,0:0:0:0:
431,48,101834,2,0,B|420:92|420:92|423:167,1,107.999996704102,8|0,3:1|0:1,0:0:0:0:
511,314,102178,5,2,3:1:0:0:
511,314,102351,1,2,0:1:0:0:
311,194,102523,1,8,3:1:0:0:
274,379,102696,1,0,0:1:0:0:
210,236,102868,5,2,3:1:0:0:
210,236,103041,1,2,0:1:0:0:
0,119,103213,1,8,3:1:0:0:
37,304,103386,1,0,0:1:0:0:
102,181,103558,5,2,3:1:0:0:
102,181,103730,1,2,0:1:0:0:
331,49,103903,1,8,3:1:0:0:
294,234,104076,1,2,0:1:0:0:
86,38,104247,2,0,B|101:95|101:95|99:173,1,107.999996704102,6|2,3:1|0:1,0:0:0:0:
185,349,104592,2,0,B|183:299|183:299|198:242,1,107.999996704102,6|2,3:1|0:1,0:0:0:0:
238,88,104937,69,2,3:1:0:0:
238,88,105109,1,2,0:1:0:0:
199,358,105282,1,8,3:1:0:0:
148,194,105454,1,0,0:0:0:0:
291,276,105627,69,2,3:1:0:0:
291,276,105799,1,2,0:1:0:0:
31,228,105971,1,8,3:1:0:0:
163,114,106144,1,0,0:0:0:0:
134,276,106316,69,2,3:1:0:0:
134,276,106489,1,2,0:1:0:0:
43,33,106661,1,8,3:0:0:0:
175,117,106833,1,2,0:1:0:0:
339,23,107006,2,0,B|322:68|322:68|331:134,1,107.999996704102,6|2,3:1|0:1,0:0:0:0:
368,331,107351,2,0,B|385:286|385:286|376:220,1,107.999996704102,8|0,3:1|0:1,0:0:0:0:
289,86,107696,1,0,3:1:0:0:
289,86,108041,5,8,3:1:0:0:
221,252,108213,1,2,0:3:0:0:
103,94,108385,1,2,0:3:0:0:
307,191,108558,1,2,3:3:0:0:
70,302,108730,2,0,B|122:313|122:313|135:329|135:329|204:340,1,107.999996704102,8|0,3:1|0:0,0:0:0:0:
366,364,109075,70,0,L|251:351,1,107.999996704102,0|0,3:1|0:0,0:0:0:0:
391,198,109420,2,0,L|498:210,1,107.999996704102,8|0,3:1|0:0,0:0:0:0:
466,370,109765,2,0,P|448:344|509:355,1,135
466,370,110454,5,0,3:0:0:0:
365,163,110627,1,0,3:0:0:0:
184,376,110799,1,8,3:0:0:0:
368,289,110972,1,0,0:0:0:0:
187,235,111144,1,0,0:0:0:0:
370,384,111316,1,0,3:0:0:0:
282,127,111489,1,12,3:0:0:0:
248,312,111661,1,0,0:0:0:0:
119,171,111834,6,0,P|105:105|130:34,1,107.999996704102,4|0,3:0|0:0,0:0:0:0:
327,4,112178,1,8,3:0:0:0:
202,154,112351,1,2,0:0:0:0:
114,15,112523,2,0,P|80:57|67:109,1,107.999996704102,4|0,0:3|3:0,0:0:0:0:
176,258,112868,2,0,P|156:208|118:170,1,107.999996704102,12|0,3:0|0:0,0:0:0:0:
118,170,113385,5,4,0:3:0:0:
251,384,113558,1,8,3:0:0:0:
332,226,113730,1,2,0:0:0:0:
150,368,113903,2,0,L|31:373,1,107.999996704102,4|0,0:3|3:0,0:0:0:0:
144,187,114247,2,0,L|258:172,1,107.999996704102,8|0,3:0|0:0,0:0:0:0:
401,330,114592,70,0,L|287:315,1,107.999996704102,4|0,3:0|0:0,0:0:0:0:
512,144,114937,1,8,3:0:0:0:
489,347,115110,1,0,0:0:0:0:
325,220,115282,2,0,P|263:214|212:236,1,107.999996704102,0|0,0:0|3:0,0:0:0:0:
46,330,115627,2,0,P|108:336|159:314,1,107.999996704102,12|0,3:0|0:0,0:0:0:0:
135,179,115972,5,0,3:0:0:0:
238,384,116144,1,0,3:0:0:0:
386,154,116316,1,8,3:0:0:0:
225,283,116489,1,0,0:0:0:0:
393,303,116661,1,0,0:0:0:0:
224,139,116834,1,0,3:0:0:0:
332,382,117006,1,12,3:0:0:0:
385,174,117179,1,0,0:0:0:0:
491,349,117351,6,0,L|500:200,1,107.999996704102,4|0,3:0|0:0,0:0:0:0:
512,70,117696,1,8,3:0:0:0:
385,174,117868,1,0,0:0:0:0:
244,63,118041,2,0,P|170:44|115:58,1,107.999996704102,4|4,0:3|3:3,0:0:0:0:
28,256,118385,2,0,L|37:107,1,107.999996704102,12|0,3:0|0:0,0:0:0:0:
139,48,118730,6,0,L|132:155,1,107.999996704102,0|0,3:0|0:0,0:0:0:0:
134,332,119075,1,8,3:0:0:0:
218,182,119247,1,0,0:0:0:0:
141,322,119420,1,0,0:0:0:0:
330,324,119592,1,0,3:0:0:0:
55,372,119765,2,0,P|48:299|69:241,1,107.999996704102,12|0,3:0|3:0,0:0:0:0:
223,162,120110,70,0,P|163:204|102:215,1,107.999996704102,4|0,3:0|0:0,0:0:0:0:
36,5,120454,1,8,3:0:0:0:
40,8,120799,1,0,0:0:0:0:
40,8,120972,1,0,0:0:0:0:
133,7,121144,1,0,0:0:0:0:
133,7,121316,1,0,0:0:0:0:
302,0,121489,6,0,P|284:72|296:118,1,107.999996704102,4|0,3:0|0:0,0:0:0:0:
426,306,121834,1,8,3:0:0:0:
419,129,122006,1,0,0:0:0:0:
289,246,122178,1,0,0:0:0:0:
511,210,122351,1,0,3:0:0:0:
262,120,122523,1,12,3:0:0:0:
330,328,122696,1,0,0:0:0:0:
415,56,122868,6,0,P|363:42|309:49,1,107.999996704102,4|0,3:0|0:0,0:0:0:0:
178,242,123213,1,8,3:0:0:0:
134,101,123385,1,0,0:0:0:0:
12,315,123558,2,0,P|70:295|124:308,1,107.999996704102,4|0,0:3|3:0,0:0:0:0:
308,345,123903,2,0,P|250:365|196:352,1,107.999996704102,12|0,3:0|0:0,0:0:0:0:
205,356,124420,5,0,0:0:0:0:
258,116,124592,1,12,3:0:0:0:
309,244,124765,1,0,0:0:0:0:
248,103,124937,2,0,P|188:89|112:111,1,107.999996704102,0|0,0:0|3:0,0:0:0:0:
0,198,125282,2,0,P|60:212|136:190,1,107.999996704102,12|0,3:0|0:0,0:0:0:0:
271,127,125627,70,0,L|279:8,1,107.999996704102,4|0,3:0|0:0,0:0:0:0:
379,212,125972,1,8,3:0:0:0:
424,81,126144,1,0,0:0:0:0:
495,275,126316,2,0,L|487:156,1,107.999996704102,4|0,0:3|3:0,0:0:0:0:
271,269,126661,2,0,L|263:376,1,107.999996704102,8|0,3:0|0:0,0:0:0:0:
171,237,127006,5,0,3:0:0:0:
103,370,127178,1,0,3:0:0:0:
44,152,127351,5,8,3:0:0:0:
3,295,127523,1,2,0:0:0:0:
43,120,127696,1,2,3:0:0:0:
83,374,127868,1,2,0:0:0:0:
241,83,128041,5,8,3:0:0:0:
289,254,128213,1,2,0:0:0:0:
240,53,128386,1,2,3:0:0:0:
192,332,128558,1,2,0:0:0:0:
447,44,128730,69,8,3:0:0:0:
391,240,128902,1,2,0:0:0:0:
447,14,129075,1,2,3:0:0:0:
504,348,129247,1,2,0:0:0:0:
283,16,129420,5,8,3:0:0:0:
227,358,129592,1,0,0:0:0:0:
349,248,129765,5,0,3:0:0:0:
165,301,129937,1,0,0:0:0:0:
284,94,130110,1,8,3:0:0:0:
484,175,130282,6,0,P|477:189|473:206,1,33.7500012874604,2|0,3:3|0:3,0:0:0:0:
400,203,130454,2,0,P|394:181|396:159,1,45,2|0,0:3|0:3,0:0:0:0:
323,140,130627,2,0,P|309:163|303:191,1,56.25,2|0,0:3|0:3,0:0:0:0:
228,205,130799,2,0,P|208:178|200:146,1,67.5000025749208,10|0,3:3|0:3,0:0:0:0:
139,87,130972,2,0,P|104:151|115:230,1,135.000005149842,2|0,0:0|0:0,0:0:0:0:
253,282,131316,6,0,P|204:262|142:285,1,90,2|0,0:0|0:0,0:0:0:0:
60,362,131661,2,0,P|86:333|86:309,1,33.7500012874604,2|0,0:0|0:0,0:0:0:0:
93,297,131834,1,2,0:0:0:0:
13,226,132006,6,0,B|6:150|6:146|28:122|27:118|16:30,1,168.750006437302,2|0,0:0|0:0,0:0:0:0:
8,12,132523,5,4,3:2:0:0:
256,192,132610,12,0,136661,0:0:0:0:
