osu file format v14

[General]
AudioFilename: audio.mp3
AudioLeadIn: 0
PreviewTime: 66136
Countdown: 0
SampleSet: Soft
StackLeniency: 0.6
Mode: 0
LetterboxInBreaks: 0
WidescreenStoryboard: 1

[Editor]
Bookmarks: 11136,22170,33205,44239
DistanceSpacing: 1
BeatDivisor: 2
GridSize: 16
TimelineZoom: 1

[Metadata]
Title:The Monk
TitleUnicode:The Monk
Artist:Telekinesis
ArtistUnicode:Telekinesis
Creator:ShiiTsuin
Version:Normal
Source:
Tags:blackout drum and bass cut version neurofunk dnb judgement day electronic instrumental
BeatmapID:2087367
BeatmapSetID:996026

[Difficulty]
HPDrainRate:3
CircleSize:3
OverallDifficulty:4
ApproachRate:5.5
SliderMultiplier:1
SliderTickRate:1

[Events]
//Background and Video events
0,0,"JudgementDay.jpg",0,0
//Break Periods
2,58241,65191
//Storyboard Layer 0 (Background)
//Storyboard Layer 1 (Fail)
//Storyboard Layer 2 (Pass)
//Storyboard Layer 3 (Foreground)
//Storyboard Layer 4 (Overlay)
//Storyboard Sound Samples

[TimingPoints]
110,344.827586206897,4,2,2,46,1,0
110,-111.111111111111,4,2,2,46,0,0
11144,-100,4,2,2,46,0,0
44247,-111.111111111111,4,2,1,62,0,0
49247,-111.111111111111,4,2,1,5,0,0
49334,-111.111111111111,4,2,1,62,0,0
50110,-111.111111111111,4,2,1,5,0,0
50196,-111.111111111111,4,2,1,62,0,0
50282,-111.111111111111,4,2,1,5,0,0
50368,-111.111111111111,4,2,1,62,0,0
50454,-111.111111111111,4,2,1,5,0,0
50627,-111.111111111111,4,2,1,62,0,0
50799,-111.111111111111,4,2,1,5,0,0
50885,-111.111111111111,4,2,1,62,0,0
51058,-111.111111111111,4,2,1,5,0,0
51144,-111.111111111111,4,2,1,62,0,0
51316,-111.111111111111,4,2,1,5,0,0
51489,-111.111111111111,4,2,1,62,0,0
51834,-111.111111111111,4,2,1,30,0,0
52006,-111.111111111111,4,2,1,62,0,0
53213,-111.111111111111,4,2,1,62,0,0
53903,-111.111111111111,4,2,1,30,0,0
54075,-111.111111111111,4,2,1,62,0,0
65282,-111.111111111111,4,2,1,5,0,0
65368,-111.111111111111,4,2,1,62,0,0
65713,-125,4,2,1,30,0,0
66316,-86.9565217391304,4,2,1,72,0,1
75972,-100,4,2,1,72,0,0
77351,-90.9090909090909,4,2,1,72,0,1
85627,-100,4,2,1,72,0,0
88385,-90.9090909090909,4,2,1,72,0,1
98730,-100,4,2,1,72,0,0
99420,-90.9090909090909,4,2,1,72,0,1
109765,-100,4,2,1,72,0,0
110454,-90.9090909090909,4,2,1,72,0,1
120799,-90.9090909090909,4,2,1,72,0,0
121834,-90.9090909090909,4,2,1,72,0,1
129765,-100,4,2,1,72,0,0

[Colours]
Combo1 : 211,168,215
Combo2 : 147,87,117
Combo3 : 87,132,147
Combo4 : 60,81,132
Combo5 : 109,75,137
Combo6 : 181,117,223
Combo7 : 48,148,207
Combo8 : 168,198,215

[HitObjects]
24,85,110,6,0,P|86:53|162:74,1,134.999995880127,6|0,3:2|3:0,0:0:0:0:
176,98,799,2,0,L|176:225,1,89.999997253418,2|2,0:0|0:0,0:0:0:0:
179,278,1489,2,0,P|238:297|306:286,1,89.999997253418,2|0,3:2|0:0,0:0:0:0:
342,250,2178,1,2,0:0:0:0:
360,161,2523,1,2,3:2:0:0:
452,153,2868,2,0,B|458:260|458:260|491:297,1,134.999995880127,4|4,3:0|3:0,0:0:0:0:
501,319,3558,2,0,L|378:332,1,89.999997253418,2|2,0:0|3:2,0:0:0:0:
335,377,4247,2,0,L|212:364,1,89.999997253418,2|0,3:2|0:0,0:0:0:0:
176,309,4937,1,2,0:0:0:0:
86,318,5282,1,2,3:2:0:0:
24,252,5627,6,0,P|54:187|24:51,1,179.999994506836,4|2,3:0|0:0,0:0:0:0:
101,13,6661,1,2,3:2:0:0:
172,68,7006,2,0,P|300:105|441:60,1,269.999991760254,0|2,3:0|3:2,0:0:0:0:
485,137,8385,2,0,L|474:288,1,134.999995880127,4|4,3:0|3:0,0:0:0:0:
469,316,9075,2,0,P|421:308|374:318,1,89.999997253418,2|2,0:0|3:2,0:0:0:0:
304,364,9765,2,0,P|256:371|209:361,1,89.999997253418,0|0,3:0|0:0,0:0:0:0:
145,307,10454,1,2,0:0:0:0:
54,307,10799,1,2,3:2:0:0:
6,220,11144,6,0,B|40:137|40:137|23:52,1,150,4|4,3:0|3:0,0:0:0:0:
18,28,11834,2,0,L|143:12,1,100,2|2,0:0|3:2,0:0:0:0:
179,93,12523,2,0,P|225:78|278:90,1,100,0|0,3:0|0:0,0:0:0:0:
350,154,13213,1,2,0:0:0:0:
449,146,13558,1,2,3:2:0:0:
470,243,13903,2,0,B|369:264|369:264|299:239,1,150,4|4,3:0|3:0,0:0:0:0:
278,230,14592,2,0,L|261:352,1,100,2|2,0:2|3:2,0:0:0:0:
179,382,15282,2,0,P|112:365|45:380,1,100,2|0,3:2|0:0,0:0:0:0:
13,294,15972,1,2,0:0:0:0:
45,199,16316,1,2,3:2:0:0:
23,101,16661,6,0,L|260:85,1,200,4|0,3:0|0:0,0:0:0:0:
321,76,17696,1,0,3:0:0:0:
331,175,18041,2,0,B|120:192|120:192|166:278,1,300,0|0,3:0|3:0,0:0:0:0:
215,354,19420,2,0,P|289:315|393:345,1,150,4|4,3:0|3:0,0:0:0:0:
397,344,20110,2,0,L|405:206,1,100
474,174,20799,2,0,L|465:36,1,100,0|0,3:0|0:0,0:0:0:0:
388,13,21489,2,0,L|250:21,1,100,0|0,0:0|3:0,0:0:0:0:
188,20,22178,70,0,B|178:100|178:100|96:159,1,150,4|4,3:0|3:0,0:0:0:0:
80,168,22868,1,2,0:0:0:0:
11,355,23558,2,0,P|58:342|114:355,1,100,0|0,3:0|0:0,0:0:0:0:
205,370,24247,2,0,P|252:383|308:370,1,100,2|0,0:0|0:0,0:0:0:0:
393,334,24937,2,0,B|418:222|418:222|387:179,1,150,4|4,3:0|3:0,0:0:0:0:
362,157,25627,1,2,0:0:0:0:
228,8,26316,1,0,3:0:0:0:
78,23,26834,2,0,P|25:53|16:71,1,50
11,140,27351,1,0,3:0:0:0:
106,111,27696,6,0,B|207:88|207:88|252:117,1,150,4|4,3:0|3:0,0:0:0:0:
283,145,28385,1,2,0:0:0:0:
458,48,29075,2,0,P|470:97|456:163,1,100,2|0,0:0|0:0,0:0:0:0:
404,226,29765,2,0,P|391:274|405:340,1,100,2|2,0:0|3:2,0:0:0:0:
299,343,30454,2,0,B|183:326|183:326|152:341,1,150,4|4,3:0|3:0,0:0:0:0:
117,376,31144,1,2,0:0:0:0:
35,193,31834,1,0,3:0:0:0:
99,57,32351,2,0,L|157:43,1,50,2|2,0:0|0:0,0:0:0:0:
244,18,32868,1,0,3:0:0:0:
305,97,33213,6,0,P|299:192|264:244,1,150,4|4,3:0|3:0,0:0:0:0:
242,278,33903,1,2,0:0:0:0:
168,210,34247,1,0,0:0:0:0:
82,262,34592,2,0,P|69:311|76:364,1,100,0|0,3:0|0:0,0:0:0:0:
173,344,35282,2,0,P|222:338|270:351,1,100,2|0,0:0|0:0,0:0:0:0:
365,384,35972,2,0,L|388:207,1,150,4|4,3:0|3:0,0:0:0:0:
395,186,36661,1,2,0:0:0:0:
301,150,37006,1,0,0:0:0:0:
227,218,37351,2,0,P|155:197|96:49,1,200,0|0,3:0|0:0,0:0:0:0:
149,12,38385,1,0,0:0:0:0:
225,77,38730,6,0,L|451:62,1,200,4|2,3:0|0:0,0:0:0:0:
483,144,39765,1,0,0:0:0:0:
416,218,40110,2,0,B|246:219|246:219|169:329,1,300,0|0,3:0|3:0,0:0:0:0:
71,325,41489,2,0,P|43:243|60:172,1,150,4|4,3:0|3:0,0:0:0:0:
303,157,42868,2,0,P|331:239|314:310,1,150,0|0,3:0|3:0,0:0:0:0:
182,362,43903,2,0,L|114:366,1,50,0|0,3:0|3:0,0:0:0:0:
87,369,44247,6,0,P|108:293|82:99,1,269.999991760254,6|0,0:0|0:0,0:0:0:0:
84,105,45627,1,6,0:0:0:0:
254,47,46316,1,0,0:3:0:0:
248,227,47006,5,6,0:3:0:0:
256,192,47178,12,4,55282,0:0:0:0:
76,75,58041,5,4,0:0:0:0:
76,75,66316,5,0,3:0:0:0:
76,75,66489,1,0,3:0:0:0:
76,75,66661,2,0,P|140:51|245:78,1,172.500003290176,10|0,3:0|3:0,0:0:0:0:
274,119,67351,1,12,3:0:0:0:
271,234,67696,1,4,3:0:0:0:
364,301,68041,2,0,P|397:305|436:299,1,57.5000010967255,8|2,3:0|0:0,0:0:0:0:
475,284,68385,2,0,P|494:257|509:220,1,57.5000010967255,2|2,0:0|3:0,0:0:0:0:
511,178,68730,1,12,3:0:0:0:
423,29,69247,5,4,0:3:0:0:
389,76,69420,2,0,L|313:82,1,57.5000010967255,8|2,3:0|0:0,0:0:0:0:
290,121,69765,2,0,L|214:115,1,57.5000010967255,2|2,0:0|3:0,0:0:0:0:
197,71,70110,1,12,3:0:0:0:
97,113,70454,1,4,3:0:0:0:
84,223,70799,2,0,P|84:270|91:290,1,57.5000010967255,8|2,3:0|0:0,0:0:0:0:
116,329,71144,2,0,P|156:352|177:356,1,57.5000010967255,2|2,0:0|3:0,0:0:0:0:
223,362,71489,1,12,3:0:0:0:
332,326,71834,69,0,3:0:0:0:
332,326,72006,1,0,3:0:0:0:
332,326,72178,2,0,P|356:253|321:156,1,172.500003290176,8|0,3:0|3:0,0:0:0:0:
287,123,72868,1,12,3:0:0:0:
189,61,73213,1,4,3:0:0:0:
87,115,73558,2,0,P|82:150|95:192,1,57.5000010967255,8|2,3:0|0:0,0:0:0:0:
53,219,73903,2,0,P|58:254|45:296,1,57.5000010967255,2|2,0:0|3:0,0:0:0:0:
41,331,74247,2,0,L|168:345,1,115.000002193451,12|0,3:0|3:0,0:0:0:0:
269,361,74937,6,0,L|264:291,1,57.5000010967255,8|2,3:0|0:0,0:0:0:0:
299,258,75282,2,0,L|304:188,1,57.5000010967255,2|2,0:0|3:0,0:0:0:0:
299,144,75627,1,12,3:0:0:0:
245,60,75972,1,4,3:0:0:0:
145,61,76316,1,8,3:0:0:0:
441,43,77351,6,0,P|404:49|369:42,1,55.0000016784668,4|0,3:0|0:0,0:0:0:0:
338,21,77696,2,0,L|315:199,1,165.000005035401,8|2,3:0|3:0,0:0:0:0:
308,238,78385,1,12,3:0:0:0:
288,346,78730,1,4,3:0:0:0:
195,286,79075,2,0,P|148:279|122:287,1,55.0000016784668,8|2,3:0|0:0,0:0:0:0:
97,313,79420,2,0,P|50:320|24:312,1,55.0000016784668,2|2,0:0|3:0,0:0:0:0:
3,280,79765,1,12,3:0:0:0:
9,115,80282,5,4,0:3:0:0:
57,90,80454,2,0,L|121:99,1,55.0000016784668,8|2,3:0|0:0,0:0:0:0:
150,137,80799,2,0,L|214:128,1,55.0000016784668,2|2,0:0|3:0,0:0:0:0:
238,86,81144,1,12,3:0:0:0:
334,139,81489,1,0,3:0:0:0:
430,85,81834,2,0,L|440:154,1,55.0000016784668,8|2,3:0|0:0,0:0:0:0:
475,179,82178,2,0,L|465:248,1,55.0000016784668,2|2,0:0|3:0,0:0:0:0:
456,287,82523,1,12,3:0:0:0:
372,359,82868,69,0,3:0:0:0:
372,359,83041,1,0,3:0:0:0:
372,359,83213,2,0,L|197:330,1,165.000005035401,8|2,3:0|3:0,0:0:0:0:
156,315,83903,1,8,3:0:0:0:
49,289,84247,1,2,3:0:0:0:
44,179,84592,2,0,L|219:150,1,165.000005035401,8|2,3:0|3:0,0:0:0:0:
260,141,85282,1,8,3:0:0:0:
317,59,85627,1,6,3:3:0:0:
278,295,88041,5,0,3:3:0:0:
278,295,88213,1,0,0:0:0:0:
278,295,88385,2,0,P|341:280|396:295,1,110.000003356934,0|8,3:0|3:0,0:0:0:0:
492,312,89075,2,0,L|496:257,1,55.0000016784668,2|2,3:0|0:0,0:0:0:0:
502,202,89420,1,8,3:0:0:0:
427,120,89765,2,0,L|351:114,1,55.0000016784668,2|2,3:0|0:0,0:0:0:0:
317,111,90110,1,8,3:0:0:0:
239,32,90454,2,0,P|199:11|160:13,1,55.0000016784668,4|0,3:0|0:0,0:0:0:0:
137,27,90799,2,0,P|116:67|118:106,1,55.0000016784668,8|0,3:0|0:0,0:0:0:0:
113,131,91144,6,0,L|126:258,1,110.000003356934,0|8,3:0|3:0,0:0:0:0:
152,347,91834,2,0,P|178:340|208:344,1,55.0000016784668,2|2,0:0|3:0,0:0:0:0:
254,367,92178,1,8,3:0:0:0:
350,314,92523,2,0,P|376:321|406:317,1,55.0000016784668,2|2,3:0|0:0,0:0:0:0:
452,294,92867,1,8,3:0:0:0:
492,191,93213,2,0,L|485:119,1,55.0000016784668,4|0,3:0|0:0,0:0:0:0:
433,120,93558,2,0,L|438:65,1,55.0000016784668,8|0,3:0|0:0,0:0:0:0:
472,22,93903,6,0,P|404:35|334:16,1,110.000003356934,0|8,3:0|3:0,0:0:0:0:
254,20,94592,2,0,B|221:9|221:9|191:12,1,55.0000016784668,2|2,3:0|0:0,0:0:0:0:
148,25,94937,1,8,3:0:0:0:
83,113,95282,2,0,B|71:146|71:146|74:176,1,55.0000016784668,2|2,3:0|0:0,0:0:0:0:
88,219,95627,1,8,3:0:0:0:
179,157,95972,2,0,L|257:149,1,55.0000016784668,4|0,3:0|0:0,0:0:0:0:
275,116,96316,2,0,L|353:124,1,55.0000016784668,4|0,3:0|0:0,0:0:0:0:
377,149,96661,69,0,3:0:0:0:
444,235,97006,2,0,P|428:309|333:362,1,165.000005035401,8|2,3:0|3:0,0:0:0:0:
303,357,97696,2,0,L|178:346,1,110.000003356934,8|0,3:0|3:0,0:0:0:0:
83,336,98385,1,8,3:0:0:0:
21,167,99420,6,0,P|5:140|7:101,1,55.0000016784668,2|2,3:1|0:1,0:0:0:0:
29,68,99765,2,0,P|56:52|95:54,1,55.0000016784668,8|2,3:1|0:3,0:0:0:0:
129,72,100110,2,0,P|156:88|195:86,1,55.0000016784668,2|2,3:1|0:1,0:0:0:0:
229,68,100454,1,8,3:1:0:0:
315,0,100799,2,0,L|325:78,1,55.0000016784668,2|2,3:1|0:1,0:0:0:0:
332,108,101144,1,8,3:1:0:0:
438,81,101489,2,0,L|449:154,1,55.0000016784668,6|2,3:1|0:1,0:0:0:0:
400,166,101834,2,0,L|389:239,1,55.0000016784668,8|0,3:1|0:1,0:0:0:0:
360,265,102178,6,0,P|313:276|272:266,1,55.0000016784668,2|2,3:1|0:1,0:0:0:0:
259,246,102523,1,8,3:1:0:0:
159,197,102868,2,0,P|112:186|71:196,1,55.0000016784668,2|2,3:1|0:1,0:0:0:0:
58,216,103213,1,8,3:1:0:0:
78,324,103558,2,0,P|125:335|166:325,1,55.0000016784668,2|2,3:1|0:1,0:0:0:0:
182,314,103903,1,8,3:1:0:0:
283,356,104247,2,0,P|320:365|363:358,1,55.0000016784668,6|2,3:1|0:1,0:0:0:0:
387,342,104592,2,0,P|413:314|428:273,1,55.0000016784668,8|0,3:1|0:1,0:0:0:0:
428,245,104937,6,0,L|427:180,1,55.0000016784668,2|2,3:1|0:1,0:0:0:0:
425,134,105282,1,8,3:1:0:0:
394,28,105627,2,0,L|315:20,1,55.0000016784668,2|2,3:1|0:1,0:0:0:0:
284,16,105972,1,8,3:1:0:0:
210,97,106316,2,0,L|131:105,1,55.0000016784668,2|2,3:1|0:1,0:0:0:0:
100,109,106661,1,8,3:0:0:0:
21,185,107006,2,0,P|10:226|11:256,1,55.0000016784668,6|2,3:1|0:1,0:0:0:0:
45,281,107351,2,0,P|56:322|55:352,1,55.0000016784668,8|0,3:1|0:1,0:0:0:0:
31,384,107696,69,0,3:1:0:0:
141,384,108041,2,0,L|306:381,1,165.000005035401,8|2,3:1|3:3,0:0:0:0:
355,379,108730,1,8,3:1:0:0:
430,299,109075,1,0,3:1:0:0:
369,208,109420,1,8,3:1:0:0:
76,342,110454,5,0,3:0:0:0:
76,342,110627,1,0,3:0:0:0:
76,342,110799,2,0,P|101:245|78:172,1,165.000005035401,8|0,3:0|3:0,0:0:0:0:
48,142,111489,1,12,3:0:0:0:
111,52,111834,1,4,3:0:0:0:
210,99,112178,2,0,P|247:103|282:98,1,55.0000016784668,8|2,3:0|0:0,0:0:0:0:
315,79,112523,2,0,P|352:75|387:80,1,55.0000016784668,4|0,0:3|3:0,0:0:0:0:
421,96,112868,1,12,3:0:0:0:
449,258,113385,5,4,0:3:0:0:
407,294,113558,2,0,L|333:299,1,55.0000016784668,8|2,3:0|0:0,0:0:0:0:
302,272,113903,2,0,L|228:267,1,55.0000016784668,4|0,0:3|3:0,0:0:0:0:
205,304,114247,1,8,3:0:0:0:
114,241,114592,1,4,3:0:0:0:
150,137,114937,2,0,L|225:129,1,55.0000016784668,8|0,3:0|0:0,0:0:0:0:
245,168,115282,2,0,L|320:178,1,55.0000016784668,0|0,0:0|3:0,0:0:0:0:
348,149,115627,1,12,3:0:0:0:
441,207,115972,5,0,3:0:0:0:
441,207,116144,1,0,3:0:0:0:
441,207,116316,2,0,P|446:285|384:350,1,165.000005035401,8|0,3:0|3:0,0:0:0:0:
337,350,117006,1,12,3:0:0:0:
229,324,117351,1,4,3:0:0:0:
129,370,117696,2,0,L|116:303,1,55.0000016784668,8|0,3:0|0:0,0:0:0:0:
148,269,118041,2,0,L|161:202,1,55.0000016784668,4|4,0:3|3:3,0:0:0:0:
130,167,118385,1,12,3:0:0:0:
112,59,118730,69,0,3:0:0:0:
209,110,119075,2,0,P|242:115|279:113,1,55.0000016784668,8|0,3:0|0:0,0:0:0:0:
316,98,119420,2,0,P|343:93|370:93,1,55.0000016784668,0|0,0:0|3:0,0:0:0:0:
422,112,119765,1,12,3:0:0:0:
489,199,120110,1,4,3:0:0:0:
430,291,120454,1,8,3:0:0:0:
105,371,121489,6,0,L|116:300,1,55.0000016784668,4|0,3:0|0:0,0:0:0:0:
121,262,121834,2,0,P|176:273|273:223,1,165.000005035401,8|0,3:0|3:0,0:0:0:0:
296,178,122523,2,0,L|299:104,1,55.0000016784668,12|0,3:0|0:0,0:0:0:0:
299,67,122868,1,4,3:0:0:0:
399,111,123213,2,0,P|405:141|401:173,1,55.0000016784668,8|0,3:0|0:0,0:0:0:0:
385,217,123558,2,0,P|379:247|383:279,1,55.0000016784668,4|0,0:3|3:0,0:0:0:0:
416,313,123903,1,12,3:0:0:0:
258,363,124420,5,0,0:0:0:0:
204,374,124592,2,0,L|145:362,1,55.0000016784668,12|0,3:0|0:0,0:0:0:0:
117,318,124937,2,0,L|58:330,1,55.0000016784668,0|0,0:0|3:0,0:0:0:0:
14,355,125282,1,12,3:0:0:0:
7,245,125627,1,4,3:0:0:0:
84,166,125972,2,0,L|140:158,1,55.0000016784668,8|0,3:0|0:0,0:0:0:0:
180,193,126316,2,0,L|236:201,1,55.0000016784668,4|0,0:3|3:0,0:0:0:0:
279,169,126661,1,8,3:0:0:0:
375,221,127006,5,0,3:0:0:0:
375,221,127178,1,0,3:0:0:0:
375,221,127351,1,8,3:0:0:0:
425,122,127696,1,2,3:0:0:0:
363,30,128041,1,8,3:0:0:0:
253,34,128385,2,0,L|195:35,1,55.0000016784668,2|2,3:0|0:0,0:0:0:0:
142,38,128730,1,8,3:0:0:0:
89,134,129075,2,0,P|84:165|90:194,1,55.0000016784668,2|2,3:0|0:0,0:0:0:0:
117,234,129420,2,0,P|122:265|116:294,1,55.0000016784668,2|2,3:0|0:0,0:0:0:0:
92,331,129765,69,0,0:0:0:0:
256,192,129937,12,4,132523,3:0:0:0:
